osu file format v14

[General]
AudioFilename: audio.mp3
AudioLeadIn: 0
PreviewTime: 51992
Countdown: 0
SampleSet: Soft
StackLeniency: 0.4
Mode: 0
LetterboxInBreaks: 0
WidescreenStoryboard: 1

[Editor]
Bookmarks: 16195
DistanceSpacing: 0.6
BeatDivisor: 4
GridSize: 32
TimelineZoom: 0.5000001

[Metadata]
Title:DVP
TitleUnicode:DVP
Artist:PUP
ArtistUnicode:PUP
Creator:trailmix
Version:SQUIRRELP'S EXPERT
Source:osu!
Tags:sparxo nyantiaz dtm9 nowa ghouru squirrelpascals hobbes2 ataraxia fa featured artist the dream is over english indie punk rock
BeatmapID:2510846
BeatmapSetID:1203098

[Difficulty]
HPDrainRate:5.5
CircleSize:9
OverallDifficulty:9
ApproachRate:8.8
SliderMultiplier:1
SliderTickRate:1

[Events]
//Background and Video events
0,0,"BG BG.jpg",0,0
//Break Periods
//Storyboard Layer 0 (Background)
//Storyboard Layer 1 (Fail)
//Storyboard Layer 2 (Pass)
//Storyboard Layer 3 (Foreground)
//Storyboard Layer 4 (Overlay)
//Storyboard Sound Samples

[TimingPoints]
0,202.702702702703,4,2,1,80,1,0
1013,196.078431372549,4,2,1,80,1,0
1601,204.081632653061,4,2,1,80,1,0
3233,205.479452054795,4,2,1,80,1,0
4465,200,4,2,1,80,1,0
4865,202.702702702703,4,2,1,80,1,0
11351,198.675496688742,4,2,1,80,1,0
12145,200,4,2,1,80,1,0
12945,204.081632653061,4,2,10,80,1,0
13149,-100,4,2,10,40,0,0
13557,-100,4,2,10,50,0,0
13761,-100,4,2,2,60,0,0
13965,201.342281879195,4,2,2,60,1,0
14166,-100,4,2,2,70,0,0
14569,201.342281879195,4,2,3,80,1,0
15374,205.479452054795,4,2,1,80,1,0
15528,-100,4,2,1,5,0,0
15579,-100,4,2,1,80,0,0
16195,202.702702702703,4,2,10,80,1,0
17816,206.896551724138,4,2,10,80,1,0
18643,202.702702702703,4,2,10,80,1,0
21278,197.368421052632,4,2,10,80,1,0
22018,-100,4,2,10,5,0,0
22067,-100,4,2,10,80,0,0
22314,-100,4,2,10,5,0,0
22363,-100,4,2,10,80,0,0
22462,202.702702702703,4,2,10,80,1,0
22664,204.081632653061,4,2,10,80,1,0
24296,222.222222222222,4,2,10,80,1,0
24740,198.675496688742,4,2,10,80,1,0
25336,202.702702702703,4,2,10,80,1,0
25944,202.702702702703,4,2,10,80,1,0
26067,-100,4,2,10,5,0,0
26146,-100,4,2,10,80,0,0
26219,-100,4,2,10,5,0,0
26349,-100,4,2,10,80,0,0
26473,-100,4,2,10,5,0,0
26552,-100,4,2,10,80,0,0
26625,-100,4,2,10,5,0,0
26754,200,4,2,10,80,1,0
26878,-100,4,2,10,5,0,0
26954,-100,4,2,10,80,0,0
27030,-100,4,2,10,5,0,0
27154,-100,4,2,10,80,0,0
27436,-100,4,2,10,5,0,0
27554,-100,4,2,10,80,0,0
27704,-100,4,2,10,5,0,0
27754,-100,4,2,10,80,0,0
27904,-100,4,2,10,5,0,0
27954,-100,4,2,10,80,0,0
28104,-100,4,2,10,5,0,0
28154,-100,4,2,10,80,0,0
28304,-100,4,2,10,5,0,0
28354,-100,4,2,10,80,0,0
28504,-100,4,2,10,5,0,0
28554,-100,4,2,10,80,0,0
28954,222.222222222222,4,2,10,80,1,0
29176,202.702702702703,4,2,11,60,1,0
32216,192.307692307692,4,2,11,60,1,0
32312,-100,4,2,11,80,0,0
32408,214.285714285714,4,2,11,60,1,0
32622,202.702702702703,4,2,11,60,1,0
33027,205.479452054795,4,2,11,60,1,0
33643,201.342281879195,4,2,11,60,1,0
33643,-166.666666666667,4,2,11,60,0,0
34045,201.342281879195,4,2,11,60,1,0
35253,197.368421052632,4,2,11,60,1,0
35253,-166.666666666667,4,2,11,60,0,0
35647,202.702702702703,4,2,11,60,1,0
36457,208.333333333333,4,2,11,60,1,0
37082,191.082802547771,4,2,11,60,1,0
37177,-100,4,2,11,80,0,0
37273,208.333333333333,4,2,11,60,1,0
37689,205.831903945111,4,2,11,80,1,0
37894,-100,4,2,11,60,0,0
38100,202.702702702703,4,2,11,60,1,0
38809,-100,4,2,11,80,0,0
38910,201.342281879195,4,2,11,60,1,0
39815,-100,4,2,11,80,0,0
39916,-100,4,2,11,60,0,0
40016,-100,4,2,11,80,0,0
40118,-166.666666666667,4,2,11,60,0,0
40520,202.702702702703,4,2,11,60,1,0
41330,-100,4,2,10,60,0,0
41533,194.805194805195,4,2,10,80,1,0
42117,229.007633587786,4,2,10,80,1,0
42288,-100,4,2,10,5,0,0
42346,202.702702702703,4,2,10,80,1,0
42692,-100,4,2,10,5,0,0
42751,-100,4,2,10,80,0,0
43100,-100,4,2,10,5,0,0
43156,-100,4,2,10,80,0,0
43511,-100,4,2,10,5,0,0
43562,-100,4,2,10,80,0,0
43916,-100,4,2,10,5,0,0
43967,200,4,2,10,80,1,0
44367,212.765957446809,4,2,10,80,1,0
44579,202.702702702703,4,2,10,80,1,0
44883,-100,4,2,2,80,0,0
45389,206.896551724138,4,2,10,80,1,0
46009,194.805194805195,4,2,10,80,1,0
46203,202.702702702703,4,2,10,80,1,0
47824,205.479452054795,4,2,10,80,1,0
49467,201.342281879195,4,2,10,80,1,0
49869,-100,4,2,1,80,0,0
50272,205.479452054795,4,2,12,80,1,0
51093,-100,4,2,2,80,0,0
51299,197.368421052632,4,2,2,80,1,0
51891,202.702702702703,4,2,10,80,1,0
52904,200,4,2,10,80,1,0
53504,202.702702702703,4,2,10,80,1,0
55125,206.896551724138,4,2,10,80,1,1
55952,202.702702702703,4,2,10,80,1,1
56560,-100,4,2,10,80,0,0
56762,-100,4,2,2,80,0,1
57573,-100,4,2,1,80,0,1
58177,-100,4,2,10,80,0,1
58384,-100,4,2,10,80,0,0
59803,212.765957446809,4,2,10,80,1,0
60015,201.342281879195,4,2,10,80,1,0
61625,202.702702702703,4,2,10,80,1,0
61777,-100,4,2,10,5,0,0
61827,-100,4,2,10,80,0,0
62182,-100,4,2,10,5,0,0
62233,-100,4,2,10,80,0,0
62435,201.342281879195,4,2,10,80,1,0
62586,-100,4,2,10,5,0,0
62636,-100,4,2,10,60,0,0
62837,-100,4,2,10,80,0,0
62988,-100,4,2,10,5,0,0
63039,-100,4,2,10,80,0,0
63391,-100,4,2,10,5,0,0
63441,-100,4,2,10,80,0,0
63592,-100,4,2,10,5,0,0
63643,-100,4,2,10,80,0,0
63794,-100,4,2,10,5,0,0
63844,-100,4,2,10,80,0,0
63995,-100,4,2,10,5,0,0
64045,-100,4,2,10,80,0,0
64196,-100,4,2,10,5,0,0
64247,-100,4,2,10,80,0,0
64649,220.588235294118,4,2,10,80,1,0
64869,202.702702702703,4,2,10,60,1,0
65071,-100,4,2,12,60,0,0
65679,200,4,2,12,60,1,0
65879,-100,4,2,10,60,0,0
66379,-100,4,2,10,80,0,0
66479,204.081632653061,4,2,10,60,1,0
67499,202.702702702703,4,2,10,60,1,0
68005,-100,4,2,10,80,0,0
68107,202.702702702703,4,2,10,60,1,0
69120,-166.666666666667,4,2,10,60,0,0
69728,201.342281879195,4,2,10,60,1,0
70936,-166.666666666667,4,2,10,60,0,0
71338,204.081632653061,4,2,10,60,1,0
72868,-100,4,2,10,80,0,0
72970,206.896551724138,4,2,10,60,1,0
73383,200,4,2,10,80,1,0
73583,-100,4,2,10,60,0,0
73783,203.735144312394,4,2,10,60,1,0
74190,202.702702702703,4,2,10,60,1,0
74493,-100,4,2,10,80,0,0
74595,202.702702702703,4,2,10,60,1,0
75659,-166.666666666667,4,2,10,60,0,0
75810,-166.666666666667,4,2,10,80,0,0
75912,-166.666666666667,4,2,10,60,0,0
77230,197.368421052632,4,2,10,80,1,0
77822,202.702702702703,4,2,10,80,1,0
77974,-100,4,2,10,5,0,0
78024,-100,4,2,10,80,0,0
78379,-100,4,2,10,5,0,0
78430,-100,4,2,10,80,0,0
79190,-100,4,2,10,5,0,0
79240,-100,4,2,10,80,0,0
79595,-100,4,2,10,5,0,0
79646,-100,4,2,10,80,0,0
79798,-100,4,2,10,5,0,0
79849,-100,4,2,10,80,0,0
80001,-100,4,2,10,5,0,0
80051,208.333333333333,4,2,10,80,1,0
80207,-100,4,2,10,5,0,0
80259,-100,4,2,12,80,0,0
80780,189.873417721519,4,2,12,80,1,0
81064,202.702702702703,4,2,1,80,1,0
82482,205.479452054795,4,2,1,80,1,0
82995,193.548387096774,4,2,1,80,1,0
83285,204.081632653061,4,2,1,80,1,0
83693,218.978102189781,4,2,1,80,1,0
84021,202.702702702703,4,2,1,80,1,0
84325,202.702702702703,4,2,1,80,1,0
85135,201.342281879195,4,2,1,80,1,0
85940,202.702702702703,4,2,1,80,1,0
86750,200,4,2,1,80,1,0
87550,205.479452054795,4,2,1,80,1,0
88371,202.702702702703,4,2,1,80,1,0
89181,197.368421052632,4,2,1,80,1,0
89970,208.333333333333,4,2,1,80,1,0
90803,202.702702702703,4,2,1,80,1,0
91613,206.896551724138,4,2,1,80,1,0
92440,200,4,2,1,80,1,0
93040,220.588235294118,4,2,1,80,1,0
93260,202.702702702703,4,2,1,80,1,0
93665,-100,4,2,2,80,0,0
93868,-100,4,2,3,80,0,0
94070,194.805194805195,4,2,5,80,1,0
94654,202.702702702703,4,2,5,80,1,0
94856,202.702702702703,4,2,5,80,1,0
98707,196.078431372549,4,2,5,90,1,0
98903,200,4,2,5,90,1,0
99103,-100,4,2,5,80,0,0
99703,204.081632653061,4,2,5,80,1,0
100723,211.267605633803,4,2,5,80,1,0
101356,202.702702702703,4,2,5,80,1,0
101964,204.081632653061,4,2,5,80,1,0
102780,207.612456747405,4,2,5,80,1,0
102987,200,4,2,5,80,1,0
103787,201.342281879195,4,2,1,80,1,0
103988,-100,4,2,5,80,0,0
105397,200,4,2,5,80,1,0
105597,-100.502512562814,4,2,5,80,0,0
105797,168.539325842697,4,2,5,80,1,0
105881,218.978102189781,4,2,5,80,1,0
106209,202.702702702703,4,2,1,80,1,0
107019,-100,4,2,7,80,0,0
107425,212.765957446809,4,2,10,80,1,0
107425,-166.666666666667,4,2,10,80,0,0
107744,192.307692307692,4,2,10,80,1,0
108032,200,4,2,10,80,1,0
108032,-166.666666666667,4,2,10,80,0,0
108632,209.79020979021,4,2,10,80,1,0
109051,-166.666666666667,4,2,10,80,0,0
109366,192.307692307692,4,2,10,80,1,0
109654,202.702702702703,4,2,10,80,1,0
109654,-166.666666666667,4,2,10,80,0,0
110262,209.79020979021,4,2,10,80,1,0
110996,191.082802547771,4,2,10,80,1,0
111282,200,4,2,10,80,1,0
111282,-166.666666666667,4,2,10,80,0,0
111882,202.702702702703,4,2,10,80,1,0
112692,212.765957446809,4,2,10,80,1,0
113330,189.873417721519,4,2,10,80,1,0
113519,205.479452054795,4,2,10,80,1,0
113775,-100,4,2,10,5,0,0
113929,-166.666666666667,4,2,10,80,0,0
114238,202.702702702703,4,2,10,80,1,0
114542,-166.666666666667,4,2,10,80,0,0
114846,197.368421052632,4,2,10,80,1,0
115142,204.081632653061,4,2,10,80,1,0
115550,-166.666666666667,4,2,10,80,0,0
115856,192.307692307692,4,2,10,80,1,0
116144,202.702702702703,4,2,10,80,1,0
116144,-166.666666666667,4,2,10,80,0,0
116752,202.702702702703,4,2,10,80,1,0
117765,204.081632653061,4,2,10,80,1,0
117765,-166.666666666667,4,2,10,80,0,0
118377,200,4,2,10,80,1,0
118777,-166.666666666667,4,2,10,80,0,0
119077,238.095238095238,4,2,10,80,1,0
119196,202.702702702703,4,2,10,80,1,0
119601,191.082802547771,4,2,10,80,1,0
119983,205.479452054795,4,2,4,90,1,0
120804,202.702702702703,4,2,4,90,1,0
121513,-100,4,2,4,80,0,0
121614,-100,4,2,4,90,0,0
122425,201.342281879195,4,2,4,90,1,0
123129,-100,4,2,4,80,0,0
123230,205.479452054795,4,2,4,90,1,0
123332,-100,4,2,4,80,0,0
123435,-100,4,2,4,90,0,0
124873,201.342281879195,4,2,4,90,1,0
124973,-100,4,2,4,80,0,0
125074,-100,4,2,4,90,0,0
125980,-100,4,2,4,90,0,1
126282,212.765957446809,4,2,4,90,1,0
126494,201.342281879195,4,2,4,90,1,1
127299,-100,4,2,4,90,0,0
128003,-100,4,2,4,80,0,0
128104,200,4,2,4,90,1,0
128904,202.702702702703,4,2,4,90,1,0
129613,-100,4,2,4,80,0,0
129714,200,4,2,4,90,1,0
130514,206.896551724138,4,2,4,90,1,0
131030,-100,4,2,4,80,0,0
131133,-100,4,2,4,90,0,0
131341,202.702702702703,4,2,4,90,1,0
131543,-100,4,2,4,100,0,0
132151,204.081632653061,4,2,1,90,1,0
132967,205.479452054795,4,2,10,100,1,0
133069,-100,4,2,10,80,0,0
133121,-100,4,2,10,5,0,0
133172,-100,4,2,10,100,0,0
133326,-100,4,2,10,5,0,0
133377,-100,4,2,10,100,0,0
133479,-100,4,2,10,80,0,0
133531,-100,4,2,10,5,0,0
133583,-100,4,2,10,100,0,0
133737,-100,4,2,10,5,0,0
133788,-100,4,2,10,100,0,0
133890,-100,4,2,10,80,0,0
133942,-100,4,2,10,5,0,0
133994,204.081632653061,4,2,10,100,1,0
134300,-100,4,2,10,80,0,0
134351,-100,4,2,10,5,0,0
134402,241.935483870968,4,2,10,100,1,0
134643,254.237288135593,4,2,10,80,1,1
134643,-221.238938053097,4,2,10,80,0,1
134897,270.27027027027,4,2,10,80,1,1
135032,348.837209302326,4,2,10,80,1,1
135729,361.44578313253,4,2,10,80,1,1
135909,405.405405405405,4,2,10,80,1,1
136719,384.615384615385,4,2,10,80,1,1
137103,576.923076923077,4,2,10,80,1,1
137535,-100,4,2,10,80,0,1
137679,656.994251300301,4,2,10,80,1,1
137843,-100,4,2,10,80,0,0

[Colours]
Combo1 : 255,106,106
Combo2 : 255,176,130
Combo3 : 255,153,153
Combo4 : 208,75,43
Combo5 : 106,106,106

[HitObjects]
419,196,0,6,0,P|374:187|378:278,2,150,12|8|8,2:1|2:0|2:0,2:0:0:0:
453,174,810,1,8,2:0:0:0:
460,138,1013,5,2,2:0:0:0:
460,138,1111,1,8,2:0:0:0:
460,138,1209,1,2,2:0:0:0:
460,138,1307,1,2,2:0:0:0:
460,138,1405,1,8,2:0:0:0:
407,86,1601,6,0,P|422:31|493:66,2,150,12|8|8,1:2|2:0|2:0,2:0:0:0:
366,100,2417,1,8,2:0:0:0:
341,75,2621,5,2,2:0:0:0:
341,75,2723,1,8,2:0:0:0:
341,75,2825,1,2,2:0:0:0:
341,75,2927,1,2,2:0:0:0:
341,75,3029,1,8,2:0:0:0:
295,23,3233,6,0,B|276:42|276:42|264:286|264:286|246:306,1,300,12|8,1:0|2:0,2:0:0:0:
351,325,4054,2,0,P|322:285|276:267,1,100,10|2,2:0|2:0,0:0:0:0:
233,264,4363,1,10,2:0:0:0:
233,264,4465,2,0,P|214:235|203:164,1,100,2|10,2:0|2:0,0:0:0:0:
212,98,4865,6,0,B|259:70|259:70|1:108,1,300,12|8,1:2|2:0,2:0:0:0:
40,190,5675,2,0,B|8:164|8:164|129:185,1,150,8|8,2:0|1:2,2:0:0:0:
147,214,6081,1,8,1:2:0:0:
147,214,6182,1,8,1:2:0:0:
147,214,6283,1,8,1:2:0:0:
161,319,6486,6,0,P|132:284|78:348,2,150,12|8|8,1:0|2:0|2:0,2:0:0:0:
170,357,7297,1,8,2:0:0:0:
212,367,7500,5,2,2:0:0:0:
212,367,7601,1,8,2:0:0:0:
212,367,7702,1,2,2:0:0:0:
212,367,7804,1,2,2:0:0:0:
212,367,7905,1,8,2:0:0:0:
261,312,8108,6,0,P|292:280|341:349,2,150,12|8|8,1:2|2:0|2:0,2:0:0:0:
237,273,8919,1,8,2:0:0:0:
265,246,9121,5,2,2:0:0:0:
265,246,9223,1,8,2:0:0:0:
265,246,9324,1,0,2:0:0:0:
265,246,9425,1,0,2:0:0:0:
265,246,9527,1,10,2:0:0:0:
299,189,9729,6,0,B|318:208|318:208|491:225|491:225|462:260|462:260|398:254,1,300,12|8,1:0|2:0,2:0:0:0:
470,208,10540,2,0,L|456:102,1,100,10|2,2:0|2:0,0:0:0:0:
417,70,10844,1,10,2:0:0:0:
417,70,10946,2,0,L|408:177,1,100,2|10,2:0|2:0,0:0:0:0:
319,140,11351,6,0,P|283:100|148:56,1,200,12|0,2:0|2:0,2:0:0:0:
91,67,11947,1,8,2:0:0:0:
91,67,12046,1,2,2:0:0:0:
91,67,12145,2,0,P|122:5|114:103,1,300,8|8,2:0|2:0,2:0:0:0:
93,129,12945,5,8,2:0:0:0:
90,141,13149,1,0,1:0:0:0:
88,153,13353,1,0,1:0:0:0:
86,166,13557,1,0,1:0:0:0:
121,182,13761,5,8,1:2:0:0:
124,197,13965,1,8,1:2:0:0:
127,213,14166,1,8,1:2:0:0:
130,230,14367,1,8,1:2:0:0:
79,246,14569,5,8,1:2:0:0:
76,265,14770,1,8,1:2:0:0:
71,299,14971,1,8,1:2:0:0:
63,344,15173,1,8,1:2:0:0:
154,384,15374,5,4,1:2:0:0:
142,325,15579,1,8,1:2:0:0:
141,321,15682,1,8,1:2:0:0:
140,317,15784,1,8,1:2:0:0:
139,313,15887,1,8,1:2:0:0:
138,309,15990,1,8,1:2:0:0:
137,305,16093,1,8,1:2:0:0:
135,294,16195,5,6,2:3:0:0:
174,299,16397,1,10,2:0:0:0:
214,305,16600,1,0,2:0:0:0:
254,310,16803,1,10,2:0:0:0:
135,294,17005,5,4,2:3:0:0:
174,299,17208,1,10,2:0:0:0:
174,299,17309,1,4,2:3:0:0:
214,305,17512,1,4,2:3:0:0:
214,305,17613,1,10,2:0:0:0:
254,310,17816,5,4,2:3:0:0:
288,331,18022,2,0,P|309:296|316:224,1,100,10|0,2:0|2:0,2:0:0:0:
342,206,18333,1,4,2:3:0:0:
342,206,18436,1,10,2:0:0:0:
464,194,18643,5,4,2:3:0:0:
432,219,18845,2,0,P|411:184|404:112,1,100,10|4,2:0|2:3,2:0:0:0:
378,94,19149,1,4,2:3:0:0:
378,94,19251,1,10,2:0:0:0:
359,8,19453,5,4,2:3:0:0:
359,8,19656,1,10,2:0:0:0:
368,49,19859,1,4,2:3:0:0:
368,49,20061,1,10,2:0:0:0:
399,22,20264,5,4,2:3:0:0:
318,36,20518,1,0,0:0:0:0:
238,51,20771,1,4,2:3:0:0:
238,51,20872,2,0,B|168:65|168:65|155:100,1,100,10|4,2:0|2:3,2:0:0:0:
109,135,21278,6,0,L|94:15,2,100,10|0|10,2:0|2:0|2:0,2:0:0:0:
132,222,21870,6,0,P|165:241|237:232,1,100,12|8,1:0|1:2,2:0:0:0:
295,163,22166,2,0,P|234:167|203:210,1,100,4|4,2:3|2:3,2:0:0:0:
264,268,22462,2,0,P|302:292|373:287,1,100,8|6,1:2|2:3,2:0:0:0:
430,273,22868,5,10,2:0:0:0:
406,315,23072,1,0,2:0:0:0:
425,363,23276,1,10,2:0:0:0:
450,318,23480,1,4,2:3:0:0:
430,273,23684,5,10,2:0:0:0:
430,273,23786,1,0,2:0:0:0:
425,363,23990,5,4,2:3:0:0:
425,363,24092,1,10,2:0:0:0:
430,273,24296,5,4,2:3:0:0:
396,253,24518,2,0,B|378:236|378:236|368:153,1,100,10|0,2:0|2:0,2:0:0:0:
365,124,24839,1,4,2:3:0:0:
365,124,24938,1,10,2:0:0:0:
316,60,25137,5,4,2:3:0:0:
285,86,25336,2,0,B|268:104|268:104|259:179,1,100,10|4,2:0|2:3,2:0:0:0:
257,219,25640,1,4,2:3:0:0:
257,219,25741,1,10,2:0:0:0:
182,189,25944,6,0,L|93:147,1,75,6|0,2:3|2:0,2:0:0:0:
79,139,26146,1,10,2:0:0:0:
182,239,26349,6,0,L|92:196,1,75,4|0,2:3|2:0,2:0:0:0:
79,189,26552,1,10,2:0:0:0:
182,289,26754,6,0,L|92:246,1,75,4|0,2:3|2:0,2:0:0:0:
81,240,26954,1,10,2:0:0:0:
182,339,27154,6,0,L|92:296,1,75,4|0,2:3|2:0,2:0:0:0:
81,290,27354,1,10,2:0:0:0:
230,358,27554,6,0,L|265:282,1,75,4|0,2:3|0:0,2:0:0:0:
278,257,27754,2,0,L|326:325,1,75,10|0,2:0|0:0,2:0:0:0:
341,349,27954,2,0,L|257:356,1,75,4|0,2:3|0:0,0:0:0:0:
218,361,28154,6,0,L|257:275,1,75,10|0,2:0|0:0,2:0:0:0:
279,240,28354,2,0,L|333:317,1,75,2|0,2:3|0:0,2:0:0:0:
359,356,28554,5,8,1:2:0:0:
365,342,28654,1,8,1:2:0:0:
371,328,28754,1,8,1:2:0:0:
377,315,28854,1,8,1:2:0:0:
384,301,28954,1,8,1:2:0:0:
390,287,29065,1,8,1:2:0:0:
427,327,29176,5,2,2:0:0:0:
494,84,30189,5,10,2:0:0:0:
469,57,30392,5,4,2:3:0:0:
460,91,30493,5,4,2:3:0:0:
342,117,30797,5,4,2:3:0:0:
18,57,31811,5,10,2:0:0:0:
47,34,32013,5,4,2:3:0:0:
11,21,32115,5,4,2:3:0:0:
35,171,32408,5,4,2:3:0:0:
76,180,32622,1,10,2:0:0:0:
115,188,32824,1,4,2:3:0:0:
126,233,33027,5,10,2:0:0:0:
126,233,33129,1,4,2:3:0:0:
126,233,33232,1,4,2:3:0:0:
166,242,33437,1,10,2:0:0:0:
206,250,33643,2,0,B|241:294|241:294|168:279,1,119.999996337891,0|4,2:0|2:3,0:0:0:0:
330,284,34246,5,10,2:0:0:0:
337,242,34447,1,4,2:3:0:0:
346,202,34649,5,10,2:0:0:0:
346,202,34749,1,4,2:3:0:0:
346,202,34850,1,4,2:3:0:0:
378,230,35051,1,10,2:0:0:0:
386,189,35253,2,0,L|396:127,1,59.9999999999999,0|10,2:0|2:0,2:0:0:0:
411,37,35647,5,4,2:3:0:0:
480,307,36665,5,10,2:0:0:0:
441,331,36873,5,4,2:3:0:0:
482,326,36977,5,4,2:3:0:0:
317,346,37273,5,4,2:3:0:0:
39,255,38302,5,10,2:0:0:0:
76,283,38505,5,4,2:3:0:0:
36,273,38606,5,4,2:3:0:0:
167,228,38910,5,4,2:3:0:0:
172,187,39111,1,10,2:0:0:0:
177,146,39312,1,0,2:0:0:0:
140,121,39514,5,10,2:0:0:0:
140,121,39614,1,0,2:0:0:0:
140,121,39715,1,4,2:3:0:0:
134,77,39916,1,10,2:0:0:0:
100,103,40118,2,0,L|64:107,2,29.9999999999999,0|4|10,2:3|2:3|2:0,0:0:0:0:
317,0,40621,5,4,2:3:0:0:
317,0,40722,1,10,2:0:0:0:
311,39,40925,1,4,2:3:0:0:
265,54,41128,5,10,2:0:0:0:
265,54,41229,1,4,2:3:0:0:
265,54,41330,1,2,2:0:0:0:
273,95,41533,1,8,1:2:0:0:
249,124,41630,5,8,1:2:0:0:
243,143,41727,1,8,1:2:0:0:
243,163,41825,1,8,1:2:0:0:
247,182,41922,1,8,1:2:0:0:
256,199,42020,1,8,1:2:0:0:
272,214,42117,6,0,L|357:242,1,75,6|0,2:3|2:0,2:0:0:0:
383,215,42346,1,10,2:0:0:0:
272,259,42548,6,0,L|357:287,1,75,4|0,2:3|2:0,2:0:0:0:
383,260,42751,1,10,2:0:0:0:
272,304,42954,6,0,L|357:332,1,75,4|0,2:3|2:0,2:0:0:0:
383,305,43156,1,10,2:0:0:0:
272,349,43359,6,0,L|357:377,1,75,4|0,2:3|2:0,2:0:0:0:
383,350,43562,1,10,2:0:0:0:
475,311,43764,5,4,2:3:0:0:
488,174,43967,1,10,2:0:0:0:
475,311,44167,5,4,2:3:0:0:
488,174,44367,1,10,2:0:0:0:
475,311,44579,5,6,2:3:0:0:
373,264,44883,6,0,B|292:293|292:293|375:284,1,150,4|8,2:3|1:2,0:0:0:0:
334,337,45389,5,6,2:3:0:0:
295,343,45595,2,0,P|252:341|156:274,1,150,10|4,2:0|2:3,2:0:0:0:
158,244,46009,1,10,2:0:0:0:
86,69,46405,6,0,L|96:192,2,100,10|4|10,2:0|2:3|2:0,2:0:0:0:
0,200,47216,6,0,B|76:211|76:211|89:252,1,100,10|0,2:0|2:0,2:0:0:0:
119,238,47520,1,4,2:3:0:0:
138,241,47621,1,10,2:0:0:0:
187,194,47824,5,4,2:3:0:0:
224,205,48029,1,10,2:0:0:0:
280,160,48234,5,4,2:3:0:0:
320,155,48440,1,10,2:0:0:0:
394,182,48645,5,4,2:3:0:0:
421,153,48851,2,0,P|435:105|342:69,1,150,10|4,2:0|2:3,2:0:0:0:
325,42,49262,2,0,B|353:-14|353:-14|311:14,1,100,10|10,2:0|2:0,2:0:0:0:
260,48,49668,5,8,2:3:0:0:
260,48,49769,1,8,2:3:0:0:
260,48,49869,1,4,2:3:0:0:
260,48,49970,1,4,2:3:0:0:
260,48,50071,1,4,2:3:0:0:
260,48,50171,1,4,2:3:0:0:
236,79,50272,5,6,2:3:0:0:
160,195,51093,6,0,L|157:228,4,25.1216666666667,4|0|0|0|4,2:3|0:0|0:0|0:0|1:3,2:0:0:0:
138,165,51397,1,4,2:3:0:0:
91,224,51595,5,8,1:2:0:0:
95,246,51693,1,8,1:2:0:0:
99,268,51792,1,8,1:2:0:0:
103,290,51891,5,6,2:0:0:0:
146,314,52093,1,10,2:0:0:0:
193,293,52296,1,0,2:3:0:0:
236,316,52499,1,10,2:0:0:0:
103,290,52701,5,4,2:3:0:0:
146,314,52904,1,10,2:0:0:0:
146,314,53004,1,4,2:3:0:0:
193,293,53204,1,4,2:3:0:0:
193,293,53304,1,10,2:0:0:0:
236,316,53504,5,4,2:3:0:0:
270,335,53706,2,0,L|280:228,1,100,10|0,2:0|2:0,2:0:0:0:
312,211,54010,1,4,2:3:0:0:
312,211,54112,1,10,2:0:0:0:
386,240,54314,5,4,2:3:0:0:
419,216,54517,2,0,L|412:107,2,100,10|4|10,2:0|2:3|2:0,2:0:0:0:
468,129,55125,5,4,2:1:0:0:
464,84,55331,1,12,2:0:0:0:
443,44,55538,1,4,2:3:0:0:
410,15,55745,1,10,2:0:0:0:
368,0,55952,1,4,2:3:0:0:
324,0,56154,1,10,2:0:0:0:
282,17,56357,1,4,2:3:0:0:
250,49,56560,5,8,2:0:0:0:
468,129,56762,1,12,2:0:0:0:
282,17,57066,5,12,2:0:0:0:
464,84,57370,1,12,2:0:0:0:
324,0,57573,5,12,2:0:0:0:
443,44,57979,1,12,2:0:0:0:
345,125,58384,1,6,2:3:0:0:
323,158,58587,6,0,B|283:198|226:126|183:178,1,150,12|4,2:0|2:3,2:0:0:0:
159,209,58992,1,10,2:0:0:0:
117,159,59195,1,4,2:3:0:0:
117,159,59296,1,4,2:3:0:0:
117,159,59397,2,0,P|171:109|245:102,1,150,10|4,2:0|2:3,2:0:0:0:
284,115,59803,1,10,2:0:0:0:
353,67,60015,5,4,2:3:0:0:
390,81,60216,2,0,B|404:241,1,150,10|4,2:0|2:3,2:0:0:0:
407,270,60619,1,10,2:0:0:0:
462,327,60820,5,4,2:3:0:0:
467,287,61021,2,0,L|479:182,2,100,10|4|10,2:0|2:3|2:0,2:0:0:0:
405,342,61625,6,0,L|314:363,1,75,4|0,1:0|2:0,1:0:0:0:
293,367,61827,1,10,2:0:0:0:
322,312,62030,6,0,L|231:333,1,75,4|0,2:3|2:0,2:0:0:0:
210,337,62233,1,10,2:0:0:0:
241,282,62435,6,0,L|150:303,1,75,4|0,2:3|2:0,2:0:0:0:
129,308,62636,1,10,2:0:0:0:
159,253,62837,6,0,L|68:274,1,75,4|0,2:3|2:0,2:0:0:0:
46,278,63039,1,10,0:0:0:0:
90,211,63240,6,0,L|100:128,1,75,4|0,2:3|0:0,2:0:0:0:
102,99,63441,2,0,L|25:131,1,75,10|0,2:0|0:0,0:0:0:0:
0,144,63643,2,0,L|67:194,1,75,4|0,2:3|0:0,2:0:0:0:
98,219,63844,6,0,L|110:125,1,75,10|0,2:0|0:0,0:0:0:0:
110,84,64045,2,0,L|23:120,1,75,6|0,2:3|0:0,2:0:0:0:
107,145,64247,5,8,1:2:0:0:
118,149,64347,1,8,1:2:0:0:
132,154,64448,1,8,1:2:0:0:
146,160,64549,1,8,1:2:0:0:
159,164,64649,1,8,1:2:0:0:
173,169,64759,1,8,1:2:0:0:
224,150,64869,5,2,2:0:0:0:
485,92,65879,5,10,2:0:0:0:
450,77,66079,5,4,2:3:0:0:
481,54,66179,5,4,2:3:0:0:
497,201,66479,5,4,2:3:0:0:
61,65,67499,5,10,2:0:0:0:
93,47,67701,5,4,2:3:0:0:
63,26,67803,5,4,2:3:0:0:
56,156,68107,5,4,2:3:0:0:
28,188,68309,1,10,2:0:0:0:
53,221,68512,1,4,2:3:0:0:
26,253,68715,1,10,2:0:0:0:
26,253,68816,1,4,2:3:0:0:
26,253,68917,1,4,2:3:0:0:
48,295,69120,6,0,P|92:297|153:256,1,120,10|10,2:0|2:0,2:0:0:0:
236,216,69929,5,10,2:0:0:0:
242,258,70130,1,0,2:0:0:0:
250,300,70332,1,10,2:0:0:0:
250,300,70432,1,0,2:0:0:0:
250,300,70533,5,4,2:3:0:0:
283,273,70734,1,10,2:0:0:0:
294,358,70936,2,0,L|356:367,1,59.9999999999999,0|10,2:0|2:0,2:0:0:0:
461,336,71338,5,4,2:3:0:0:
449,132,72358,5,10,2:0:0:0:
492,141,72562,5,4,2:3:0:0:
454,117,72664,5,4,2:3:0:0:
350,177,72970,5,4,2:3:0:0:
209,22,73986,5,10,2:0:0:0:
171,46,74190,5,4,2:3:0:0:
211,40,74291,5,4,2:3:0:0:
303,93,74595,5,4,2:3:0:0:
272,125,74797,1,10,2:0:0:0:
229,141,75000,1,4,2:3:0:0:
184,146,75203,1,10,2:0:0:0:
184,146,75304,1,4,2:3:0:0:
184,146,75405,1,4,2:3:0:0:
115,131,75659,6,0,P|105:165|107:206,1,74.9999999999998,0|4,0:0|2:3,0:0:0:0:
149,276,76216,5,4,2:3:0:0:
190,288,76419,1,10,2:0:0:0:
158,326,76622,5,4,2:3:0:0:
118,337,76824,1,8,2:0:0:0:
118,337,76926,1,4,2:3:0:0:
118,337,77027,1,6,2:3:0:0:
188,367,77230,5,8,1:2:0:0:
203,363,77328,1,8,1:2:0:0:
220,359,77427,1,8,1:2:0:0:
235,354,77526,1,8,1:2:0:0:
252,350,77624,1,8,1:2:0:0:
269,346,77723,1,8,1:2:0:0:
308,336,77822,6,0,L|386:372,1,75,6|0,2:3|2:0,2:0:0:0:
412,351,78024,1,10,2:0:0:0:
308,293,78227,6,0,L|386:329,1,75,4|0,2:3|2:0,2:0:0:0:
413,309,78430,1,10,2:0:0:0:
308,250,78632,6,0,L|386:286,1,75,4|0,2:3|2:0,2:0:0:0:
413,266,78835,1,10,2:0:0:0:
308,207,79038,6,0,L|386:243,1,75,4|0,2:3|2:0,2:0:0:0:
413,223,79240,1,10,2:0:0:0:
461,178,79443,6,0,L|454:94,1,75,4|0,2:3|0:0,2:0:0:0:
450,66,79646,2,0,L|381:113,1,75,10|0,2:0|0:0,2:0:0:0:
359,131,79849,2,0,L|435:166,1,75,4|0,2:3|0:0,2:0:0:0:
471,184,80051,6,0,L|463:89,1,75,10|0,2:0|0:0,2:0:0:0:
459,45,80259,1,6,2:3:0:0:
310,79,80571,5,0,3:0:0:0:
310,79,80780,1,0,3:0:0:0:
267,39,81064,6,0,P|222:4|196:72,2,150,12|8|8,2:1|2:0|2:0,2:0:0:0:
264,78,81874,1,8,2:0:0:0:
267,123,82077,5,2,2:0:0:0:
267,123,82178,1,8,2:0:0:0:
267,123,82280,1,2,2:0:0:0:
267,123,82381,1,2,2:0:0:0:
267,123,82482,1,8,2:0:0:0:
226,190,82687,6,0,P|212:259|151:241,1,150,12|8,2:0|2:0,2:0:0:0:
157,156,83285,2,0,P|165:119|103:111,1,100,8|0,2:0|3:0,2:0:0:0:
85,71,83693,5,10,1:2:0:0:
85,71,83802,1,0,1:0:0:0:
85,71,83911,1,10,1:2:0:0:
85,71,84021,1,0,1:0:0:0:
85,71,84122,1,0,1:2:0:0:
23,119,84325,6,0,B|13:291|13:291|60:338|60:338|67:238,1,300,12|8,2:1|2:0,2:0:0:0:
134,309,85135,2,0,P|179:349|244:355,1,100,10|2,2:0|2:0,0:0:0:0:
254,341,85437,1,10,2:0:0:0:
254,341,85537,2,0,P|207:301|141:293,1,100,2|10,2:0|2:0,0:0:0:0:
271,260,85940,6,0,P|326:180|445:159,1,200,12|0,2:0|2:0,2:0:0:0:
472,91,86548,1,8,2:0:0:0:
472,91,86649,1,2,2:0:0:0:
472,91,86750,2,0,P|426:197|527:337,1,300,8|8,2:0|2:0,2:0:0:0:
485,256,87550,6,0,P|421:239|420:305,2,150,12|8|8,2:1|2:0|2:0,2:0:0:0:
483,296,88371,1,8,2:0:0:0:
486,340,88573,5,2,2:0:0:0:
486,340,88675,1,8,2:0:0:0:
486,340,88776,1,2,2:0:0:0:
486,340,88877,1,2,2:0:0:0:
486,340,88979,1,8,2:0:0:0:
433,372,89181,6,0,P|375:366|286:309,1,150,12|8,2:0|2:0,2:0:0:0:
297,221,89773,1,8,2:0:0:0:
260,229,89970,2,0,L|229:235,4,25,8|0|8|0|8,3:0|0:0|3:0|0:0|1:0,0:0:0:0:
269,189,90282,5,8,1:0:0:0:
207,201,90490,1,8,1:0:0:0:
207,201,90595,1,8,2:0:0:0:
119,162,90803,6,4,P|85:119|18:254,1,300,12|8,2:1|2:0,2:1:0:0:
69,271,91613,6,0,P|68:354|211:300,1,300,12|8,2:0|2:0,1:0:0:0:
267,305,92440,6,0,P|332:196|207:181,1,300,12|8,2:1|2:0,1:0:0:0:
231,243,93260,5,4,2:0:0:0:
267,305,93462,1,8,1:2:0:0:
267,305,93564,1,8,1:2:0:0:
267,305,93665,1,8,1:2:0:0:
267,305,93766,1,8,1:2:0:0:
267,305,93868,1,8,1:2:0:0:
267,305,93969,1,8,1:2:0:0:
267,305,94070,1,0,3:0:0:0:
421,324,94264,5,12,2:0:0:0:
218,336,94654,5,12,2:0:0:0:
453,373,95058,5,12,2:0:0:0:
186,287,95464,5,12,2:0:0:0:
258,211,95869,1,10,2:0:0:0:
285,177,96072,2,0,P|296:148|298:70,1,100,0|8,2:0|2:0,2:0:0:0:
256,129,96477,2,0,P|245:100|243:22,1,100,2|10,3:2|2:0,2:0:0:0:
183,97,96883,2,0,P|194:68|196:-10,2,100,2|10|0,3:2|2:0|3:0,0:0:0:0:
115,91,97491,5,12,2:0:0:0:
142,301,97896,5,12,2:0:0:0:
91,338,98301,5,12,2:0:0:0:
141,45,98707,5,12,2:0:0:0:
41,84,99103,1,10,2:0:0:0:
36,122,99303,1,2,3:2:0:0:
32,158,99503,1,10,3:2:0:0:
27,195,99703,2,0,L|14:299,1,100,2|10,3:2|2:0,2:0:0:0:
63,267,100111,2,0,L|50:371,1,100,2|10,3:2|2:0,0:0:0:0:
122,346,100519,5,0,3:0:0:0:
159,336,100723,1,12,2:0:0:0:
390,324,101145,5,12,2:0:0:0:
133,275,101558,5,12,2:0:0:0:
436,370,101964,5,12,2:0:0:0:
463,341,102168,1,4,2:3:0:0:
466,301,102372,2,0,P|442:270|421:144,1,150,10|2,2:0|3:2,2:0:0:0:
422,124,102780,1,8,2:0:0:0:
379,69,102987,5,0,3:0:0:0:
383,28,103187,1,8,2:0:0:0:
339,23,103387,1,2,2:0:0:0:
336,65,103587,1,10,2:0:0:0:
379,69,103787,5,4,2:0:0:0:
332,110,103988,2,0,P|293:114|201:178,1,150,8|0,2:0|3:0,2:0:0:0:
169,154,104391,1,8,2:0:0:0:
163,226,104592,5,0,3:0:0:0:
194,250,104793,2,0,P|231:260|311:339,1,150,8|0,2:0|3:0,2:0:0:0:
307,375,105196,1,8,2:0:0:0:
393,339,105397,5,0,3:0:0:0:
396,299,105597,2,0,P|294:253|214:361,1,250,8|0,2:0|2:0,2:0:0:0:
210,384,106209,1,4,2:0:0:0:
147,356,106411,5,8,1:2:0:0:
130,344,106513,1,8,1:2:0:0:
117,329,106614,1,8,1:2:0:0:
106,312,106715,1,8,1:2:0:0:
98,294,106817,1,8,1:2:0:0:
94,274,106918,1,8,1:2:0:0:
93,253,107019,5,4,2:0:0:0:
111,167,107425,2,0,B|98:102|98:102|89:133,1,89.9999972534181,10|8,2:0|2:0,2:0:0:0:
144,193,108032,2,0,L|235:209,2,90.1499972534181,4|4|6,2:3|2:3|2:3,0:0:0:0:
379,125,109051,6,0,B|391:60|391:60|401:91,1,90.2859972534181,10|8,2:0|2:0,2:0:0:0:
335,134,109654,2,0,L|243:150,2,89.9999972534181,4|4|6,2:3|2:3|2:3,0:0:0:0:
356,168,110471,1,0,2:0:0:0:
395,161,110681,1,10,2:0:0:0:
420,199,110891,1,0,2:0:0:0:
420,199,110996,1,8,2:0:0:0:
420,199,111091,1,0,2:0:0:0:
459,192,111282,2,0,L|455:290,2,90.1499972534181,4|4|6,2:3|2:3|2:3,2:0:0:0:
407,261,112084,5,0,2:0:0:0:
368,268,112287,1,10,1:2:0:0:
344,306,112490,1,0,1:2:0:0:
344,306,112591,1,0,1:3:0:0:
344,306,112692,2,0,P|296:269|225:361,1,200,2|10,1:2|2:0,2:0:0:0:
186,374,113330,5,8,1:2:0:0:
186,374,113424,1,8,1:2:0:0:
186,374,113519,1,4,2:0:0:0:
102,324,113929,6,0,B|37:337|37:337|68:346,1,90.2919972534181,10|8,2:0|2:0,2:0:0:0:
106,279,114542,2,0,L|112:183,1,89.9999972534181,4|4,2:3|2:3,0:0:0:0:
158,223,115142,1,6,2:3:0:0:
201,146,115550,6,0,B|266:159|266:159|235:168,1,89.9999972534181,10|8,2:0|2:0,2:0:0:0:
198,101,116144,2,0,L|192:5,2,89.9999972534181,4|4|6,2:3|2:3|2:3,0:0:0:0:
158,136,116954,5,0,2:0:0:0:
118,128,117157,1,10,2:0:0:0:
78,120,117360,1,0,2:0:0:0:
78,120,117461,1,8,2:0:0:0:
78,120,117562,1,0,2:0:0:0:
48,83,117765,6,0,P|78:41|118:23,2,89.9999972534181,4|4|6,2:3|2:3|2:3,0:0:0:0:
43,147,118577,1,0,0:0:0:0:
40,186,118777,2,0,B|40:207|40:207|66:250|66:250|65:268,1,90.2999972534181,8|0,1:2|1:0,2:0:0:0:
64,281,119196,1,2,2:0:0:0:
106,326,119398,5,8,1:2:0:0:
106,326,119500,1,8,1:2:0:0:
106,326,119601,1,8,1:0:0:0:
106,326,119696,1,8,1:0:0:0:
106,326,119792,1,8,1:0:0:0:
106,326,119887,1,8,1:0:0:0:
106,326,119983,1,4,2:1:0:0:
145,332,120188,6,0,P|190:330|288:270,1,150,8|0,2:0|3:0,2:0:0:0:
300,245,120599,1,8,2:0:0:0:
291,164,120804,5,2,3:2:0:0:
330,170,121006,1,8,2:0:0:0:
355,201,121209,5,0,3:0:0:0:
360,234,121310,5,0,3:0:0:0:
365,266,121412,5,10,2:0:0:0:
441,288,121614,5,0,3:0:0:0:
468,258,121817,2,0,L|447:88,1,150,8|0,2:0|3:0,2:0:0:0:
444,69,122222,1,8,2:0:0:0:
384,15,122425,5,2,3:2:0:0:
344,19,122626,1,8,2:0:0:0:
318,50,122827,5,0,3:0:0:0:
285,46,122928,5,0,3:0:0:0:
252,42,123029,5,10,2:0:0:0:
194,90,123230,5,0,3:0:0:0:
194,90,123435,1,10,2:0:0:0:
162,66,123640,1,0,3:0:0:0:
162,66,123846,1,10,2:0:0:0:
127,87,124051,1,2,3:2:0:0:
155,154,124360,6,0,P|144:202|121:247,1,100,2|2,2:0|3:2,2:0:0:0:
81,243,124668,1,8,2:0:0:0:
76,325,124873,5,0,3:0:0:0:
76,325,125074,1,10,2:0:0:0:
117,331,125275,1,0,3:0:0:0:
117,331,125477,1,10,2:0:0:0:
156,336,125678,1,4,2:1:0:0:
271,327,125980,6,0,P|281:284|251:299,1,100,0|0,3:0|3:0,2:0:0:0:
223,343,126282,1,8,2:0:0:0:
279,378,126494,2,0,P|342:325|202:293,1,300,4|8,2:1|2:0,2:0:0:0:
132,227,127299,5,2,3:2:0:0:
171,219,127500,1,8,2:0:0:0:
178,178,127702,5,0,3:0:0:0:
183,146,127802,5,0,3:0:0:0:
188,114,127903,5,10,2:0:0:0:
234,49,128104,5,0,3:0:0:0:
241,9,128304,2,0,P|285:8|364:90,1,150,8|0,2:0|3:0,2:0:0:0:
400,67,128704,1,8,2:0:0:0:
414,144,128904,5,2,3:2:0:0:
375,153,129106,1,8,2:0:0:0:
350,184,129309,5,0,3:0:0:0:
316,176,129410,5,0,3:0:0:0:
282,169,129512,5,10,2:0:0:0:
183,146,129714,6,0,L|63:119,2,100,0|10|2,3:0|2:0|3:2,2:0:0:0:
152,177,130314,1,10,2:0:0:0:
152,177,130414,1,2,3:2:0:0:
152,177,130514,1,2,3:2:0:0:
105,165,130720,5,10,2:0:0:0:
85,124,130927,2,0,P|77:65|87:19,1,100,0|8,3:0|2:0,2:0:0:0:
257,0,131543,6,0,B|250:54|291:37|286:95,3,100,8|0|8|4,2:0|3:0|2:0|2:1,2:0:0:0:
244,86,132355,5,8,1:0:0:0:
244,86,132457,1,8,1:0:0:0:
244,86,132559,1,0,1:0:0:0:
244,86,132661,1,0,1:0:0:0:
244,86,132763,1,8,1:0:0:0:
244,86,132865,1,8,1:0:0:0:
244,86,132967,1,6,3:0:0:0:
247,130,133172,6,0,L|333:163,1,75,10|0,2:0|0:0,0:0:0:0:
354,170,133377,1,4,2:3:0:0:
249,173,133583,6,0,L|335:206,1,75,10|0,2:0|0:0,0:0:0:0:
356,213,133788,1,4,2:3:0:0:
252,217,133994,6,0,L|345:253,2,100,10|4|10,2:0|2:3|2:0,0:0:0:0:
407,185,134643,6,0,B|450:197|450:197|443:205|443:205|450:210|450:210|444:218|444:218|455:291|455:291|446:292|438:290|438:290|451:310|472:285|492:299|492:299|511:280|511:280|487:388|487:388|420:382|420:382|412:269,1,539.822196853841,6|4,2:3|2:0,0:0:0:0:
256,192,137843,12,0,145562,2:0:0:0:
