osu file format v14

[General]
AudioFilename: audio.mp3
AudioLeadIn: 0
PreviewTime: 51992
Countdown: 0
SampleSet: Soft
StackLeniency: 0.4
Mode: 0
LetterboxInBreaks: 0
WidescreenStoryboard: 1

[Editor]
Bookmarks: 130464
DistanceSpacing: 1
BeatDivisor: 4
GridSize: 32
TimelineZoom: 1.7

[Metadata]
Title:DVP
TitleUnicode:DVP
Artist:PUP
ArtistUnicode:PUP
Creator:trailmix
Version:NYANTIAZ'S HARD
Source:osu!
Tags:sparxo nyantiaz dtm9 nowa ghouru squirrelpascals hobbes2 ataraxia fa featured artist the dream is over english indie punk rock
BeatmapID:2510845
BeatmapSetID:1203098

[Difficulty]
HPDrainRate:4.3
CircleSize:3.5
OverallDifficulty:6
ApproachRate:7.5
SliderMultiplier:1
SliderTickRate:1

[Events]
//Background and Video events
0,0,"BG BG.jpg"
//Break Periods
2,107219,118371
//Storyboard Layer 0 (Background)
//Storyboard Layer 1 (Fail)
//Storyboard Layer 2 (Pass)
//Storyboard Layer 3 (Foreground)
//Storyboard Layer 4 (Overlay)
//Storyboard Sound Samples

[TimingPoints]
0,202.702702702703,4,2,1,80,1,0
0,-100,4,2,1,80,0,0
1013,196.078431372549,4,2,1,80,1,0
1013,-100,4,2,1,80,0,0
1601,204.081632653061,4,2,1,80,1,0
1601,-100,4,2,1,80,0,0
3233,205.479452054795,4,2,1,80,1,0
3233,-100,4,2,1,80,0,0
4363,-100,4,2,1,80,0,0
4465,200,4,2,1,80,1,0
4465,-100,4,2,1,80,0,0
4865,202.702702702703,4,2,1,80,1,0
4865,-100,4,2,1,80,0,0
11351,198.675496688742,4,2,1,80,1,0
11351,-100,4,2,1,80,0,0
12145,200,4,2,1,80,1,0
12145,-100,4,2,1,80,0,0
12945,204.081632653061,4,2,10,80,1,0
12945,-100,4,2,10,80,0,0
13149,-100,4,2,10,40,0,0
13557,-100,4,2,10,50,0,0
13560,-100,4,2,10,50,0,0
13761,-100,4,2,2,60,0,0
13762,-100,4,2,2,60,0,0
13965,201.342281879195,4,2,2,60,1,0
14166,-100,4,2,2,70,0,0
14569,201.342281879195,4,2,3,80,1,0
14569,-100,4,2,3,80,0,0
15374,205.479452054795,4,2,1,80,1,0
15374,-100,4,2,1,80,0,0
15528,-100,4,2,1,5,0,0
15579,-100,4,2,1,80,0,0
16195,202.702702702703,4,2,10,80,1,0
16195,-105.263157894737,4,2,10,80,0,0
17816,206.896551724138,4,2,10,80,1,0
17816,-105.263157894737,4,2,10,80,0,0
18111,-105.263157894737,4,2,10,80,0,0
18643,202.702702702703,4,2,10,80,1,0
18643,-105.263157894737,4,2,10,80,0,0
21278,197.368421052632,4,2,10,80,1,0
21278,-105.263157894737,4,2,10,80,0,0
21861,-105.263157894737,4,2,10,80,0,0
22018,-105.263157894737,4,2,10,5,0,0
22067,-105.263157894737,4,2,10,80,0,0
22314,-105.263157894737,4,2,10,5,0,0
22363,-105.263157894737,4,2,10,80,0,0
22462,202.702702702703,4,2,10,80,1,0
22462,-105.263157894737,4,2,10,80,0,0
22664,204.081632653061,4,2,10,80,1,0
22664,-105.263157894737,4,2,10,80,0,0
24296,222.222222222222,4,2,10,80,1,0
24296,-105.263157894737,4,2,10,80,0,0
24598,-105.263157894737,4,2,10,80,0,0
24740,198.675496688742,4,2,10,80,1,0
24740,-105.263157894737,4,2,10,80,0,0
25336,202.702702702703,4,2,10,80,1,0
25336,-105.263157894737,4,2,10,80,0,0
25944,202.702702702703,4,2,10,80,1,0
25944,-105.263157894737,4,2,10,80,0,0
26067,-105.263157894737,4,2,10,5,0,0
26118,-105.263157894737,4,2,10,5,0,0
26146,-105.263157894737,4,2,10,80,0,0
26219,-105.263157894737,4,2,10,5,0,0
26321,-105.263157894737,4,2,10,5,0,0
26349,-105.263157894737,4,2,10,80,0,0
26473,-105.263157894737,4,2,10,5,0,0
26523,-105.263157894737,4,2,10,5,0,0
26552,-105.263157894737,4,2,10,80,0,0
26625,-105.263157894737,4,2,10,5,0,0
26754,200,4,2,10,80,1,0
26754,-105.263157894737,4,2,10,80,0,0
26878,-105.263157894737,4,2,10,5,0,0
26928,-105.263157894737,4,2,10,5,0,0
26954,-105.263157894737,4,2,10,80,0,0
27030,-105.263157894737,4,2,10,5,0,0
27131,-105.263157894737,4,2,10,5,0,0
27154,-105.263157894737,4,2,10,80,0,0
27436,-105.263157894737,4,2,10,5,0,0
27537,-105.263157894737,4,2,10,5,0,0
27554,-105.263157894737,4,2,10,80,0,0
28348,-105.263157894737,4,2,10,80,0,0
28954,222.222222222222,4,2,10,80,1,0
28954,-105.263157894737,4,2,10,80,0,0
29176,202.702702702703,4,2,11,60,1,0
29176,-111.111111111111,4,2,11,60,0,0
32216,192.307692307692,4,2,11,60,1,0
32216,-111.111111111111,4,2,11,60,0,0
32312,-111.111111111111,4,2,11,80,0,0
32408,214.285714285714,4,2,11,60,1,0
32408,-111.111111111111,4,2,11,60,0,0
32622,202.702702702703,4,2,11,60,1,0
32622,-111.111111111111,4,2,11,60,0,0
33027,205.479452054795,4,2,11,60,1,0
33027,-111.111111111111,4,2,11,60,0,0
33539,-111.111111111111,4,2,11,60,0,0
33643,201.342281879195,4,2,11,60,1,0
33643,-111.111111111111,4,2,11,60,0,0
34045,201.342281879195,4,2,11,60,1,0
34045,-111.111111111111,4,2,11,60,0,0
34950,-111.111111111111,4,2,11,60,0,0
35051,-111.111111111111,4,2,11,60,0,0
35152,-111.111111111111,4,2,11,60,0,0
35253,197.368421052632,4,2,11,60,1,0
35253,-111.111111111111,4,2,11,60,0,0
35647,202.702702702703,4,2,11,60,1,0
35647,-111.111111111111,4,2,11,60,0,0
36457,208.333333333333,4,2,11,60,1,0
36457,-111.111111111111,4,2,11,60,0,0
37082,191.082802547771,4,2,11,60,1,0
37082,-111.111111111111,4,2,11,60,0,0
37177,-111.111111111111,4,2,11,80,0,0
37273,208.333333333333,4,2,11,60,1,0
37273,-111.111111111111,4,2,11,60,0,0
37689,205.831903945111,4,2,11,80,1,0
37689,-111.111111111111,4,2,11,80,0,0
37894,-111.111111111111,4,2,11,60,0,0
37898,-111.111111111111,4,2,11,60,0,0
38100,202.702702702703,4,2,11,60,1,0
38100,-111.111111111111,4,2,11,60,0,0
38808,-111.111111111111,4,2,11,80,0,0
38910,201.342281879195,4,2,11,60,1,0
38910,-111.111111111111,4,2,11,60,0,0
39211,-111.111111111111,4,2,11,60,0,0
39312,-111.111111111111,4,2,11,60,0,0
39463,-111.111111111111,4,2,11,60,0,0
39514,-111.111111111111,4,2,11,60,0,0
39815,-111.111111111111,4,2,11,80,0,0
39916,-111.111111111111,4,2,11,60,0,0
40016,-111.111111111111,4,2,11,80,0,0
40118,-111.111111111111,4,2,11,60,0,0
40520,202.702702702703,4,2,11,60,1,0
40520,-111.111111111111,4,2,11,60,0,0
41328,-111.111111111111,4,2,10,60,0,0
41533,194.805194805195,4,2,10,80,1,0
41533,-111.111111111111,4,2,10,80,0,0
42117,229.007633587786,4,2,10,80,1,0
42117,-105.263157894737,4,2,10,80,0,0
42288,-105.263157894737,4,2,10,5,0,0
42346,202.702702702703,4,2,10,80,1,0
42346,-105.263157894737,4,2,10,80,0,0
42692,-105.263157894737,4,2,10,5,0,0
42742,-105.263157894737,4,2,10,5,0,0
42751,-105.263157894737,4,2,10,80,0,0
43100,-105.263157894737,4,2,10,5,0,0
43150,-105.263157894737,4,2,10,5,0,0
43156,-105.263157894737,4,2,10,80,0,0
43511,-105.263157894737,4,2,10,5,0,0
43558,-105.263157894737,4,2,10,5,0,0
43562,-105.263157894737,4,2,10,80,0,0
43916,-105.263157894737,4,2,10,5,0,0
43967,200,4,2,10,80,1,0
43967,-105.263157894737,4,2,10,80,0,0
44367,212.765957446809,4,2,10,80,1,0
44367,-105.263157894737,4,2,10,80,0,0
44579,202.702702702703,4,2,10,80,1,0
44579,-105.263157894737,4,2,10,80,0,0
44783,-105.263157894737,4,2,10,80,0,0
44883,-105.263157894737,4,2,2,80,0,0
44984,-105.263157894737,4,2,2,80,0,0
45389,206.896551724138,4,2,10,80,1,0
45389,-105.263157894737,4,2,10,80,0,0
45598,-105.263157894737,4,2,10,80,0,0
46009,194.805194805195,4,2,10,80,1,0
46009,-105.263157894737,4,2,10,80,0,0
46203,202.702702702703,4,2,10,80,1,0
46203,-105.263157894737,4,2,10,80,0,0
47824,205.479452054795,4,2,10,80,1,0
47824,-105.263157894737,4,2,10,80,0,0
49467,201.342281879195,4,2,10,80,1,0
49467,-105.263157894737,4,2,10,80,0,0
49664,-105.263157894737,4,2,10,80,0,0
49869,-105.263157894737,4,2,1,80,0,0
50272,205.479452054795,4,2,12,80,1,0
50272,-105.263157894737,4,2,12,80,0,0
51087,-105.263157894737,4,2,12,80,0,0
51093,-105.263157894737,4,2,2,80,0,0
51299,197.368421052632,4,2,2,80,1,0
51299,-105.263157894737,4,2,2,80,0,0
51792,-105.263157894737,4,2,2,80,0,0
51891,202.702702702703,4,2,10,80,1,1
52904,200,4,2,10,80,1,1
52904,-95.2380952380952,4,2,10,80,0,1
53504,202.702702702703,4,2,10,80,1,1
53504,-95.2380952380952,4,2,10,80,0,1
54308,-95.2380952380952,4,2,10,80,0,1
55125,206.896551724138,4,2,10,80,1,1
55952,202.702702702703,4,2,10,80,1,1
55952,-95.2380952380952,4,2,10,80,0,1
56760,-95.2380952380952,4,2,2,80,0,1
56762,-95.2380952380952,4,2,2,80,0,1
57570,-95.2380952380952,4,2,2,80,0,1
57573,-95.2380952380952,4,2,1,80,0,1
57772,-95.2380952380952,4,2,1,80,0,1
57975,-95.2380952380952,4,2,1,80,0,1
57979,-95.2380952380952,4,2,1,80,0,1
58177,-95.2380952380952,4,2,10,80,0,1
58283,-95.2380952380952,4,2,10,80,0,1
58380,-95.2380952380952,4,2,10,80,0,1
59803,212.765957446809,4,2,10,80,1,1
59803,-95.2380952380952,4,2,10,80,0,1
60015,201.342281879195,4,2,10,80,1,1
60015,-95.2380952380952,4,2,10,80,0,1
61625,202.702702702703,4,2,10,80,1,1
61625,-95.2380952380952,4,2,10,80,0,1
61777,-95.2380952380952,4,2,10,5,0,1
61822,-95.2380952380952,4,2,10,5,0,1
61827,-95.2380952380952,4,2,10,80,0,1
61974,-95.2380952380952,4,2,10,80,0,1
62024,-95.2380952380952,4,2,10,80,0,1
62177,-95.2380952380952,4,2,10,80,0,1
62182,-95.2380952380952,4,2,10,5,0,1
62227,-95.2380952380952,4,2,10,5,0,1
62233,-95.2380952380952,4,2,10,80,0,1
62379,-95.2380952380952,4,2,10,80,0,1
62435,201.342281879195,4,2,10,80,1,1
62435,-95.2380952380952,4,2,10,80,0,1
62586,-95.2380952380952,4,2,10,5,0,1
62632,-95.2380952380952,4,2,10,5,0,1
62636,-95.2380952380952,4,2,10,60,0,1
62784,-95.2380952380952,4,2,10,60,0,1
62834,-95.2380952380952,4,2,10,60,0,1
62837,-95.2380952380952,4,2,10,80,0,1
62987,-95.2380952380952,4,2,10,5,0,1
63037,-95.2380952380952,4,2,10,80,0,1
63189,-95.2380952380952,4,2,10,80,0,1
63239,-95.2380952380952,4,2,10,80,0,1
64649,220.588235294118,4,2,10,80,1,1
64649,-95.2380952380952,4,2,10,80,0,1
64860,-95.2380952380952,4,2,10,80,0,1
64869,202.702702702703,4,2,10,60,1,1
65071,-100,4,2,12,60,0,0
65679,200,4,2,12,60,1,0
65879,-100,4,2,10,60,0,0
66379,-100,4,2,10,80,0,0
66479,204.081632653061,4,2,10,60,1,0
66479,-100,4,2,10,60,0,0
67499,202.702702702703,4,2,10,60,1,0
67499,-100,4,2,10,60,0,0
68005,-100,4,2,10,80,0,0
68107,202.702702702703,4,2,10,60,1,0
68107,-100,4,2,10,60,0,0
69018,-100,4,2,10,60,0,0
69120,-100,4,2,10,60,0,0
69221,-100,4,2,10,60,0,0
69322,-100,4,2,10,60,0,0
69728,201.342281879195,4,2,10,60,1,0
69728,-100,4,2,10,60,0,0
70029,-100,4,2,10,60,0,0
70130,-100,4,2,10,60,0,0
70281,-100,4,2,10,60,0,0
70332,-100,4,2,10,60,0,0
70633,-100,4,2,10,60,0,0
70734,-100,4,2,10,60,0,0
70834,-100,4,2,10,60,0,0
70936,-100,4,2,10,60,0,0
71338,204.081632653061,4,2,10,60,1,0
71338,-100,4,2,10,60,0,0
72868,-100,4,2,10,80,0,0
72970,206.896551724138,4,2,10,60,1,0
72970,-100,4,2,10,60,0,0
73383,200,4,2,10,80,1,0
73383,-100,4,2,10,80,0,0
73583,-100,4,2,10,60,0,0
73590,-100,4,2,10,60,0,0
73783,203.735144312394,4,2,10,60,1,0
74190,202.702702702703,4,2,10,60,1,0
74190,-100,4,2,10,60,0,0
74493,-100,4,2,10,80,0,0
74595,202.702702702703,4,2,10,60,1,0
74595,-100,4,2,10,60,0,0
75152,-100,4,2,10,60,0,0
75203,-100,4,2,10,60,0,0
75810,-100,4,2,10,80,0,0
75912,-100,4,2,10,60,0,0
77010,-100,4,2,10,60,0,0
77024,-100,4,2,10,60,0,0
77027,-100,4,2,10,60,0,0
77225,-100,4,2,10,60,0,0
77230,197.368421052632,4,2,10,80,1,0
77230,-100,4,2,10,80,0,0
77822,202.702702702703,4,2,10,80,1,0
77822,-100,4,2,10,80,0,0
77974,-100,4,2,10,5,0,0
78022,-100,4,2,10,80,0,0
78379,-100,4,2,10,5,0,0
78427,-100,4,2,10,80,0,0
78430,-100,4,2,10,80,0,0
78832,-100,4,2,10,80,0,0
79190,-100,4,2,10,5,0,0
79237,-100,4,2,10,5,0,0
79240,-100,4,2,10,80,0,0
79592,-100,4,2,10,80,0,0
79642,-100,4,2,10,80,0,0
80051,208.333333333333,4,2,10,80,1,0
80051,-100,4,2,10,80,0,0
80250,-100,4,2,10,80,0,0
80259,-100,4,2,12,80,0,0
80554,-100,4,2,12,80,0,0
80571,-100,4,2,12,80,0,0
80780,189.873417721519,4,2,12,80,1,0
80780,-100,4,2,12,80,0,0
81064,202.702702702703,4,2,1,80,1,0
81064,-100,4,2,1,80,0,0
82482,205.479452054795,4,2,1,80,1,0
82482,-100,4,2,1,80,0,0
82995,193.548387096774,4,2,1,80,1,0
82995,-100,4,2,1,80,0,0
83285,204.081632653061,4,2,1,80,1,0
83285,-100,4,2,1,80,0,0
83693,218.978102189781,4,2,1,80,1,0
83693,-100,4,2,1,80,0,0
84021,202.702702702703,4,2,1,80,1,0
84021,-100,4,2,1,80,0,0
84325,202.702702702703,4,2,1,80,1,0
84325,-100,4,2,1,80,0,0
85135,201.342281879195,4,2,1,80,1,0
85135,-100,4,2,1,80,0,0
85940,202.702702702703,4,2,1,80,1,0
85940,-100,4,2,1,80,0,0
86750,200,4,2,1,80,1,0
86750,-100,4,2,1,80,0,0
87550,205.479452054795,4,2,1,80,1,0
87550,-100,4,2,1,80,0,0
88371,202.702702702703,4,2,1,80,1,0
88371,-100,4,2,1,80,0,0
89181,197.368421052632,4,2,1,80,1,0
89181,-100,4,2,1,80,0,0
89970,208.333333333333,4,2,1,80,1,0
89970,-100,4,2,1,80,0,0
90803,202.702702702703,4,2,1,80,1,0
90803,-100,4,2,1,80,0,0
91613,206.896551724138,4,2,1,80,1,0
91613,-100,4,2,1,80,0,0
92440,200,4,2,1,80,1,0
92440,-100,4,2,1,80,0,0
93040,220.588235294118,4,2,1,80,1,0
93040,-100,4,2,1,80,0,0
93260,202.702702702703,4,2,1,80,1,0
93260,-100,4,2,1,80,0,0
93665,-100,4,2,2,80,0,0
93870,-100,4,2,3,80,0,0
94070,194.805194805195,4,2,5,80,1,0
94264,-100,4,2,5,80,0,0
94654,202.702702702703,4,2,5,80,1,0
94654,-100,4,2,5,80,0,0
94856,202.702702702703,4,2,5,80,1,0
94856,-100,4,2,5,80,0,0
95680,-100,4,2,5,80,0,0
95869,-100,4,2,5,80,0,0
98707,196.078431372549,4,2,5,90,1,0
98707,-100,4,2,5,90,0,0
98899,-100,4,2,5,90,0,0
98903,200,4,2,5,90,1,0
99101,-100,4,2,5,80,0,0
99103,-100,4,2,5,80,0,0
99703,204.081632653061,4,2,5,80,1,0
99703,-100,4,2,5,80,0,0
100723,211.267605633803,4,2,5,80,1,0
100723,-100,4,2,5,80,0,0
101356,202.702702702703,4,2,5,80,1,0
101356,-100,4,2,5,80,0,0
101964,204.081632653061,4,2,5,80,1,0
101964,-100,4,2,5,80,0,0
102166,-100,4,2,5,80,0,0
102372,-100,4,2,5,80,0,0
102780,207.612456747405,4,2,5,80,1,0
102987,200,4,2,5,80,1,0
103780,-100,4,2,5,80,0,0
103787,201.342281879195,4,2,1,80,1,0
103887,-100,4,2,1,80,0,0
103988,-100,4,2,5,80,0,0
105397,200,4,2,5,80,1,0
105797,168.539325842697,4,2,5,80,1,0
105881,218.978102189781,4,2,5,80,1,0
105881,-100,4,2,5,80,0,0
105990,-100,4,2,5,80,0,0
106209,202.702702702703,4,2,1,80,1,0
106209,-100,4,2,1,80,0,0
107019,-100,4,2,7,80,0,0
107425,212.765957446809,4,2,10,80,1,0
107425,-100,4,2,10,80,0,0
107744,192.307692307692,4,2,10,80,1,0
107744,-100,4,2,10,80,0,0
108032,200,4,2,10,80,1,0
108032,-100,4,2,10,80,0,0
108632,209.79020979021,4,2,10,80,1,0
108632,-100,4,2,10,80,0,0
109366,192.307692307692,4,2,10,80,1,0
109366,-100,4,2,10,80,0,0
109654,202.702702702703,4,2,10,80,1,0
109654,-100,4,2,10,80,0,0
110262,209.79020979021,4,2,10,80,1,0
110262,-100,4,2,10,80,0,0
110996,191.082802547771,4,2,10,80,1,0
110996,-100,4,2,10,80,0,0
111282,200,4,2,10,80,1,0
111282,-100,4,2,10,80,0,0
111882,202.702702702703,4,2,10,80,1,0
111882,-100,4,2,10,80,0,0
112591,-100,4,2,10,80,0,0
112692,212.765957446809,4,2,10,80,1,0
113330,189.873417721519,4,2,10,80,1,0
113519,205.479452054795,4,2,10,80,1,0
113519,-100,4,2,10,80,0,0
113775,-100,4,2,10,5,0,0
113929,-100,4,2,10,80,0,0
114238,202.702702702703,4,2,10,80,1,0
114238,-100,4,2,10,80,0,0
114846,197.368421052632,4,2,10,80,1,0
114846,-100,4,2,10,80,0,0
115142,204.081632653061,4,2,10,80,1,0
115142,-100,4,2,10,80,0,0
115856,192.307692307692,4,2,10,80,1,0
116144,202.702702702703,4,2,10,80,1,0
116144,-100,4,2,10,80,0,0
116752,202.702702702703,4,2,10,80,1,0
116752,-100,4,2,10,80,0,0
117765,204.081632653061,4,2,10,80,1,0
117765,-100,4,2,10,80,0,0
118377,200,4,2,10,80,1,0
118377,-100,4,2,10,80,0,0
119077,238.095238095238,4,2,10,80,1,0
119102,-100,4,2,10,80,0,0
119196,202.702702702703,4,2,10,80,1,0
119297,-100,4,2,10,80,0,0
119591,-100,4,2,10,80,0,0
119601,191.082802547771,4,2,10,80,1,0
119983,205.479452054795,4,2,4,90,1,0
119983,-100,4,2,4,90,0,0
120804,202.702702702703,4,2,4,90,1,0
120804,-100,4,2,4,90,0,0
121512,-100,4,2,4,80,0,0
121614,-100,4,2,4,90,0,0
122425,201.342281879195,4,2,4,90,1,0
123129,-100,4,2,4,80,0,0
123230,205.479452054795,4,2,4,90,1,0
123332,-100,4,2,4,80,0,0
123435,-100,4,2,4,90,0,0
124153,-100,4,2,4,90,0,0
124257,-100,4,2,4,90,0,0
124873,201.342281879195,4,2,4,90,1,0
124973,-100,4,2,4,80,0,0
125074,-100,4,2,4,90,0,0
126282,212.765957446809,4,2,4,90,1,0
126494,201.342281879195,4,2,4,90,1,0
126494,-100,4,2,4,90,0,0
126997,-100,4,2,4,90,0,0
128003,-100,4,2,4,80,0,0
128104,200,4,2,4,90,1,0
128104,-100,4,2,4,90,0,0
128904,202.702702702703,4,2,4,90,1,0
128904,-100,4,2,4,90,0,0
129612,-100,4,2,4,80,0,0
129714,200,4,2,4,90,1,0
129714,-100,4,2,4,90,0,0
130264,-100,4,2,4,90,0,0
130314,-100,4,2,4,90,0,0
130514,206.896551724138,4,2,4,90,1,0
130514,-100,4,2,4,90,0,0
131030,-100,4,2,4,80,0,0
131134,-100,4,2,4,90,0,0
131238,-100,4,2,4,90,0,0
131339,-100,4,2,4,90,0,0
131341,202.702702702703,4,2,4,90,1,0
131542,-100,4,2,4,100,0,0
131543,-100,4,2,4,100,0,0
132151,204.081632653061,4,2,1,90,1,0
132151,-100,4,2,1,90,0,0
132967,205.479452054795,4,2,10,100,1,0
132967,-100,4,2,10,100,0,0
133069,-100,4,2,10,80,0,0
133121,-100,4,2,10,5,0,0
133172,-100,4,2,10,100,0,0
133479,-100,4,2,10,80,0,0
133531,-100,4,2,10,5,0,0
133583,-100,4,2,10,100,0,0
133890,-100,4,2,10,80,0,0
133942,-100,4,2,10,5,0,0
133994,204.081632653061,4,2,10,100,1,0
133994,-100,4,2,10,100,0,0
134300,-100,4,2,10,80,0,0
134351,-100,4,2,10,5,0,0
134402,241.935483870968,4,2,10,100,1,0
134402,-100,4,2,10,100,0,0
134643,254.237288135593,4,2,10,80,1,0
134897,270.27027027027,4,2,10,80,1,0
135032,348.837209302326,4,2,10,80,1,0
135729,361.44578313253,4,2,10,80,1,0
135909,405.405405405405,4,2,10,80,1,0
136719,384.615384615385,4,2,10,80,1,0
137103,576.923076923077,4,2,10,80,1,0
137535,-100,4,2,10,80,0,0
137679,656.994251300301,4,2,10,80,1,0
145562,-100,4,2,10,80,0,0
147205,-100,4,2,10,80,0,0

[Colours]
Combo1 : 255,106,106
Combo2 : 255,176,130
Combo3 : 255,153,153
Combo4 : 208,75,43
Combo5 : 106,106,106

[HitObjects]
346,108,0,6,0,P|401:124|484:67,2,150,12|8|8,2:1|2:0|2:0,2:0:0:0:
270,42,810,2,0,P|211:39|161:70,1,100,8|2,2:0|2:0,2:0:0:0:
134,86,1111,2,0,P|136:144|128:189,1,100,8|2,2:0|2:0,2:0:0:0:
173,207,1405,1,8,2:0:0:0:
254,156,1601,6,0,L|262:314,2,150,12|8|8,1:2|2:0|2:0,2:0:0:0:
314,76,2417,2,0,P|360:73|415:104,1,100,8|2,2:0|2:0,1:0:0:0:
446,127,2723,2,0,P|409:153|379:201,1,100,8|2,2:0|2:0,2:0:0:0:
388,247,3029,1,8,2:0:0:0:
314,313,3233,6,0,P|289:352|220:302,2,150,12|8|8,1:0|2:0|2:0,2:0:0:0:
303,213,4054,2,0,P|218:212|195:208,1,100,10|2,2:0|2:0,0:0:0:0:
132,135,4465,2,0,P|47:136|24:140,1,100,2|10,2:0|2:0,0:0:0:0:
8,42,4865,6,0,P|87:31|223:61,1,200,12|0,1:2|2:0,2:0:0:0:
295,13,5472,1,8,2:0:0:0:
320,18,5574,1,2,2:0:0:0:
345,22,5675,6,0,L|461:36,1,100,8|8,2:0|1:2,2:0:0:0:
430,133,6081,2,0,L|431:189,1,50,8|8,1:2|1:2,0:0:0:0:
383,199,6283,2,0,L|382:255,1,50,8|8,1:2|1:2,0:0:0:0:
333,260,6486,6,0,P|263:237|190:260,2,150,12|8|8,1:0|2:0|2:0,2:0:0:0:
287,348,7297,2,0,P|343:360|386:344,1,100,8|2,2:0|2:0,2:0:0:0:
410,305,7601,2,0,P|466:293|509:309,1,100,8|2,2:0|2:0,2:0:0:0:
507,256,7905,1,8,2:0:0:0:
452,171,8108,6,0,L|452:21,2,150,12|8|8,1:2|2:0|2:0,2:0:0:0:
359,208,8919,2,0,L|359:96,1,100,8|2,2:0|2:0,2:0:0:0:
325,70,9223,2,0,B|302:75|278:87|278:87|257:74|228:68,1,100,8|0,2:0|2:0,2:0:0:0:
183,54,9527,1,10,2:0:0:0:
84,71,9729,6,0,P|56:113|74:217,2,150,12|8|8,1:0|2:0|2:0,2:0:0:0:
183,54,10540,2,0,L|183:166,1,100,10|2,2:0|2:0,0:0:0:0:
138,244,10946,2,0,L|138:356,1,100,2|10,2:0|2:0,0:0:0:0:
240,340,11351,6,0,B|345:299|318:370|437:337,1,200,12|0,2:0|2:0,2:0:0:0:
479,248,11947,1,8,2:0:0:0:
486,224,12046,1,2,2:0:0:0:
493,200,12145,2,0,L|498:77,1,100,8|0,2:0|2:0,2:0:0:0:
465,61,12445,2,0,P|409:59|364:75,1,100,8|0,2:0|2:0,2:0:0:0:
333,110,12745,1,8,2:0:0:0:
239,79,12945,6,0,L|245:191,1,100,8|0,2:0|1:0,0:0:0:0:
173,249,13353,1,0,1:0:0:0:
261,294,13557,1,0,1:0:0:0:
173,341,13761,2,0,P|121:354|64:343,1,100,8|8,1:2|1:2,0:0:0:0:
3,278,14166,1,8,1:2:0:0:
48,189,14367,1,8,1:2:0:0:
4,98,14569,5,8,1:2:0:0:
65,19,14770,1,8,1:2:0:0:
154,63,14971,1,8,1:2:0:0:
252,43,15173,1,8,1:2:0:0:
238,140,15374,6,0,L|354:135,1,100,4|8,1:2|1:2,2:0:0:0:
387,131,15682,1,8,1:2:0:0:
434,145,15784,2,0,L|438:213,1,50,8|8,1:2|1:2,0:0:0:0:
481,218,15990,2,0,L|485:286,1,50,8|8,1:2|1:2,0:0:0:0:
491,315,16195,5,6,2:3:0:0:
405,355,16397,2,0,P|363:363|300:347,1,94.9999974632264,10|0,2:0|2:0,2:0:0:0:
239,290,16803,1,10,2:0:0:0:
301,218,17005,1,4,2:3:0:0:
252,136,17208,2,0,B|219:134|184:132|184:132|159:141|133:151|133:151|93:150|45:149,1,189.999994926453,10|10,2:0|2:0,0:0:0:0:
28,234,17816,6,0,L|130:237,1,94.9999974632264,4|10,2:3|2:0,2:0:0:0:
170,239,18126,1,0,2:0:0:0:
238,305,18333,1,4,2:3:0:0:
238,305,18436,1,10,2:0:0:0:
319,252,18643,2,0,P|366:255|415:287,1,94.9999974632264,4|10,2:3|2:0,2:0:0:0:
437,314,18947,2,0,P|443:256|455:214,1,94.9999974632264,0|4,0:0|2:3,0:0:0:0:
478,180,19251,1,10,2:0:0:0:
449,89,19453,5,4,2:3:0:0:
365,43,19656,2,0,L|363:143,1,94.9999974632264,10|4,2:0|2:3,2:0:0:0:
282,188,20061,1,10,2:0:0:0:
198,142,20264,1,4,2:3:0:0:
111,181,20467,2,0,P|97:224|103:280,1,94.9999974632264,10|0,2:0|2:0,0:0:0:0:
135,306,20771,2,0,P|190:292|199:366,1,142.49999619484,4|4,2:3|2:3,0:0:0:0:
301,354,21278,6,0,P|383:345|409:351,1,94.9999974632264,10|0,2:0|2:0,2:0:0:0:
416,354,21574,1,4,2:3:0:0:
439,351,21672,1,10,2:0:0:0:
489,270,21870,2,0,P|474:231|424:219,1,94.9999974632264,12|8,1:0|1:2,2:0:0:0:
378,212,22166,2,0,P|359:253|314:263,1,94.9999974632264,4|4,2:3|2:3,2:0:0:0:
271,247,22462,1,8,1:2:0:0:
189,199,22664,5,6,2:3:0:0:
139,118,22868,2,0,P|93:99|37:92,1,94.9999974632264,10|0,2:0|2:0,2:0:0:0:
8,178,23276,1,10,2:0:0:0:
61,256,23480,1,4,2:3:0:0:
14,338,23684,2,0,B|42:297|87:301|87:301|160:313,1,142.49999619484,10|4,2:0|2:3,0:0:0:0:
189,318,24092,1,10,2:0:0:0:
275,310,24296,6,0,P|291:278|296:204,1,94.9999974632264,4|10,2:3|2:0,2:0:0:0:
267,183,24629,1,0,0:0:0:0:
336,110,24839,1,4,2:3:0:0:
336,110,24938,1,10,2:0:0:0:
425,141,25137,2,0,P|414:199|416:234,1,94.9999974632264,4|10,2:3|2:0,2:0:0:0:
459,254,25437,2,0,P|470:312|468:347,1,94.9999974632264,0|4,0:0|2:3,0:0:0:0:
424,366,25741,1,10,2:0:0:0:
331,342,25944,5,6,2:3:0:0:
249,294,26146,2,0,P|175:306|145:329,2,94.9999974632264,10|4|10,2:0|2:3|2:0,2:0:0:0:
324,233,26754,1,4,2:3:0:0:
394,149,26954,1,10,2:0:0:0:
317,92,27154,2,0,L|307:-4,1,94.9999974632264,4|10,2:3|2:0,2:0:0:0:
213,13,27554,6,0,P|142:27|109:41,1,94.9999974632264,4|10,2:3|2:0,2:0:0:0:
78,120,27954,2,0,P|122:135|169:142,1,94.9999974632264,4|10,2:3|2:0,0:0:0:0:
262,120,28354,2,0,L|264:224,1,94.9999974632264,2|8,2:3|1:2,2:0:0:0:
293,251,28654,1,8,1:2:0:0:
326,284,28754,2,0,L|383:281,1,47.4999987316132,8|8,1:2|1:2,0:0:0:0:
415,287,28954,2,0,L|472:284,1,47.4999987316132,8|8,1:2|1:2,0:0:0:0:
498,246,29176,6,0,P|498:203|481:143,1,89.9999972534181,2|10,2:0|2:0,2:0:0:0:
423,93,29581,2,0,P|423:50|425:29,2,44.999998626709,0|4|10,2:3|2:3|2:0,0:0:0:0:
338,123,29986,2,0,P|265:141|237:141,1,89.9999972534181,4|10,2:3|2:0,2:0:0:0:
206,132,30290,2,0,P|211:173|208:238,1,89.9999972534181,0|4,2:3|2:3,0:0:0:0:
178,253,30594,1,10,2:0:0:0:
89,238,30797,6,0,P|50:239|14:282,2,89.9999972534181,4|10|0,2:3|2:0|2:0,2:0:0:0:
96,259,31305,1,4,2:3:0:0:
99,280,31405,1,10,2:0:0:0:
157,348,31608,2,0,P|221:336|252:336,1,89.9999972534181,4|10,2:3|2:0,2:0:0:0:
346,319,32013,2,0,P|344:354|336:373,2,44.999998626709,4|4|10,2:3|2:3|2:0,0:0:0:0:
293,243,32408,6,0,P|286:171|291:141,1,89.9999972534181,4|10,2:3|2:0,2:0:0:0:
347,86,32824,1,4,2:3:0:0:
381,167,33027,1,10,2:0:0:0:
288,153,33232,1,4,2:3:0:0:
257,68,33437,1,10,2:0:0:0:
194,135,33643,2,0,L|92:153,1,89.9999972534181,0|10,2:0|2:0,0:0:0:0:
92,239,34045,6,0,L|194:221,1,89.9999972534181,4|10,2:3|2:0,2:0:0:0:
264,289,34447,2,0,L|279:238,2,44.999998626709,4|4|10,2:3|2:3|2:0,0:0:0:0:
343,339,34850,2,0,L|431:354,1,89.9999972534181,4|10,2:3|2:0,2:0:0:0:
488,281,35253,2,0,P|491:233|482:191,1,89.9999972534181,0|10,2:0|2:0,2:0:0:0:
422,128,35647,6,0,P|372:153|330:148,1,89.9999972534181,4|10,2:3|2:0,2:0:0:0:
255,117,36052,2,0,L|236:66,2,44.999998626709,0|4|10,2:0|2:3|2:0,0:0:0:0:
274,202,36457,2,0,P|262:245|253:296,1,89.9999972534181,4|10,2:3|2:0,2:0:0:0:
229,327,36769,2,0,P|189:344|136:322,1,89.9999972534181,0|4,2:0|2:3,0:0:0:0:
114,293,37082,1,10,2:0:0:0:
52,237,37273,6,0,P|36:266|37:325,2,89.9999972534181,4|10|0,2:3|2:0|2:0,2:0:0:0:
67,221,37792,1,4,2:3:0:0:
83,205,37894,1,10,2:0:0:0:
49,119,38100,2,0,L|150:109,1,89.9999972534181,4|10,2:3|2:0,2:0:0:0:
215,62,38505,2,0,P|197:41|176:33,2,44.999998626709,4|4|10,2:3|2:3|2:0,0:0:0:0:
289,114,38910,6,0,P|337:115|385:117,1,89.9999972534181,4|10,2:3|2:0,2:0:0:0:
436,185,39312,1,0,2:0:0:0:
396,266,39514,1,10,2:0:0:0:
382,283,39615,1,0,2:0:0:0:
364,296,39715,2,0,P|316:295|268:293,1,89.9999972534181,4|10,2:3|2:0,2:0:0:0:
201,240,40118,2,0,P|185:267|182:295,2,44.999998626709,0|4|10,2:3|2:3|2:0,0:0:0:0:
270,184,40520,6,0,L|277:127,1,44.999998626709,4|4,2:3|2:3,0:0:0:0:
281,94,40722,1,10,2:0:0:0:
204,45,40925,2,0,P|133:36|102:49,1,89.9999972534181,4|10,2:3|2:0,2:0:0:0:
80,67,41229,1,4,2:3:0:0:
80,67,41330,6,0,P|90:124|96:174,1,89.9999972534181,2|8,2:0|1:2,2:0:0:0:
55,237,41727,2,0,L|49:290,1,44.999998626709,8|8,1:2|1:2,0:0:0:0:
93,293,41922,2,0,L|99:346,1,44.999998626709,8|8,1:2|1:2,0:0:0:0:
135,352,42117,6,0,B|183:358|183:358|236:348,1,94.9999974632264,6|10,2:3|2:0,2:0:0:0:
287,274,42548,2,0,L|288:170,1,94.9999974632264,4|10,2:3|2:0,2:0:0:0:
248,92,42954,2,0,B|200:86|200:86|147:96,1,94.9999974632264,4|10,2:3|2:0,2:0:0:0:
98,171,43359,2,0,L|97:265,1,94.9999974632264,4|10,2:3|2:0,2:0:0:0:
135,352,43764,5,4,2:3:0:0:
210,292,43967,1,10,2:0:0:0:
294,334,44167,1,4,2:3:0:0:
371,288,44367,1,10,2:0:0:0:
473,356,44579,5,6,2:3:0:0:
474,213,44883,1,4,2:3:0:0:
474,213,44984,2,0,L|427:187,1,47.4999987316132,8|8,1:2|1:2,0:0:0:0:
395,180,45187,1,8,1:2:0:0:
395,180,45288,1,8,1:2:0:0:
395,180,45389,5,6,2:3:0:0:
300,180,45595,2,0,P|248:208|217:238,1,94.9999974632264,10|0,2:0|2:0,2:0:0:0:
184,262,45906,2,0,L|121:256,1,47.4999987316132,4|10,2:3|2:0,0:0:0:0:
65,200,46203,1,4,2:3:0:0:
81,108,46405,2,0,P|133:80|164:50,1,94.9999974632264,10|4,2:0|2:3,2:0:0:0:
197,26,46709,2,0,L|260:32,1,47.4999987316132,4|10,2:3|2:0,0:0:0:0:
316,86,47013,6,0,L|305:194,1,94.9999974632264,4|10,2:3|2:0,2:0:0:0:
364,256,47419,2,0,P|403:257|431:256,1,47.4999987316132,0|4,2:0|2:3,0:0:0:0:
453,234,47621,1,10,2:0:0:0:
498,152,47824,2,0,L|509:44,1,94.9999974632264,4|10,2:3|2:0,2:0:0:0:
416,0,48234,2,0,P|377:-1|350:1,1,47.4999987316132,4|4,2:3|2:3,2:0:0:0:
327,21,48440,1,10,2:0:0:0:
229,33,48645,6,0,P|196:85|182:134,1,94.9999974632264,4|10,2:3|2:0,2:0:0:0:
236,196,49056,2,0,L|246:251,2,47.4999987316132,0|4|10,2:0|2:3|2:0,0:0:0:0:
139,186,49467,2,0,P|80:187|39:210,1,94.9999974632264,10|8,2:0|2:3,2:0:0:0:
25,243,49769,1,8,2:3:0:0:
15,289,49869,2,0,L|24:346,3,47.4999987316132,4|4|4|4,2:3|2:3|2:3|2:3,0:0:0:0:
60,363,50272,5,6,2:3:0:0:
366,230,50991,1,0,2:0:0:0:
366,230,51093,2,0,L|377:296,2,47.4999987316132,4|0|4,2:3|0:0|1:3,2:0:0:0:
346,186,51397,1,4,2:3:0:0:
321,145,51496,2,0,L|332:79,3,47.4999987316132,4|8|8|8,2:3|1:2|1:2|1:2,0:0:0:0:
294,63,51891,6,0,P|217:63|182:73,1,100,6|10,2:0|2:0,2:0:0:0:
117,138,52296,1,0,2:3:0:0:
103,160,52398,1,0,2:0:0:0:
91,183,52499,1,10,2:0:0:0:
137,276,52701,2,0,P|214:276|245:267,1,100,4|10,2:3|2:0,2:0:0:0:
277,237,53004,2,0,P|354:237|386:249,1,104.999996795654,4|4,2:3|2:3,0:0:0:0:
417,282,53304,1,10,2:0:0:0:
489,208,53504,6,0,P|482:148|498:82,1,104.999996795654,4|10,2:3|2:0,2:0:0:0:
505,54,53808,1,0,2:0:0:0:
405,20,54010,2,0,P|364:32|345:39,1,52.4999983978272,4|10,2:3|2:0,0:0:0:0:
278,107,54314,2,0,B|245:101|207:97|207:97|157:106,1,104.999996795654,4|10,2:3|2:0,2:0:0:0:
132,135,54618,1,0,2:3:0:0:
28,154,54821,2,0,P|17:128|14:98,1,52.4999983978272,4|10,2:3|2:0,0:0:0:0:
82,34,55125,6,0,P|148:17|185:17,1,100,4|12,2:1|2:0,2:0:0:0:
252,91,55538,2,0,P|248:152|243:203,1,100,4|10,2:3|2:0,2:0:0:0:
282,294,55952,1,4,2:3:0:0:
381,314,56154,1,10,2:0:0:0:
461,251,56357,1,4,2:3:0:0:
466,150,56560,1,8,2:0:0:0:
391,80,56762,6,0,B|343:96|343:96|275:88,1,104.999996795654,12|0,2:0|2:0,2:0:0:0:
251,53,57066,2,0,B|202:37|202:37|134:45,1,104.999996795654,12|0,2:0|2:0,2:0:0:0:
111,81,57370,1,12,2:0:0:0:
94,184,57573,1,12,2:0:0:0:
257,51,57979,1,12,2:0:0:0:
363,231,58384,6,0,P|338:275|334:340,1,104.999996795654,6|12,2:3|2:0,2:0:0:0:
230,355,58789,1,0,2:0:0:0:
203,351,58890,1,4,2:3:0:0:
176,347,58992,1,10,2:0:0:0:
94,280,59195,2,0,L|102:218,1,52.4999983978272,4|4,2:3|2:3,0:0:0:0:
84,178,59397,2,0,P|134:198|197:198,1,104.999996795654,10|0,2:0|2:0,2:0:0:0:
266,140,59803,1,10,2:0:0:0:
351,69,60015,6,0,P|401:49|464:49,1,104.999996795654,4|10,2:3|2:0,2:0:0:0:
484,88,60317,2,0,L|465:201,1,104.999996795654,0|4,0:0|2:3,0:0:0:0:
456,243,60619,1,10,2:0:0:0:
378,313,60820,2,0,P|328:333|265:333,1,104.999996795654,4|10,2:3|2:0,2:0:0:0:
234,304,61122,1,0,2:0:0:0:
143,357,61323,1,4,2:3:0:0:
143,357,61424,1,10,2:0:0:0:
59,294,61625,6,0,P|60:257|52:184,1,104.999996795654,4|10,1:0|2:0,1:0:0:0:
107,99,62030,1,4,2:3:0:0:
191,161,62233,1,10,2:0:0:0:
286,115,62435,1,4,2:3:0:0:
286,115,62535,2,0,L|401:109,1,104.999996795654,0|0,0:0|2:0,0:0:0:0:
438,132,62837,2,0,L|449:185,1,52.4999983978272,4|0,2:3|0:0,2:0:0:0:
461,235,63039,1,10,0:0:0:0:
371,289,63240,6,0,L|256:272,1,104.999996795654,4|10,2:3|2:0,2:0:0:0:
185,206,63643,2,0,P|165:249|171:318,1,104.999996795654,4|10,2:3|2:0,2:0:0:0:
267,273,64045,2,0,P|287:230|281:161,1,104.999996795654,6|8,2:3|1:2,2:0:0:0:
264,125,64347,1,8,1:2:0:0:
227,87,64448,2,0,L|152:97,1,52.4999983978272,8|8,1:2|1:2,0:0:0:0:
135,122,64649,2,0,L|60:112,1,52.4999983978272,8|8,1:2|1:2,2:0:0:0:
34,139,64869,6,0,P|40:183|40:245,1,100,2|10,2:0|2:0,2:0:0:0:
2,331,65274,2,0,L|5:383,2,50,0|4|10,2:0|2:3|2:0,0:0:0:0:
99,301,65679,2,0,L|219:312,1,100,4|10,2:3|2:0,2:0:0:0:
234,274,65979,2,0,P|243:224|234:174,1,100,0|4,2:0|2:3,0:0:0:0:
215,129,66279,1,10,2:0:0:0:
276,52,66479,6,0,P|320:49|380:75,2,100,4|10|0,2:3|2:0|2:0,2:0:0:0:
251,48,66989,1,4,2:3:0:0:
226,45,67091,1,10,2:0:0:0:
130,72,67295,2,0,L|117:180,1,100,4|10,2:3|2:0,2:0:0:0:
43,237,67701,2,0,L|51:303,2,50,4|4|10,2:3|2:3|2:0,0:0:0:0:
140,262,68107,6,0,P|191:262|241:282,1,100,4|10,2:3|2:0,2:0:0:0:
317,337,68512,1,4,2:3:0:0:
406,298,68715,1,10,2:0:0:0:
353,213,68917,1,4,2:3:0:0:
442,174,69120,1,10,2:0:0:0:
365,109,69323,2,0,L|374:9,1,100,4|10,2:3|2:0,0:0:0:0:
273,5,69728,6,0,L|263:104,1,100,4|10,2:3|2:0,2:0:0:0:
176,166,70130,2,0,L|184:232,2,50,0|4|10,2:0|2:3|2:0,0:0:0:0:
76,123,70533,2,0,L|65:243,1,100,4|10,2:3|2:0,2:0:0:0:
95,318,70936,1,0,2:0:0:0:
194,307,71137,1,10,2:0:0:0:
284,346,71338,6,0,P|339:347|389:322,1,100,4|10,2:3|2:0,2:0:0:0:
462,273,71746,2,0,P|489:285|515:310,2,50,0|4|10,2:0|2:3|2:0,0:0:0:0:
379,216,72154,2,0,P|315:221|271:217,1,100,4|10,2:3|2:0,2:0:0:0:
236,191,72460,2,0,L|223:88,1,100,0|4,2:0|2:3,0:0:0:0:
204,45,72766,1,10,2:0:0:0:
105,39,72970,6,0,B|51:47|51:47|2:37,2,100,4|10|0,2:3|2:0|2:0,2:0:0:0:
113,62,73483,1,4,2:3:0:0:
121,85,73583,1,10,2:0:0:0:
65,166,73783,2,0,P|87:206|98:271,1,100,4|10,2:3|2:0,2:0:0:0:
77,304,74088,2,0,P|115:294|180:290,1,100,0|4,2:0|2:3,0:0:0:0:
219,312,74392,1,10,2:0:0:0:
309,268,74595,6,0,P|357:267|411:266,1,100,4|10,2:3|2:0,2:0:0:0:
463,183,75000,1,4,2:3:0:0:
405,101,75203,1,10,2:0:0:0:
391,84,75304,1,4,2:3:0:0:
374,62,75405,2,0,P|326:63|272:64,1,100,4|10,2:3|2:0,2:0:0:0:
198,124,75811,2,0,P|182:97|177:67,2,50,0|4|10,2:0|2:3|2:0,0:0:0:0:
275,185,76216,6,0,L|282:245,1,50,4|0,2:3|2:0,2:0:0:0:
281,284,76419,1,10,2:0:0:0:
208,352,76622,2,0,P|137:361|103:344,1,100,4|8,2:3|2:0,0:0:0:0:
82,317,76926,1,4,2:3:0:0:
82,317,77027,6,0,P|92:260|99:207,1,100,6|8,2:3|1:2,2:0:0:0:
39,136,77427,2,0,P|38:102|48:75,1,50,8|8,1:2|1:2,0:0:0:0:
83,58,77624,2,0,L|134:63,1,50,8|8,1:2|1:2,0:0:0:0:
171,93,77822,6,0,L|280:83,1,100,6|10,2:3|2:0,2:0:0:0:
355,136,78227,2,0,B|376:179|376:179|363:237,1,100,4|10,2:3|2:0,2:0:0:0:
296,302,78632,2,0,L|187:312,1,100,4|10,2:3|2:0,2:0:0:0:
110,258,79038,2,0,B|89:215|89:215|102:157,1,100,4|10,2:3|2:0,2:0:0:0:
171,93,79443,6,0,L|280:83,1,100,4|10,2:3|2:0,2:0:0:0:
370,71,79849,1,4,2:3:0:0:
338,162,80051,1,10,2:0:0:0:
434,241,80259,5,6,2:3:0:0:
434,241,81064,6,0,B|389:245|369:217|369:217|333:240|289:216,2,150,12|8|8,2:1|2:0|2:0,2:0:0:0:
401,335,81874,2,0,L|294:320,1,100,8|2,2:0|2:0,2:0:0:0:
263,288,82178,2,0,L|156:303,1,100,8|2,2:0|2:0,2:0:0:0:
116,315,82482,1,8,2:0:0:0:
28,267,82687,6,0,P|5:217|14:168,1,100,12|0,2:0|3:0,2:0:0:0:
30,124,82995,2,0,P|74:94|169:117,1,150,8|8,2:0|2:0,2:0:0:0:
102,187,83489,2,0,B|143:197|143:197|201:190,1,100,0|10,3:0|1:2,2:0:0:0:
243,214,83802,1,0,1:0:0:0:
292,220,83911,2,0,L|299:274,1,50,10|0,1:2|1:0,0:0:0:0:
344,289,84122,2,0,L|351:343,1,50,0|0,1:2|1:0,0:0:0:0:
397,357,84325,6,0,P|454:369|508:302,2,150,12|8|8,2:1|2:0|2:0,2:0:0:0:
417,258,85135,2,0,P|433:215|455:163,1,100,10|2,2:0|2:0,0:0:0:0:
364,120,85537,2,0,P|348:77|326:25,1,100,2|10,2:0|2:0,0:0:0:0:
234,64,85940,6,0,P|182:119|60:98,1,200,12|0,2:0|2:0,2:0:0:0:
18,191,86548,1,8,2:0:0:0:
17,215,86649,1,2,2:0:0:0:
14,240,86750,2,0,L|120:235,1,100,8|0,2:0|2:0,2:0:0:0:
209,205,87150,2,0,P|211:245|204:274,2,50,0|0|8,2:0|2:0|2:0,0:0:0:0:
292,153,87550,6,0,B|340:141|340:141|448:167,2,150,12|8|8,2:1|2:0|2:0,2:0:0:0:
250,60,88371,2,0,B|323:41|323:41|363:45,1,100,8|2,2:0|2:0,2:0:0:0:
394,62,88675,2,0,L|498:91,1,100,8|2,2:0|2:0,2:0:0:0:
505,136,88979,1,8,2:0:0:0:
442,216,89181,6,0,P|391:268|399:357,2,150,12|8|8,2:0|2:0|2:0,2:0:0:0:
359,169,89970,2,0,L|252:189,1,100,8|8,3:0|1:0,0:0:0:0:
213,202,90282,1,8,1:0:0:0:
164,213,90386,2,0,L|171:271,2,50,0|8|8,2:0|1:0|2:0,0:0:0:0:
121,118,90803,6,4,P|70:97|24:168,2,150,12|8|8,2:1|2:0|2:0,2:1:0:0:
212,85,91613,2,0,P|300:82|384:80,2,150,12|8|8,2:0|2:0|2:0,1:0:0:0:
197,187,92440,6,0,P|285:190|367:193,2,150,12|8|8,2:1|2:0|2:0,1:0:0:0:
112,256,93260,2,0,P|154:275|185:332,1,100,4|8,2:0|1:2,2:0:0:0:
214,357,93564,1,8,1:2:0:0:
263,351,93665,2,0,L|313:349,1,50,8|8,1:2|1:2,0:0:0:0:
353,318,93868,2,0,L|403:320,1,50,8|8,1:2|1:2,0:0:0:0:
449,342,94070,5,0,3:0:0:0:
502,258,94264,2,0,P|507:228|487:154,1,100,12|0,2:0|3:0,2:0:0:0:
411,106,94654,2,0,P|376:131|305:132,1,100,12|0,2:0|3:0,2:0:0:0:
237,81,95058,2,0,P|202:56|131:55,1,100,12|0,2:0|3:0,2:0:0:0:
58,99,95464,6,0,P|94:169|136:296,1,200,12|10,2:0|2:0,2:0:0:0:
128,383,96072,2,0,P|167:379|212:334,1,100,0|8,2:0|2:0,2:0:0:0:
215,238,96477,1,2,3:2:0:0:
280,168,96679,1,10,2:0:0:0:
371,195,96882,1,2,3:2:0:0:
391,288,97085,1,10,2:0:0:0:
317,348,97287,5,0,3:0:0:0:
410,310,97491,2,0,P|463:289|511:272,1,100,12|0,2:0|3:0,2:0:0:0:
503,174,97896,2,0,P|455:157|409:138,1,100,12|0,2:0|3:0,2:0:0:0:
315,172,98301,2,0,P|334:219|312:279,1,100,12|0,2:0|3:0,2:0:0:0:
239,327,98707,5,12,2:0:0:0:
58,245,99103,1,10,2:0:0:0:
137,183,99303,2,0,L|145:74,1,100,2|10,3:2|3:2,2:0:0:0:
232,40,99703,1,2,3:2:0:0:
328,26,99907,1,10,2:0:0:0:
408,83,100111,1,2,3:2:0:0:
426,179,100315,1,10,2:0:0:0:
374,262,100519,5,0,3:0:0:0:
286,221,100723,2,0,L|258:328,1,100,12|0,2:0|3:0,2:0:0:0:
160,322,101145,2,0,L|185:225,1,100,12|0,2:0|3:0,2:0:0:0:
99,174,101558,2,0,L|73:270,1,100,12|0,2:0|3:0,2:0:0:0:
3,199,101964,6,0,L|54:1,1,200,12|10,2:0|2:0,2:0:0:0:
144,45,102576,2,0,P|208:59|260:49,1,100,0|8,2:0|2:0,0:0:0:0:
343,39,102987,2,0,P|343:92|340:141,1,100,0|8,3:0|2:0,2:0:0:0:
251,184,103387,1,2,2:0:0:0:
274,281,103587,1,10,2:0:0:0:
363,238,103787,6,0,P|428:227|431:344,1,200,4|0,2:0|2:0,2:0:0:0:
352,369,104391,1,8,2:0:0:0:
271,310,104592,2,0,P|209:318|164:334,1,100,0|8,3:0|2:0,2:0:0:0:
87,278,104995,1,0,2:0:0:0:
74,256,105095,1,0,3:0:0:0:
60,234,105196,1,8,2:0:0:0:
90,138,105397,6,0,P|152:146|198:164,1,100,0|8,3:0|2:0,2:0:0:0:
259,85,105797,2,0,P|303:85|324:78,1,50,0|0,2:0|3:0,0:0:0:0:
353,62,105990,1,8,2:0:0:0:
440,116,106209,2,0,P|446:193|458:231,1,100,4|8,2:0|1:2,0:0:0:0:
422,254,106513,1,8,1:2:0:0:
388,289,106614,2,0,L|327:291,1,50,8|8,1:2|1:2,0:0:0:0:
302,255,106817,2,0,L|241:252,1,50,8|8,1:2|1:2,0:0:0:0:
206,271,107019,5,4,2:0:0:0:
72,71,119196,6,0,L|186:67,1,100,2|8,2:0|1:2,2:0:0:0:
216,90,119500,1,8,1:2:0:0:
257,122,119601,2,0,L|255:181,1,50,8|8,1:0|1:0,0:0:0:0:
219,206,119792,2,0,L|221:265,1,50,8|8,1:0|1:0,0:0:0:0:
251,291,119983,6,0,P|297:292|362:299,1,100,4|8,2:1|2:0,2:0:0:0:
444,262,120393,2,0,L|449:316,2,50,0|0|8,2:0|3:0|2:0,0:0:0:0:
367,195,120804,2,0,P|350:145|386:108,1,100,2|8,3:2|2:0,2:0:0:0:
413,77,121108,2,0,P|369:68|307:41,1,100,2|0,2:0|3:0,0:0:0:0:
267,50,121412,1,10,2:0:0:0:
174,87,121614,6,0,B|122:77|125:104|69:91,2,100,0|8|0,3:0|2:0|2:0,2:0:0:0:
193,102,122121,1,0,3:0:0:0:
212,117,122222,1,8,2:0:0:0:
264,203,122425,2,0,P|240:291|237:320,1,100,2|8,3:2|2:0,2:0:0:0:
271,337,122727,2,0,P|319:353|372:336,1,100,2|0,2:0|3:0,0:0:0:0:
397,302,123029,1,10,2:0:0:0:
458,226,123230,6,0,B|453:184|453:184|466:123,1,100,0|10,3:0|2:0,2:0:0:0:
403,49,123640,1,0,3:0:0:0:
323,110,123846,1,10,2:0:0:0:
369,198,124051,1,2,3:2:0:0:
289,259,124257,1,8,2:0:0:0:
205,203,124462,2,0,P|189:258|203:317,1,100,0|8,2:0|2:0,0:0:0:0:
120,369,124873,6,0,P|74:361|19:350,1,100,0|10,3:0|2:0,2:0:0:0:
5,252,125275,1,0,3:0:0:0:
38,157,125477,1,10,2:0:0:0:
59,144,125578,1,0,2:0:0:0:
79,130,125678,2,0,L|182:126,1,100,4|8,2:1|2:0,2:0:0:0:
263,72,126081,2,0,L|258:14,2,50,0|0|8,2:0|3:0|2:0,0:0:0:0:
346,135,126494,6,0,P|313:169|292:219,1,100,4|8,2:1|2:0,2:0:0:0:
362,288,126896,2,0,P|402:275|425:274,2,50,0|0|8,2:0|3:0|2:0,0:0:0:0:
264,311,127299,2,0,P|207:312|163:274,1,100,2|8,3:2|2:0,2:0:0:0:
151,243,127601,2,0,P|166:195|166:142,1,100,2|0,2:0|3:0,0:0:0:0:
142,101,127903,1,10,2:0:0:0:
45,127,128104,6,0,B|22:104|19:65|19:65|37:27,2,100,0|8|0,3:0|2:0|2:0,2:0:0:0:
37,150,128604,1,0,3:0:0:0:
29,173,128704,1,8,2:0:0:0:
90,250,128904,2,0,P|119:241|190:238,1,100,2|8,3:2|2:0,2:0:0:0:
235,253,129208,2,0,P|260:192|275:149,1,100,2|0,2:0|3:0,0:0:0:0:
299,118,129512,1,10,2:0:0:0:
394,86,129714,6,0,P|466:103|487:125,1,100,0|10,3:0|2:0,2:0:0:0:
506,217,130114,1,2,3:2:0:0:
445,296,130314,1,10,2:0:0:0:
426,313,130414,1,2,3:2:0:0:
406,329,130514,2,0,P|356:324|316:295,1,100,2|10,3:2|2:0,2:0:0:0:
252,218,130927,2,0,L|262:105,1,100,0|8,3:0|2:0,2:0:0:0:
199,36,131341,6,0,P|149:41|109:70,1,100,0|8,3:0|2:0,2:0:0:0:
73,163,131746,1,0,3:0:0:0:
111,255,131949,1,8,2:0:0:0:
66,343,132151,2,0,L|167:338,1,100,4|8,2:1|1:0,0:0:0:0:
207,310,132457,1,8,1:0:0:0:
238,271,132559,2,0,L|243:206,1,50,0|0,1:0|1:0,0:0:0:0:
277,186,132763,2,0,L|272:121,1,50,8|8,1:0|1:0,0:0:0:0:
297,92,132967,6,0,B|332:78|332:78|413:86,1,100,6|10,3:0|2:0,2:0:0:0:
464,155,133377,2,0,P|447:198|446:269,1,100,4|10,2:3|2:0,2:0:0:0:
369,318,133788,2,0,B|334:332|334:332|253:324,1,100,4|10,2:3|2:0,2:0:0:0:
209,247,134198,2,0,P|206:197|188:150,1,100,4|10,2:3|2:0,2:0:0:0:
121,83,134643,5,6,2:3:0:0:
200,32,134897,1,0,0:0:0:0:
274,79,135206,2,0,P|265:121|262:183,1,100,8|0,2:0|0:0,0:0:0:0:
317,245,135909,1,0,3:0:0:0:
427,186,136415,1,0,2:0:0:0:
473,249,136719,2,0,P|442:291|424:340,1,100,0|0,3:0|3:0,0:0:0:0:
256,192,137679,5,4,2:0:0:0:
256,192,137843,12,0,145562,2:0:0:0:
