osu file format v14

[General]
AudioFilename: audio.mp3
AudioLeadIn: 0
PreviewTime: 77797
Countdown: 0
SampleSet: Soft
StackLeniency: 1
Mode: 0
LetterboxInBreaks: 0
WidescreenStoryboard: 1

[Editor]
DistanceSpacing: 1.5
BeatDivisor: 4
GridSize: 32
TimelineZoom: 2.6

[Metadata]
Title:DVP
TitleUnicode:DVP
Artist:PUP
ArtistUnicode:PUP
Creator:attendant
Version:Insane
Source:
Tags:english indie punk rock the dream is over pathetic use of potential don valley parkway park way featured artist fa
BeatmapID:3029745
BeatmapSetID:1442963

[Difficulty]
HPDrainRate:4.5
CircleSize:4.3
OverallDifficulty:8
ApproachRate:9
SliderMultiplier:1.2
SliderTickRate:0.5

[Events]
//Background and Video events
0,0,"y.jpg",0,0
//Break Periods
//Storyboard Layer 0 (Background)
//Storyboard Layer 1 (Fail)
//Storyboard Layer 2 (Pass)
//Storyboard Layer 3 (Foreground)
//Storyboard Layer 4 (Overlay)
//Storyboard Sound Samples

[TimingPoints]
0,202.702702702703,4,2,41,85,1,0
0,-100,4,2,41,85,0,1
1013,196.078431372549,4,2,41,85,1,1
1601,204.081632653061,4,2,41,85,1,1
3233,205.479452054795,4,2,41,85,1,1
4465,200,4,2,41,85,1,1
4865,202.702702702703,4,2,41,85,1,1
5878,-100,4,2,1,85,0,1
6486,-100,4,2,41,85,0,1
11351,198.675496688742,4,2,41,85,1,1
12145,200,4,2,41,85,1,1
12945,204.081632653061,4,2,1,45,1,0
13149,-100,4,2,1,50,0,0
13353,-133.333333333333,4,2,1,55,0,0
13557,-133.333333333333,4,2,1,60,0,0
13761,-133.333333333333,4,2,1,65,0,0
13965,201.342281879195,4,2,1,70,1,0
14166,-133.333333333333,4,2,1,75,0,0
14367,-133.333333333333,4,2,1,80,0,0
14569,201.342281879195,4,2,1,85,1,0
14770,-100,4,2,1,90,0,0
14971,-100,4,2,1,95,0,0
15173,-100,4,2,1,100,0,0
15374,205.479452054795,4,2,41,85,1,0
15579,-100,4,2,1,85,0,0
16195,202.702702702703,4,2,41,75,1,0
17309,-100,4,2,1,75,0,0
17613,-100,4,2,41,75,0,0
17816,206.896551724138,4,2,41,75,1,0
18643,202.702702702703,4,2,41,75,1,0
21278,197.368421052632,4,2,41,75,1,0
22166,-100,4,2,1,75,0,0
22462,202.702702702703,4,2,41,75,1,0
22664,204.081632653061,4,2,41,75,1,0
23786,-100,4,2,1,75,0,0
24092,-100,4,2,41,75,0,0
24296,222.222222222222,4,2,41,75,1,0
24740,198.675496688742,4,2,41,75,1,0
25336,202.702702702703,4,2,41,75,1,0
25944,202.702702702703,4,2,1,85,1,0
26754,200,4,2,1,85,1,0
28954,222.222222222222,4,2,1,85,1,0
29176,202.702702702703,4,2,42,65,1,0
29176,-125,4,2,42,65,0,0
32216,192.307692307692,4,2,42,65,1,0
32216,-125,4,2,42,65,0,0
32408,214.285714285714,4,2,42,65,1,0
32408,-125,4,2,42,65,0,0
32622,202.702702702703,4,2,42,65,1,0
32622,-125,4,2,42,65,0,0
33027,205.479452054795,4,2,42,65,1,0
33027,-125,4,2,42,65,0,0
33643,201.342281879195,4,2,42,65,1,0
33844,-125,4,2,42,65,0,0
34045,201.342281879195,4,2,42,65,1,0
34246,-125,4,2,42,65,0,0
35253,197.368421052632,4,2,42,65,1,0
35450,-125,4,2,42,65,0,0
35647,202.702702702703,4,2,42,65,1,0
35647,-125,4,2,42,65,0,0
36457,208.333333333333,4,2,42,65,1,0
36665,-125,4,2,42,65,0,0
37082,191.082802547771,4,2,42,65,1,0
37082,-125,4,2,42,65,0,0
37273,208.333333333333,4,2,42,65,1,0
37273,-125,4,2,42,65,0,0
37689,205.831903945111,4,2,42,65,1,0
37894,-125,4,2,42,65,0,0
38100,202.702702702703,4,2,42,65,1,0
38100,-125,4,2,42,65,0,0
38910,201.342281879195,4,2,42,65,1,0
38910,-125,4,2,42,65,0,0
40520,202.702702702703,4,2,42,65,1,0
40520,-125,4,2,42,65,0,0
41533,194.805194805195,4,2,1,85,1,0
42117,229.007633587786,4,2,1,85,1,0
42346,202.702702702703,4,2,1,85,1,0
43967,200,4,2,1,85,1,0
43967,-83.3333333333333,4,2,1,85,0,0
44367,212.765957446809,4,2,1,85,1,0
44367,-83.3333333333333,4,2,1,85,0,0
44579,202.702702702703,4,2,1,85,1,0
45389,206.896551724138,4,2,41,65,1,0
45595,-125,4,2,42,65,0,0
46009,194.805194805195,4,2,42,65,1,0
46009,-125,4,2,42,65,0,0
46203,202.702702702703,4,2,42,65,1,0
46405,-125,4,2,42,65,0,0
47824,205.479452054795,4,2,42,65,1,0
47824,-125,4,2,42,65,0,0
49467,201.342281879195,4,2,42,75,1,0
49668,-100,4,2,1,75,0,0
50272,205.479452054795,4,2,41,85,1,0
51025,-100,4,2,41,55,0,0
51161,-100,4,2,1,65,0,0
51299,197.368421052632,4,2,1,75,1,0
51595,-100,4,2,1,85,0,0
51891,202.702702702703,4,2,41,85,1,0
52904,200,4,2,41,85,1,0
53504,202.702702702703,4,2,41,85,1,0
55125,206.896551724138,4,2,41,85,1,0
55952,202.702702702703,4,2,41,85,1,0
56762,-100,4,2,1,100,0,0
58384,-100,4,2,41,85,0,0
59803,212.765957446809,4,2,41,85,1,0
60015,201.342281879195,4,2,41,85,1,0
61625,202.702702702703,4,2,1,85,1,0
62435,201.342281879195,4,2,1,85,1,0
64649,220.588235294118,4,2,1,85,1,0
64869,202.702702702703,4,2,1,75,1,0
65071,-125,4,2,42,75,0,0
65679,200,4,2,42,75,1,0
65679,-125,4,2,42,75,0,0
66479,204.081632653061,4,2,42,75,1,0
66479,-125,4,2,42,75,0,0
67499,202.702702702703,4,2,42,75,1,0
67499,-125,4,2,42,75,0,0
68107,202.702702702703,4,2,42,75,1,0
68107,-125,4,2,42,75,0,0
69728,201.342281879195,4,2,42,75,1,0
69929,-125,4,2,42,75,0,0
71338,204.081632653061,4,2,42,75,1,0
71338,-125,4,2,42,75,0,0
72970,206.896551724138,4,2,42,75,1,0
72970,-125,4,2,42,75,0,0
73383,200,4,2,42,75,1,0
73583,-125,4,2,42,75,0,0
73783,203.735144312394,4,2,42,75,1,0
73783,-125,4,2,42,75,0,0
74190,202.702702702703,4,2,42,75,1,0
74392,-125,4,2,42,75,0,0
74595,202.702702702703,4,2,42,75,1,0
74595,-125,4,2,42,75,0,0
77230,197.368421052632,4,2,1,85,1,0
77822,202.702702702703,4,2,1,85,1,0
79646,-83.3333333333333,4,2,1,85,0,0
80051,208.333333333333,4,2,1,85,1,0
80051,-83.3333333333333,4,2,1,85,0,0
80259,-83.3333333333333,4,2,41,85,0,0
80780,189.873417721519,4,2,41,85,1,0
81064,202.702702702703,4,2,41,85,1,1
82482,205.479452054795,4,2,41,85,1,1
82995,193.548387096774,4,2,41,85,1,1
83285,206.896551724138,4,2,41,85,1,1
83698,215.05376344086,4,2,1,85,1,1
84021,202.702702702703,4,2,1,85,1,1
84325,202.702702702703,4,2,41,85,1,1
85135,201.342281879195,4,2,41,85,1,1
85940,202.702702702703,4,2,41,85,1,1
86750,200,4,2,41,85,1,1
87550,205.479452054795,4,2,41,85,1,1
88371,202.702702702703,4,2,41,85,1,1
89181,197.368421052632,4,2,41,85,1,1
89970,208.333333333333,4,2,41,85,1,1
90178,-100,4,2,1,85,0,1
90803,202.702702702703,4,2,41,85,1,1
91613,206.896551724138,4,2,41,85,1,1
91613,-90.9090909090909,4,2,41,85,0,1
92440,200,4,2,41,85,1,1
92440,-83.3333333333333,4,2,41,85,0,1
93040,220.588235294118,4,2,41,85,1,1
93040,-83.3333333333333,4,2,41,85,0,1
93260,202.702702702703,4,2,41,85,1,0
93462,-100,4,2,1,85,0,0
94070,194.805194805195,4,2,1,85,1,0
94654,202.702702702703,4,2,1,85,1,0
94856,202.702702702703,4,2,1,85,1,0
95666,-100,4,2,41,85,0,0
97491,-100,4,2,1,85,0,0
98707,196.078431372549,4,2,1,85,1,0
98903,200,4,2,41,85,1,0
99703,204.081632653061,4,2,41,85,1,0
100723,211.267605633803,4,2,1,85,1,0
101356,202.702702702703,4,2,1,85,1,0
101964,204.081632653061,4,2,1,85,1,0
102168,-100,4,2,41,85,0,0
102780,207.612456747405,4,2,41,85,1,0
102987,200,4,2,41,85,1,0
103787,201.342281879195,4,2,41,75,1,0
105397,200,4,2,41,75,1,0
105797,168.539325842697,4,2,41,75,1,0
105881,218.978102189781,4,2,41,75,1,0
106209,202.702702702703,4,2,1,85,1,0
107019,-125,4,2,1,65,0,0
107425,212.765957446809,4,2,1,65,1,0
107744,192.307692307692,4,2,1,65,1,0
108032,200,4,2,1,65,1,0
108032,-125,4,2,1,65,0,0
108632,209.79020979021,4,2,1,65,1,0
108632,-125,4,2,1,65,0,0
109366,192.307692307692,4,2,1,65,1,0
109654,202.702702702703,4,2,1,65,1,0
109654,-125,4,2,1,65,0,0
110262,209.79020979021,4,2,1,65,1,0
110262,-125,4,2,1,65,0,0
110996,191.082802547771,4,2,1,65,1,0
111282,200,4,2,1,65,1,0
111282,-125,4,2,1,65,0,0
111882,202.702702702703,4,2,1,65,1,0
111882,-125,4,2,1,65,0,0
112692,212.765957446809,4,2,1,65,1,0
113330,189.873417721519,4,2,1,65,1,0
113519,205.479452054795,4,2,1,65,1,0
113519,-125,4,2,1,65,0,0
114238,202.702702702703,4,2,1,65,1,0
114542,-125,4,2,1,65,0,0
114846,197.368421052632,4,2,1,65,1,0
114846,-125,4,2,1,65,0,0
115142,204.081632653061,4,2,1,65,1,0
115142,-125,4,2,1,65,0,0
115856,192.307692307692,4,2,1,65,1,0
116144,202.702702702703,4,2,1,65,1,0
116144,-125,4,2,1,65,0,0
116752,202.702702702703,4,2,1,65,1,0
116752,-125,4,2,1,65,0,0
117765,204.081632653061,4,2,1,65,1,0
117765,-125,4,2,1,65,0,0
118377,200,4,2,1,65,1,0
118377,-125,4,2,1,65,0,0
119077,238.095238095238,4,2,1,85,1,0
119196,202.702702702703,4,2,1,85,1,0
119196,-125,4,2,1,85,0,0
119601,191.082802547771,4,2,1,85,1,0
119983,205.479452054795,4,2,41,85,1,0
120804,202.702702702703,4,2,41,85,1,0
122425,201.342281879195,4,2,41,85,1,0
123230,205.479452054795,4,2,41,85,1,0
124873,201.342281879195,4,2,41,85,1,0
126282,212.765957446809,4,2,1,85,1,0
126494,201.342281879195,4,2,41,85,1,0
128104,200,4,2,41,85,1,0
128904,202.702702702703,4,2,41,85,1,0
129714,200,4,2,41,85,1,0
130514,206.896551724138,4,2,41,85,1,0
131341,202.702702702703,4,2,41,85,1,0
132151,204.081632653061,4,2,1,85,1,0
132967,205.479452054795,4,2,1,85,1,0
133994,204.081632653061,4,2,1,85,1,0
134402,241.935483870968,4,2,1,85,1,0
134643,254.237288135593,4,2,41,85,1,0
134897,270.27027027027,4,2,41,85,1,0
135032,348.837209302326,4,2,41,65,1,0
135729,361.44578313253,4,2,41,65,1,0
135909,405.405405405405,4,2,41,65,1,0
136719,384.615384615385,4,2,41,65,1,0
137103,576.923076923077,4,2,41,65,1,0
137679,656.994251300301,4,2,41,100,1,0

[Colours]
Combo1 : 182,173,201
Combo2 : 202,128,145
Combo3 : 243,152,139
Combo4 : 220,124,141

[HitObjects]
279,11,0,6,0,L|268:141,1,120,14|2,1:2|3:2,2:0:0:0:
216,180,304,2,0,L|239:308,1,120,10|2,1:2|3:2,2:0:0:0:
287,350,608,2,0,P|319:355|357:359,1,60,10|2,1:2|3:2,2:0:0:0:
388,299,810,2,0,P|420:294|458:290,1,60,10|2,1:2|3:2,2:0:0:0:
494,214,1013,1,2,3:0:0:0:
494,214,1111,2,0,L|485:143,1,60,10|2,1:2|3:2,2:0:0:0:
423,114,1307,1,2,3:0:0:0:
423,114,1405,2,0,L|432:43,1,60,10|2,1:2|3:2,2:0:0:0:
310,29,1601,6,0,P|337:17|366:10,2,60,14|2|2,1:2|3:2|3:2,2:0:0:0:
230,15,1907,2,0,P|242:77|253:156,1,120,10|2,1:2|3:2,2:0:0:0:
199,282,2213,1,10,1:2:0:0:
199,282,2315,1,2,3:2:0:0:
199,282,2417,2,0,P|133:275|73:211,1,120,10|2,1:2|3:0,2:0:0:0:
140,130,2723,2,0,P|149:170|150:201,1,60,10|2,1:2|3:2,2:0:0:0:
58,169,2927,1,2,3:0:0:0:
58,169,3029,2,0,P|49:129|48:98,1,60,10|2,1:2|3:2,2:0:0:0:
136,28,3233,6,0,P|235:47|336:58,2,180,14|10|10,1:2|1:2|1:2,2:0:0:0:
42,203,4054,2,0,B|20:239|20:239|38:325,1,120,14|2,1:2|3:2,2:0:0:0:
118,336,4363,2,0,P|151:327|196:311,1,60,10|2,1:2|3:0,2:0:0:0:
260,353,4565,1,2,3:2:0:0:
260,353,4665,2,0,P|293:361|338:378,1,60,10|2,1:2|3:0,2:0:0:0:
394,248,4865,6,0,P|355:271|232:193,2,180,14|10|10,1:2|1:2|1:2,2:0:0:0:
435,168,5574,1,2,3:0:0:0:
435,168,5675,2,0,P|423:109|419:44,1,120,14|10,1:2|1:2,2:0:0:0:
306,130,5979,1,10,1:2:0:0:
277,139,6081,1,10,1:2:0:0:
247,140,6182,1,10,1:2:0:0:
218,130,6283,1,14,1:3:0:0:
194,110,6385,1,6,1:3:0:0:
181,82,6486,5,14,1:2:0:0:
41,316,6790,2,0,P|86:314|196:316,1,120,10|2,1:2|3:2,2:0:0:0:
283,384,7094,2,0,P|269:357|264:308,1,60,10|2,1:2|3:2,2:0:0:0:
283,237,7297,2,0,P|299:211|339:182,1,60,10|2,1:2|3:2,2:0:0:0:
413,163,7500,1,2,3:0:0:0:
413,163,7601,2,0,L|404:102,1,60,10|2,1:2|3:2,2:0:0:0:
328,26,7804,1,2,3:0:0:0:
328,26,7905,1,10,1:2:0:0:
328,26,8006,1,2,3:2:0:0:
328,26,8108,6,0,P|270:45|189:63,1,120,14|2,1:2|3:2,2:0:0:0:
143,24,8412,2,0,P|115:75|128:142,1,120,10|2,1:2|3:2,2:0:0:0:
195,170,8716,2,0,P|205:217|202:249,1,60,10|2,1:2|3:2,2:0:0:0:
142,288,8919,2,0,P|132:335|135:367,1,60,10|2,1:2|3:2,2:0:0:0:
229,375,9121,1,2,3:0:0:0:
229,375,9223,2,0,L|305:356,1,60,10|2,1:2|3:2,2:0:0:0:
406,361,9425,1,2,3:0:0:0:
406,361,9527,2,0,L|482:380,1,60,10|2,1:2|3:2,2:0:0:0:
445,267,9729,6,0,P|434:163|436:69,2,180,14|10|10,1:2|1:2|1:2,2:0:0:0:
341,110,10540,2,0,P|314:96|279:88,1,60,14|2,1:2|3:0,2:0:0:0:
203,88,10743,1,2,3:2:0:0:
203,88,10844,2,0,P|174:94|141:109,1,60,10|2,1:2|3:0,2:0:0:0:
91,171,11047,1,2,3:2:0:0:
83,199,11148,1,10,1:2:0:0:
82,229,11250,1,2,3:0:0:0:
90,258,11351,5,14,1:2:0:0:
245,168,11649,1,10,1:2:0:0:
43,53,11947,2,0,P|35:85|31:121,1,60,10|2,1:2|3:2,2:0:0:0:
3,188,12145,2,0,P|5:264|9:329,1,120,14|2,1:2|3:2,2:0:0:0:
73,363,12445,2,0,B|120:319|120:319|251:352,1,180,10|10,1:2|1:2,2:0:0:0:
232,347,12845,1,2,3:0:0:0:
232,347,12945,5,14,1:2:0:0:
312,374,13149,1,6,1:3:0:0:
282,231,13353,2,0,P|238:243|187:253,1,90.0000000000002,14|6,1:3|1:3,2:0:0:0:
402,173,13761,5,14,1:2:0:0:
429,64,13965,1,10,1:2:0:0:
273,140,14166,2,0,P|268:103|263:42,1,90.0000000000002,14|10,1:3|1:2,2:0:0:0:
21,221,14569,5,14,1:2:0:0:
119,176,14770,1,10,1:2:0:0:
194,252,14971,1,14,1:3:0:0:
96,297,15173,1,10,1:2:0:0:
21,221,15374,6,0,P|20:161|16:101,1,120,14|8,1:2|1:2,2:0:0:0:
99,11,15682,1,8,1:2:0:0:
133,1,15784,1,8,1:2:0:0:
168,8,15887,1,8,1:2:0:0:
197,29,15990,1,12,1:3:0:0:
227,49,16093,1,4,1:3:0:0:
263,50,16195,5,4,1:2:0:0:
445,79,16397,2,0,P|402:107|381:188,1,120,10|2,1:2|3:2,2:0:0:0:
452,273,16701,1,0,1:2:0:0:
452,273,16803,2,0,P|462:244|462:192,1,60,10|0,1:2|2:0,2:0:0:0:
361,256,17005,2,0,P|351:285|351:337,1,60,2|0,1:2|2:0,2:0:0:0:
281,201,17208,1,10,1:2:0:0:
281,201,17309,2,0,P|210:226|143:241,1,120,6|0,1:2|1:2,2:0:0:0:
79,264,17613,2,0,P|72:303|64:340,1,60,10|0,1:2|2:0,2:0:0:0:
26,186,17816,6,0,P|19:146|18:107,1,60,6|0,1:2|2:0,2:0:0:0:
87,57,18022,2,0,B|173:40|178:111|270:110,1,180,10|0,1:2|1:2,2:0:0:0:
355,101,18436,2,0,P|394:94|434:93,1,60,10|0,1:2|2:0,2:0:0:0:
484,171,18643,1,0,1:2:0:0:
453,195,18744,1,0,1:2:0:0:
420,216,18845,2,0,B|366:248|366:248|259:199,1,180,10|0,1:2|1:2,2:0:0:0:
225,273,19251,2,0,P|222:297|207:331,1,60,10|0,1:2|2:0,2:0:0:0:
329,382,19453,6,0,P|332:358|347:324,1,60,2|0,1:3|2:0,2:0:0:0:
348,130,19656,2,0,P|350:190|365:247,1,120,10|2,1:2|3:2,2:0:0:0:
485,317,19960,1,2,1:2:0:0:
485,317,20061,2,0,P|450:306|407:304,1,60,8|2,1:2|3:2,2:0:0:0:
284,260,20264,2,0,P|254:263|225:273,1,60,2|0,1:2|2:0,2:0:0:0:
131,340,20467,2,0,P|123:250|119:160,1,180,10|2,1:2|1:2,2:0:0:0:
265,84,20872,2,0,B|351:67|356:138|448:137,1,180,8|0,1:2|2:0,2:0:0:0:
407,219,21278,6,0,P|378:245|346:325,1,120,10|2,1:2|3:2,2:0:0:0:
289,225,21574,1,0,1:2:0:0:
289,225,21672,2,0,P|281:188|263:161,1,60,10|0,1:2|2:0,2:0:0:0:
182,116,21870,2,0,P|145:123|117:142,1,60,6|0,1:2|2:0,2:0:0:0:
173,323,22067,1,10,1:2:0:0:
173,323,22166,2,0,B|196:288|196:288|185:211,1,120,6|2,1:2|1:2,2:0:0:0:
96,238,22462,2,0,P|90:268|86:303,1,60,10|0,1:2|2:0,2:0:0:0:
255,372,22664,5,6,1:2:0:0:
291,380,22766,1,0,1:2:0:0:
324,370,22868,2,0,P|387:366|446:378,2,120,10|2|8,1:2|3:2|1:2,2:0:0:0:
94,332,23480,2,0,L|19:357,1,60,2|0,1:2|2:0,2:0:0:0:
11,242,23684,1,10,1:2:0:0:
11,242,23786,2,0,L|36:167,1,60,6|0,1:2|2:0,2:0:0:0:
79,66,23990,1,2,1:2:0:0:
79,66,24092,2,0,P|120:48|156:48,1,60,8|0,1:2|2:0,2:0:0:0:
232,137,24296,6,0,P|249:178|250:214,1,60,6|0,1:2|2:0,2:0:0:0:
312,282,24518,2,0,B|407:234|417:312|502:308,1,173.52,10|0,1:2|1:2,2:0:0:0:
496,230,24938,2,0,P|486:199|485:168,1,60,10|0,1:2|2:0,2:0:0:0:
358,83,25137,2,0,P|368:114|369:145,1,60,2|0,1:3|2:0,2:0:0:0:
312,282,25336,2,0,B|217:234|207:312|122:308,1,180,10|0,1:2|1:2,2:0:0:0:
95,245,25741,2,0,P|105:214|106:183,1,60,10|0,1:2|2:0,2:0:0:0:
26,55,25944,6,0,L|162:24,1,120,6|10,1:2|1:2,2:0:0:0:
220,64,26248,1,0,1:2:0:0:
220,64,26349,2,0,L|289:75,1,60,6|0,1:2|2:0,2:0:0:0:
328,9,26552,2,0,L|397:-2,1,60,10|0,1:2|2:0,2:0:0:0:
486,167,26754,6,0,L|350:136,1,120,6|10,1:2|1:2,2:0:0:0:
292,176,27054,1,0,1:0:0:0:
292,176,27154,2,0,L|223:187,1,60,6|2,1:2|0:0,2:0:0:0:
175,129,27354,2,0,L|106:118,1,60,10|2,1:2|2:0,2:0:0:0:
26,284,27554,6,0,L|162:253,1,120,6|10,1:2|1:2,2:0:0:0:
220,293,27854,1,2,1:2:0:0:
220,293,27954,2,0,L|289:304,1,60,6|0,1:2|0:0,2:0:0:0:
337,246,28154,2,0,L|406:235,1,60,10|0,1:2|0:0,2:0:0:0:
512,285,28354,1,6,1:2:0:0:
508,35,28554,5,10,1:2:0:0:
474,22,28654,1,10,1:2:0:0:
438,22,28754,1,8,1:2:0:0:
405,36,28854,1,10,1:2:0:0:
385,61,28954,1,12,1:3:0:0:
376,95,29065,1,4,1:3:0:0:
388,141,29176,6,0,P|396:196|394:252,1,96,6|10,1:2|1:2,2:0:0:0:
272,357,29682,1,0,1:2:0:0:
272,357,29784,2,0,P|218:368|170:390,1,96,8|0,1:2|1:2,2:0:0:0:
46,361,30189,2,0,P|33:312|9:265,1,96,10|2,1:2|3:2,2:0:0:0:
13,271,30493,1,0,1:2:0:0:
13,271,30594,2,0,L|20:209,1,48,10|0,1:2|2:0,2:0:0:0:
60,155,30797,6,0,L|53:93,1,48,2|0,1:2|2:0,2:0:0:0:
117,51,31000,2,0,B|186:39|192:92|246:101,1,144,10|0,1:2|1:2,2:0:0:0:
276,170,31405,2,0,P|304:163|323:164,1,48,8|0,1:2|2:0,2:0:0:0:
390,130,31608,2,0,P|417:141|431:152,1,48,0|0,1:2|2:0,2:0:0:0:
472,231,31811,2,0,P|458:279|453:329,1,96,10|2,1:2|3:2,2:0:0:0:
453,324,32115,1,0,1:2:0:0:
453,324,32216,2,0,L|392:346,1,48,10|0,1:2|2:0,2:0:0:0:
344,380,32408,6,0,L|280:374,1,48,2|0,1:2|2:0,2:0:0:0:
244,336,32622,2,0,P|194:335|141:354,1,96,10|2,1:2|3:2,2:0:0:0:
150,348,32926,1,0,1:2:0:0:
150,348,33027,2,0,L|135:284,1,48,10|0,1:2|2:0,2:0:0:0:
78,253,33232,2,0,L|93:189,1,48,2|0,1:2|2:0,2:0:0:0:
171,192,33437,1,10,1:2:0:0:
171,192,33540,1,0,1:2:0:0:
338,228,33743,1,2,1:2:0:0:
338,228,33844,2,0,L|404:212,1,48,8|0,1:2|2:0,2:0:0:0:
459,197,34045,5,2,1:2:0:0:
370,36,34246,2,0,P|325:39|273:61,1,96,10|2,1:2|3:2,2:0:0:0:
278,57,34548,1,0,1:2:0:0:
278,57,34649,2,0,L|229:47,1,48,10|2,1:2|3:2,2:0:0:0:
166,89,34850,2,0,L|113:97,1,48,2|0,1:2|2:0,2:0:0:0:
53,150,35051,1,10,1:2:0:0:
53,150,35152,1,0,1:2:0:0:
65,331,35351,1,0,1:2:0:0:
65,331,35450,2,0,L|118:339,1,48,8|0,1:2|2:0,2:0:0:0:
184,303,35647,6,0,P|220:299|286:316,1,96,2|10,1:2|1:2,2:0:0:0:
485,384,36153,1,0,1:2:0:0:
485,384,36255,2,0,P|495:333|516:286,1,96,8|0,1:2|1:2,2:0:0:0:
502,150,36665,2,0,P|492:96|463:69,1,96,10|2,1:2|3:2,2:0:0:0:
408,14,36977,1,0,1:2:0:0:
408,14,37082,2,0,L|352:33,1,48,10|0,1:2|2:0,2:0:0:0:
329,97,37273,6,0,L|271:88,1,48,2|0,1:2|2:0,2:0:0:0:
211,26,37481,2,0,P|203:108|204:186,1,143.0784,10|0,1:2|1:2,2:0:0:0:
148,227,37894,2,0,P|124:234|94:250,1,48,8|0,1:2|2:0,2:0:0:0:
240,253,38100,2,0,P|264:260|294:276,1,48,0|0,1:2|2:0,2:0:0:0:
380,340,38302,2,0,P|428:323|474:315,1,96,10|2,1:2|3:2,2:0:0:0:
472,315,38606,1,0,1:2:0:0:
472,315,38708,2,0,L|484:252,1,48,10|0,1:2|2:0,2:0:0:0:
449,200,38910,6,0,L|437:137,1,48,2|0,1:2|2:0,2:0:0:0:
472,83,39111,2,0,P|418:70|364:80,1,96,10|2,1:2|3:2,2:0:0:0:
378,75,39413,1,2,1:2:0:0:
378,75,39514,2,0,L|319:99,1,48,10|0,1:2|2:0,2:0:0:0:
277,43,39715,2,0,L|214:24,1,48,2|0,1:2|2:0,2:0:0:0:
162,67,39916,1,10,1:2:0:0:
162,67,40017,1,0,1:2:0:0:
20,152,40218,1,0,1:2:0:0:
20,152,40319,2,0,P|24:179|25:211,1,48,8|0,1:2|2:0,2:0:0:0:
76,257,40520,6,0,P|71:284|71:316,1,48,2|2,1:2|3:2,2:0:0:0:
131,355,40722,2,0,P|182:370|244:354,1,96,10|2,1:2|3:2,2:0:0:0:
295,331,41026,1,0,1:2:0:0:
295,331,41128,2,0,L|353:345,1,48,10|0,1:2|2:0,2:0:0:0:
472,370,41330,1,6,1:2:0:0:
491,185,41533,5,10,1:2:0:0:
459,168,41630,1,8,1:2:0:0:
424,176,41727,1,10,1:2:0:0:
400,203,41825,1,8,1:2:0:0:
373,226,41922,1,12,1:3:0:0:
337,232,42020,1,4,1:3:0:0:
308,218,42117,6,0,P|306:142|314:74,1,120,6|10,1:2|1:2,2:0:0:0:
272,34,42447,1,0,2:0:0:0:
272,34,42548,2,0,L|197:21,1,60,6|0,1:2|2:0,2:0:0:0:
140,55,42751,2,0,L|59:77,1,60,10|0,1:2|2:0,2:0:0:0:
27,127,42954,6,0,P|25:203|33:271,1,120,6|10,1:2|1:2,2:0:0:0:
83,307,43258,1,0,2:0:0:0:
83,307,43359,2,0,L|158:294,1,60,6|0,1:2|2:0,2:0:0:0:
208,226,43562,2,0,L|133:213,1,60,10|0,1:2|2:0,2:0:0:0:
103,147,43764,5,6,1:2:0:0:
212,43,43967,2,0,B|246:27|246:27|280:31,1,72,14|0,1:2|2:0,2:0:0:0:
308,218,44167,2,0,B|277:195|277:195|263:164,1,72,6|0,1:2|2:0,2:0:0:0:
412,48,44367,2,0,B|407:85|407:85|387:113,1,72,10|0,1:2|0:0,2:0:0:0:
194,124,44579,6,0,P|137:149|115:216,1,120,14|12,1:2|1:3,2:0:0:0:
211,346,44883,1,4,1:3:0:0:
246,351,44984,1,10,1:2:0:0:
277,334,45085,1,8,1:2:0:0:
298,304,45187,1,10,1:2:0:0:
332,294,45288,1,8,1:2:0:0:
367,305,45389,5,6,1:2:0:0:
367,305,45595,2,0,P|373:215|372:155,1,144,10|0,1:2|1:2,2:0:0:0:
372,161,46009,2,0,P|402:151|432:146,1,48,10|0,1:2|2:0,2:0:0:0:
300,129,46203,1,0,1:2:0:0:
160,64,46405,2,0,B|109:43|109:43|9:92,1,144,10|0,1:2|1:2,2:0:0:0:
29,82,46811,2,0,L|40:148,1,48,10|0,1:2|2:0,2:0:0:0:
62,206,47013,5,0,1:2:0:0:
225,11,47216,2,0,P|293:25|349:87,1,144,10|0,1:2|1:2,2:0:0:0:
344,76,47621,2,0,L|334:141,1,48,10|0,1:2|2:0,2:0:0:0:
267,157,47824,2,0,P|260:207|268:266,1,96,2|10,1:2|1:2,2:0:0:0:
382,359,48234,1,2,3:2:0:0:
382,359,48337,1,0,1:2:0:0:
382,359,48440,2,0,L|442:345,1,48,10|0,1:2|2:0,2:0:0:0:
504,329,48645,5,0,1:2:0:0:
264,252,48851,2,0,P|209:262|144:328,1,144,10|0,1:2|1:2,2:0:0:0:
196,384,49262,1,10,1:2:0:0:
196,384,49467,1,10,1:2:0:0:
354,274,49668,5,12,1:3:0:0:
375,244,49769,1,4,1:3:0:0:
377,208,49869,1,4,1:3:0:0:
358,176,49970,1,12,1:3:0:0:
328,154,50071,1,4,1:3:0:0:
314,120,50171,1,4,1:3:0:0:
327,87,50272,5,6,1:2:0:0:
48,208,51025,2,0,P|26:216|13:243,3,40,12|4|8|8,1:3|1:3|1:2|1:2,2:0:0:0:
76,190,51299,2,0,L|84:117,1,60,8|8,1:2|1:2,2:0:0:0:
98,56,51496,1,12,1:3:0:0:
114,23,51595,1,8,1:2:0:0:
145,6,51693,2,0,L|216:27,1,60,8|8,1:2|1:2,0:0:0:0:
281,21,51891,5,4,1:2:0:0:
281,21,52093,2,0,P|311:32|365:112,1,120,10|2,1:2|3:2,2:0:0:0:
417,163,52397,1,0,1:2:0:0:
417,163,52499,2,0,P|401:207|397:235,1,60,10|0,1:2|2:0,2:0:0:0:
334,256,52701,2,0,P|350:300|354:328,1,60,2|0,1:2|2:0,2:0:0:0:
296,365,52904,1,10,1:2:0:0:
296,365,53004,2,0,P|232:352|151:366,1,120,2|0,3:2|1:2,2:0:0:0:
109,332,53304,2,0,P|93:288|89:260,1,60,10|0,1:2|2:0,2:0:0:0:
78,199,53504,5,0,1:2:0:0:
78,199,53605,1,0,1:2:0:0:
78,199,53706,2,0,B|148:136|148:136|255:162,1,180,10|0,1:2|1:2,2:0:0:0:
293,105,54112,2,0,P|286:71|289:38,1,60,10|0,1:2|2:0,2:0:0:0:
411,103,54314,2,0,P|418:137|415:170,1,60,0|0,1:2|2:0,2:0:0:0:
298,237,54517,2,0,P|241:263|210:325,1,120,10|2,1:2|3:2,2:0:0:0:
276,367,54821,1,0,1:2:0:0:
276,367,54922,2,0,L|340:387,1,60,10|0,1:2|2:0,2:0:0:0:
490,333,55125,6,0,L|432:315,1,60,0|0,1:2|2:0,2:0:0:0:
298,237,55331,2,0,P|301:176|292:103,1,120,10|2,1:2|3:2,2:0:0:0:
270,45,55642,1,2,1:2:0:0:
270,45,55745,2,0,L|204:27,1,60,8|2,1:2|3:2,2:0:0:0:
143,64,55952,2,0,L|69:82,1,60,0|0,1:2|2:0,2:0:0:0:
57,153,56154,1,10,1:2:0:0:
57,153,56256,1,0,1:2:0:0:
57,153,56357,2,0,P|46:185|40:219,1,60,2|0,3:2|1:2,2:0:0:0:
94,269,56560,2,0,P|105:301|111:335,1,60,10|0,1:2|2:0,2:0:0:0:
0,384,56762,5,14,1:2:0:0:
0,384,57066,5,14,1:2:0:0:
0,384,57370,5,14,1:2:0:0:
0,384,57573,5,14,1:2:0:0:
512,384,57979,1,14,1:2:0:0:
287,10,58384,6,0,P|278:46|276:80,1,60,4|0,1:2|2:0,2:0:0:0:
196,132,58587,2,0,P|260:153|277:267,1,180,10|0,1:2|1:2,2:0:0:0:
214,304,58992,2,0,P|198:271|199:242,1,60,10|0,1:2|2:0,2:0:0:0:
306,152,59195,1,2,1:2:0:0:
306,152,59296,2,0,L|377:177,1,60,2|10,3:2|1:2,2:0:0:0:
431,130,59499,2,0,P|470:165|466:241,1,120,0|0,2:0|1:2,2:0:0:0:
491,304,59803,2,0,L|420:329,1,60,10|0,1:2|2:0,2:0:0:0:
363,351,60015,5,0,1:2:0:0:
214,304,60216,2,0,B|122:334|115:256|22:282,1,180,10|0,1:2|1:2,2:0:0:0:
34,201,60619,2,0,P|22:171|23:136,1,60,10|0,1:2|2:0,2:0:0:0:
130,92,60820,2,0,P|142:122|141:157,1,60,0|0,1:2|2:0,2:0:0:0:
214,304,61021,2,0,B|306:334|313:256|406:282,1,180,10|0,1:2|1:2,2:0:0:0:
457,245,61424,2,0,P|457:215|469:187,1,60,10|0,1:2|2:0,2:0:0:0:
443,31,61625,6,0,P|381:42|344:92,1,120,6|10,1:2|1:2,2:0:0:0:
282,129,61929,1,0,1:2:0:0:
282,129,62030,2,0,L|301:193,1,60,6|0,1:2|2:0,2:0:0:0:
369,220,62233,2,0,L|350:284,1,60,10|0,1:2|2:0,2:0:0:0:
282,368,62435,6,0,P|220:357|183:307,1,120,6|10,1:2|1:2,2:0:0:0:
121,270,62737,1,6,1:2:0:0:
121,270,62837,2,0,L|140:206,1,60,6|0,1:2|2:0,2:0:0:0:
208,179,63039,2,0,L|189:115,1,60,10|0,1:2|2:0,2:0:0:0:
122,25,63240,6,0,P|60:36|23:86,1,120,6|10,1:2|1:2,2:0:0:0:
8,157,63542,1,0,1:2:0:0:
8,157,63643,2,0,L|27:221,1,60,6|4,1:2|3:0,2:0:0:0:
41,293,63844,2,0,L|22:357,1,60,10|4,1:2|3:0,2:0:0:0:
101,371,64045,1,4,1:2:0:0:
266,279,64247,5,10,1:2:0:0:
292,255,64347,1,10,1:2:0:0:
327,251,64448,1,10,1:2:0:0:
361,262,64549,1,10,1:2:0:0:
381,287,64649,1,12,1:3:0:0:
389,321,64759,1,4,1:3:0:0:
380,350,64869,5,2,1:2:0:0:
446,215,65071,2,0,B|423:144|478:154|455:56,1,144,10|0,1:2|1:2,2:0:0:0:
398,28,65477,2,0,L|341:46,1,48,8|0,1:2|2:0,2:0:0:0:
279,62,65679,2,0,L|222:44,1,48,0|0,1:2|2:0,2:0:0:0:
170,7,65879,2,0,P|128:19|89:77,1,96,10|2,1:2|3:2,2:0:0:0:
49,122,66179,1,0,1:2:0:0:
49,122,66279,2,0,L|65:180,1,48,10|0,1:2|2:0,2:0:0:0:
120,219,66479,6,0,L|104:277,1,48,2|0,1:2|2:0,2:0:0:0:
52,322,66683,2,0,P|132:310|186:348,1,144,10|0,1:2|1:2,2:0:0:0:
257,320,67091,2,0,L|273:262,1,48,8|0,1:2|2:0,2:0:0:0:
339,319,67295,2,0,L|351:365,1,48,0|0,1:2|2:0,2:0:0:0:
418,310,67499,2,0,P|427:270|421:200,1,96,10|2,1:2|3:2,2:0:0:0:
358,172,67803,1,0,1:2:0:0:
358,172,67904,2,0,L|370:126,1,48,10|0,1:2|2:0,2:0:0:0:
439,80,68107,6,0,L|427:34,1,48,2|0,1:2|2:0,2:0:0:0:
351,14,68309,2,0,P|306:10|251:54,1,96,10|2,1:2|3:2,2:0:0:0:
208,90,68613,1,0,1:2:0:0:
208,90,68715,2,0,P|217:116|220:148,1,48,10|0,1:2|2:0,2:0:0:0:
228,214,68917,1,2,1:2:0:0:
75,310,69120,1,10,1:2:0:0:
75,310,69221,1,0,1:2:0:0:
61,132,69424,1,2,1:2:0:0:
61,132,69525,2,0,P|79:158|89:189,1,48,8|0,1:2|2:0,2:0:0:0:
115,243,69728,5,2,1:2:0:0:
233,363,69929,2,0,P|269:357|329:344,1,96,10|2,1:2|3:2,2:0:0:0:
404,367,70231,1,2,1:2:0:0:
404,367,70332,2,0,L|417:306,1,48,10|0,1:2|2:0,2:0:0:0:
492,303,70533,2,0,L|479:242,1,48,2|0,1:2|2:0,2:0:0:0:
427,197,70734,1,10,1:2:0:0:
427,197,70835,1,0,1:2:0:0:
457,56,71036,1,0,1:2:0:0:
457,56,71137,1,8,1:2:0:0:
307,23,71338,6,0,P|266:28|218:77,2,96,2|10|0,1:2|1:2|2:0,2:0:0:0:
360,89,71848,1,0,1:2:0:0:
360,89,71950,2,0,L|371:150,1,48,8|0,1:2|2:0,2:0:0:0:
308,189,72154,2,0,L|297:250,1,48,0|0,1:2|2:0,2:0:0:0:
219,298,72358,2,0,P|260:303|301:354,1,96,10|2,1:2|3:2,2:0:0:0:
377,356,72664,1,0,1:2:0:0:
377,356,72766,2,0,L|442:336,1,48,10|0,1:2|2:0,2:0:0:0:
471,280,72970,6,0,L|451:215,1,48,2|0,1:2|2:0,2:0:0:0:
401,174,73176,2,0,P|345:211|237:192,1,142.608,10|0,1:2|1:2,2:0:0:0:
217,151,73583,2,0,P|249:133|277:131,1,48,8|0,1:2|2:0,2:0:0:0:
315,74,73783,2,0,P|283:56|255:54,1,48,0|0,1:2|2:0,2:0:0:0:
205,10,73986,2,0,B|157:6|157:6|118:35,1,96.4712,10|2,1:2|3:2,2:0:0:0:
68,97,74291,1,0,1:2:0:0:
68,97,74392,2,0,L|77:157,1,48,10|0,1:2|2:0,2:0:0:0:
138,192,74595,6,0,L|129:252,1,48,0|0,1:2|2:0,2:0:0:0:
61,312,74797,2,0,P|111:314|159:351,1,96,10|2,1:2|3:2,2:0:0:0:
225,376,75101,1,2,1:2:0:0:
225,376,75203,2,0,L|278:362,1,48,10|0,1:2|2:0,2:0:0:0:
334,318,75405,2,0,L|397:322,1,48,2|0,1:2|2:0,2:0:0:0:
481,331,75608,1,10,1:2:0:0:
481,331,75709,1,0,1:2:0:0:
432,149,75912,1,2,1:2:0:0:
432,149,76013,1,8,1:2:0:0:
284,25,76216,6,0,P|243:30|195:79,2,96,2|10|2,1:2|1:2|3:2,2:0:0:0:
359,61,76723,1,0,1:2:0:0:
359,61,76824,2,0,L|419:41,1,48,10|0,1:2|2:0,2:0:0:0:
478,18,77027,1,6,1:2:0:0:
491,194,77230,5,10,1:2:0:0:
478,227,77328,1,8,1:2:0:0:
455,255,77427,1,10,1:2:0:0:
424,272,77526,1,8,1:2:0:0:
392,272,77624,1,12,1:3:0:0:
359,256,77723,1,4,1:3:0:0:
339,229,77822,6,0,P|296:208|213:217,1,120,6|10,1:2|1:2,2:0:0:0:
173,272,78126,1,0,1:2:0:0:
173,272,78227,2,0,L|157:335,1,60,6|0,1:2|2:0,2:0:0:0:
89,367,78430,2,0,L|73:304,1,60,10|0,1:2|2:0,2:0:0:0:
8,266,78632,6,0,P|-1:220|29:141,1,120,6|10,1:2|1:2,2:0:0:0:
104,177,78936,1,0,1:2:0:0:
104,177,79038,2,0,L|167:161,1,60,6|0,1:2|2:0,2:0:0:0:
199,93,79240,2,0,L|136:77,1,60,10|0,1:2|2:0,2:0:0:0:
48,49,79443,1,6,1:2:0:0:
249,2,79646,6,0,P|279:19|299:49,1,72,10|0,1:2|2:0,2:0:0:0:
259,237,79849,2,0,P|258:201|275:169,1,72,6|0,1:2|2:0,2:0:0:0:
458,111,80051,2,0,P|427:128|391:130,1,72,10|0,1:2|2:0,2:0:0:0:
199,93,80259,5,14,1:2:0:0:
462,216,81064,2,0,P|410:234|369:290,1,120,14|2,1:2|3:2,2:0:0:0:
408,363,81368,2,0,B|360:327|360:327|300:332,1,120,10|2,1:2|3:2,2:0:0:0:
241,268,81672,2,0,L|171:294,1,60,10|2,1:2|3:2,2:0:0:0:
134,369,81874,2,0,L|54:352,1,60,10|2,1:2|3:2,2:0:0:0:
20,261,82077,1,2,3:0:0:0:
20,261,82178,2,0,P|32:225|40:190,1,60,10|2,1:2|3:2,2:0:0:0:
154,195,82381,1,2,3:0:0:0:
154,195,82482,2,0,P|141:159|134:124,1,60,10|2,1:2|3:2,2:0:0:0:
129,40,82687,6,0,P|159:27|190:22,1,60,14|2,1:2|3:2,2:0:0:0:
342,29,82892,1,2,1:2:0:0:
280,74,82995,2,0,P|267:124|253:208,1,120,10|2,1:2|1:2,2:0:0:0:
309,291,83285,2,0,P|338:285|365:273,1,60,10|2,1:2|3:2,2:0:0:0:
434,149,83491,2,0,P|424:177|421:207,1,60,2|2,1:2|3:2,2:0:0:0:
512,346,83698,1,10,1:2:0:0:
478,370,83805,1,10,1:2:0:0:
438,382,83913,1,10,1:2:0:0:
393,371,84021,2,0,P|370:368|325:376,2,60,10|14|6,1:2|1:3|1:3,2:0:0:0:
446,291,84325,6,0,P|441:231|452:89,2,180,14|10|10,1:2|1:2|1:2,2:0:0:0:
234,244,85135,2,0,B|181:233|181:233|132:282,1,120,14|2,1:2|3:2,2:0:0:0:
62,304,85437,1,10,1:2:0:0:
62,304,85537,2,0,L|42:227,1,60,2|2,3:0|3:2,2:0:0:0:
22,111,85739,2,0,L|13:170,1,60,10|2,1:2|3:0,2:0:0:0:
214,74,85940,6,0,P|141:82|56:5,2,180,14|10|10,1:2|1:2|1:2,2:0:0:0:
259,203,86649,1,2,3:0:0:0:
284,128,86750,2,0,B|231:117|231:117|182:166,1,120,14|2,1:2|3:2,2:0:0:0:
123,235,87050,2,0,P|142:287|141:361,1,120,10|2,1:2|3:2,2:0:0:0:
237,329,87350,2,0,L|305:351,1,60,10|2,1:2|3:2,2:0:0:0:
341,278,87550,6,0,P|405:304|471:314,1,120,14|2,1:2|3:2,2:0:0:0:
468,230,87858,2,0,P|454:184|499:124,1,120,10|2,1:2|3:2,2:0:0:0:
462,49,88166,2,0,P|432:55|380:65,1,60,10|2,1:2|3:2,2:0:0:0:
331,19,88371,2,0,P|300:15|248:8,1,60,10|2,1:2|3:2,2:0:0:0:
201,68,88573,1,2,3:0:0:0:
201,68,88675,2,0,P|218:96|231:135,1,60,10|2,1:2|3:2,2:0:0:0:
319,154,88877,1,2,3:0:0:0:
319,154,88979,2,0,P|302:182|289:221,1,60,10|2,1:2|3:2,2:0:0:0:
261,336,89181,6,0,B|232:322|232:322|202:323,1,60,14|2,1:2|3:2,2:0:0:0:
93,304,89378,1,2,1:2:0:0:
33,348,89477,2,0,B|63:326|63:326|158:376,1,120,10|2,1:2|1:2,2:0:0:0:
159,263,89773,2,0,P|148:226|144:190,1,60,10|2,1:2|3:2,2:0:0:0:
73,183,89970,5,14,1:3:0:0:
73,183,90074,1,6,1:3:0:0:
126,130,90178,5,14,1:2:0:0:
126,130,90282,1,14,1:2:0:0:
167,20,90490,5,14,1:2:0:0:
167,20,90595,1,14,1:2:0:0:
167,20,90699,1,2,1:2:0:0:
192,35,90803,6,0,P|204:92|206:164,1,120,14|2,1:2|3:2,2:0:0:0:
166,231,91107,2,0,B|219:198|219:198|283:217,1,120,10|2,1:2|3:2,2:0:0:0:
344,179,91411,2,0,P|352:152|384:125,1,60,10|2,1:2|3:2,2:0:0:0:
192,35,91613,6,0,P|204:92|206:172,1,132,14|2,1:2|3:0,2:0:0:0:
152,241,91923,2,0,B|206:207|206:207|271:227,1,132,10|2,1:2|3:0,2:0:0:0:
344,179,92233,2,0,P|352:152|392:122,1,66,10|2,1:2|3:2,2:0:0:0:
501,239,92440,6,0,B|431:219|421:287|334:285,1,144,14|2,1:2|3:0,2:0:0:0:
287,337,92740,2,0,B|361:321|361:321|409:369,1,144,10|2,1:2|3:0,2:0:0:0:
501,239,93040,2,0,P|500:211|464:167,1,72,10|2,1:2|3:0,2:0:0:0:
305,81,93260,1,14,1:2:0:0:
465,39,93462,5,8,1:2:0:0:
418,7,93564,1,8,1:2:0:0:
363,9,93665,1,8,1:2:0:0:
331,51,93766,1,8,1:2:0:0:
326,106,93868,1,8,1:2:0:0:
288,145,93969,1,8,1:2:0:0:
250,149,94070,1,12,1:3:0:0:
239,140,94167,1,4,1:3:0:0:
239,140,94264,6,0,P|225:237|207:334,1,180,14|4,1:2|1:3,2:0:0:0:
245,383,94654,2,0,P|207:347|132:359,1,120,14|12,1:2|1:3,2:0:0:0:
29,87,95058,2,0,B|128:58|125:134|212:147,1,180,14|4,1:2|1:3,2:0:0:0:
259,192,95464,2,0,B|197:179|197:179|149:227,2,120,14|4|10,1:2|1:2|1:2,2:0:0:0:
476,15,96072,6,0,P|465:48|460:95,1,60,2|0,2:0|1:2,2:0:0:0:
404,121,96274,2,0,P|408:155|423:200,1,60,10|2,1:2|3:2,2:0:0:0:
394,254,96477,2,0,P|442:260|488:318,2,120,2|10|0,1:2|1:2|2:0,2:0:0:0:
341,308,96984,1,2,1:2:0:0:
341,308,97085,2,0,P|336:342|321:387,1,60,8|0,1:2|2:0,2:0:0:0:
254,358,97288,1,12,1:3:0:0:
254,358,97389,1,4,1:3:0:0:
254,358,97491,6,0,P|166:343|141:254,1,180,14|4,1:2|1:3,2:0:0:0:
109,186,97896,2,0,B|149:226|149:226|211:214,1,120,14|12,1:2|1:3,2:0:0:0:
458,32,98301,2,0,B|359:3|362:79|275:92,1,180,14|4,1:2|1:3,2:0:0:0:
227,128,98707,2,0,P|284:125|324:167,1,120,14|4,1:2|1:2,2:0:0:0:
474,339,99103,6,0,L|407:362,1,60,10|0,1:2|2:0,2:0:0:0:
348,326,99303,2,0,L|263:319,1,60,2|0,3:2|1:2,2:0:0:0:
228,368,99503,2,0,P|178:374|118:326,1,120,10|2,1:2|1:2,2:0:0:0:
54,309,99805,1,0,2:0:0:0:
54,309,99907,2,0,L|38:230,1,60,10|0,1:2|1:2,2:0:0:0:
89,192,100111,2,0,L|105:113,1,60,2|0,3:2|1:2,2:0:0:0:
62,66,100315,2,0,P|97:56|129:38,1,60,10|0,1:2|2:0,2:0:0:0:
205,79,100519,1,12,1:3:0:0:
205,79,100621,1,4,1:3:0:0:
205,79,100723,6,0,B|281:29|281:29|367:61,1,180,14|4,1:2|1:3,2:0:0:0:
437,98,101145,2,0,P|379:95|339:137,1,120,14|12,1:2|1:3,2:0:0:0:
188,241,101558,2,0,B|287:212|284:288|371:301,1,180,14|4,1:2|1:3,2:0:0:0:
418,346,101964,2,0,B|356:333|356:333|308:381,2,120,14|4|10,1:2|1:2|1:2,2:0:0:0:
470,203,102678,5,0,1:2:0:0:
470,203,102780,2,0,L|483:127,1,60,10|0,1:2|2:0,2:0:0:0:
387,36,102987,2,0,L|374:112,1,60,0|0,1:2|2:0,2:0:0:0:
297,216,103187,1,10,1:2:0:0:
297,216,103287,1,2,1:2:0:0:
179,160,103487,1,0,1:2:0:0:
179,160,103587,1,10,1:2:0:0:
11,127,103787,6,0,P|39:138|61:167,1,60,6|0,1:2|2:0,2:0:0:0:
8,243,103988,2,0,B|107:214|104:290|191:303,1,180,10|0,1:2|1:2,2:0:0:0:
203,375,104391,2,0,P|223:352|251:342,1,60,10|0,1:2|2:0,2:0:0:0:
360,328,104592,2,0,P|340:305|312:294,1,60,0|0,1:2|2:0,2:0:0:0:
192,215,104793,2,0,B|268:165|268:165|354:197,1,180,10|0,1:2|1:2,2:0:0:0:
405,129,105196,2,0,P|408:103|423:63,1,60,10|0,1:2|2:0,2:0:0:0:
501,175,105397,6,0,P|498:201|483:241,1,60,2|0,1:2|2:0,2:0:0:0:
501,332,105597,2,0,P|422:319|364:374,1,170.4,10|0,1:2|1:2,2:0:0:0:
290,324,105990,2,0,L|220:344,1,60,10|0,1:2|2:0,2:0:0:0:
119,374,106209,1,4,1:2:0:0:
34,157,106411,5,8,1:2:0:0:
68,151,106513,1,8,1:2:0:0:
102,162,106614,1,8,1:2:0:0:
129,186,106715,1,8,1:2:0:0:
156,210,106817,1,12,1:3:0:0:
192,215,106918,1,4,1:3:0:0:
224,208,107019,6,0,P|309:197|379:272,1,192.4736,6|8,1:2|1:2,2:0:0:0:
378,268,107744,1,8,1:2:0:0:
395,196,108032,2,0,P|413:142|438:101,1,96,14|10,1:2|1:2,2:0:0:0:
311,25,108332,2,0,P|292:78|267:119,1,96,14|0,1:2|2:0,2:0:0:0:
224,208,108632,6,0,B|125:179|128:255|37:269,1,192,6|8,1:2|1:2,2:0:0:0:
50,266,109366,1,8,1:2:0:0:
94,205,109654,2,0,P|75:151|50:110,1,96,14|10,1:2|1:2,2:0:0:0:
154,8,109958,2,0,P|172:61|197:102,1,96,14|0,1:2|2:0,2:0:0:0:
349,253,110262,6,0,B|256:226|256:226|183:288,1,192,6|10,1:2|1:2,2:0:0:0:
183,288,110996,1,8,1:2:0:0:
349,253,111282,2,0,P|356:206|384:167,1,96,14|10,1:2|1:2,2:0:0:0:
498,267,111582,2,0,P|490:313|462:352,1,96,14|0,1:2|2:0,2:0:0:0:
276,314,111882,6,0,B|177:285|180:361|89:375,1,192,6|10,1:2|1:2,2:0:0:0:
102,372,112490,1,2,3:2:0:0:
102,372,112591,1,14,1:2:0:0:
102,372,112692,1,6,1:2:0:0:
8,285,112904,1,2,3:2:0:0:
149,253,113117,1,14,1:2:0:0:
98,135,113330,1,8,1:2:0:0:
98,135,113424,1,8,1:2:0:0:
98,135,113519,6,0,P|188:139|295:176,1,192,6|8,1:2|1:2,2:0:0:0:
284,170,114238,1,8,1:2:0:0:
353,218,114542,2,0,L|361:276,1,48,14|0,1:2|2:0,2:0:0:0:
430,322,114744,1,10,1:2:0:0:
430,322,114846,2,0,P|376:353|362:385,1,96,14|0,1:2|2:0,2:0:0:0:
263,331,115142,6,0,B|168:359|168:276|71:298,1,192,6|8,1:2|1:2,2:0:0:0:
80,296,115856,1,8,1:2:0:0:
48,230,116144,2,0,P|34:178|30:171,1,48,14|0,1:2|2:0,2:0:0:0:
125,129,116346,1,10,1:2:0:0:
125,129,116448,2,0,P|139:181|155:223,1,96,14|0,1:2|2:0,2:0:0:0:
172,320,116752,6,0,B|262:284|262:284|340:340,1,192,6|10,1:2|1:2,2:0:0:0:
339,340,117461,1,8,1:2:0:0:
314,276,117765,2,0,P|307:230|323:175,1,96,14|8,1:2|1:2,2:0:0:0:
472,110,118071,2,0,P|479:156|463:211,1,96,14|0,1:2|2:0,2:0:0:0:
348,94,118377,6,0,B|270:66|264:135|186:143,1,144,6|0,1:2|1:2,2:0:0:0:
143,142,118777,1,14,1:2:0:0:
41,71,118977,1,2,1:2:0:0:
41,71,119077,1,10,1:2:0:0:
41,71,119196,6,0,P|28:113|19:176,1,96,12|8,1:2|1:2,2:0:0:0:
18,269,119500,1,8,1:2:0:0:
43,296,119601,1,14,1:2:0:0:
78,302,119696,1,8,1:2:0:0:
112,291,119792,1,8,1:2:0:0:
146,298,119887,1,8,1:2:0:0:
169,322,119983,6,0,P|208:331|251:347,1,60,6|0,1:2|2:0,2:0:0:0:
292,290,120188,2,0,P|386:308|475:314,1,180,10|0,1:2|1:2,2:0:0:0:
453,236,120599,2,0,P|451:208|461:171,1,60,8|0,1:2|2:0,2:0:0:0:
378,96,120804,2,0,P|380:124|370:161,1,60,0|0,1:2|2:0,2:0:0:0:
292,193,121006,2,0,P|233:195|171:239,1,120,10|2,1:2|3:2,2:0:0:0:
104,213,121310,1,0,1:2:0:0:
104,213,121412,2,0,L|97:140,1,60,10|0,1:2|2:0,2:0:0:0:
35,108,121614,6,0,L|42:35,1,60,2|0,1:2|2:0,2:0:0:0:
132,49,121817,2,0,B|233:83|233:-4|330:32,1,180,10|0,1:2|1:2,2:0:0:0:
366,95,122222,1,8,1:2:0:0:
366,95,122324,1,0,1:2:0:0:
366,95,122425,2,0,L|371:154,1,60,0|0,1:2|2:0,2:0:0:0:
426,232,122626,2,0,P|366:240|326:296,1,120,10|2,1:2|3:2,2:0:0:0:
255,316,122928,1,0,1:2:0:0:
255,316,123029,2,0,L|249:256,1,60,10|0,1:2|2:0,2:0:0:0:
103,213,123230,6,0,L|108:272,1,60,0|0,1:2|2:0,2:0:0:0:
245,174,123435,2,0,P|185:166|145:110,1,120,10|2,1:2|3:2,2:0:0:0:
84,62,123743,1,0,1:2:0:0:
84,62,123846,2,0,L|89:2,1,60,10|0,1:2|2:0,2:0:0:0:
216,43,124051,2,0,P|265:57|353:74,2,120,2|10|2,1:2|1:2|3:2,2:0:0:0:
148,122,124565,1,2,1:2:0:0:
148,122,124668,2,0,P|131:158|120:187,1,60,8|0,1:2|2:0,2:0:0:0:
224,311,124873,6,0,P|241:275|252:246,1,60,0|0,1:2|2:0,2:0:0:0:
368,220,125074,2,0,B|428:197|439:248|489:255,2,120,10|2|10,1:2|3:2|1:2,2:0:0:0:
285,160,125577,1,0,1:2:0:0:
285,160,125678,2,0,L|198:176,1,60,2|0,1:2|2:0,2:0:0:0:
148,122,125879,1,8,1:2:0:0:
148,122,125980,1,2,1:2:0:0:
79,299,126181,1,2,1:2:0:0:
79,299,126282,1,14,1:2:0:0:
14,174,126494,6,0,P|11:142|3:98,1,60,6|0,1:2|2:0,2:0:0:0:
121,24,126695,2,0,B|214:-3|211:68|297:81,1,180,10|0,1:2|1:2,2:0:0:0:
281,162,127098,2,0,P|307:148|337:144,1,60,8|0,1:2|2:0,2:0:0:0:
453,109,127299,2,0,P|426:95|396:91,1,60,0|0,1:2|2:0,2:0:0:0:
330,228,127500,2,0,P|310:294|307:365,1,120,10|2,1:2|3:2,2:0:0:0:
379,382,127802,1,0,1:2:0:0:
379,382,127903,2,0,L|440:366,1,60,10|0,1:2|2:0,2:0:0:0:
511,341,128104,5,2,1:2:0:0:
327,230,128304,2,0,B|267:197|267:197|167:246,1,180,10|0,1:2|1:2,2:0:0:0:
138,319,128704,2,0,P|110:305|72:302,1,60,8|0,1:2|2:0,2:0:0:0:
3,222,128904,2,0,P|31:208|69:205,1,60,0|0,1:2|2:0,2:0:0:0:
88,109,129106,2,0,P|133:123|212:137,1,120,10|2,1:2|3:2,2:0:0:0:
268,86,129410,1,0,1:2:0:0:
268,86,129512,2,0,L|336:74,1,60,10|0,1:2|2:0,2:0:0:0:
388,127,129714,6,0,P|436:145|458:216,2,120,0|10|2,1:2|1:2|3:2,2:0:0:0:
317,167,130214,1,2,1:2:0:0:
317,167,130314,2,0,L|296:243,1,60,10|0,1:2|2:0,2:0:0:0:
339,293,130514,2,0,L|347:359,1,60,2|0,1:2|2:0,2:0:0:0:
273,370,130720,1,10,1:2:0:0:
273,370,130824,1,0,1:2:0:0:
81,301,131031,1,0,1:2:0:0:
81,301,131134,2,0,P|82:272|77:234,1,60,8|0,1:2|2:0,2:0:0:0:
213,168,131341,6,0,P|212:197|217:235,1,60,0|0,1:2|2:0,2:0:0:0:
67,147,131543,2,0,P|122:125|161:76,2,120,10|2|10,1:2|3:2|1:2,2:0:0:0:
0,216,132050,1,2,1:2:0:0:
0,216,132151,5,14,1:2:0:0:
15,267,132253,1,8,1:2:0:0:
61,294,132355,1,12,1:3:0:0:
114,297,132457,1,14,1:2:0:0:
153,260,132559,1,8,1:2:0:0:
201,235,132661,1,12,1:3:0:0:
254,243,132763,1,14,1:2:0:0:
293,280,132865,1,8,1:2:0:0:
299,333,132967,6,0,P|333:344|433:368,1,120,6|10,1:2|1:2,2:0:0:0:
479,323,133275,1,0,1:2:0:0:
479,323,133377,2,0,L|490:254,1,60,6|0,1:2|2:0,2:0:0:0:
441,203,133583,2,0,L|431:140,1,60,10|0,1:2|2:0,2:0:0:0:
283,230,133788,6,0,P|248:241|149:265,1,120.584,6|10,1:2|1:2,2:0:0:0:
103,220,134096,1,0,1:2:0:0:
103,220,134198,2,0,L|92:151,1,60,6|0,1:2|2:0,2:0:0:0:
141,100,134402,2,0,L|151:37,1,60,10|0,1:2|2:0,2:0:0:0:
0,0,134643,5,6,1:2:0:0:
256,192,134770,12,4,137679,1:2:0:0:
