osu file format v14

[General]
AudioFilename: audio.mp3
AudioLeadIn: 0
PreviewTime: 77797
Countdown: 0
SampleSet: Soft
StackLeniency: 1
Mode: 0
LetterboxInBreaks: 0
WidescreenStoryboard: 1

[Editor]
DistanceSpacing: 1
BeatDivisor: 4
GridSize: 32
TimelineZoom: 2.6

[Metadata]
Title:DVP
TitleUnicode:DVP
Artist:PUP
ArtistUnicode:PUP
Creator:attendant
Version:Hard
Source:
Tags:english indie punk rock the dream is over pathetic use of potential don valley parkway park way featured artist fa
BeatmapID:3027689
BeatmapSetID:1442963

[Difficulty]
HPDrainRate:4
CircleSize:3.5
OverallDifficulty:7
ApproachRate:8
SliderMultiplier:1
SliderTickRate:0.5

[Events]
//Background and Video events
0,0,"y.jpg",0,0
//Break Periods
//Storyboard Layer 0 (Background)
//Storyboard Layer 1 (Fail)
//Storyboard Layer 2 (Pass)
//Storyboard Layer 3 (Foreground)
//Storyboard Layer 4 (Overlay)
//Storyboard Sound Samples

[TimingPoints]
0,202.702702702703,4,2,41,85,1,0
0,-100,4,2,41,85,0,1
1013,196.078431372549,4,2,41,85,1,1
1601,204.081632653061,4,2,41,85,1,1
3233,205.479452054795,4,2,41,85,1,1
4465,200,4,2,41,85,1,1
4865,202.702702702703,4,2,41,85,1,1
5878,-100,4,2,1,85,0,1
6486,-100,4,2,41,85,0,1
11351,198.675496688742,4,2,41,85,1,1
12145,200,4,2,41,85,1,1
12945,204.081632653061,4,2,1,45,1,0
12945,-125,4,2,1,45,0,0
13149,-125,4,2,1,50,0,0
13353,-125,4,2,1,55,0,0
13557,-125,4,2,1,60,0,0
13761,-111.111111111111,4,2,1,65,0,0
13965,201.342281879195,4,2,1,70,1,0
14166,-100,4,2,1,75,0,0
14367,-100,4,2,1,80,0,0
14569,201.342281879195,4,2,1,85,1,0
14770,-100,4,2,1,90,0,0
14971,-100,4,2,1,95,0,0
15173,-100,4,2,1,100,0,0
15374,205.479452054795,4,2,41,85,1,0
15579,-100,4,2,1,85,0,0
16195,202.702702702703,4,2,41,75,1,0
17309,-100,4,2,1,75,0,0
17613,-100,4,2,41,75,0,0
17816,206.896551724138,4,2,41,75,1,0
18643,202.702702702703,4,2,41,75,1,0
21278,197.368421052632,4,2,41,75,1,0
21870,-86.9565217391304,4,2,41,75,0,0
22166,-86.9565217391304,4,2,1,75,0,0
22462,202.702702702703,4,2,41,75,1,0
22664,204.081632653061,4,2,41,75,1,0
23786,-100,4,2,1,75,0,0
24092,-100,4,2,41,75,0,0
24296,222.222222222222,4,2,41,75,1,0
24740,198.675496688742,4,2,41,75,1,0
25336,202.702702702703,4,2,41,75,1,0
25944,202.702702702703,4,2,1,85,1,0
26754,200,4,2,1,85,1,0
28954,222.222222222222,4,2,1,85,1,0
29176,202.702702702703,4,2,42,65,1,0
29176,-111.111111111111,4,2,42,65,0,0
32216,192.307692307692,4,2,42,65,1,0
32216,-111.111111111111,4,2,42,65,0,0
32408,214.285714285714,4,2,42,65,1,0
32622,202.702702702703,4,2,42,65,1,0
33027,205.479452054795,4,2,42,65,1,0
33643,201.342281879195,4,2,42,65,1,0
34045,201.342281879195,4,2,42,65,1,0
35253,197.368421052632,4,2,42,65,1,0
35647,202.702702702703,4,2,42,65,1,0
35647,-111.111111111111,4,2,42,65,0,0
36457,208.333333333333,4,2,42,65,1,0
36665,-111.111111111111,4,2,42,65,0,0
37082,191.082802547771,4,2,42,65,1,0
37082,-111.111111111111,4,2,42,65,0,0
37273,208.333333333333,4,2,42,65,1,0
37273,-111.111111111111,4,2,42,65,0,0
37689,205.831903945111,4,2,42,65,1,0
37894,-111.111111111111,4,2,42,65,0,0
38100,202.702702702703,4,2,42,65,1,0
38302,-111.111111111111,4,2,42,65,0,0
38910,201.342281879195,4,2,42,65,1,0
40520,202.702702702703,4,2,42,65,1,0
41533,194.805194805195,4,2,1,85,1,0
42117,229.007633587786,4,2,1,85,1,0
42346,202.702702702703,4,2,1,85,1,0
43967,200,4,2,1,85,1,0
43967,-86.9565217391304,4,2,1,85,0,0
44367,212.765957446809,4,2,1,85,1,0
44367,-86.9565217391304,4,2,1,85,0,0
44579,202.702702702703,4,2,1,85,1,0
45389,206.896551724138,4,2,41,65,1,0
45595,-125,4,2,42,65,0,0
46009,194.805194805195,4,2,42,65,1,0
46203,202.702702702703,4,2,42,65,1,0
46405,-125,4,2,42,65,0,0
47824,205.479452054795,4,2,42,65,1,0
47824,-125,4,2,42,65,0,0
49467,201.342281879195,4,2,42,75,1,0
49668,-125,4,2,1,75,0,0
50272,205.479452054795,4,2,41,85,1,0
51299,197.368421052632,4,2,41,85,1,0
51891,202.702702702703,4,2,41,85,1,0
52904,200,4,2,41,85,1,0
53504,202.702702702703,4,2,41,85,1,0
55125,206.896551724138,4,2,41,85,1,0
55331,-90.9090909090909,4,2,41,85,0,0
55952,202.702702702703,4,2,41,85,1,0
55952,-83.3333333333333,4,2,41,85,0,0
56762,-83.3333333333333,4,2,1,100,0,0
58384,-83.3333333333333,4,2,41,85,0,0
58587,-90.9090909090909,4,2,41,85,0,0
59195,-100,4,2,41,85,0,0
59803,212.765957446809,4,2,41,85,1,0
60015,201.342281879195,4,2,41,85,1,0
61625,202.702702702703,4,2,1,85,1,0
62435,201.342281879195,4,2,1,85,1,0
64649,220.588235294118,4,2,1,85,1,0
64869,202.702702702703,4,2,1,75,1,0
64869,-111.111111111111,4,2,1,75,0,0
65071,-111.111111111111,4,2,42,75,0,0
65679,200,4,2,42,75,1,0
65879,-111.111111111111,4,2,42,75,0,0
66479,204.081632653061,4,2,42,75,1,0
66479,-111.111111111111,4,2,42,75,0,0
67499,202.702702702703,4,2,42,75,1,0
67499,-111.111111111111,4,2,42,75,0,0
68107,202.702702702703,4,2,42,75,1,0
69728,201.342281879195,4,2,42,75,1,0
71338,204.081632653061,4,2,42,75,1,0
71338,-111.111111111111,4,2,42,75,0,0
72970,206.896551724138,4,2,42,75,1,0
72970,-111.111111111111,4,2,42,75,0,0
73383,200,4,2,42,75,1,0
73583,-111.111111111111,4,2,42,75,0,0
73783,203.735144312394,4,2,42,75,1,0
73986,-111.111111111111,4,2,42,75,0,0
74190,202.702702702703,4,2,42,75,1,0
74392,-111.111111111111,4,2,42,75,0,0
74595,202.702702702703,4,2,42,75,1,0
77230,197.368421052632,4,2,1,85,1,0
77822,202.702702702703,4,2,1,85,1,0
79646,-86.9565217391304,4,2,1,85,0,0
80051,208.333333333333,4,2,1,85,1,0
80051,-86.9565217391304,4,2,1,85,0,0
80259,-86.9565217391304,4,2,41,85,0,0
80780,189.873417721519,4,2,41,85,1,0
81064,202.702702702703,4,2,41,85,1,1
82482,205.479452054795,4,2,41,85,1,1
82995,193.548387096774,4,2,41,85,1,1
83285,206.896551724138,4,2,41,85,1,1
83698,215.05376344086,4,2,1,85,1,1
84021,202.702702702703,4,2,1,85,1,1
84325,202.702702702703,4,2,41,85,1,1
85135,201.342281879195,4,2,41,85,1,1
85940,202.702702702703,4,2,41,85,1,1
86750,200,4,2,41,85,1,1
87550,205.479452054795,4,2,41,85,1,1
88371,202.702702702703,4,2,41,85,1,1
89181,197.368421052632,4,2,41,85,1,1
89970,208.333333333333,4,2,41,85,1,1
90178,-100,4,2,1,85,0,1
90803,202.702702702703,4,2,41,85,1,1
90803,-111.111111111111,4,2,41,85,0,1
91613,206.896551724138,4,2,41,85,1,1
92440,200,4,2,41,85,1,1
92440,-90.9090909090909,4,2,41,85,0,1
93040,220.588235294118,4,2,41,85,1,1
93260,202.702702702703,4,2,41,85,1,0
93462,-100,4,2,1,85,0,0
94070,194.805194805195,4,2,1,85,1,0
94654,202.702702702703,4,2,1,85,1,0
94856,202.702702702703,4,2,1,85,1,0
95666,-100,4,2,41,85,0,0
97491,-100,4,2,1,85,0,0
98707,196.078431372549,4,2,1,85,1,0
98903,200,4,2,41,85,1,0
99703,204.081632653061,4,2,41,85,1,0
100723,211.267605633803,4,2,1,85,1,0
101356,202.702702702703,4,2,1,85,1,0
101964,204.081632653061,4,2,1,85,1,0
102168,-100,4,2,41,85,0,0
102780,207.612456747405,4,2,41,85,1,0
102987,200,4,2,41,85,1,0
103787,201.342281879195,4,2,41,75,1,0
105397,200,4,2,41,75,1,0
105797,168.539325842697,4,2,41,75,1,0
105881,218.978102189781,4,2,41,75,1,0
106209,202.702702702703,4,2,1,85,1,0
107019,-125,4,2,1,65,0,0
107425,212.765957446809,4,2,1,65,1,0
107744,192.307692307692,4,2,1,65,1,0
108032,200,4,2,1,65,1,0
108032,-125,4,2,1,65,0,0
108632,209.79020979021,4,2,1,65,1,0
108632,-125,4,2,1,65,0,0
109366,192.307692307692,4,2,1,65,1,0
109654,202.702702702703,4,2,1,65,1,0
109654,-125,4,2,1,65,0,0
110262,209.79020979021,4,2,1,65,1,0
110262,-111.111111111111,4,2,1,65,0,0
110996,191.082802547771,4,2,1,65,1,0
110996,-111.111111111111,4,2,1,65,0,0
111282,200,4,2,1,65,1,0
111882,202.702702702703,4,2,1,65,1,0
111882,-111.111111111111,4,2,1,65,0,0
112692,212.765957446809,4,2,1,65,1,0
112692,-111.111111111111,4,2,1,65,0,0
113330,189.873417721519,4,2,1,65,1,0
113330,-111.111111111111,4,2,1,65,0,0
113519,205.479452054795,4,2,1,65,1,0
113519,-125,4,2,1,65,0,0
114238,202.702702702703,4,2,1,65,1,0
114542,-125,4,2,1,65,0,0
114846,197.368421052632,4,2,1,65,1,0
115142,204.081632653061,4,2,1,65,1,0
115142,-125,4,2,1,65,0,0
115856,192.307692307692,4,2,1,65,1,0
116144,202.702702702703,4,2,1,65,1,0
116144,-125,4,2,1,65,0,0
116752,202.702702702703,4,2,1,65,1,0
116752,-111.111111111111,4,2,1,65,0,0
117765,204.081632653061,4,2,1,65,1,0
118377,200,4,2,1,65,1,0
118377,-111.111111111111,4,2,1,65,0,0
119077,238.095238095238,4,2,1,85,1,0
119196,202.702702702703,4,2,1,85,1,0
119601,191.082802547771,4,2,1,85,1,0
119983,205.479452054795,4,2,41,85,1,0
120804,202.702702702703,4,2,41,85,1,0
122425,201.342281879195,4,2,41,85,1,0
123230,205.479452054795,4,2,41,85,1,0
124873,201.342281879195,4,2,41,85,1,0
126282,212.765957446809,4,2,1,85,1,0
126494,201.342281879195,4,2,41,85,1,0
128104,200,4,2,41,85,1,0
128904,202.702702702703,4,2,41,85,1,0
129714,200,4,2,41,85,1,0
130514,206.896551724138,4,2,41,85,1,0
131341,202.702702702703,4,2,41,85,1,0
131543,-86.9565217391304,4,2,41,85,0,0
132151,204.081632653061,4,2,1,85,1,0
132967,205.479452054795,4,2,1,85,1,0
133994,204.081632653061,4,2,1,85,1,0
134402,241.935483870968,4,2,1,85,1,0
134643,254.237288135593,4,2,41,85,1,0
134897,270.27027027027,4,2,41,85,1,0
135032,348.837209302326,4,2,41,65,1,0
135729,361.44578313253,4,2,41,65,1,0
135909,405.405405405405,4,2,41,65,1,0
136719,384.615384615385,4,2,41,65,1,0
137103,576.923076923077,4,2,41,65,1,0
137679,656.994251300301,4,2,41,100,1,0

[Colours]
Combo1 : 182,173,201
Combo2 : 202,128,145
Combo3 : 243,152,139
Combo4 : 220,124,141

[HitObjects]
8,28,0,6,0,L|120:15,1,100,14|2,1:2|3:2,2:0:0:0:
145,49,304,2,0,L|255:71,1,100,10|2,1:2|3:2,2:0:0:0:
285,41,608,1,10,1:2:0:0:
328,130,810,2,0,P|376:126|436:110,1,100.493333333333,10|2,1:2|3:0,2:0:0:0:
465,82,1111,2,0,L|456:26,2,50,10|2|2,1:2|3:2|3:0,2:0:0:0:
472,131,1405,1,10,1:2:0:0:
495,224,1601,6,0,P|481:273|472:328,1,100,14|2,1:2|3:2,2:0:0:0:
428,344,1907,2,0,P|385:359|315:334,1,100,10|2,1:2|3:2,2:0:0:0:
288,325,2213,1,10,1:2:0:0:
201,274,2417,2,0,P|157:283|94:302,1,100,10|2,1:2|3:0,2:0:0:0:
56,283,2723,2,0,L|69:219,1,50,10|2,1:2|3:2,2:0:0:0:
48,192,2927,1,2,3:0:0:0:
48,192,3029,2,0,L|43:132,1,50,10|2,1:2|3:2,2:0:0:0:
83,112,3233,6,0,B|159:89|160:151|247:138,2,150,14|10|10,1:2|1:2|1:2,2:0:0:0:
47,205,4054,2,0,P|38:263|34:313,1,100,14|2,1:2|3:2,2:0:0:0:
64,344,4363,1,10,1:2:0:0:
64,344,4465,2,0,L|150:327,1,50,2|2,3:0|3:2,2:0:0:0:
154,361,4665,2,0,L|240:378,1,50,10|2,1:2|3:0,2:0:0:0:
247,348,4865,1,14,1:2:0:0:
396,343,5169,2,0,P|406:264|427:186,1,150,10|10,1:2|1:2,2:0:0:0:
463,165,5574,1,2,3:0:0:0:
463,165,5675,2,0,L|354:145,1,100,14|10,1:2|1:2,2:0:0:0:
323,173,5979,1,10,1:2:0:0:
323,173,6081,2,0,P|301:201|286:229,2,50,10|10|14,1:2|1:2|1:3,2:0:0:0:
291,77,6486,6,0,P|252:77|200:38,1,100,14|2,1:2|3:2,2:0:0:0:
164,10,6790,2,0,P|125:32|53:52,1,100,10|2,1:2|3:2,2:0:0:0:
35,83,7094,1,10,1:2:0:0:
85,169,7297,2,0,L|196:154,1,100,10|2,1:2|3:0,2:0:0:0:
222,188,7601,2,0,L|287:221,2,50,10|2|2,1:2|3:2|3:0,2:0:0:0:
200,233,7905,1,10,1:2:0:0:
223,330,8108,6,0,P|173:338|123:341,1,100,14|2,1:2|3:2,2:0:0:0:
73,341,8412,1,10,1:2:0:0:
16,202,8716,2,0,L|11:126,1,50,10|2,1:2|3:2,2:0:0:0:
36,107,8919,2,0,P|94:99|179:83,1,100,10|2,1:2|3:0,2:0:0:0:
175,61,9223,1,10,1:2:0:0:
175,61,9324,2,0,L|236:72,1,50,2|2,3:2|3:0,2:0:0:0:
260,105,9527,2,0,L|321:94,1,50,10|2,1:2|3:2,2:0:0:0:
353,118,9729,6,0,P|305:199|317:280,2,150,14|10|10,1:2|1:2|1:2,2:0:0:0:
341,18,10540,2,0,P|297:27|227:26,1,100,14|2,1:2|3:2,2:0:0:0:
202,57,10844,1,10,1:2:0:0:
202,57,10946,2,0,P|175:48|138:44,1,50,2|2,3:0|3:2,2:0:0:0:
115,76,11148,2,0,P|86:79|51:91,1,50,10|2,1:2|3:0,2:0:0:0:
34,125,11351,6,0,P|43:197|50:310,1,150,14|10,1:2|1:2,2:0:0:0:
176,351,11947,2,0,L|252:337,1,50,10|2,1:2|3:2,2:0:0:0:
247,297,12145,2,0,P|309:326|407:310,2,150,14|10|10,1:2|1:2|1:2,2:0:0:0:
207,191,12945,6,0,L|217:83,3,80,14|6|14|6,1:2|1:3|1:3|1:3,2:0:0:0:
304,116,13761,6,0,L|295:205,1,89.999997253418,14|10,1:2|1:2,2:0:0:0:
350,289,14166,1,14,1:3:0:0:
422,220,14367,1,10,1:2:0:0:
494,151,14569,6,0,L|503:49,1,100,14|10,1:2|1:2,2:0:0:0:
403,42,14971,1,14,1:3:0:0:
303,32,15173,1,10,1:2:0:0:
218,82,15374,6,0,P|223:156|221:211,1,100,14|8,1:2|1:2,2:0:0:0:
215,231,15682,1,8,1:2:0:0:
215,231,15784,2,0,P|190:242|156:254,3,50,8|8|12|4,1:2|1:2|1:3|1:3,2:0:0:0:
142,293,16195,5,4,1:2:0:0:
51,250,16397,2,0,P|46:209|44:139,2,100,10|2|10,1:2|3:2|1:2,2:0:0:0:
80,345,17005,1,2,1:2:0:0:
181,370,17208,1,10,1:2:0:0:
181,370,17309,2,0,P|240:361|288:351,1,100,6|0,1:2|1:2,2:0:0:0:
323,377,17613,1,10,1:2:0:0:
393,308,17816,5,6,1:2:0:0:
492,316,18022,2,0,P|496:210|509:131,1,150,10|0,1:2|1:2,2:0:0:0:
471,126,18436,1,10,1:2:0:0:
422,35,18643,2,0,L|373:47,1,50,0|0,1:2|2:0,2:0:0:0:
346,89,18845,2,0,B|299:52|299:52|212:76,1,150,10|0,1:2|1:2,2:0:0:0:
165,95,19251,1,10,1:2:0:0:
91,162,19453,5,2,1:3:0:0:
162,231,19656,2,0,P|172:287|181:359,1,100,10|2,1:2|3:2,2:0:0:0:
147,370,19960,1,2,1:2:0:0:
147,370,20061,1,8,1:2:0:0:
53,335,20264,1,2,1:2:0:0:
32,237,20467,2,0,P|36:159|68:61,1,150,10|2,1:2|1:2,2:0:0:0:
85,50,20872,2,0,P|134:57|184:55,1,100,8|2,1:2|1:3,2:0:0:0:
268,116,21278,2,0,P|313:96|362:103,2,100,10|2|10,1:2|3:2|1:2,2:0:0:0:
191,202,21870,6,0,P|182:255|179:326,1,115,6|10,1:2|1:2,2:0:0:0:
185,373,22166,1,6,1:2:0:0:
300,349,22363,1,2,1:2:0:0:
300,349,22462,1,10,1:2:0:0:
413,381,22664,5,6,1:2:0:0:
461,293,22868,2,0,P|479:244|483:184,2,100,10|2|8,1:2|3:2|1:2,2:0:0:0:
361,280,23480,2,0,L|232:247,1,100,2|10,1:2|1:2,2:0:0:0:
235,220,23786,1,6,1:2:0:0:
235,220,23888,2,0,L|153:248,1,50,0|2,2:0|1:2,2:0:0:0:
143,259,24092,1,8,1:2:0:0:
60,298,24296,5,6,1:2:0:0:
17,207,24518,2,0,B|42:121|3:139|26:58,1,144.6,10|0,1:2|1:2,2:0:0:0:
40,18,24938,1,10,1:2:0:0:
136,46,25137,1,2,1:3:0:0:
230,74,25336,2,0,P|320:67|406:36,1,150,10|0,1:2|1:2,2:0:0:0:
422,68,25741,1,10,1:2:0:0:
483,146,25944,6,0,L|469:254,1,100,6|10,1:2|1:2,2:0:0:0:
373,219,26349,2,0,L|359:327,1,100,6|10,1:2|1:2,2:0:0:0:
263,291,26754,2,0,P|217:311|167:310,3,100,6|10|6|10,1:2|1:2|1:2|1:2,2:0:0:0:
72,278,27554,2,0,L|59:169,1,100,6|10,1:2|1:2,2:0:0:0:
161,181,27954,2,0,L|148:72,1,100,6|10,1:2|1:2,2:0:0:0:
250,84,28354,2,0,P|301:92|356:75,1,100,6|10,1:2|1:2,2:0:0:0:
395,59,28654,1,10,1:2:0:0:
395,59,28754,2,0,L|379:127,1,50,8|10,1:2|1:2,2:0:0:0:
395,151,28954,2,0,L|411:219,1,50,12|4,1:3|1:3,2:0:0:0:
418,247,29176,6,0,P|319:246|251:364,1,225,6|0,1:2|1:2,2:0:0:0:
206,350,29784,2,0,L|80:373,1,90.0000000000001,8|0,1:2|1:2,2:0:0:0:
49,307,30189,2,0,P|36:263|31:219,1,90.0000000000001,10|2,1:2|3:2,2:0:0:0:
63,186,30493,1,0,1:2:0:0:
63,186,30594,2,0,L|56:126,1,45,10|0,1:2|2:0,2:0:0:0:
84,104,30797,2,0,B|197:159|203:46|325:100,1,225,2|0,1:2|1:2,2:0:0:0:
342,76,31405,2,0,P|331:126|327:186,1,90.0000000000001,8|0,1:2|1:2,2:0:0:0:
322,255,31811,2,0,L|217:294,1,90.0000000000001,10|2,1:2|3:2,2:0:0:0:
201,314,32115,1,0,1:2:0:0:
201,314,32216,2,0,L|119:305,1,45,10|0,1:2|2:0,2:0:0:0:
120,282,32408,5,2,1:2:0:0:
54,199,32622,2,0,P|48:142|47:80,2,100,10|2|10,1:2|3:2|1:2,2:0:0:0:
153,200,33232,2,0,P|206:193|267:178,1,100,2|10,1:2|1:2,2:0:0:0:
300,171,33540,1,0,1:2:0:0:
283,76,33743,1,2,1:2:0:0:
283,76,33844,1,8,1:2:0:0:
378,46,34045,6,0,P|419:54|457:101,1,100,2|10,1:2|1:2,2:0:0:0:
474,194,34447,2,0,L|464:250,1,50,2|0,3:2|1:2,2:0:0:0:
463,300,34649,1,10,1:2:0:0:
463,300,34749,1,2,3:2:0:0:
463,300,34850,2,0,P|410:317|352:343,1,100,2|10,1:2|1:2,2:0:0:0:
327,362,35152,1,0,1:2:0:0:
233,330,35351,1,0,1:2:0:0:
233,330,35450,1,8,1:2:0:0:
305,264,35647,6,0,P|291:139|263:18,1,225,2|0,1:2|1:2,2:0:0:0:
230,20,36255,2,0,L|160:42,1,45,8|0,1:2|2:0,2:0:0:0:
160,67,36457,1,0,1:2:0:0:
103,136,36665,2,0,P|98:189|97:256,1,90.0000000000001,10|2,1:2|3:2,2:0:0:0:
102,274,36977,1,0,1:2:0:0:
102,274,37082,2,0,L|162:280,1,45.0000000000001,10|0,1:2|2:0,2:0:0:0:
168,314,37273,2,0,B|282:369|288:255|411:309,1,224.135993133545,2|0,1:2|1:2,2:0:0:0:
423,318,37894,2,0,P|416:266|413:198,1,90.4372472534181,8|0,1:2|1:2,2:0:0:0:
418,138,38302,2,0,P|377:146|310:130,1,90.0000000000001,10|2,1:2|3:2,2:0:0:0:
296,168,38606,1,0,1:2:0:0:
296,168,38708,2,0,L|282:95,1,45,10|0,1:2|2:0,2:0:0:0:
277,74,38910,5,2,1:2:0:0:
195,15,39111,2,0,P|163:30|91:48,1,100,10|2,1:2|3:2,2:0:0:0:
68,85,39413,1,2,1:2:0:0:
68,85,39514,2,0,L|77:158,1,50,10|0,1:2|2:0,2:0:0:0:
43,174,39715,2,0,P|81:212|95:261,1,100,2|10,1:2|1:2,2:0:0:0:
80,303,40017,1,0,1:2:0:0:
80,303,40118,2,0,P|53:316|16:338,2,50,2|0|8,3:2|1:2|1:2,2:0:0:0:
170,342,40520,5,2,1:2:0:0:
266,365,40722,2,0,P|320:356|399:333,1,100,10|2,1:2|3:2,2:0:0:0:
408,367,41026,1,0,1:2:0:0:
408,367,41128,2,0,P|411:327|418:284,1,50,10|0,1:2|2:0,2:0:0:0:
452,287,41330,1,6,1:2:0:0:
490,189,41533,2,0,P|487:149|480:106,1,50,10|8,1:2|1:2,2:0:0:0:
462,108,41727,1,10,1:2:0:0:
462,108,41825,1,8,1:2:0:0:
462,108,41922,2,0,L|388:128,1,50,12|4,1:3|1:3,2:0:0:0:
379,95,42117,6,0,B|334:73|334:73|284:82,1,100,6|10,1:2|1:2,2:0:0:0:
187,104,42548,2,0,B|137:113|137:113|92:91,1,100,6|10,1:2|1:2,2:0:0:0:
41,178,42954,1,6,1:2:0:0:
131,220,43156,1,10,1:2:0:0:
60,291,43359,2,0,P|35:322|0:377,2,100,6|10|6,1:2|1:2|1:2,2:0:0:0:
170,326,43967,6,0,P|196:313|224:304,1,57.5,14|0,1:2|2:0,2:0:0:0:
268,269,44167,2,0,P|297:273|324:282,1,57.5,6|0,1:2|2:0,2:0:0:0:
381,279,44367,2,0,P|401:299|419:321,1,57.5,10|12,1:2|1:3,2:0:0:0:
450,363,44579,6,0,P|459:309|479:236,1,100,14|12,1:2|1:3,2:0:0:0:
487,217,44883,1,4,1:3:0:0:
487,217,44984,2,0,L|470:156,1,50,10|8,1:2|1:2,2:0:0:0:
431,140,45187,2,0,L|417:188,1,50,10|8,1:2|1:2,2:0:0:0:
370,199,45389,5,6,1:2:0:0:
303,155,45595,2,0,P|236:166|119:170,1,160.386666666667,10|10,1:2|1:2,2:0:0:0:
88,223,46203,1,0,1:2:0:0:
38,285,46405,2,0,P|77:334|196:339,1,160,10|10,1:2|1:2,2:0:0:0:
248,338,47013,1,0,1:2:0:0:
293,272,47216,2,0,P|340:279|404:332,1,120,10|0,1:2|1:2,2:0:0:0:
419,354,47621,1,10,1:2:0:0:
489,318,47824,2,0,L|478:236,1,80,2|10,1:2|1:2,2:0:0:0:
419,184,48234,2,0,L|430:102,1,80,2|10,3:2|1:2,2:0:0:0:
489,51,48645,5,0,1:2:0:0:
424,2,48851,2,0,P|357:13|240:17,1,160,10|10,1:2|1:2,2:0:0:0:
218,85,49467,1,10,1:2:0:0:
259,153,49668,2,0,L|247:217,1,40,12|4,1:3|1:3,2:0:0:0:
222,219,49869,2,0,L|250:277,1,40,4|12,1:3|1:3,2:0:0:0:
270,280,50071,2,0,L|227:329,1,40,4|4,1:3|1:3,2:0:0:0:
253,358,50272,5,6,1:2:0:0:
334,120,51891,1,4,1:2:0:0:
414,63,52093,2,0,P|448:72|505:118,2,100,10|2|10,1:2|3:2|1:2,2:0:0:0:
320,25,52701,2,0,P|272:33|191:36,1,100.493333333333,2|10,1:2|1:2,2:0:0:0:
184,71,53004,1,2,3:2:0:0:
92,46,53204,1,0,1:2:0:0:
92,46,53304,2,0,L|102:123,1,50,10|0,1:2|2:0,2:0:0:0:
68,135,53504,5,0,1:2:0:0:
31,227,53706,2,0,P|115:248|200:250,1,150,10|0,1:2|1:2,2:0:0:0:
215,284,54112,1,10,1:2:0:0:
305,325,54314,1,0,1:2:0:0:
372,251,54517,2,0,P|430:257|492:292,2,100,10|2|10,1:2|3:2|1:2,2:0:0:0:
284,206,55125,5,0,1:2:0:0:
364,131,55331,2,0,P|349:77|302:21,1,110,10|2,1:2|3:2,2:0:0:0:
207,18,55745,1,8,1:2:0:0:
142,122,55952,2,0,P|130:161|129:265,2,120,0|10|2,1:2|1:2|3:2,2:0:0:0:
76,21,56560,2,0,L|17:47,1,60,10|0,1:2|2:0,2:0:0:0:
0,101,56762,5,14,1:2:0:0:
125,239,57066,1,14,1:2:0:0:
182,62,57370,1,14,1:2:0:0:
101,133,57573,5,14,1:2:0:0:
254,317,57979,1,14,1:2:0:0:
337,93,58384,1,4,1:2:0:0:
233,131,58587,6,0,P|223:185|231:316,1,165,10|0,1:2|1:2,2:0:0:0:
241,341,58992,1,10,1:2:0:0:
339,322,59195,2,0,L|399:339,1,50,2|2,1:2|3:2,2:0:0:0:
433,354,59397,2,0,P|440:304|438:254,1,100,10|0,1:2|2:0,2:0:0:0:
478,223,59702,1,0,1:2:0:0:
478,223,59803,2,0,P|485:173|483:123,1,100,10|0,1:2|1:2,2:0:0:0:
413,52,60216,6,0,P|367:68|225:80,1,150,10|0,1:2|1:2,2:0:0:0:
217,77,60619,1,10,1:2:0:0:
123,113,60820,1,0,1:2:0:0:
31,152,61021,2,0,P|56:204|76:310,1,150,10|0,1:2|1:2,2:0:0:0:
75,344,61424,1,10,1:2:0:0:
170,369,61625,6,0,L|287:343,1,100,6|10,1:2|1:2,2:0:0:0:
336,274,62030,2,0,L|453:248,1,100,6|10,1:2|1:2,2:0:0:0:
432,151,62435,2,0,P|438:86|471:45,3,100,6|10|6|10,1:2|1:2|1:2|1:2,2:0:0:0:
370,7,63240,2,0,L|253:33,1,100,6|10,1:2|1:2,2:0:0:0:
204,102,63643,2,0,L|87:128,1,100,6|10,1:2|1:2,2:0:0:0:
54,208,64045,2,0,P|77:251|78:300,1,100,4|10,1:2|1:2,2:0:0:0:
59,347,64347,1,10,1:2:0:0:
59,347,64448,2,0,L|119:373,1,50,10|10,1:2|1:2,2:0:0:0:
150,368,64649,2,0,L|210:342,1,50,12|4,1:3|1:3,2:0:0:0:
241,366,64869,6,0,B|203:232|295:263|260:127,1,225,2|0,1:2|1:2,2:0:0:0:
258,104,65477,2,0,P|313:112|375:112,1,89.9999972534181,8|0,1:2|1:2,2:0:0:0:
410,176,65879,2,0,P|397:219|387:279,1,90.0000000000001,10|2,1:2|3:2,2:0:0:0:
383,308,66179,1,0,1:2:0:0:
383,308,66279,2,0,L|324:337,1,45,10|0,1:2|2:0,2:0:0:0:
317,363,66479,2,0,P|251:358|200:200,1,225,2|0,1:2|1:2,2:0:0:0:
193,184,67091,2,0,L|94:218,1,90.0000000000001,8|0,1:2|1:2,2:0:0:0:
38,154,67499,2,0,P|39:107|60:57,1,90.0000000000001,10|2,1:2|3:2,2:0:0:0:
66,26,67803,1,0,1:2:0:0:
66,26,67904,2,0,L|136:41,1,45,10|0,1:2|2:0,2:0:0:0:
145,70,68107,5,2,1:2:0:0:
244,61,68309,2,0,P|297:54|355:41,2,100,10|2|10,1:2|3:2|1:2,2:0:0:0:
197,149,68917,2,0,P|171:235|164:287,1,100,2|10,1:2|1:2,2:0:0:0:
162,294,69221,1,0,1:2:0:0:
237,367,69424,1,2,1:2:0:0:
237,367,69525,1,8,1:2:0:0:
329,326,69728,5,2,1:2:0:0:
422,291,69929,2,0,P|425:246|426:178,1,100,10|2,1:2|3:2,2:0:0:0:
431,144,70231,1,2,1:2:0:0:
431,144,70332,1,10,1:2:0:0:
338,111,70533,2,0,P|288:115|236:145,1,100,2|10,1:2|1:2,2:0:0:0:
223,235,70936,2,0,L|157:254,1,50,2|0,3:2|1:2,2:0:0:0:
129,268,71137,1,8,1:2:0:0:
40,273,71338,6,0,P|98:357|221:333,1,225,2|0,1:2|1:2,2:0:0:0:
254,344,71950,2,0,P|266:287|281:250,1,90.0000000000001,8|0,1:2|1:2,2:0:0:0:
331,185,72358,2,0,L|321:78,1,90.0000000000001,10|2,1:2|3:2,2:0:0:0:
317,55,72664,1,0,1:2:0:0:
317,55,72766,2,0,L|269:73,1,45,10|0,1:2|2:0,2:0:0:0:
235,49,72970,2,0,B|122:104|116:-9|-6:45,1,223.259993133545,2|0,1:2|1:2,2:0:0:0:
5,76,73583,2,0,P|11:129|25:200,1,90.4499972534181,8|0,1:2|1:2,2:0:0:0:
56,246,73986,2,0,P|49:306|38:364,1,90.4417472534181,10|2,1:2|3:2,2:0:0:0:
54,379,74291,1,0,1:2:0:0:
54,379,74392,2,0,L|104:367,1,45,10|0,1:2|2:0,2:0:0:0:
145,354,74595,5,0,1:2:0:0:
235,311,74797,2,0,P|278:333|340:341,1,100,10|2,1:2|3:2,2:0:0:0:
369,371,75101,1,2,1:2:0:0:
369,371,75203,2,0,L|386:307,1,50,10|0,1:2|2:0,2:0:0:0:
395,274,75405,2,0,P|388:224|386:169,1,100,2|10,1:2|1:2,2:0:0:0:
389,124,75709,1,0,1:2:0:0:
452,45,75912,1,2,1:2:0:0:
452,45,76013,1,8,1:2:0:0:
359,6,76216,5,2,1:2:0:0:
295,83,76419,2,0,P|256:102|217:142,1,100,10|2,1:2|3:2,2:0:0:0:
192,186,76723,1,0,1:2:0:0:
192,186,76824,2,0,L|131:202,1,50,10|0,1:2|2:0,2:0:0:0:
115,240,77027,1,6,1:2:0:0:
44,164,77230,2,0,L|35:105,1,50,10|8,1:2|1:2,2:0:0:0:
65,76,77427,1,10,1:2:0:0:
65,76,77526,1,8,1:2:0:0:
65,76,77624,2,0,L|74:17,1,50,12|4,1:3|1:3,2:0:0:0:
121,30,77822,6,0,P|182:42|238:37,1,100,6|10,1:2|1:2,2:0:0:0:
301,97,78227,2,0,P|362:87|413:63,1,100,6|10,1:2|1:2,2:0:0:0:
496,85,78632,1,6,1:2:0:0:
478,183,78835,1,10,1:2:0:0:
460,281,79038,2,0,P|487:338|496:380,2,100,6|10|6,1:2|1:2|1:2,2:0:0:0:
365,214,79646,6,0,P|335:214|293:205,1,57.5,10|0,1:2|2:0,2:0:0:0:
247,191,79849,2,0,P|262:216|275:257,1,57.5,6|0,1:2|2:0,2:0:0:0:
268,303,80051,2,0,P|253:328|224:360,1,57.5,10|0,1:2|2:0,2:0:0:0:
166,384,80259,5,14,1:2:0:0:
8,28,81064,2,0,P|57:42|123:48,1,100,14|2,1:2|3:2,2:0:0:0:
135,88,81368,2,0,P|185:82|251:88,1,100,10|2,1:2|3:2,2:0:0:0:
274,55,81672,1,10,1:2:0:0:
339,130,81874,2,0,L|442:107,1,100,10|2,1:2|3:0,2:0:0:0:
475,76,82178,2,0,L|488:24,2,50,10|2|2,1:2|3:2|3:0,2:0:0:0:
481,125,82482,1,10,1:2:0:0:
461,222,82687,6,0,P|456:254|454:294,1,50,14|2,1:2|3:2,2:0:0:0:
475,322,82892,1,2,1:2:0:0:
475,322,82995,2,0,L|369:351,1,100,10|2,1:2|1:2,2:0:0:0:
334,367,83285,1,10,1:2:0:0:
242,325,83491,1,2,1:2:0:0:
155,359,83698,2,0,L|141:298,1,50,10|10,1:2|1:2,2:0:0:0:
110,273,83913,2,0,L|124:212,1,50.4566666666667,10|10,1:2|1:2,2:0:0:0:
143,183,84122,1,14,1:3:0:0:
143,183,84223,1,6,1:3:0:0:
143,183,84325,6,0,P|106:189|29:100,2,150,14|10|10,1:2|1:2|1:2,2:0:0:0:
228,130,85135,2,0,P|263:116|347:116,1,100,14|2,1:2|3:2,2:0:0:0:
371,131,85437,1,10,1:2:0:0:
371,131,85537,2,0,L|388:192,1,50,2|2,3:0|3:2,2:0:0:0:
419,215,85739,2,0,L|402:276,1,50,10|2,1:2|3:0,2:0:0:0:
417,311,85940,6,0,P|335:330|280:277,1,150,14|10,1:2|1:2,2:0:0:0:
153,359,86548,1,10,1:2:0:0:
57,325,86750,2,0,P|68:251|69:159,1,150,14|10,1:2|1:2,2:0:0:0:
53,128,87150,2,0,L|116:111,1,50,2|2,3:2|3:2,2:0:0:0:
151,115,87350,2,0,L|199:128,1,50,10|2,1:2|3:2,2:0:0:0:
240,102,87550,6,0,B|316:79|321:148|413:130,2,150,14|10|10,1:2|1:2|1:2,2:0:0:0:
156,158,88371,2,0,P|140:211|130:315,1,150,10|10,1:2|1:2,2:0:0:0:
168,337,88776,2,0,L|231:360,1,50,2|2,3:2|3:0,2:0:0:0:
268,340,88979,1,10,1:2:0:0:
268,340,89080,1,2,3:2:0:0:
268,340,89181,6,0,P|327:331|373:340,1,100,14|2,1:2|1:2,2:0:0:0:
410,346,89477,1,10,1:2:0:0:
461,273,89674,1,2,1:2:0:0:
461,273,89773,1,10,1:2:0:0:
449,188,89970,2,0,L|432:113,1,50,14|6,1:3|1:3,2:0:0:0:
426,100,90178,1,14,1:2:0:0:
426,100,90282,1,14,1:2:0:0:
344,131,90490,1,14,1:2:0:0:
344,131,90595,1,14,1:2:0:0:
261,122,90803,6,0,P|191:99|93:96,2,135,14|10|10,1:2|1:2|1:2,2:0:0:0:
320,186,91613,2,0,P|431:159|491:189,2,150,14|10|10,1:2|1:2|1:2,2:0:0:0:
258,268,92440,2,0,P|219:229|91:215,2,165.000005035401,14|10|10,1:2|1:2|1:2,2:0:0:0:
321,342,93260,1,14,1:2:0:0:
367,265,93462,2,0,L|369:215,1,50,8|8,1:2|1:2,2:0:0:0:
395,179,93665,1,8,1:2:0:0:
395,179,93766,2,0,L|361:142,2,50,8|8|8,1:2|1:2|1:2,2:0:0:0:
435,203,94070,2,0,L|484:205,1,50,12|4,1:3|1:3,2:0:0:0:
504,164,94264,5,14,1:2:0:0:
415,69,94557,1,4,1:3:0:0:
415,69,94654,2,0,P|371:51|319:47,2,99.7533333333333,14|12|14,1:2|1:3|1:2,2:0:0:0:
411,207,95362,1,4,1:3:0:0:
411,207,95464,2,0,P|400:257|397:311,1,100,14|4,1:2|1:2,2:0:0:0:
308,317,95869,2,0,P|250:335|158:333,1,150,10|0,1:2|1:2,2:0:0:0:
116,354,96274,2,0,L|103:294,1,50,8|2,1:2|3:2,2:0:0:0:
68,271,96477,2,0,P|74:218|88:149,1,100,0|10,1:2|1:2,2:0:0:0:
95,123,96781,1,2,1:2:0:0:
76,29,96984,1,2,1:2:0:0:
76,29,97085,2,0,P|127:24|188:0,1,100,8|12,1:2|1:3,2:0:0:0:
252,69,97491,5,14,1:2:0:0:
285,219,97795,1,4,1:3:0:0:
285,219,97896,1,14,1:2:0:0:
255,314,98099,1,12,1:3:0:0:
341,363,98301,2,0,L|496:318,1,150,14|4,1:2|1:3,2:0:0:0:
493,269,98707,1,14,1:2:0:0:
420,203,98903,1,4,1:2:0:0:
481,123,99103,2,0,P|487:73|485:6,2,100,10|2|10,1:2|3:2|1:2,2:0:0:0:
384,108,99703,2,0,P|342:110|242:133,1,100,2|10,1:2|1:2,2:0:0:0:
220,196,100111,1,2,3:2:0:0:
140,135,100315,2,0,P|112:180|98:232,1,100,10|12,1:2|1:3,2:0:0:0:
91,321,100723,5,14,1:2:0:0:
242,347,101039,1,4,1:3:0:0:
242,347,101145,2,0,P|295:325|349:315,1,100,14|12,1:2|1:3,2:0:0:0:
399,238,101558,2,0,P|345:216|249:204,1,150,14|4,1:2|1:3,2:0:0:0:
204,208,101964,1,14,1:2:0:0:
242,115,102168,1,4,1:2:0:0:
177,38,102372,2,0,P|99:39|26:63,1,150,10|0,1:2|1:2,2:0:0:0:
6,103,102780,2,0,P|19:162|23:207,1,100,10|0,1:2|1:2,2:0:0:0:
30,305,103187,1,10,1:2:0:0:
30,305,103287,1,2,1:2:0:0:
125,348,103487,1,0,1:2:0:0:
125,348,103587,1,10,1:2:0:0:
182,267,103787,5,6,1:2:0:0:
241,187,103988,2,0,B|288:224|288:224|375:200,1,150,10|0,1:2|1:2,2:0:0:0:
416,227,104391,1,10,1:2:0:0:
464,139,104592,1,0,1:2:0:0:
399,62,104793,2,0,B|352:25|352:25|265:49,1,150,10|0,1:2|1:2,2:0:0:0:
222,21,105196,2,0,P|195:51|165:116,1,100,10|2,1:2|1:2,2:0:0:0:
83,156,105597,2,0,P|110:186|140:251,1,100,10|0,1:2|2:0,2:0:0:0:
150,280,105881,1,0,1:2:0:0:
150,280,105990,1,10,1:2:0:0:
223,358,106209,6,0,P|274:346|328:328,1,100,4|8,1:2|1:2,2:0:0:0:
365,350,106513,1,8,1:2:0:0:
365,350,106614,2,0,L|377:284,1,50,8|8,1:2|1:2,2:0:0:0:
376,250,106817,2,0,L|367:200,1,50,12|4,1:3|1:3,2:0:0:0:
379,162,107019,6,0,P|327:186|221:194,1,160.394666666667,6|8,1:2|1:2,2:0:0:0:
99,151,107744,1,8,1:2:0:0:
33,245,108032,2,0,P|47:284|57:335,1,80,14|10,1:2|1:2,2:0:0:0:
64,360,108332,1,14,1:2:0:0:
170,317,108632,2,0,P|238:313|339:353,1,160,6|8,1:2|1:2,2:0:0:0:
448,301,109366,1,8,1:2:0:0:
414,192,109654,2,0,P|415:143|424:103,1,80,14|10,1:2|1:2,2:0:0:0:
441,77,109958,1,14,1:2:0:0:
333,3,110262,6,0,P|269:8|159:50,1,180,6|10,1:2|1:2,2:0:0:0:
136,87,110786,1,2,3:2:0:0:
136,87,110891,1,2,3:2:0:0:
136,87,110996,2,0,P|142:136|143:201,1,90.0000000000001,8|2,1:2|3:2,2:0:0:0:
148,219,111282,1,14,1:2:0:0:
219,281,111482,1,10,1:2:0:0:
219,281,111582,1,14,1:2:0:0:
331,208,111882,6,0,P|329:145|318:36,1,135,6|0,1:2|1:2,2:0:0:0:
312,29,112287,1,10,1:2:0:0:
226,58,112490,2,0,L|167:78,1,45,2|14,3:2|1:2,2:0:0:0:
171,113,112692,2,0,B|76:158|71:64|-30:109,1,180,6|14,1:2|1:2,2:0:0:0:
23,197,113330,2,0,L|38:265,1,45,8|8,1:2|1:2,2:0:0:0:
22,276,113519,6,0,P|88:288|157:365,1,160,6|8,1:2|1:2,2:0:0:0:
253,285,114238,1,8,1:2:0:0:
361,337,114542,2,0,P|359:292|375:224,1,80,14|10,1:2|1:2,2:0:0:0:
380,219,114846,1,14,1:2:0:0:
421,110,115142,2,0,B|376:75|376:75|280:122,1,160,6|8,1:2|1:2,2:0:0:0:
174,187,115856,1,8,1:2:0:0:
81,120,116144,2,0,P|92:76|93:24,1,80,14|10,1:2|1:2,2:0:0:0:
88,1,116448,1,14,1:2:0:0:
211,55,116752,6,0,B|305:100|310:6|412:51,1,180,6|10,1:2|1:2,2:0:0:0:
420,83,117258,1,2,3:2:0:0:
420,83,117360,1,2,3:2:0:0:
420,83,117461,2,0,P|411:127|400:212,1,90.0000000000001,8|0,1:2|2:0,2:0:0:0:
404,216,117765,1,14,1:2:0:0:
338,277,117969,1,8,1:2:0:0:
338,277,118071,1,14,1:2:0:0:
259,163,118377,6,0,P|214:160|109:220,1,135,6|0,1:2|1:2,2:0:0:0:
110,233,118777,1,14,1:2:0:0:
89,326,118977,1,2,1:2:0:0:
89,326,119077,1,10,1:2:0:0:
89,326,119196,2,0,P|120:355|205:368,1,100,12|8,1:2|1:2,2:0:0:0:
226,362,119500,1,8,1:2:0:0:
226,362,119601,2,0,L|284:341,1,50,14|8,1:2|1:2,2:0:0:0:
321,333,119792,2,0,L|379:354,1,50,8|8,1:2|1:2,2:0:0:0:
411,367,119983,5,6,1:2:0:0:
470,286,120188,2,0,P|470:176|468:97,1,150,10|0,1:2|1:2,2:0:0:0:
445,91,120599,2,0,P|395:104|329:113,1,100,8|0,1:2|1:2,2:0:0:0:
257,67,121006,2,0,P|234:110|232:179,1,100,10|2,1:2|3:2,2:0:0:0:
246,212,121310,1,0,1:2:0:0:
246,212,121412,2,0,L|201:236,1,50,10|0,1:2|2:0,2:0:0:0:
160,263,121614,5,2,1:2:0:0:
72,310,121817,2,0,P|72:200|74:121,1,150,10|0,1:2|1:2,2:0:0:0:
97,115,122222,2,0,P|147:128|176:132,1,50,8|0,1:2|2:0,2:0:0:0:
192,134,122425,1,0,1:2:0:0:
268,70,122626,2,0,P|320:71|374:60,1,100,10|2,1:2|3:2,2:0:0:0:
411,84,122928,1,0,1:2:0:0:
411,84,123029,2,0,L|401:153,1,50,10|0,1:2|2:0,2:0:0:0:
421,179,123230,5,0,1:2:0:0:
456,272,123435,2,0,P|468:317|472:388,2,100,10|2|10,1:2|3:2|1:2,2:0:0:0:
358,249,124051,2,0,P|325:256|214:270,1,100,2|10,1:2|1:2,2:0:0:0:
209,269,124360,1,0,1:2:0:0:
140,341,124565,1,2,1:2:0:0:
140,341,124668,1,8,1:2:0:0:
42,311,124873,5,0,1:2:0:0:
28,212,125074,2,0,P|26:161|9:95,1,100,10|2,1:2|3:2,2:0:0:0:
29,67,125376,1,0,1:2:0:0:
29,67,125477,2,0,L|99:52,1,50,10|0,1:2|2:0,2:0:0:0:
127,47,125678,1,2,1:2:0:0:
207,114,125879,1,8,1:2:0:0:
207,114,125980,1,2,1:2:0:0:
297,67,126181,1,2,1:2:0:0:
297,67,126282,1,14,1:2:0:0:
376,135,126494,5,6,1:2:0:0:
457,77,126695,2,0,P|473:144|476:266,1,150,10|0,1:2|1:2,2:0:0:0:
474,274,127098,2,0,P|429:288|369:313,1,100,8|0,1:2|1:2,2:0:0:0:
289,350,127500,2,0,B|243:334|243:334|193:347,1,100,10|2,1:2|3:2,2:0:0:0:
150,368,127802,1,0,1:2:0:0:
150,368,127903,2,0,L|141:296,1,50,10|0,1:2|2:0,2:0:0:0:
139,268,128104,6,0,L|148:196,1,50,2|0,1:2|2:0,2:0:0:0:
140,168,128304,2,0,P|226:197|295:192,1,150,10|0,1:2|1:2,2:0:0:0:
333,184,128704,1,8,1:2:0:0:
357,88,128904,1,0,1:2:0:0:
453,113,129106,2,0,P|439:166|426:233,1,100,10|2,1:2|3:2,2:0:0:0:
440,263,129410,1,0,1:2:0:0:
440,263,129512,2,0,P|413:278|390:292,1,50,10|0,1:2|2:0,2:0:0:0:
356,318,129714,5,0,1:2:0:0:
262,352,129914,2,0,P|214:346|146:355,1,100,10|2,1:2|3:2,2:0:0:0:
119,372,130214,1,2,1:2:0:0:
119,372,130314,2,0,L|106:303,1,50,10|0,1:2|2:0,2:0:0:0:
93,277,130514,2,0,P|94:223|109:132,1,100,2|10,1:2|1:2,2:0:0:0:
116,129,130824,2,0,L|106:72,1,50,0|2,1:2|3:2,2:0:0:0:
95,35,131031,1,0,1:2:0:0:
95,35,131134,1,8,1:2:0:0:
192,5,131341,5,0,1:2:0:0:
269,89,131543,2,0,L|283:173,1,57.5,10|0,1:2|2:0,2:0:0:0:
242,191,131746,2,0,L|206:268,1,57.5,2|0,3:2|1:2,2:0:0:0:
247,293,131949,2,0,L|301:358,1,57.5,10|0,1:2|2:0,2:0:0:0:
324,365,132151,6,0,L|388:343,1,50,14|8,1:2|1:2,0:0:0:0:
420,372,132355,1,12,1:3:0:0:
420,372,132457,2,0,L|456:314,1,50,14|8,1:2|1:2,2:0:0:0:
449,292,132661,1,12,1:3:0:0:
449,292,132763,1,14,1:2:0:0:
449,292,132865,1,8,1:2:0:0:
449,292,132967,6,0,P|454:242|463:185,1,100,6|10,1:2|1:2,2:0:0:0:
361,191,133377,2,0,P|366:141|375:84,1,100,6|10,1:2|1:2,2:0:0:0:
306,4,133788,1,6,1:2:0:0:
263,106,133994,1,10,1:2:0:0:
197,18,134198,1,6,1:2:0:0:
119,69,134402,1,10,1:2:0:0:
56,23,134643,5,6,1:2:0:0:
256,192,134897,12,4,137679,1:2:0:0:
