osu file format v14

[General]
AudioFilename: audio.mp3
AudioLeadIn: 0
PreviewTime: 77797
Countdown: 0
SampleSet: Soft
StackLeniency: 1
Mode: 0
LetterboxInBreaks: 0
WidescreenStoryboard: 1

[Editor]
DistanceSpacing: 0.9
BeatDivisor: 4
GridSize: 32
TimelineZoom: 2.6

[Metadata]
Title:DVP
TitleUnicode:DVP
Artist:PUP
ArtistUnicode:PUP
Creator:attendant
Version:Easy
Source:
Tags:english indie punk rock the dream is over pathetic use of potential don valley parkway park way featured artist fa
BeatmapID:2994234
BeatmapSetID:1442963

[Difficulty]
HPDrainRate:2
CircleSize:2.5
OverallDifficulty:3
ApproachRate:4
SliderMultiplier:0.5
SliderTickRate:0.5

[Events]
//Background and Video events
0,0,"y.jpg",0,0
//Break Periods
2,45589,48952
2,107219,118663
//Storyboard Layer 0 (Background)
//Storyboard Layer 1 (Fail)
//Storyboard Layer 2 (Pass)
//Storyboard Layer 3 (Foreground)
//Storyboard Layer 4 (Overlay)
//Storyboard Sound Samples

[TimingPoints]
0,202.702702702703,4,2,41,85,1,0
0,-100,4,2,41,85,0,1
1013,196.078431372549,4,2,41,85,1,1
1601,204.081632653061,4,2,41,85,1,1
3233,205.479452054795,4,2,41,85,1,1
4465,200,4,2,41,85,1,1
4865,202.702702702703,4,2,41,85,1,1
11351,198.675496688742,4,2,41,85,1,1
12145,200,4,2,41,85,1,1
12945,204.081632653061,4,2,1,45,1,0
13761,-100,4,2,1,65,0,0
13965,201.342281879195,4,2,1,65,1,0
14569,201.342281879195,4,2,1,85,1,0
15374,205.479452054795,4,2,41,85,1,0
16195,202.702702702703,4,2,41,85,1,0
16397,-100,4,2,41,75,0,0
17816,206.896551724138,4,2,41,75,1,0
18643,202.702702702703,4,2,41,75,1,0
21278,197.368421052632,4,2,41,75,1,0
22166,-100,4,2,1,75,0,0
22462,202.702702702703,4,2,41,75,1,0
22664,204.081632653061,4,2,41,75,1,0
24296,222.222222222222,4,2,41,75,1,0
24740,198.675496688742,4,2,41,75,1,0
25336,202.702702702703,4,2,41,75,1,0
25944,202.702702702703,4,2,1,85,1,0
26754,200,4,2,1,85,1,0
28954,222.222222222222,4,2,1,85,1,0
29176,202.702702702703,4,2,42,65,1,0
32216,192.307692307692,4,2,42,65,1,0
32408,214.285714285714,4,2,42,65,1,0
32622,202.702702702703,4,2,42,65,1,0
33027,205.479452054795,4,2,42,65,1,0
33643,201.342281879195,4,2,42,65,1,0
34045,201.342281879195,4,2,42,65,1,0
35253,197.368421052632,4,2,42,65,1,0
35647,202.702702702703,4,2,42,65,1,0
36457,208.333333333333,4,2,42,65,1,0
37082,191.082802547771,4,2,42,65,1,0
37273,208.333333333333,4,2,42,65,1,0
37689,205.831903945111,4,2,42,65,1,0
38100,202.702702702703,4,2,42,65,1,0
38910,201.342281879195,4,2,42,65,1,0
40520,202.702702702703,4,2,42,65,1,0
41533,194.805194805195,4,2,42,65,1,0
42117,229.007633587786,4,2,1,85,1,0
42346,202.702702702703,4,2,1,85,1,0
43967,200,4,2,1,85,1,0
44367,212.765957446809,4,2,1,85,1,0
44579,202.702702702703,4,2,1,85,1,0
45389,206.896551724138,4,2,41,65,1,0
46009,194.805194805195,4,2,41,65,1,0
46203,202.702702702703,4,2,41,65,1,0
47824,205.479452054795,4,2,41,65,1,0
49467,201.342281879195,4,2,41,65,1,0
50272,205.479452054795,4,2,41,85,1,0
51299,197.368421052632,4,2,41,85,1,0
51891,202.702702702703,4,2,41,85,1,0
52904,200,4,2,41,85,1,0
53504,202.702702702703,4,2,41,85,1,0
55125,206.896551724138,4,2,41,85,1,0
55952,202.702702702703,4,2,41,85,1,0
56762,-100,4,2,1,100,0,0
58587,-100,4,2,41,85,0,0
59803,212.765957446809,4,2,41,85,1,0
60015,201.342281879195,4,2,41,85,1,0
61625,202.702702702703,4,2,1,85,1,0
62435,201.342281879195,4,2,1,85,1,0
64649,220.588235294118,4,2,1,85,1,0
64869,202.702702702703,4,2,1,75,1,0
65071,-100,4,2,42,75,0,0
65679,200,4,2,42,75,1,0
66479,204.081632653061,4,2,42,75,1,0
67499,202.702702702703,4,2,42,75,1,0
68107,202.702702702703,4,2,42,75,1,0
69728,201.342281879195,4,2,42,75,1,0
71338,204.081632653061,4,2,42,75,1,0
72970,206.896551724138,4,2,42,75,1,0
73383,200,4,2,42,75,1,0
73783,203.735144312394,4,2,42,75,1,0
74190,202.702702702703,4,2,42,75,1,0
74595,202.702702702703,4,2,42,75,1,0
77230,197.368421052632,4,2,42,75,1,0
77822,202.702702702703,4,2,1,85,1,0
80051,208.333333333333,4,2,1,85,1,0
80259,-100,4,2,41,85,0,0
80780,189.873417721519,4,2,41,85,1,0
81064,202.702702702703,4,2,41,85,1,1
82482,205.479452054795,4,2,41,85,1,1
82995,193.548387096774,4,2,41,85,1,1
83285,206.896551724138,4,2,41,85,1,1
83698,215.05376344086,4,2,41,85,1,1
84021,202.702702702703,4,2,41,85,1,1
84325,202.702702702703,4,2,41,85,1,1
85135,201.342281879195,4,2,41,85,1,1
85940,202.702702702703,4,2,41,85,1,1
86750,200,4,2,41,85,1,1
87550,205.479452054795,4,2,41,85,1,1
88371,202.702702702703,4,2,41,85,1,1
89181,197.368421052632,4,2,41,85,1,1
89970,208.333333333333,4,2,41,85,1,1
90178,-100,4,2,1,85,0,1
90803,202.702702702703,4,2,41,85,1,1
91613,206.896551724138,4,2,41,85,1,1
92440,200,4,2,41,85,1,1
93040,220.588235294118,4,2,41,85,1,1
93260,202.702702702703,4,2,41,85,1,0
94070,194.805194805195,4,2,41,85,1,0
94264,-100,4,2,1,85,0,0
94654,202.702702702703,4,2,1,85,1,0
94856,202.702702702703,4,2,1,85,1,0
98707,196.078431372549,4,2,1,85,1,0
98903,200,4,2,1,85,1,0
99103,-100,4,2,41,85,0,0
99703,204.081632653061,4,2,41,85,1,0
100723,211.267605633803,4,2,1,85,1,0
101356,202.702702702703,4,2,1,85,1,0
101964,204.081632653061,4,2,1,85,1,0
102372,-100,4,2,41,85,0,0
102780,207.612456747405,4,2,41,85,1,0
102987,200,4,2,41,85,1,0
103787,201.342281879195,4,2,41,75,1,0
105397,200,4,2,41,75,1,0
105797,168.539325842697,4,2,41,75,1,0
105881,218.978102189781,4,2,41,75,1,0
106209,202.702702702703,4,2,1,85,1,0
107019,-100,4,2,1,65,0,0
107425,212.765957446809,4,2,1,65,1,0
107744,192.307692307692,4,2,1,65,1,0
108032,200,4,2,1,65,1,0
108632,209.79020979021,4,2,1,65,1,0
109366,192.307692307692,4,2,1,65,1,0
109654,202.702702702703,4,2,1,65,1,0
110262,209.79020979021,4,2,1,65,1,0
110996,191.082802547771,4,2,1,65,1,0
111282,200,4,2,1,65,1,0
111882,202.702702702703,4,2,1,65,1,0
112692,212.765957446809,4,2,1,65,1,0
113330,189.873417721519,4,2,1,65,1,0
113519,205.479452054795,4,2,1,65,1,0
114238,202.702702702703,4,2,1,65,1,0
114846,197.368421052632,4,2,1,65,1,0
115142,204.081632653061,4,2,1,65,1,0
115856,192.307692307692,4,2,1,65,1,0
116144,202.702702702703,4,2,1,65,1,0
116752,202.702702702703,4,2,1,65,1,0
117765,204.081632653061,4,2,1,65,1,0
118377,200,4,2,1,65,1,0
119077,238.095238095238,4,2,1,65,1,0
119196,202.702702702703,4,2,1,65,1,0
119601,191.082802547771,4,2,1,65,1,0
119983,205.479452054795,4,2,41,85,1,0
120804,202.702702702703,4,2,41,85,1,0
122425,201.342281879195,4,2,41,85,1,0
123230,205.479452054795,4,2,41,85,1,0
124873,201.342281879195,4,2,41,85,1,0
126282,212.765957446809,4,2,41,85,1,0
126494,201.342281879195,4,2,41,85,1,0
128104,200,4,2,41,85,1,0
128904,202.702702702703,4,2,41,85,1,0
129714,200,4,2,41,85,1,0
130514,206.896551724138,4,2,41,85,1,0
131341,202.702702702703,4,2,41,85,1,0
132151,204.081632653061,4,2,1,85,1,0
132967,205.479452054795,4,2,1,85,1,0
133994,204.081632653061,4,2,1,85,1,0
134402,241.935483870968,4,2,1,85,1,0
134643,254.237288135593,4,2,1,85,1,0
134897,270.27027027027,4,2,1,85,1,0
135032,348.837209302326,4,2,1,65,1,0
135729,361.44578313253,4,2,1,65,1,0
135909,405.405405405405,4,2,1,65,1,0
136719,384.615384615385,4,2,1,65,1,0
137103,576.923076923077,4,2,1,65,1,0
137679,656.994251300301,4,2,41,100,1,0

[Colours]
Combo1 : 182,173,201
Combo2 : 202,128,145
Combo3 : 243,152,139
Combo4 : 220,124,141

[HitObjects]
37,163,0,6,0,B|103:119|103:119|218:152,1,200,14|10,1:2|1:2,2:0:0:0:
248,215,1111,1,10,1:2:0:0:
256,322,1601,2,0,B|190:366|190:366|74:332,1,200,14|10,1:2|1:2,2:0:0:0:
39,274,2723,1,10,1:2:0:0:
37,163,3233,2,0,L|24:40,1,100,14|2,1:2|3:2,2:0:0:0:
116,55,4054,2,0,L|126:154,1,100.243333333333,14|2,1:2|3:0,2:0:0:0:
142,242,4865,2,0,P|237:260|313:200,1,200,14|14,1:2|1:2,2:0:0:0:
346,23,6486,6,0,B|238:50|257:-3|149:21,1,200,14|10,1:2|1:2,2:0:0:0:
113,78,7601,1,10,1:2:0:0:
53,173,8108,2,0,B|22:237|22:237|75:354,1,200,14|10,1:2|1:2,2:0:0:0:
142,365,9223,1,10,1:2:0:0:
242,314,9729,2,0,B|273:250|273:250|219:132,1,200,14|14,1:2|1:2,2:0:0:0:
187,73,10844,1,10,1:2:0:0:
289,18,11351,2,0,B|396:45|377:-8|485:16,1,200,14|14,1:2|1:2,2:0:0:0:
510,79,12445,1,10,1:2:0:0:
487,186,12945,5,14,1:2:0:0:
310,152,13761,1,14,1:2:0:0:
276,329,14569,1,14,1:2:0:0:
453,363,15374,1,14,1:2:0:0:
487,138,16397,6,0,L|474:30,1,100,10|10,1:2|1:2,2:0:0:0:
385,26,17208,2,0,L|285:37,1,100,10|10,1:2|1:2,2:0:0:0:
255,68,17816,2,0,B|236:138|236:138|270:207,1,150,6|10,1:2|1:2,2:0:0:0:
252,296,18845,2,0,L|152:307,1,100,10|10,1:2|1:2,2:0:0:0:
63,294,19656,5,10,1:2:0:0:
55,204,20061,1,8,1:2:0:0:
103,127,20467,2,0,L|202:115,1,100,10|8,1:2|1:2,2:0:0:0:
253,191,21278,1,10,1:2:0:0:
387,203,21870,2,0,P|393:247|396:292,2,75,6|6|10,1:2|1:2|1:2,2:0:0:0:
385,113,22868,6,0,P|429:121|500:106,1,100,10|10,1:2|1:2,2:0:0:0:
459,26,23684,2,0,P|415:18|344:33,1,100,10|8,1:2|1:2,2:0:0:0:
325,47,24296,2,0,B|345:128|305:113|323:195,1,144.6,6|10,1:2|1:2,2:0:0:0:
358,269,25336,2,0,L|260:300,1,100,10|10,1:2|1:2,2:0:0:0:
223,277,25944,5,6,1:2:0:0:
163,209,26349,1,6,1:2:0:0:
210,131,26754,1,6,1:2:0:0:
298,151,27154,1,6,1:2:0:0:
306,241,27554,1,6,1:2:0:0:
394,260,27954,2,0,P|414:214|458:170,1,100,6|4,1:2|1:2,2:0:0:0:
302,69,29176,6,0,B|168:133|138:0|-3:48,1,300,6|2,1:2|3:2,2:0:0:0:
1,132,30797,2,0,L|21:298,1,150,2|8,1:2|1:2,2:0:0:0:
83,344,31811,2,0,P|131:327|191:317,1,100,10|10,1:2|1:2,2:0:0:0:
260,280,32622,2,0,P|310:289|367:310,1,100,10|10,1:2|1:2,2:0:0:0:
438,268,33437,2,0,P|442:229|444:162,1,99.27,10|10,1:2|1:2,2:0:0:0:
389,97,34246,2,0,L|278:114,1,100,10|10,1:2|1:2,2:0:0:0:
218,57,35051,1,10,1:2:0:0:
100,117,35647,6,0,P|-10:193|68:302,1,302.466666666667,2|2,1:2|3:2,2:0:0:0:
141,352,37273,2,0,P|211:330|302:339,1,149.04,2|8,1:2|1:2,2:0:0:0:
345,267,38302,2,0,L|368:152,1,100,10|10,1:2|1:2,2:0:0:0:
300,104,39111,2,0,L|188:141,1,100,10|10,1:2|1:2,2:0:0:0:
181,224,39916,2,0,L|269:301,1,100,10|8,1:2|1:2,2:0:0:0:
315,357,40722,2,0,L|412:291,1,100,10|10,1:2|1:2,2:0:0:0:
436,277,41330,1,6,1:2:0:0:
436,121,42117,6,0,P|419:75|408:26,1,94.105,6|6,1:2|1:2,2:0:0:0:
323,53,42954,2,0,P|334:102|352:149,1,100,6|6,1:2|1:2,2:0:0:0:
266,175,43764,2,0,P|248:128|237:79,1,99.5066666666667,6|6,1:2|1:2,2:0:0:0:
174,13,44579,1,14,1:2:0:0:
7,69,45389,1,6,1:2:0:0:
256,192,50272,5,6,1:2:0:0:
256,192,52093,6,0,L|278:313,1,100,10|10,1:2|1:2,2:0:0:0:
346,343,52904,2,0,L|444:325,1,100,10|10,1:2|1:2,2:0:0:0:
497,253,53706,2,0,L|479:154,1,100,10|8,1:2|1:2,2:0:0:0:
407,102,54517,1,8,1:2:0:0:
260,4,55331,6,0,P|210:5|163:23,1,100,10|10,1:2|1:2,2:0:0:0:
167,114,56154,2,0,P|216:113|263:95,1,100,10|10,1:2|3:2,2:0:0:0:
306,106,56762,2,0,P|347:99|384:110,2,75,14|14|14,1:2|1:2|1:2,2:0:0:0:
294,149,57573,2,0,P|286:193|272:258,1,100,14|14,1:2|1:2,2:0:0:0:
158,315,58587,6,8,L|52:290,1,100,10|10,1:2|1:2,2:0:0:0:
13,215,59397,2,0,P|25:166|55:126,1,100.246666666667,10|10,1:2|1:2,2:0:0:0:
143,154,60216,2,0,P|190:167|230:196,1,100,10|8,1:2|1:2,2:0:0:0:
246,285,61021,1,8,1:2:0:0:
361,216,61625,5,6,1:2:0:0:
429,273,62030,1,6,1:2:0:0:
503,227,62435,1,6,1:2:0:0:
482,142,62837,1,6,1:2:0:0:
394,135,63240,1,6,1:2:0:0:
341,208,63643,2,0,P|295:187|251:148,1,100,6|4,1:2|1:2,2:0:0:0:
101,61,64869,6,0,B|235:125|265:-8|406:40,1,298.52,2|2,1:2|3:2,2:0:0:0:
429,112,66479,2,0,P|415:190|402:276,1,150,2|8,1:2|1:2,2:0:0:0:
341,325,67499,2,0,P|286:328|230:341,1,100,10|10,1:2|1:2,2:0:0:0:
167,287,68309,2,0,P|155:212|142:139,1,150,10|2,1:2|1:2,2:0:0:0:
105,113,69120,2,0,L|-10:142,1,100,10|8,1:2|1:2,2:0:0:0:
15,227,69929,2,0,L|32:329,1,100,10|10,1:2|1:2,2:0:0:0:
114,359,70734,1,10,1:2:0:0:
246,343,71338,6,0,P|358:350|425:184,1,300,2|2,1:2|3:2,2:0:0:0:
356,150,72970,2,0,L|192:195,1,148.308333333333,2|8,1:2|1:2,2:0:0:0:
149,128,73986,2,0,L|168:18,1,99.7545833333333,10|10,1:2|1:2,2:0:0:0:
77,14,74797,1,10,1:2:0:0:
58,147,75405,2,0,L|40:245,1,100,2|2,1:2|3:2,2:0:0:0:
91,320,76216,2,0,P|146:325|196:347,1,100,2|2,1:2|3:2,2:0:0:0:
267,381,77027,1,6,1:2:0:0:
442,358,77822,6,0,P|446:313|426:249,1,100,6|6,1:2|1:2,2:0:0:0:
470,179,78632,2,0,P|441:144|381:113,1,100,6|6,1:2|1:2,2:0:0:0:
363,34,79443,2,0,P|318:30|253:50,1,100,6|6,1:2|1:2,2:0:0:0:
197,100,80259,1,14,1:2:0:0:
235,274,81064,6,0,B|169:318|169:318|54:285,1,200,14|10,1:2|1:2,2:0:0:0:
7,235,82178,1,10,1:2:0:0:
63,138,82687,2,0,B|129:94|129:94|244:127,1,195.863333333334,14|2,1:2|1:2,2:0:0:0:
333,287,84325,2,0,P|373:318|484:325,1,150,14|10,1:2|1:2,2:0:0:0:
471,284,85135,2,0,P|502:244|498:85,1,200,14|14,1:2|1:2,2:0:0:0:
347,10,86750,1,14,1:2:0:0:
255,159,87550,6,0,B|228:267|281:248|257:356,1,200,14|10,1:2|1:2,2:0:0:0:
194,380,88675,1,10,1:2:0:0:
90,328,89181,2,0,P|58:338|16:359,2,75,14|10|10,1:2|1:2|1:2,2:0:0:0:
154,269,90178,2,0,P|157:234|165:173,1,75,14|14,1:2|1:2,2:0:0:0:
175,126,90803,2,0,P|278:138|384:94,1,200,14|14,1:2|1:2,2:0:0:0:
199,25,92440,2,0,P|96:13|-10:57,1,205,14|14,1:2|1:2,2:0:0:0:
13,281,94264,5,14,1:2:0:0:
97,301,94654,1,14,1:2:0:0:
183,320,95058,1,14,1:2:0:0:
268,340,95464,1,14,1:2:0:0:
383,269,96072,2,0,L|372:158,1,100,2|0,3:2|1:2,2:0:0:0:
284,156,96883,2,0,L|288:205,1,50,2|8,3:2|1:2,2:0:0:0:
271,294,97491,5,14,1:2:0:0:
185,275,97896,1,14,1:2:0:0:
100,254,98301,1,14,1:2:0:0:
16,232,98707,1,14,1:2:0:0:
1,144,99103,2,0,P|3:94|26:50,1,100,10|10,1:2|1:2,2:0:0:0:
104,5,99907,2,0,P|153:7|197:30,1,100,10|10,1:2|1:2,2:0:0:0:
235,107,100723,5,14,1:2:0:0:
268,190,101145,1,14,1:2:0:0:
344,139,101558,1,14,1:2:0:0:
307,57,101964,1,14,1:2:0:0:
235,107,102372,2,0,B|114:166|106:42|-26:92,1,248.775,10|2,1:2|3:2,2:0:0:0:
7,172,103787,2,0,P|22:244|35:328,1,150,6|10,1:2|1:2,2:0:0:0:
108,369,104793,2,0,P|160:372|220:377,1,100,10|10,1:2|1:2,2:0:0:0:
282,324,105597,2,0,P|333:317|393:312,1,98.25,10|10,1:2|1:2,2:0:0:0:
428,307,106209,1,4,1:2:0:0:
497,141,107019,1,6,1:2:0:0:
148,57,119983,6,0,B|282:121|312:-12|453:36,1,298.54,6|2,1:2|3:2,2:0:0:0:
472,111,121614,2,0,P|451:183|444:278,1,150,2|8,1:2|1:2,2:0:0:0:
390,330,122626,2,0,L|282:361,1,100,10|10,1:2|1:2,2:0:0:0:
229,295,123435,2,0,L|121:264,1,100,10|10,1:2|1:2,2:0:0:0:
138,177,124257,2,0,P|140:136|131:59,1,100,10|8,1:2|1:2,2:0:0:0:
182,0,125074,2,0,P|224:2|270:13,2,75,10|0|2,1:2|1:2|1:2,2:0:0:0:
114,0,125980,1,10,1:2:0:0:
32,81,126494,6,0,B|-15:166|-15:166|85:360,1,300,6|2,1:2|3:2,2:0:0:0:
166,367,128104,2,0,L|317:324,1,150,2|8,1:2|1:2,2:0:0:0:
328,238,129106,2,0,P|325:189|348:128,1,100,10|10,1:2|1:2,2:0:0:0:
419,96,129914,2,0,L|511:122,2,75,10|2|2,1:2|1:2|1:2,2:0:0:0:
360,28,130927,1,2,3:2:0:0:
231,75,131543,2,0,L|118:118,1,100,10|10,1:2|1:2,2:0:0:0:
112,147,132151,1,14,1:2:0:0:
243,267,132967,6,0,P|226:319|224:377,2,100,6|6|6,1:2|1:2|1:2,2:0:0:0:
319,219,134198,1,6,1:2:0:0:
256,192,134643,12,4,137679,1:2:0:0:
