osu file format v14

[General]
AudioFilename: audio.mp3
AudioLeadIn: 0
PreviewTime: 77797
Countdown: 0
SampleSet: Soft
StackLeniency: 0.2
Mode: 0
LetterboxInBreaks: 0
WidescreenStoryboard: 1

[Editor]
DistanceSpacing: 0.6
BeatDivisor: 4
GridSize: 32
TimelineZoom: 2.6

[Metadata]
Title:DVP
TitleUnicode:DVP
Artist:PUP
ArtistUnicode:PUP
Creator:attendant
Version:Another
Source:
Tags:english indie punk rock the dream is over pathetic use of potential don valley parkway park way featured artist fa
BeatmapID:2994233
BeatmapSetID:1442963

[Difficulty]
HPDrainRate:5
CircleSize:4.2
OverallDifficulty:9
ApproachRate:9.3
SliderMultiplier:1.5
SliderTickRate:0.5

[Events]
//Background and Video events
0,0,"y.jpg",0,0
//Break Periods
//Storyboard Layer 0 (Background)
//Storyboard Layer 1 (Fail)
//Storyboard Layer 2 (Pass)
//Storyboard Layer 3 (Foreground)
//Storyboard Layer 4 (Overlay)
//Storyboard Sound Samples

[TimingPoints]
0,202.702702702703,4,2,41,85,1,0
0,-100,4,2,41,85,0,1
1013,196.078431372549,4,2,41,85,1,1
1601,204.081632653061,4,2,41,85,1,1
3233,205.479452054795,4,2,41,85,1,1
4465,200,4,2,41,85,1,1
4865,202.702702702703,4,2,41,85,1,1
5979,-100,4,2,1,85,0,1
6486,-100,4,2,41,85,0,1
11351,198.675496688742,4,2,41,85,1,1
12145,200,4,2,41,85,1,1
12945,204.081632653061,4,2,1,45,1,0
13149,-100,4,2,1,50,0,0
13353,-100,4,2,1,55,0,0
13557,-100,4,2,1,60,0,0
13761,-100,4,2,1,65,0,0
13965,201.342281879195,4,2,1,70,1,0
14166,-100,4,2,1,75,0,0
14367,-100,4,2,1,80,0,0
14569,201.342281879195,4,2,1,85,1,0
14770,-100,4,2,1,90,0,0
14971,-100,4,2,1,95,0,0
15173,-100,4,2,1,100,0,0
15374,205.479452054795,4,2,41,85,1,0
15579,-100,4,2,1,85,0,0
16195,202.702702702703,4,2,41,75,1,0
17309,-80,4,2,1,75,0,0
17613,-100,4,2,41,75,0,0
17816,206.896551724138,4,2,41,75,1,0
18643,202.702702702703,4,2,41,75,1,0
21278,197.368421052632,4,2,41,75,1,0
21870,-80,4,2,41,75,0,0
22166,-80,4,2,1,75,0,0
22462,202.702702702703,4,2,41,75,1,0
22664,204.081632653061,4,2,41,75,1,0
23786,-100,4,2,1,75,0,0
24092,-100,4,2,41,75,0,0
24296,222.222222222222,4,2,41,75,1,0
24740,198.675496688742,4,2,41,75,1,0
25336,202.702702702703,4,2,41,75,1,0
25944,202.702702702703,4,2,1,85,1,0
26754,200,4,2,1,85,1,0
28954,222.222222222222,4,2,1,85,1,0
29176,202.702702702703,4,2,42,65,1,0
29176,-117.647058823529,4,2,42,65,0,0
32216,192.307692307692,4,2,42,65,1,0
32216,-117.647058823529,4,2,42,65,0,0
32408,214.285714285714,4,2,42,65,1,0
32408,-117.647058823529,4,2,42,65,0,0
32622,202.702702702703,4,2,42,65,1,0
32622,-117.647058823529,4,2,42,65,0,0
33027,205.479452054795,4,2,42,65,1,0
33027,-117.647058823529,4,2,42,65,0,0
33643,201.342281879195,4,2,42,65,1,0
33844,-117.647058823529,4,2,42,65,0,0
34045,201.342281879195,4,2,42,65,1,0
34045,-117.647058823529,4,2,42,65,0,0
35253,197.368421052632,4,2,42,65,1,0
35450,-117.647058823529,4,2,42,65,0,0
35647,202.702702702703,4,2,42,65,1,0
35647,-117.647058823529,4,2,42,65,0,0
36457,208.333333333333,4,2,42,65,1,0
36457,-117.647058823529,4,2,42,65,0,0
37082,191.082802547771,4,2,42,65,1,0
37082,-117.647058823529,4,2,42,65,0,0
37273,208.333333333333,4,2,42,65,1,0
37273,-117.647058823529,4,2,42,65,0,0
37689,205.831903945111,4,2,42,65,1,0
37894,-117.647058823529,4,2,42,65,0,0
38100,202.702702702703,4,2,42,65,1,0
38100,-117.647058823529,4,2,42,65,0,0
38910,201.342281879195,4,2,42,65,1,0
38910,-117.647058823529,4,2,42,65,0,0
40520,202.702702702703,4,2,42,65,1,0
41533,194.805194805195,4,2,1,85,1,0
42117,229.007633587786,4,2,1,85,1,0
42346,202.702702702703,4,2,1,85,1,0
43967,200,4,2,1,85,1,0
43967,-80,4,2,1,85,0,0
44367,212.765957446809,4,2,1,85,1,0
44579,202.702702702703,4,2,1,85,1,0
44579,-80,4,2,1,85,0,0
45389,206.896551724138,4,2,41,65,1,0
45389,-117.647058823529,4,2,41,65,0,0
45595,-117.647058823529,4,2,42,65,0,0
46009,194.805194805195,4,2,42,65,1,0
46009,-117.647058823529,4,2,42,65,0,0
46203,202.702702702703,4,2,42,65,1,0
46405,-117.647058823529,4,2,42,65,0,0
47824,205.479452054795,4,2,42,65,1,0
47824,-117.647058823529,4,2,42,65,0,0
49467,201.342281879195,4,2,42,75,1,0
49668,-100,4,2,1,75,0,0
50272,205.479452054795,4,2,41,85,1,0
51025,-100,4,2,41,55,0,0
51162,-100,4,2,1,65,0,0
51299,197.368421052632,4,2,1,75,1,0
51595,-100,4,2,1,85,0,0
51891,202.702702702703,4,2,41,85,1,0
52904,200,4,2,41,85,1,0
53504,202.702702702703,4,2,41,85,1,0
55125,206.896551724138,4,2,41,85,1,0
55331,-80,4,2,41,85,0,0
55952,202.702702702703,4,2,41,85,1,0
56357,-80,4,2,41,85,0,0
56762,-57.1428571428571,4,2,1,100,0,0
56775,-57.1428571428571,4,2,99,5,0,0
57066,-57.1428571428571,4,2,1,100,0,0
57079,-57.1428571428571,4,2,99,5,0,0
57370,-57.1428571428571,4,2,1,100,0,0
57383,-57.1428571428571,4,2,99,5,0,0
57573,-57.1428571428571,4,2,1,100,0,0
58384,-100,4,2,41,85,0,0
58587,-80,4,2,41,85,0,0
58992,-100,4,2,41,85,0,0
59803,212.765957446809,4,2,41,85,1,0
60015,201.342281879195,4,2,41,85,1,0
61625,202.702702702703,4,2,1,85,1,0
62435,201.342281879195,4,2,1,85,1,0
64649,220.588235294118,4,2,1,85,1,0
64869,202.702702702703,4,2,1,75,1,0
64869,-117.647058823529,4,2,1,75,0,0
65071,-117.647058823529,4,2,42,75,0,0
65679,200,4,2,42,75,1,0
65679,-117.647058823529,4,2,42,75,0,0
66479,204.081632653061,4,2,42,75,1,0
66683,-117.647058823529,4,2,42,75,0,0
67499,202.702702702703,4,2,42,75,1,0
67499,-117.647058823529,4,2,42,75,0,0
68107,202.702702702703,4,2,42,75,1,0
68309,-117.647058823529,4,2,42,75,0,0
69728,201.342281879195,4,2,42,75,1,0
69728,-117.647058823529,4,2,42,75,0,0
71338,204.081632653061,4,2,42,75,1,0
71338,-117.647058823529,4,2,42,75,0,0
72970,206.896551724138,4,2,42,75,1,0
72970,-117.647058823529,4,2,42,75,0,0
73383,200,4,2,42,75,1,0
73783,203.735144312394,4,2,42,75,1,0
73783,-117.647058823529,4,2,42,75,0,0
74190,202.702702702703,4,2,42,75,1,0
74392,-117.647058823529,4,2,42,75,0,0
74595,202.702702702703,4,2,42,75,1,0
74595,-117.647058823529,4,2,42,75,0,0
77230,197.368421052632,4,2,1,85,1,0
77822,202.702702702703,4,2,1,85,1,0
79646,-80,4,2,1,85,0,0
80051,208.333333333333,4,2,1,85,1,0
80051,-80,4,2,1,85,0,0
80259,-80,4,2,41,85,0,0
80780,189.873417721519,4,2,41,85,1,0
81064,202.702702702703,4,2,41,85,1,1
82482,205.479452054795,4,2,41,85,1,1
82995,193.548387096774,4,2,41,85,1,1
83285,206.896551724138,4,2,41,85,1,1
83698,215.05376344086,4,2,1,85,1,1
84021,202.702702702703,4,2,1,85,1,1
84325,202.702702702703,4,2,41,85,1,1
85135,201.342281879195,4,2,41,85,1,1
85940,202.702702702703,4,2,41,85,1,1
86750,200,4,2,41,85,1,1
87550,205.479452054795,4,2,41,85,1,1
88371,202.702702702703,4,2,41,85,1,1
89181,197.368421052632,4,2,41,85,1,1
89970,208.333333333333,4,2,41,85,1,1
90178,-100,4,2,1,85,0,1
90803,202.702702702703,4,2,41,85,1,1
91613,206.896551724138,4,2,41,85,1,1
91613,-86.9565217391304,4,2,41,85,0,1
92440,200,4,2,41,85,1,1
92440,-76.9230769230769,4,2,41,85,0,1
93040,220.588235294118,4,2,41,85,1,1
93040,-76.9230769230769,4,2,41,85,0,1
93260,202.702702702703,4,2,41,85,1,0
93462,-100,4,2,1,85,0,0
94070,194.805194805195,4,2,1,85,1,0
94654,202.702702702703,4,2,1,85,1,0
94856,202.702702702703,4,2,1,85,1,0
95464,-133.333333333333,4,2,1,85,0,0
95666,-133.333333333333,4,2,41,85,0,0
95970,-100,4,2,41,85,0,0
97491,-100,4,2,1,85,0,0
98707,196.078431372549,4,2,1,85,1,0
98707,-133.333333333333,4,2,1,85,0,0
98903,200,4,2,41,85,1,0
99703,204.081632653061,4,2,41,85,1,0
100723,211.267605633803,4,2,1,85,1,0
101356,202.702702702703,4,2,1,85,1,0
101964,204.081632653061,4,2,1,85,1,0
101964,-133.333333333333,4,2,1,85,0,0
102168,-100,4,2,41,85,0,0
102780,207.612456747405,4,2,41,85,1,0
102987,200,4,2,41,85,1,0
103787,201.342281879195,4,2,41,75,1,0
105397,200,4,2,41,75,1,0
105797,168.539325842697,4,2,41,75,1,0
105881,218.978102189781,4,2,41,75,1,0
106209,202.702702702703,4,2,1,85,1,0
107019,-133.333333333333,4,2,1,65,0,0
107425,212.765957446809,4,2,1,65,1,0
107744,192.307692307692,4,2,1,65,1,0
107840,-133.333333333333,4,2,1,65,0,0
108032,200,4,2,1,65,1,0
108032,-133.333333333333,4,2,1,65,0,0
108632,209.79020979021,4,2,1,65,1,0
108632,-133.333333333333,4,2,1,65,0,0
109366,192.307692307692,4,2,1,65,1,0
109366,-133.333333333333,4,2,1,65,0,0
109654,202.702702702703,4,2,1,65,1,0
109654,-133.333333333333,4,2,1,65,0,0
110262,209.79020979021,4,2,1,65,1,0
110262,-133.333333333333,4,2,1,65,0,0
110996,191.082802547771,4,2,1,65,1,0
111091,-133.333333333333,4,2,1,65,0,0
111282,200,4,2,1,65,1,0
111282,-133.333333333333,4,2,1,65,0,0
111882,202.702702702703,4,2,1,65,1,0
111882,-133.333333333333,4,2,1,65,0,0
112692,212.765957446809,4,2,1,65,1,0
112692,-133.333333333333,4,2,1,65,0,0
113330,189.873417721519,4,2,1,65,1,0
113519,205.479452054795,4,2,1,65,1,0
113519,-133.333333333333,4,2,1,65,0,0
114238,202.702702702703,4,2,1,65,1,0
114542,-133.333333333333,4,2,1,65,0,0
114846,197.368421052632,4,2,1,65,1,0
114846,-133.333333333333,4,2,1,65,0,0
115142,204.081632653061,4,2,1,65,1,0
115142,-133.333333333333,4,2,1,65,0,0
115856,192.307692307692,4,2,1,65,1,0
116144,202.702702702703,4,2,1,65,1,0
116144,-133.333333333333,4,2,1,65,0,0
116752,202.702702702703,4,2,1,65,1,0
116752,-133.333333333333,4,2,1,65,0,0
117765,204.081632653061,4,2,1,65,1,0
117765,-133.333333333333,4,2,1,65,0,0
118377,200,4,2,1,65,1,0
118377,-133.333333333333,4,2,1,65,0,0
119077,238.095238095238,4,2,1,85,1,0
119196,202.702702702703,4,2,1,85,1,0
119601,191.082802547771,4,2,1,85,1,0
119983,205.479452054795,4,2,41,85,1,0
120804,202.702702702703,4,2,41,85,1,0
122425,201.342281879195,4,2,41,85,1,0
123230,205.479452054795,4,2,41,85,1,0
124873,201.342281879195,4,2,41,85,1,0
126282,212.765957446809,4,2,1,85,1,0
126494,201.342281879195,4,2,41,85,1,0
128104,200,4,2,41,85,1,0
128904,202.702702702703,4,2,41,85,1,0
129714,200,4,2,41,85,1,0
130514,206.896551724138,4,2,41,85,1,0
131341,202.702702702703,4,2,41,85,1,0
132151,204.081632653061,4,2,1,85,1,0
132967,205.479452054795,4,2,1,85,1,0
133994,204.081632653061,4,2,1,85,1,0
134402,241.935483870968,4,2,1,85,1,0
134643,254.237288135593,4,2,41,85,1,0
134897,270.27027027027,4,2,41,85,1,0
135032,348.837209302326,4,2,41,65,1,0
135729,361.44578313253,4,2,41,65,1,0
135909,405.405405405405,4,2,41,65,1,0
136719,384.615384615385,4,2,41,65,1,0
137103,576.923076923077,4,2,41,65,1,0
137679,656.994251300301,4,2,41,100,1,0

[Colours]
Combo1 : 182,173,201
Combo2 : 202,128,145
Combo3 : 243,152,139
Combo4 : 220,124,141

[HitObjects]
55,74,0,6,0,P|112:75|229:66,1,150,14|2,1:2|3:2,2:0:0:0:
274,127,304,1,10,1:2:0:0:
332,59,405,1,2,3:2:0:0:
263,1,506,1,2,3:2:0:0:
204,69,608,2,0,P|197:111|195:158,1,75,10|2,1:2|3:2,2:0:0:0:
386,300,810,2,0,P|387:210|381:128,1,150.74,10|2,1:2|3:0,2:0:0:0:
165,248,1111,5,10,1:2:0:0:
165,248,1209,2,0,L|245:265,1,75,2|2,3:2|3:0,2:0:0:0:
86,236,1405,1,10,1:2:0:0:
86,236,1503,1,2,3:2:0:0:
183,341,1601,6,0,P|121:335|32:365,1,150,14|2,1:2|3:2,2:0:0:0:
238,263,1907,2,0,P|274:269|332:289,1,75,10|2,1:2|3:2,2:0:0:0:
386,300,2111,1,2,3:2:0:0:
295,186,2213,2,0,P|290:139|292:104,1,75,10|2,1:2|3:2,2:0:0:0:
359,69,2417,2,0,P|288:93|214:89,1,150,10|2,1:2|3:0,2:0:0:0:
40,70,2723,5,10,1:2:0:0:
117,25,2825,2,0,P|124:62|125:113,1,75,2|2,3:2|3:0,2:0:0:0:
33,223,3029,2,0,P|38:180|57:134,1,75,10|2,1:2|3:2,2:0:0:0:
359,220,3233,6,0,B|259:272|236:132|102:212,2,225,14|10|10,1:2|1:2|1:2,2:0:0:0:
403,286,3952,1,2,3:2:0:0:
403,154,4054,6,0,P|391:115|378:65,1,75,14|2,1:2|3:0,2:0:0:0:
374,10,4260,1,2,3:2:0:0:
374,10,4363,1,10,1:2:0:0:
487,139,4465,5,2,3:0:0:0:
475,213,4565,1,2,3:2:0:0:
472,272,4665,1,10,1:2:0:0:
473,313,4765,1,2,3:0:0:0:
473,313,4865,6,0,P|417:290|376:280,1,75,14|2,1:2|3:2,2:0:0:0:
415,380,5067,1,2,3:2:0:0:
334,251,5169,2,0,P|300:268|246:370,1,150,10|2,1:2|3:2,2:0:0:0:
404,208,5473,2,0,P|398:165|384:124,1,75,10|2,1:2|3:0,2:0:0:0:
186,66,5675,6,0,B|255:111|255:111|384:50,1,225,14|10,1:2|1:2,2:0:0:0:
454,14,6081,1,10,1:2:0:0:
454,14,6182,1,10,1:2:0:0:
338,104,6283,5,14,1:3:0:0:
343,174,6385,1,6,1:3:0:0:
221,228,6486,6,0,P|203:310|192:388,1,150,14|2,1:2|3:2,2:0:0:0:
15,219,6790,2,0,P|32:136|44:59,1,150,10|2,1:2|3:2,2:0:0:0:
173,171,7094,2,0,L|94:191,1,75,10|2,1:2|3:2,2:0:0:0:
63,335,7297,1,10,1:2:0:0:
63,335,7398,1,2,3:2:0:0:
166,365,7500,5,2,3:0:0:0:
223,322,7601,2,0,L|302:342,1,75,10|2,1:2|3:2,2:0:0:0:
372,330,7804,1,2,3:0:0:0:
394,350,7905,2,0,L|473:330,1,75,10|2,1:2|3:2,2:0:0:0:
451,183,8108,6,0,B|378:135|378:135|246:195,1,225,14|10,1:2|1:2,2:0:0:0:
371,253,8513,1,2,3:2:0:0:
371,253,8615,1,2,3:2:0:0:
448,85,8716,2,0,P|442:50|422:8,1,75,10|2,1:2|3:2,2:0:0:0:
233,35,8919,2,0,P|239:70|259:112,1,75,10|2,1:2|3:2,2:0:0:0:
451,183,9121,5,2,3:0:0:0:
451,183,9223,2,0,P|417:170|371:167,1,75,10|2,1:2|3:2,2:0:0:0:
154,209,9425,1,2,3:0:0:0:
108,259,9527,1,10,1:2:0:0:
109,326,9628,1,2,3:2:0:0:
228,259,9729,6,0,P|224:220|239:3,2,225,14|10|10,1:2|1:2|1:2,2:0:0:0:
241,330,10439,1,2,3:2:0:0:
228,259,10540,6,0,L|233:166,1,75,14|2,1:2|3:0,2:0:0:0:
242,107,10743,1,2,3:2:0:0:
242,107,10844,1,10,1:2:0:0:
161,196,10946,5,2,3:0:0:0:
88,213,11047,1,2,3:2:0:0:
28,204,11148,1,10,1:2:0:0:
2,176,11250,1,2,3:0:0:0:
67,199,11351,6,0,P|84:259|105:366,1,150,14|2,1:2|3:2,2:0:0:0:
232,184,11649,2,0,P|215:124|194:17,1,150,10|2,1:2|3:2,2:0:0:0:
154,195,11947,1,10,1:2:0:0:
154,195,12046,1,2,3:2:0:0:
286,92,12145,6,0,B|358:78|358:78|412:131,1,150,14|2,1:2|3:2,2:0:0:0:
486,218,12445,2,0,L|467:308,1,75,10|2,1:2|3:2,2:0:0:0:
453,364,12645,1,2,3:2:0:0:
390,310,12745,1,10,1:2:0:0:
323,298,12845,1,2,3:0:0:0:
220,309,12945,5,14,1:2:0:0:
220,309,13149,1,6,1:3:0:0:
138,224,13353,5,14,1:3:0:0:
131,253,13557,1,6,1:3:0:0:
412,131,13761,5,14,1:2:0:0:
422,190,13965,1,10,1:2:0:0:
286,92,14166,5,14,1:3:0:0:
273,180,14367,1,10,1:2:0:0:
484,46,14569,5,14,1:2:0:0:
369,11,14770,1,10,1:2:0:0:
356,273,14971,5,14,1:3:0:0:
499,228,15173,1,10,1:2:0:0:
286,92,15374,6,0,P|234:99|132:128,1,150,14|8,1:2|1:2,2:0:0:0:
74,162,15682,1,8,1:2:0:0:
146,143,15784,1,8,1:2:0:0:
172,72,15887,1,8,1:2:0:0:
126,12,15990,1,12,1:3:0:0:
52,24,16093,1,4,1:3:0:0:
52,24,16195,6,0,P|44:69|41:131,1,75,4|0,1:2|2:0,2:0:0:0:
164,213,16397,2,0,B|114:184|114:184|29:221,2,150,10|2|10,1:2|3:2|1:2,2:0:0:0:
231,261,16904,1,0,1:0:0:0:
291,205,17005,2,0,P|282:162|281:108,1,75,2|0,1:2|2:0,2:0:0:0:
479,3,17208,5,10,1:2:0:0:
512,97,17309,2,0,P|517:168|488:286,1,187.5,6|0,1:2|1:2,2:0:0:0:
365,167,17613,2,0,L|437:147,1,75,10|0,1:2|2:0,2:0:0:0:
285,38,17816,6,0,L|306:113,1,75,6|0,1:2|2:0,2:0:0:0:
150,293,18022,2,0,B|215:235|215:235|347:273,1,225,10|0,1:2|1:2,2:0:0:0:
276,331,18436,2,0,L|204:351,1,75,10|0,1:2|2:0,2:0:0:0:
46,292,18643,6,0,P|73:318|97:359,1,75,0|0,1:2|2:0,2:0:0:0:
134,208,18845,1,10,1:2:0:0:
134,208,18947,2,0,P|147:127|126:37,1,150,0|0,1:0|1:2,2:0:0:0:
31,28,19251,2,0,L|49:134,1,75,10|0,1:2|2:0,2:0:0:0:
60,181,19453,5,2,1:3:0:0:
60,181,19555,1,0,1:0:0:0:
216,209,19656,2,0,P|254:218|306:238,1,75,10|0,1:2|2:0,2:0:0:0:
416,313,19859,1,2,3:2:0:0:
355,357,19960,1,2,1:2:0:0:
365,261,20061,2,0,P|374:216|387:183,1,75,8|2,1:2|3:2,2:0:0:0:
250,41,20264,5,2,1:2:0:0:
250,41,20365,1,0,1:0:0:0:
197,97,20467,2,0,B|149:76|149:76|51:130,1,150,10|0,1:2|2:0,2:0:0:0:
40,199,20771,1,2,1:2:0:0:
40,199,20872,2,0,P|59:254|71:344,1,150,8|2,1:2|1:3,2:0:0:0:
70,343,21176,1,0,1:0:0:0:
158,358,21278,6,0,L|234:341,1,75,10|0,1:2|2:0,2:0:0:0:
376,310,21475,2,0,L|452:327,1,75,2|0,3:2|1:2,2:0:0:0:
299,263,21672,1,10,1:2:0:0:
299,263,21771,1,0,1:0:0:0:
396,125,21870,6,0,P|387:163|375:229,1,93.75,6|0,1:2|2:0,2:0:0:0:
197,224,22067,1,10,1:2:0:0:
123,200,22166,2,0,B|216:240|223:159|311:183,1,187.5,6|2,1:2|1:2,2:0:0:0:
186,59,22462,2,0,P|178:95|170:132,1,75,10|0,1:2|2:0,2:0:0:0:
145,300,22664,6,0,P|76:283|18:201,1,150,6|10,1:2|1:2,2:0:0:0:
233,294,22970,2,0,P|247:323|263:377,2,75,0|2|2,2:0|3:2|1:2,2:0:0:0:
123,200,23276,1,8,1:2:0:0:
65,164,23378,1,0,1:0:0:0:
35,103,23480,2,0,P|40:60|58:5,1,75,2|0,1:2|2:0,2:0:0:0:
242,0,23684,1,10,1:2:0:0:
242,0,23786,2,0,P|315:-7|379:29,1,150,6|2,1:2|1:2,2:0:0:0:
449,221,24092,1,8,1:2:0:0:
449,221,24194,1,0,1:2:0:0:
468,67,24296,6,0,P|453:107|442:163,1,75,6|0,1:2|2:0,2:0:0:0:
510,262,24518,2,0,P|457:237|371:365,1,216.9,10|0,1:2|1:2,2:0:0:0:
371,328,24938,2,0,P|376:295|377:243,1,75,10|0,1:2|2:0,2:0:0:0:
181,294,25137,6,0,P|176:327|175:379,1,75,2|0,1:3|2:0,2:0:0:0:
272,180,25336,1,10,1:2:0:0:
202,210,25437,2,0,P|159:218|38:224,1,150,0|0,1:0|1:2,2:0:0:0:
204,60,25741,2,0,P|209:93|210:145,1,75,10|0,1:2|2:0,2:0:0:0:
373,41,25944,6,0,P|365:79|358:126,1,75,6|0,1:2|2:0,2:0:0:0:
433,149,26146,2,0,P|439:112|447:76,1,75,10|0,1:2|2:0,2:0:0:0:
359,34,26349,2,0,P|351:72|344:119,1,75,6|0,1:2|2:0,2:0:0:0:
447,156,26552,2,0,P|453:119|461:83,1,75,10|0,1:2|2:0,2:0:0:0:
210,134,26754,6,0,P|217:172|225:219,1,75,6|0,1:2|0:0,2:0:0:0:
149,242,26954,2,0,P|143:204|135:168,1,75,10|0,1:2|0:0,2:0:0:0:
224,127,27154,2,0,P|231:165|239:212,1,75,6|2,1:2|2:0,2:0:0:0:
135,249,27354,2,0,P|129:211|121:175,1,75,10|2,1:2|2:0,2:0:0:0:
365,242,27554,6,0,P|357:280|350:327,1,75,6|2,1:2|2:0,2:0:0:0:
425,350,27754,2,0,P|430:312|438:276,1,75,10|2,1:2|2:0,2:0:0:0:
351,235,27954,2,0,P|343:273|336:320,1,75,6|0,1:2|0:0,2:0:0:0:
284,361,28154,1,10,1:2:0:0:
212,357,28254,1,4,3:0:0:0:
143,382,28354,6,0,P|136:303|121:212,1,150,6|10,1:2|1:2,2:0:0:0:
83,169,28654,1,10,1:2:0:0:
66,95,28754,1,8,1:2:0:0:
111,35,28854,1,10,1:2:0:0:
184,43,28954,1,12,1:3:0:0:
203,115,29065,1,4,1:3:0:0:
216,189,29176,6,0,P|256:200|296:215,1,63.7500000000002,6|0,1:2|2:0,2:0:0:0:
301,134,29378,2,0,B|363:98|363:98|493:165,1,191.250000000001,10|0,1:2|1:2,2:0:0:0:
372,251,29784,2,0,P|366:204|367:176,1,63.7500000000002,8|0,1:2|2:0,2:0:0:0:
456,230,29986,2,0,P|462:277|461:305,1,63.7500000000002,0|0,1:2|2:0,2:0:0:0:
357,363,30189,2,0,P|291:356|229:324,1,127.5,10|2,1:2|3:2,2:0:0:0:
163,368,30493,1,0,1:2:0:0:
163,368,30594,2,0,L|148:286,1,63.7500000000002,10|0,1:2|2:0,2:0:0:0:
48,263,30797,6,0,L|33:345,1,63.7500000000002,2|0,1:2|2:0,2:0:0:0:
238,171,31000,2,0,B|177:210|177:210|44:150,1,191.250000000001,10|0,1:2|1:2,2:0:0:0:
1,126,31405,1,8,1:2:0:0:
1,126,31507,1,0,1:0:0:0:
79,87,31608,2,0,L|139:61,1,63.7500000000002,0|0,1:2|2:0,2:0:0:0:
311,7,31811,2,0,P|318:61|309:148,1,127.5,10|2,1:2|3:2,2:0:0:0:
224,91,32115,1,0,1:2:0:0:
224,91,32216,2,0,P|223:59|229:26,1,63.7500000000002,10|0,1:2|2:0,2:0:0:0:
493,202,32408,6,0,P|494:170|488:137,1,63.7500000000002,2|0,1:2|2:0,2:0:0:0:
406,102,32622,2,0,P|399:156|408:243,1,127.5,10|2,1:2|3:2,2:0:0:0:
481,306,32926,1,0,1:2:0:0:
481,306,33027,2,0,L|394:337,1,63.7500000000002,10|0,1:2|2:0,2:0:0:0:
331,361,33232,2,0,L|244:330,1,63.7500000000002,2|0,1:2|2:0,2:0:0:0:
207,301,33437,1,10,1:2:0:0:
134,300,33540,2,0,P|165:295|197:295,1,64.3705012159348,0|0,1:2|2:0,2:0:0:0:
59,305,33743,1,2,1:2:0:0:
59,305,33844,2,0,L|47:384,1,63.7500000000002,8|0,1:2|2:0,2:0:0:0:
167,193,34045,6,0,P|119:216|30:207,2,127.5,2|10|2,1:2|1:2|3:2,2:0:0:0:
130,57,34548,1,0,1:2:0:0:
130,57,34649,2,0,P|122:96|119:133,1,63.7500000000002,10|2,1:2|3:2,2:0:0:0:
276,177,34850,2,0,P|283:137|287:101,1,63.7500000000002,2|0,1:2|2:0,2:0:0:0:
278,43,35051,1,10,1:2:0:0:
333,0,35152,1,0,1:2:0:0:
471,46,35253,1,2,3:2:0:0:
487,82,35351,1,0,1:2:0:0:
411,92,35450,2,0,P|381:80|331:69,1,63.7500000000002,8|0,1:2|2:0,2:0:0:0:
379,214,35647,6,0,L|396:295,1,63.7500000000002,2|0,1:2|2:0,2:0:0:0:
465,280,35849,2,0,P|406:286|327:389,1,191.250000000001,10|0,1:2|1:2,2:0:0:0:
310,316,36255,1,8,1:2:0:0:
293,249,36356,1,0,1:2:0:0:
172,285,36457,2,0,P|204:295|245:303,1,63.7500000000002,0|0,1:2|2:0,2:0:0:0:
119,207,36665,2,0,P|96:266|71:340,1,127.5,10|2,1:2|3:2,2:0:0:0:
11,276,36977,1,0,1:2:0:0:
11,276,37082,2,0,P|24:239|39:203,1,63.7500000000002,10|0,1:2|2:0,2:0:0:0:
215,122,37273,6,0,P|176:129|137:134,1,63.7500000000002,2|0,1:2|2:0,2:0:0:0:
2,35,37481,2,0,B|61:74|61:74|168:21,1,190.026003647804,10|0,1:2|1:2,2:0:0:0:
249,46,37894,2,0,L|316:69,1,63.7500000000002,8|0,1:2|2:0,2:0:0:0:
446,0,38100,2,0,L|379:23,1,63.7500000000002,0|0,1:2|2:0,2:0:0:0:
342,143,38302,2,0,P|318:186|311:282,1,127.5,10|2,1:2|3:2,2:0:0:0:
375,320,38606,1,0,1:2:0:0:
375,320,38708,2,0,P|409:332|452:356,1,63.7500000000002,10|0,1:2|2:0,2:0:0:0:
232,284,38910,6,0,P|198:296|155:320,1,63.7500000000002,2|0,1:2|2:0,2:0:0:0:
24,137,39111,2,0,P|62:191|121:213,1,127.5,10|2,1:2|3:2,2:0:0:0:
254,153,39413,1,2,1:2:0:0:
199,91,39514,2,0,P|183:116|169:150,1,63.7500000000002,10|0,1:2|2:0,2:0:0:0:
232,284,39715,6,0,P|225:255|211:221,1,63.7500000000002,2|0,1:2|2:0,2:0:0:0:
139,28,39916,1,10,1:2:0:0:
139,28,40017,2,0,L|100:89,1,63.7500000000002,0|2,1:2|3:2,2:0:0:0:
338,33,40218,1,0,1:2:0:0:
338,33,40319,2,0,L|377:94,1,63.7500000000002,8|0,1:2|2:0,2:0:0:0:
219,284,40520,5,2,1:2:0:0:
232,357,40621,1,2,3:2:0:0:
232,284,40722,2,0,P|233:212|245:117,1,150,10|2,1:2|3:2,2:0:0:0:
402,219,41026,1,0,1:2:0:0:
402,219,41128,2,0,L|315:235,1,75,10|0,1:2|2:0,2:0:0:0:
51,293,41330,2,0,L|138:309,1,75,6|0,1:2|2:0,2:0:0:0:
8,224,41533,5,10,1:2:0:0:
0,149,41630,1,8,1:2:0:0:
37,84,41727,1,10,1:2:0:0:
111,72,41825,1,8,1:2:0:0:
168,119,41922,1,12,1:3:0:0:
241,134,42020,1,4,1:3:0:0:
324,72,42117,6,0,L|306:-2,1,75,6|0,1:2|2:0,2:0:0:0:
436,152,42346,2,0,L|419:80,1,75,10|0,1:2|2:0,2:0:0:0:
293,9,42548,2,0,L|311:82,1,75,6|0,1:2|2:0,2:0:0:0:
432,70,42751,2,0,L|450:144,1,75,10|0,1:2|2:0,2:0:0:0:
154,171,42954,6,0,L|172:97,1,75,6|0,1:2|2:0,2:0:0:0:
41,251,43156,2,0,L|58:178,1,75,10|0,1:2|2:0,2:0:0:0:
184,108,43359,2,0,L|166:180,1,75,6|0,1:2|2:0,2:0:0:0:
46,169,43562,2,0,L|28:243,1,75,10|0,1:2|2:0,2:0:0:0:
367,324,43764,5,6,1:2:0:0:
370,328,43967,2,0,B|315:294|315:294|203:345,2,187.5,14|6|10,1:2|1:2|1:2,2:0:0:0:
427,378,44473,1,12,1:3:0:0:
509,308,44579,2,0,P|496:256|493:188,1,93.75,14|0,1:2|2:0,2:0:0:0:
346,61,44781,5,12,1:3:0:0:
413,41,44883,1,4,1:3:0:0:
466,86,44984,1,10,1:2:0:0:
450,154,45085,1,8,1:2:0:0:
390,190,45187,1,10,1:2:0:0:
366,256,45288,1,8,1:2:0:0:
370,328,45389,6,0,L|284:362,1,63.7500000000002,6|0,1:2|2:0,2:0:0:0:
270,288,45595,2,0,B|187:324|167:232|82:260,1,191.250000000001,10|0,1:2|1:2,2:0:0:0:
59,190,46009,2,0,L|-27:224,1,63.7500000000002,10|0,1:2|2:0,2:0:0:0:
217,15,46203,1,0,1:2:0:0:
220,19,46405,2,0,P|237:122|234:211,1,191.250000000001,10|0,1:2|1:2,2:0:0:0:
86,92,46811,2,0,L|172:126,1,63.7500000000002,10|0,1:2|2:0,2:0:0:0:
383,156,47013,6,0,L|297:190,1,63.7500000000002,0|0,1:2|2:0,2:0:0:0:
484,48,47216,1,10,1:2:0:0:
465,118,47317,2,0,P|449:197|438:276,1,127.5,0|0,1:0|1:2,2:0:0:0:
453,317,47621,2,0,L|512:340,1,63.7500000000002,10|0,1:2|2:0,2:0:0:0:
264,361,47824,2,0,B|323:333|323:333|382:352,2,127.5,2|10|2,1:2|1:2|3:2,2:0:0:0:
188,338,48337,1,0,1:2:0:0:
188,338,48440,2,0,L|159:253,1,63.7500000000002,10|0,1:2|2:0,2:0:0:0:
71,310,48645,6,0,L|42:395,1,63.7500000000002,0|0,1:2|2:0,2:0:0:0:
170,146,48851,2,0,P|104:200|-14:185,1,191.250000000001,10|0,1:2|1:2,2:0:0:0:
19,208,49262,2,0,P|54:216|102:235,1,63.7500000000002,10|0,1:2|2:0,2:0:0:0:
243,21,49467,1,10,1:2:0:0:
246,25,49668,5,12,1:3:0:0:
256,106,49769,1,4,1:3:0:0:
253,171,49869,1,4,1:3:0:0:
244,223,49970,1,12,1:3:0:0:
244,259,50071,1,4,1:3:0:0:
247,281,50171,1,4,1:3:0:0:
252,356,50272,5,6,1:2:0:0:
427,187,51025,2,0,L|475:200,3,50,12|4|8|8,1:3|1:3|1:2|1:2,2:0:0:0:
401,166,51299,5,8,1:2:0:0:
326,168,51397,1,8,1:2:0:0:
274,210,51496,1,12,1:3:0:0:
226,231,51595,5,8,1:2:0:0:
147,231,51693,1,8,1:2:0:0:
75,169,51792,1,8,1:2:0:0:
184,159,51891,6,0,P|192:205|179:327,2,150,4|10|2,1:2|1:2|3:2,2:0:0:0:
140,86,52397,1,0,1:2:0:0:
140,86,52499,2,0,L|220:55,1,75,10|0,1:2|2:0,2:0:0:0:
466,111,52701,6,0,B|391:143|392:75|297:106,1,150.74,2|10,1:2|1:2,2:0:0:0:
297,277,53004,1,2,3:2:0:0:
297,277,53104,2,0,L|261:196,1,75,2|0,3:2|1:2,2:0:0:0:
512,223,53304,2,0,L|459:294,1,75,10|0,1:2|2:0,2:0:0:0:
356,216,53504,5,0,1:2:0:0:
382,285,53605,1,0,1:2:0:0:
375,359,53706,2,0,B|442:258|310:234|387:125,1,225,10|0,1:2|1:2,2:0:0:0:
312,61,54112,2,0,L|225:85,1,75,10|0,1:2|2:0,2:0:0:0:
414,49,54314,6,0,L|501:73,1,75,0|0,1:2|2:0,2:0:0:0:
263,190,54517,2,0,B|203:187|203:187|130:287,2,150,10|2|10,1:2|3:2|1:2,2:0:0:0:
343,195,55024,1,0,1:2:0:0:
343,195,55125,2,0,P|348:242|355:273,1,75,0|0,1:2|2:0,2:0:0:0:
92,74,55331,6,0,L|71:182,1,93.75,10|0,1:2|2:0,2:0:0:0:
291,98,55538,2,0,L|207:25,1,93.75,2|2,3:2|1:2,2:0:0:0:
166,245,55745,2,0,L|270:209,1,93.75,8|2,1:2|3:2,2:0:0:0:
183,142,55952,1,0,1:2:0:0:
177,134,56053,1,0,1:2:0:0:
186,137,56154,1,10,1:2:0:0:
177,140,56256,1,0,1:2:0:0:
85,250,56357,2,0,P|65:288|37:351,2,93.75,2|0|10,3:2|1:2|1:2,2:0:0:0:
186,137,56661,1,10,1:3:0:0:
186,137,56712,1,4,1:3:0:0:
186,137,56762,6,0,B|150:123|142:83|142:83|134:158|205:201|268:178,1,262.5,14|0,1:2|2:0,2:0:0:0:
386,52,57066,6,0,B|415:28|454:40|454:40|392:-3|320:36|308:102,1,262.5,14|0,1:2|2:0,2:0:0:0:
379,295,57370,6,0,P|388:231|354:176,1,131.25,14|0,1:2|2:0,2:0:0:0:
229,64,57573,5,14,1:2:0:0:
229,64,57979,5,14,1:2:0:0:
26,384,58384,2,0,L|122:356,1,75,4|0,1:2|2:0,2:0:0:0:
204,329,58587,2,0,B|131:195|298:180|214:35,1,281.25,10|0,1:2|1:2,2:0:0:0:
304,263,58992,2,0,L|376:284,1,75,10|0,1:2|2:0,2:0:0:0:
148,119,59195,5,2,1:2:0:0:
90,160,59296,1,2,3:2:0:0:
86,230,59397,2,0,P|84:189|67:67,1,150,10|0,1:2|2:0,2:0:0:0:
44,292,59702,1,0,1:2:0:0:
44,292,59803,2,0,P|42:335|38:375,1,75,10|0,1:2|2:0,2:0:0:0:
255,321,60015,6,0,L|178:369,1,75,0|0,1:2|2:0,2:0:0:0:
182,240,60216,2,0,B|255:193|255:193|376:259,1,225,10|0,1:2|1:2,2:0:0:0:
444,308,60619,1,10,1:2:0:0:
444,308,60719,1,0,1:2:0:0:
512,171,60820,2,0,P|494:200|468:251,1,75,0|0,1:2|2:0,2:0:0:0:
267,111,61021,2,0,B|377:160|378:33|500:87,1,225,10|0,1:2|1:2,2:0:0:0:
239,0,61424,2,0,P|206:35|213:65,1,75,10|0,1:2|2:0,2:0:0:0:
104,322,61625,6,0,P|70:332|15:351,1,75,6|0,1:2|2:0,2:0:0:0:
100,244,61827,2,0,P|65:255|29:266,1,75,10|0,1:2|2:0,2:0:0:0:
111,338,62030,2,0,P|76:349|40:360,1,75,6|0,1:2|2:0,2:0:0:0:
93,228,62233,2,0,P|57:239|21:250,1,75,10|0,1:2|2:0,2:0:0:0:
399,237,62435,6,0,P|432:247|488:266,1,75,6|0,1:2|0:0,2:0:0:0:
402,159,62636,2,0,P|437:170|473:181,1,75,10|0,1:2|0:0,2:0:0:0:
391,253,62837,2,0,P|426:264|462:275,1,75,6|0,1:2|2:0,2:0:0:0:
409,143,63039,2,0,P|444:154|480:165,1,75,10|0,1:2|2:0,2:0:0:0:
147,12,63240,6,0,P|136:45|118:101,1,75,6|0,1:2|2:0,2:0:0:0:
225,15,63441,2,0,P|213:50|202:86,1,75,10|0,1:2|2:0,2:0:0:0:
131,4,63643,2,0,P|119:39|108:75,1,75,6|0,1:2|0:0,2:0:0:0:
58,129,63844,1,10,1:2:0:0:
64,203,63945,1,4,3:0:0:0:
125,244,64045,2,0,P|215:229|290:230,1,150,4|10,1:2|1:2,2:0:0:0:
311,301,64347,5,10,1:2:0:0:
381,337,64448,1,10,1:2:0:0:
455,306,64549,1,10,1:2:0:0:
456,234,64649,1,12,1:3:0:0:
384,199,64759,1,4,1:3:0:0:
342,135,64869,6,0,P|333:103|323:61,1,63.7500000000002,2|0,1:2|2:0,2:0:0:0:
230,42,65071,2,0,P|250:135|273:228,1,191.250000000001,10|0,1:2|1:2,2:0:0:0:
233,295,65477,1,8,1:2:0:0:
233,295,65578,1,0,1:2:0:0:
150,173,65679,2,0,L|94:211,1,63.7500000000002,0|0,1:2|2:0,2:0:0:0:
27,181,65879,2,0,P|10:213|18:315,1,127.5,10|2,1:2|3:2,2:0:0:0:
76,353,66179,1,0,1:2:0:0:
76,353,66279,2,0,L|144:368,1,63.7500000000002,10|0,1:2|2:0,2:0:0:0:
272,228,66479,5,2,1:2:0:0:
332,272,66581,1,0,1:2:0:0:
401,246,66683,2,0,P|410:126|418:36,1,191.250000000001,10|0,1:2|1:2,2:0:0:0:
352,17,67091,2,0,P|337:54|341:105,1,63.7500000000002,8|0,1:2|2:0,2:0:0:0:
482,155,67295,2,0,P|497:118|493:67,1,63.7500000000002,0|0,1:2|2:0,2:0:0:0:
332,272,67499,2,0,P|393:279|486:304,1,127.5,10|2,1:2|3:2,2:0:0:0:
412,366,67803,1,0,1:2:0:0:
412,366,67904,2,0,P|375:358|336:353,1,63.7500000000002,10|0,1:2|2:0,2:0:0:0:
257,240,68107,5,2,1:2:0:0:
257,240,68208,1,0,1:2:0:0:
172,214,68309,2,0,L|223:150,1,63.7500000000002,10|0,1:2|2:0,2:0:0:0:
276,325,68512,2,0,L|194:312,1,63.7500000000002,2|0,3:2|1:2,2:0:0:0:
320,180,68715,2,0,L|349:256,1,63.7500000000002,10|0,1:2|2:0,2:0:0:0:
425,384,68917,6,0,L|466:234,1,127.5,2|10,1:2|1:2,2:0:0:0:
512,80,69221,1,0,1:2:0:0:
512,80,69424,1,2,1:2:0:0:
512,80,69525,2,0,P|483:85|432:93,1,63.7500000000002,8|0,1:2|2:0,2:0:0:0:
289,21,69728,6,0,P|260:16|209:7,1,63.7500000000002,2|0,1:2|2:0,2:0:0:0:
83,138,69929,2,0,P|134:128|181:51,1,127.5,10|2,1:2|3:2,2:0:0:0:
10,127,70231,1,2,1:2:0:0:
35,196,70332,2,0,L|58:271,1,63.7500000000002,10|0,1:2|2:0,2:0:0:0:
156,380,70533,6,0,L|179:305,1,63.7500000000002,2|0,1:2|2:0,2:0:0:0:
250,111,70734,2,0,L|273:186,1,63.7500000000002,10|0,1:2|1:2,2:0:0:0:
425,384,70936,2,0,L|467:244,1,127.5,2|8,3:2|1:2,2:0:0:0:
489,81,71238,1,0,1:2:0:0:
489,81,71338,6,0,L|425:111,1,63.7500000000002,2|0,1:2|2:0,2:0:0:0:
377,46,71542,2,0,P|321:59|274:192,1,191.250000000001,10|0,1:2|1:2,2:0:0:0:
337,259,71950,2,0,P|349:227|347:191,1,63.7500000000002,8|0,1:2|2:0,2:0:0:0:
219,241,72154,1,0,1:2:0:0:
219,241,72256,1,0,1:2:0:0:
280,346,72358,2,0,P|347:335|421:319,1,127.5,10|2,1:2|3:2,2:0:0:0:
433,248,72664,1,0,1:2:0:0:
433,248,72766,2,0,L|447:163,1,63.7500000000002,10|0,1:2|2:0,2:0:0:0:
278,110,72970,6,0,L|267:172,1,63.7500000000002,2|0,1:2|2:0,2:0:0:0:
47,220,73176,2,0,B|106:188|106:188|223:242,1,189.401253647804,10|0,1:2|1:2,2:0:0:0:
190,312,73583,1,8,1:2:0:0:
190,312,73683,1,0,1:2:0:0:
106,189,73783,2,0,P|100:157|98:120,1,63.7500000000002,0|0,1:2|2:0,2:0:0:0:
205,8,73986,2,0,P|193:66|188:151,1,128.12581493187,10|2,1:2|3:2,2:0:0:0:
330,287,74291,1,0,1:2:0:0:
330,287,74392,2,0,L|260:307,1,63.7500000000002,10|0,1:2|2:0,2:0:0:0:
106,367,74595,6,0,P|91:343|92:293,1,63.7500000000002,0|0,1:2|2:0,2:0:0:0:
213,222,74797,2,0,L|335:186,1,127.5,10|2,1:2|3:2,2:0:0:0:
335,24,75101,1,2,1:2:0:0:
335,24,75203,2,0,P|320:48|321:98,1,63.7500000000002,10|0,1:2|2:0,2:0:0:0:
451,214,75405,6,0,P|466:190|465:140,1,63.7500000000002,2|0,1:2|2:0,2:0:0:0:
335,186,75608,1,10,1:2:0:0:
335,186,75709,2,0,P|313:253|316:323,1,127.5,0|2,1:2|1:2,2:0:0:0:
461,368,76013,2,0,P|463:330|455:285,1,63.7500000000002,8|0,1:2|2:0,2:0:0:0:
213,252,76216,6,0,L|76:292,2,127.5,2|10|2,1:2|1:2|3:2,2:0:0:0:
244,176,76723,1,0,1:2:0:0:
221,102,76824,2,0,L|152:82,1,63.7500000000002,10|0,1:2|2:0,2:0:0:0:
82,83,77027,2,0,L|13:103,1,63.7500000000002,6|0,1:2|2:0,2:0:0:0:
258,32,77230,5,10,1:2:0:0:
309,85,77328,1,8,1:2:0:0:
383,96,77427,1,10,1:2:0:0:
457,83,77526,1,8,1:2:0:0:
507,28,77624,1,12,1:3:0:0:
437,0,77723,1,4,1:3:0:0:
382,119,77822,6,0,L|373:202,1,75,6|0,1:2|2:0,2:0:0:0:
480,230,78024,2,0,L|489:156,1,75,10|0,1:2|2:0,2:0:0:0:
353,218,78227,2,0,L|361:143,1,75,6|0,1:2|2:0,2:0:0:0:
468,180,78430,2,0,L|460:255,1,75,10|0,1:2|2:0,2:0:0:0:
155,22,78632,6,0,L|164:105,1,75,6|0,1:2|2:0,2:0:0:0:
56,133,78835,2,0,L|47:58,1,75,10|0,1:2|2:0,2:0:0:0:
184,121,79038,2,0,L|175:46,1,75,6|0,1:2|2:0,2:0:0:0:
68,83,79240,2,0,L|76:157,1,75,10|0,1:2|2:0,2:0:0:0:
252,293,79443,5,6,1:2:0:0:
252,293,79544,1,0,1:2:0:0:
212,208,79646,2,0,P|168:225|133:285,1,93.75,10|0,1:2|2:0,2:0:0:0:
374,295,79849,2,0,P|357:251|297:216,1,93.75,6|0,1:2|2:0,2:0:0:0:
193,366,80051,2,0,P|236:385|303:367,1,93.75,10|0,1:2|2:0,2:0:0:0:
512,192,80259,5,14,1:2:0:0:
73,37,81064,2,0,P|58:102|47:207,1,150,14|2,1:2|3:2,2:0:0:0:
114,329,81368,1,10,1:2:0:0:
187,365,81469,1,2,3:2:0:0:
259,345,81570,1,2,3:2:0:0:
306,296,81672,1,10,1:2:0:0:
356,282,81773,1,2,3:2:0:0:
391,292,81874,2,0,P|464:337|517:384,1,150,10|2,1:2|3:0,2:0:0:0:
307,221,82178,5,10,1:2:0:0:
295,122,82280,2,0,P|296:90|307:37,1,75,2|2,3:2|3:0,2:0:0:0:
376,10,82482,1,10,1:2:0:0:
376,10,82584,1,2,3:2:0:0:
203,156,82687,6,0,P|141:163|101:162,1,75,14|2,1:2|3:2,2:0:0:0:
30,132,82892,1,2,1:2:0:0:
203,83,82995,2,0,P|215:136|206:258,1,150,10|2,1:2|1:2,2:0:0:0:
21,363,83285,2,0,P|28:322|37:280,1,75,10|2,1:2|3:2,0:0:0:0:
191,322,83491,1,2,1:2:0:0:
200,356,83595,1,2,3:2:0:0:
119,350,83698,5,10,1:2:0:0:
113,305,83805,1,10,1:2:0:0:
119,253,83913,1,10,1:2:0:0:
148,195,84021,1,10,1:2:0:0:
167,138,84122,1,14,1:3:0:0:
169,93,84223,1,6,1:3:0:0:
158,64,84325,6,0,P|198:53|248:44,1,75,14|2,1:2|3:2,2:0:0:0:
309,48,84527,1,2,3:2:0:0:
242,129,84629,2,0,P|327:141|400:191,1,150,10|2,1:2|3:2,2:0:0:0:
353,322,84933,2,0,P|341:289|345:237,1,75,10|2,1:2|3:2,2:0:0:0:
461,77,85135,6,0,P|472:155|448:248,1,150,14|2,1:2|3:2,2:0:0:0:
256,384,85437,1,10,1:2:0:0:
220,310,85537,1,2,3:0:0:0:
237,236,85638,1,2,3:2:0:0:
279,183,85739,1,10,1:2:0:0:
290,132,85839,1,2,3:0:0:0:
277,96,85940,6,0,P|264:60|244:17,2,75,14|2|2,1:2|3:2|3:2,2:0:0:0:
353,96,86244,2,0,P|243:125|184:155,1,150,10|2,1:2|3:2,2:0:0:0:
90,260,86548,1,10,1:2:0:0:
90,260,86649,1,2,3:0:0:0:
20,174,86750,2,0,P|6:213|0:261,1,75,14|2,1:2|3:2,2:0:0:0:
47,357,86950,1,2,3:2:0:0:
181,292,87050,2,0,P|180:262|165:212,2,75,10|2|2,1:2|3:2|3:2,2:0:0:0:
110,155,87350,1,10,1:2:0:0:
110,155,87450,1,2,3:2:0:0:
172,96,87550,6,0,B|284:155|273:35|412:82,2,225,14|10|10,1:2|1:2|1:2,2:0:0:0:
103,61,88269,1,2,3:2:0:0:
240,141,88371,2,0,P|246:178|247:216,1,75,10|2,1:2|3:2,2:0:0:0:
114,325,88573,5,2,3:0:0:0:
114,325,88675,2,0,L|187:356,1,75,10|2,1:2|3:2,2:0:0:0:
328,354,88877,1,2,3:0:0:0:
328,354,88979,2,0,L|398:325,1,75,10|2,1:2|3:2,2:0:0:0:
255,67,89181,6,0,P|246:159|251:250,1,150,14|2,1:2|1:2,2:0:0:0:
505,261,89477,2,0,P|514:169|509:78,1,150,10|2,1:2|1:2,2:0:0:0:
342,190,89773,2,0,L|416:170,1,75,10|2,1:2|3:2,2:0:0:0:
302,277,89970,1,14,1:3:0:0:
233,308,90074,1,6,1:3:0:0:
177,257,90178,5,14,1:2:0:0:
86,346,90282,1,14,1:2:0:0:
89,350,90490,5,14,1:2:0:0:
65,177,90595,1,14,1:2:0:0:
65,177,90699,1,2,1:2:0:0:
239,79,90803,6,0,P|250:183|250:324,2,225,14|10|10,1:2|1:2|1:2,2:0:0:0:
220,3,91512,1,2,3:2:0:0:
244,127,91613,6,0,B|178:242|320:260|241:397,2,258.75,14|10|10,1:2|1:2|1:2,2:0:0:0:
306,51,92337,1,2,3:2:0:0:
203,202,92440,6,0,B|147:250|147:250|1:196,1,195,14|2,1:2|3:0,2:0:0:0:
40,3,92740,2,0,B|109:27|109:27|135:180,1,195,10|2,1:2|3:0,2:0:0:0:
15,297,93040,2,0,P|10:249|34:207,1,97.5,10|2,1:2|3:0,2:0:0:0:
290,259,93260,6,0,P|250:286|134:269,1,150,14|8,1:2|1:2,2:0:0:0:
109,220,93564,1,8,1:2:0:0:
161,273,93665,1,8,1:2:0:0:
140,344,93766,1,8,1:2:0:0:
69,369,93868,1,8,1:2:0:0:
17,315,93969,1,8,1:2:0:0:
37,243,94070,1,12,1:3:0:0:
37,243,94167,1,4,1:3:0:0:
177,174,94264,6,0,B|276:230|291:108|409:176,1,225,14|4,1:2|1:3,2:0:0:0:
227,100,94654,2,0,B|217:61|217:61|230:28,1,75,14|0,1:2|2:0,2:0:0:0:
468,140,94856,2,0,B|477:178|477:178|464:211,1,75,12|4,1:3|1:3,2:0:0:0:
315,300,95058,2,0,L|345:72,1,225,14|4,1:2|1:3,2:0:0:0:
335,5,95464,6,0,L|349:116,1,112.5,14|4,1:2|1:2,2:0:0:0:
191,93,95768,1,0,1:2:0:0:
191,93,95869,1,10,1:2:0:0:
177,174,95970,6,0,L|167:248,1,75,2|0,3:2|2:0,2:0:0:0:
325,184,96173,2,0,L|265:138,1,75,0|8,1:2|1:2,2:0:0:0:
242,307,96376,2,0,L|311:278,1,75,2|0,3:2|1:2,2:0:0:0:
396,245,96578,1,2,3:2:0:0:
396,245,96680,1,10,1:2:0:0:
251,225,96781,2,0,P|264:300|325:377,1,150,2|2,1:2|1:2,2:0:0:0:
463,314,97085,2,0,P|432:319|388:347,1,75,8|0,1:2|2:0,2:0:0:0:
304,360,97288,1,12,1:3:0:0:
304,360,97389,1,4,1:3:0:0:
477,236,97491,6,0,B|421:137|543:122|475:4,1,225,14|4,1:2|1:3,2:0:0:0:
398,71,97896,2,0,L|313:94,1,75,14|0,1:2|2:0,2:0:0:0:
122,149,98099,2,0,L|207:172,1,75,12|4,1:3|1:3,2:0:0:0:
45,24,98301,2,0,P|29:144|30:252,1,225,14|4,1:2|1:3,2:0:0:0:
200,361,98707,6,0,L|326:334,1,112.500004291535,14|4,1:2|1:2,2:0:0:0:
310,337,99003,1,0,2:0:0:0:
148,226,99103,2,0,P|138:267|141:301,1,75,10|0,1:2|2:0,2:0:0:0:
379,208,99303,2,0,P|381:170|371:134,1,75,2|0,3:2|1:2,2:0:0:0:
136,73,99503,2,0,P|126:114|129:148,1,75,10|0,1:2|2:0,2:0:0:0:
257,267,99703,1,2,1:2:0:0:
257,267,99805,1,0,1:2:0:0:
251,189,99907,2,0,P|251:152|250:100,1,75,10|0,1:2|1:2,2:0:0:0:
391,337,100111,2,0,P|359:317|313:293,1,75,2|0,3:2|1:2,2:0:0:0:
127,348,100315,2,0,P|159:328|192:311,1,75,10|0,1:2|2:0,2:0:0:0:
379,208,100519,1,12,1:3:0:0:
379,208,100621,1,4,1:3:0:0:
342,128,100723,6,0,L|97:176,1,225,14|4,1:2|1:3,2:0:0:0:
121,171,101145,2,0,L|219:190,1,75,14|0,1:2|2:0,2:0:0:0:
399,285,101356,2,0,L|300:304,1,75,12|4,1:3|1:3,2:0:0:0:
278,0,101558,2,0,P|274:80|281:233,1,225,14|4,1:2|1:3,2:0:0:0:
112,360,101964,6,0,P|114:333|117:280,1,56.2500000000001,14|0,1:2|2:0,2:0:0:0:
37,245,102168,2,0,P|35:218|32:165,1,75,4|0,1:2|2:0,2:0:0:0:
241,98,102372,2,0,B|172:137|172:137|20:61,1,225,10|0,1:2|1:2,2:0:0:0:
84,7,102780,1,10,1:2:0:0:
84,7,102883,1,0,1:2:0:0:
172,137,102987,2,0,P|177:185|169:230,1,75,0|0,1:2|2:0,2:0:0:0:
41,332,103187,1,10,1:2:0:0:
41,332,103287,2,0,P|110:327|219:356,1,150,2|0,1:2|1:2,2:0:0:0:
302,255,103587,2,0,L|220:273,1,75,10|0,1:2|2:0,2:0:0:0:
389,358,103787,6,0,L|404:263,1,75,6|0,1:2|2:0,2:0:0:0:
477,82,103988,2,0,L|516:329,1,225,10|0,1:2|1:2,2:0:0:0:
471,374,104391,1,10,1:2:0:0:
471,374,104491,1,0,1:2:0:0:
400,283,104592,6,0,P|361:287|319:297,1,75,0|0,1:2|2:0,2:0:0:0:
287,225,104793,2,0,P|213:240|177:377,1,225,10|0,1:2|1:2,2:0:0:0:
180,345,105196,2,0,P|176:304|161:254,1,75,10|0,1:2|2:0,2:0:0:0:
67,213,105397,2,0,P|33:236|-2:274,1,75,2|0,1:2|2:0,2:0:0:0:
236,121,105597,2,0,B|167:160|167:160|15:84,1,213,10|0,1:2|2:0,2:0:0:0:
47,100,105990,2,0,L|128:83,1,75,10|0,1:2|2:0,2:0:0:0:
215,36,106209,2,0,L|296:53,1,75,4|0,1:2|2:0,2:0:0:0:
443,124,106411,5,8,1:2:0:0:
480,189,106513,1,8,1:2:0:0:
479,256,106614,1,8,1:2:0:0:
453,301,106715,1,8,1:2:0:0:
453,338,106817,1,12,1:3:0:0:
463,362,106918,1,4,1:3:0:0:
463,362,107019,6,0,P|468:249|466:137,1,225.555008583069,6|8,1:2|1:2,2:0:0:0:
466,137,107744,1,8,1:2:0:0:
466,137,107840,2,0,L|390:155,1,56.2500000000001,2|2,2:0|3:2,2:0:0:0:
322,134,108032,2,0,P|298:188|300:256,1,112.5,14|10,1:2|1:2,2:0:0:0:
463,362,108332,2,0,P|428:314|368:281,1,112.5,14|0,1:2|2:0,2:0:0:0:
214,289,108632,6,0,B|124:348|83:221|-22:291,1,225.000000000001,6|8,1:2|1:2,2:0:0:0:
0,278,109261,1,2,3:2:0:0:
3,282,109366,2,0,P|7:224|11:159,1,112.5,8|2,1:2|3:2,2:0:0:0:
214,289,109654,2,0,P|218:232|221:176,1,112.5,14|10,1:2|1:2,2:0:0:0:
113,362,109958,2,0,P|108:305|105:249,1,112.5,14|0,1:2|2:0,2:0:0:0:
329,384,110262,6,0,P|333:326|337:142,1,225.000000000001,6|10,1:2|1:2,2:0:0:0:
337,159,110891,1,2,3:2:0:0:
340,163,110996,1,8,1:2:0:0:
343,167,111091,6,0,L|415:156,1,56.2500000000001,2|2,3:2|3:2,2:0:0:0:
431,86,111282,2,0,B|484:104|484:104|507:155,1,112.5,14|10,1:2|1:2,2:0:0:0:
346,54,111582,2,0,B|292:72|292:72|269:123,1,112.5,14|0,1:2|2:0,2:0:0:0:
235,256,111882,6,0,L|461:221,1,225.000000000001,6|10,1:2|1:2,2:0:0:0:
458,223,112490,1,2,3:2:0:0:
471,293,112591,1,14,1:2:0:0:
384,220,112692,6,0,P|383:164|396:43,1,168.75,6|0,1:2|1:2,2:0:0:0:
456,7,113117,2,0,L|524:20,1,56.2500000000001,14|0,1:2|2:0,2:0:0:0:
318,58,113330,1,8,1:2:0:0:
251,90,113424,1,8,1:2:0:0:
249,166,113519,6,0,B|202:266|325:289|255:403,1,225.000000000001,6|8,1:2|1:2,2:0:0:0:
266,380,114238,1,8,1:2:0:0:
110,237,114542,2,0,L|49:249,1,56.2500000000001,14|0,1:2|2:0,2:0:0:0:
7,302,114744,1,10,1:2:0:0:
168,279,114846,2,0,P|144:218|144:146,1,112.5,14|0,1:2|2:0,2:0:0:0:
13,83,115142,6,0,P|106:95|227:9,1,225.000000000001,6|8,1:2|1:2,2:0:0:0:
214,29,115856,1,8,1:2:0:0:
380,164,116144,2,0,L|385:231,1,56.2500000000001,14|0,1:2|2:0,2:0:0:0:
420,102,116346,1,10,1:2:0:0:
427,278,116448,2,0,P|366:254|294:254,1,112.5,14|0,1:2|2:0,2:0:0:0:
30,235,116752,6,0,B|130:281|153:159|267:229,1,225.000000000001,6|10,1:2|1:2,2:0:0:0:
244,217,117258,1,2,3:2:0:0:
244,217,117360,1,2,3:2:0:0:
198,131,117461,1,8,1:2:0:0:
198,131,117562,6,0,P|194:96|193:55,1,56.2500000000001,2|0,3:2|2:0,2:0:0:0:
337,147,117765,2,0,P|333:182|332:223,1,56.2500000000001,14|0,1:2|0:0,2:0:0:0:
471,123,117969,1,8,1:2:0:0:
471,123,118071,2,0,L|454:2,1,112.5,14|0,1:2|2:0,2:0:0:0:
424,200,118377,6,0,L|448:373,1,168.75,6|0,1:2|1:2,2:0:0:0:
201,293,118777,1,14,1:2:0:0:
201,293,118977,1,2,1:2:0:0:
201,293,119077,1,10,1:2:0:0:
132,333,119196,2,0,P|94:347|61:359,1,75,12|2,1:2|1:2,2:0:0:0:
3,267,119398,5,8,1:2:0:0:
18,194,119500,1,8,1:2:0:0:
88,167,119601,1,14,1:2:0:0:
144,118,119696,1,8,1:2:0:0:
144,42,119792,1,8,1:2:0:0:
73,17,119887,1,8,1:2:0:0:
3,46,119983,6,0,P|15:93|12:131,1,75,6|0,1:2|2:0,2:0:0:0:
261,198,120188,2,0,B|200:145|200:145|66:200,1,225,10|0,1:2|1:2,2:0:0:0:
95,275,120599,1,8,1:2:0:0:
95,275,120702,1,0,1:2:0:0:
216,344,120804,2,0,L|301:357,1,75,0|0,1:2|2:0,2:0:0:0:
382,126,121006,2,0,P|357:211|367:287,1,150,10|2,1:2|3:2,2:0:0:0:
460,368,121310,1,0,1:2:0:0:
460,368,121412,2,0,L|470:272,1,75,10|0,1:2|2:0,2:0:0:0:
478,124,121614,6,0,L|488:220,1,75,2|0,1:2|2:0,2:0:0:0:
214,56,121817,2,0,B|314:102|337:-20|451:50,1,225,10|0,1:2|1:2,2:0:0:0:
314,160,122222,1,8,1:2:0:0:
342,229,122324,1,0,1:2:0:0:
300,337,122425,1,0,1:2:0:0:
300,337,122525,1,0,1:2:0:0:
300,337,122626,2,0,L|228:358,1,75,10|0,1:2|2:0,2:0:0:0:
86,248,122827,2,0,L|158:269,1,75,2|0,3:2|1:2,2:0:0:0:
237,177,123029,1,10,1:2:0:0:
237,177,123129,1,0,1:2:0:0:
152,99,123230,6,0,P|147:137|148:188,1,75,0|0,1:2|2:0,2:0:0:0:
317,253,123435,2,0,P|322:215|321:164,1,75,10|0,1:2|2:0,2:0:0:0:
55,322,123640,1,2,3:2:0:0:
55,322,123743,2,0,L|127:343,1,75,0|10,1:2|1:2,2:0:0:0:
373,370,123949,1,0,1:2:0:0:
373,370,124051,6,0,L|445:349,1,75,2|0,1:2|2:0,2:0:0:0:
237,177,124257,2,0,P|225:273|228:356,1,150,10|2,1:2|3:2,2:0:0:0:
295,384,124565,1,2,1:2:0:0:
295,384,124668,1,8,1:2:0:0:
461,228,124873,6,0,L|449:134,1,75,0|0,1:2|2:0,2:0:0:0:
218,4,125074,2,0,P|200:40|197:82,1,75,10|0,1:2|2:0,2:0:0:0:
350,158,125275,2,0,P|317:134|276:123,1,75,2|0,3:2|1:2,2:0:0:0:
116,195,125477,2,0,P|156:192|194:174,1,75,10|0,1:2|2:0,2:0:0:0:
6,97,125678,6,0,L|24:245,1,150,2|8,1:2|1:2,2:0:0:0:
50,371,125980,1,2,1:2:0:0:
50,371,126181,1,2,1:2:0:0:
50,371,126282,2,0,P|86:371|125:375,1,75,14|0,1:2|2:0,2:0:0:0:
261,241,126494,6,0,P|252:276|252:318,1,75,6|0,1:2|2:0,2:0:0:0:
370,252,126695,2,0,B|309:199|309:199|175:254,1,225,10|0,1:2|1:2,2:0:0:0:
116,195,127098,2,0,P|107:159|107:117,1,75,8|0,1:2|2:0,2:0:0:0:
156,55,127299,1,0,1:2:0:0:
156,55,127400,1,0,1:2:0:0:
228,29,127500,2,0,P|164:38|78:25,1,150,10|2,1:2|3:2,2:0:0:0:
6,113,127802,1,0,1:2:0:0:
6,113,127903,2,0,P|9:156|9:211,1,75,10|0,1:2|2:0,2:0:0:0:
79,365,128104,6,0,P|82:321|82:267,1,75,2|0,1:2|2:0,2:0:0:0:
3,271,128304,2,0,P|53:277|164:135,1,225,10|0,1:2|1:2,2:0:0:0:
148,173,128704,2,0,P|145:209|161:272,1,75,8|0,1:2|2:0,2:0:0:0:
212,338,128904,1,0,1:2:0:0:
212,338,129005,1,0,1:2:0:0:
321,232,129106,2,0,P|286:246|251:256,1,75,10|0,1:2|2:0,2:0:0:0:
409,357,129309,2,0,P|401:320|397:283,1,75,2|0,3:2|1:2,2:0:0:0:
401,202,129512,1,10,1:2:0:0:
401,202,129613,1,0,1:2:0:0:
444,136,129714,6,0,P|460:102|474:68,1,75,0|0,1:2|2:0,2:0:0:0:
330,150,129914,2,0,B|273:169|250:116|179:131,1,150,10|2,1:2|3:2,2:0:0:0:
65,201,130214,1,2,1:2:0:0:
110,141,130314,2,0,P|104:118|80:64,1,75,10|0,1:2|2:0,2:0:0:0:
0,239,130514,6,0,P|6:262|30:316,1,75,2|0,1:2|2:0,2:0:0:0:
171,301,130720,1,10,1:2:0:0:
116,349,130824,2,0,P|91:354|46:397,2,75,0|2|0,1:2|3:2|1:2,2:0:0:0:
300,310,131134,2,0,P|266:293|238:267,1,75,8|0,1:2|2:0,2:0:0:0:
409,156,131341,6,0,P|443:173|471:199,1,75,0|0,1:2|2:0,2:0:0:0:
290,175,131543,2,0,P|345:224|398:299,1,150,10|2,1:2|3:2,2:0:0:0:
170,220,131847,1,0,1:2:0:0:
170,220,131949,2,0,P|174:182|186:134,1,75,10|0,1:2|2:0,2:0:0:0:
456,131,132151,5,14,1:2:0:0:
389,68,132253,1,8,1:2:0:0:
307,80,132355,1,12,1:3:0:0:
274,143,132457,1,14,1:2:0:0:
233,186,132559,1,8,1:2:0:0:
188,190,132661,1,12,1:3:0:0:
162,173,132763,1,14,1:2:0:0:
157,158,132865,1,8,1:2:0:0:
213,2,132967,6,0,P|224:43|218:82,1,75,6|0,1:2|2:0,2:0:0:0:
188,190,133172,2,0,P|222:174|248:147,1,75,10|0,1:2|2:0,2:0:0:0:
309,38,133377,6,0,P|308:80|324:117,1,75,6|0,1:2|2:0,2:0:0:0:
385,215,133583,2,0,P|348:208|316:188,1,75,10|0,1:2|2:0,2:0:0:0:
142,98,133788,6,0,P|130:139|106:170,1,75,6|0,1:2|2:0,2:0:0:0:
9,246,133994,2,0,P|46:248|81:238,1,74.4897959183671,10|0,1:2|2:0,2:0:0:0:
259,246,134198,6,0,P|280:283|312:306,1,75,6|0,1:2|2:0,2:0:0:0:
415,364,134402,2,0,P|379:376|342:375,1,75,10|0,1:2|2:0,2:0:0:0:
0,384,134643,5,6,1:2:0:0:
256,192,134706,12,4,137679,1:2:0:0:
