osu file format v14

[General]
AudioFilename: audio.mp3
AudioLeadIn: 0
PreviewTime: 77978
Countdown: 1
SampleSet: Soft
StackLeniency: 0.2
Mode: 0
LetterboxInBreaks: 0
WidescreenStoryboard: 1

[Editor]
DistanceSpacing: 1.1
BeatDivisor: 4
GridSize: 8
TimelineZoom: 2.999999

[Metadata]
Title:DVP
TitleUnicode:DVP
Artist:PUP
ArtistUnicode:PUP
Creator:Kaifin
Version:debug
Source:
Tags:alt rock punk toronto the dream is over
BeatmapID:1544629
BeatmapSetID:613989

[Difficulty]
HPDrainRate:6
CircleSize:3
OverallDifficulty:9
ApproachRate:9.8
SliderMultiplier:3.2
SliderTickRate:1

[Events]
//Background and Video events
0,0,"smokingbgupscaled.png",0,0
//Break Periods
//Storyboard Layer 0 (Background)
//Storyboard Layer 1 (Fail)
//Storyboard Layer 2 (Pass)
//Storyboard Layer 3 (Foreground)
//Storyboard Sound Samples

[TimingPoints]
141,405.405405405405,4,2,1,60,1,0
16357,-80,4,2,1,60,0,0
22032,-66.6666666666667,4,2,1,60,0,0
22843,-80,4,2,1,60,0,0
24465,-66.6666666666667,4,2,1,60,0,0
28519,-80,4,2,1,60,0,0
29330,-200,4,2,1,60,0,1
42303,-66.6666666666667,4,2,1,60,0,1
44127,-50,4,2,1,60,0,1
45546,-66.6666666666667,4,2,1,60,0,0
50411,-800,4,2,1,60,0,0
51222,-100,4,2,1,60,0,0
52032,-80,4,2,1,60,0,0
55478,-66.6666666666667,4,2,1,60,0,0
58113,-800,4,2,1,60,0,0
58519,-66.6666666666667,4,2,1,60,0,0
62168,-80,4,2,1,60,0,0
62573,-100,4,2,1,60,0,0
62978,-133.333333333333,4,2,1,60,0,0
63384,-66.6666666666667,4,2,1,60,0,0
64195,-133.333333333333,4,2,1,60,0,0
65005,-200,4,2,1,60,0,1
77978,-66.6666666666667,4,2,1,60,0,1
79803,-50,4,2,1,60,0,1
81222,-100,4,2,1,60,0,0
91762,-80,4,2,1,60,0,0
92573,-66.6666666666667,4,2,1,60,0,0
94397,-50,4,2,1,60,0,1
96222,-66.6666666666667,4,2,1,60,0,1
97640,-50,4,2,1,60,0,1
99262,-66.6666666666667,4,2,1,60,0,1
100884,-50,4,2,1,60,0,1
102303,-66.6666666666667,4,2,1,60,0,1
107168,-200,4,2,1,60,0,0
107978,-200,4,2,1,5,0,0
108181,-200,4,2,1,60,0,0
109600,-200,4,2,1,5,0,0
109803,-200,4,2,1,60,0,0
114465,-200,4,2,1,5,0,0
114668,-200,4,2,1,60,0,0
116086,-200,4,2,1,5,0,0
116289,-200,4,2,1,60,0,0
119330,-100,4,2,1,60,0,0
119735,-25,4,2,1,60,0,0
120140,-66.6666666666667,4,2,1,60,0,1
123586,-50,4,2,1,60,0,1
126424,-200,4,2,1,60,0,1
127235,-100,4,2,1,60,0,1
128249,-66.6666666666667,4,2,1,60,0,1
131695,-50,4,2,1,60,0,1
133113,-66.6666666666667,4,2,1,60,0,1
134735,-66.6666666666667,4,2,1,60,0,0

[Colours]
Combo1 : 193,61,4
Combo2 : 250,190,182
Combo3 : 5,158,209
Combo4 : 255,255,132

[HitObjects]
87,121,141,6,0,P|160:108|197:173,1,160,12|0,0:0|0:0,0:0:0:0:
39,196,445,2,0,L|56:2,1,160,10|0,0:0|0:0,0:0:0:0:
196,174,749,2,0,L|202:253,1,80,10|0,0:0|0:0,0:0:0:0:
39,196,951,2,0,L|45:116,1,80,10|0,0:0|0:0,0:0:0:0:
196,174,1154,2,0,L|202:253,1,80,0|10,0:0|0:0,0:0:0:0:
52,36,1357,5,0,0:0:0:0:
140,42,1458,1,0,0:0:0:0:
228,48,1559,2,0,L|307:42,1,80,12|0,0:0|0:0,0:0:0:0:
422,174,1762,6,0,P|349:187|312:122,1,160,12|0,0:0|0:0,0:0:0:0:
470,99,2066,2,0,L|453:293,1,160,10|0,0:0|0:0,0:0:0:0:
313,121,2370,2,0,L|307:42,1,80,10|0,0:0|0:0,0:0:0:0:
470,99,2573,2,0,L|464:179,1,80,10|0,0:0|0:0,0:0:0:0:
313,121,2776,2,0,L|307:42,1,80,0|10,0:0|0:0,0:0:0:0:
456,258,2978,5,0,0:0:0:0:
380,321,3080,1,0,0:0:0:0:
280,246,3181,2,0,L|201:252,1,80,12|0,0:0|0:0,0:0:0:0:
7,274,3384,6,0,B|44:320|44:320|212:306,1,160,12|0,0:0|0:0,0:0:0:0:
44,136,3688,2,0,B|-2:173|-2:173|12:341,1,160,10|0,0:0|0:0,0:0:0:0:
175,94,3992,2,0,L|181:173,1,80,10|0,0:0|0:0,0:0:0:0:
367,311,4195,6,0,B|468:320|468:320|505:274,1,160,12|0,0:0|0:0,0:0:0:0:
467,136,4499,2,0,B|513:173|513:173|504:273,1,160,10|0,0:0|0:0,0:0:0:0:
331,173,4803,2,0,L|337:94,1,80,10|0,0:0|0:0,0:0:0:0:
367,311,5005,6,0,P|294:324|257:259,1,160,12|0,0:0|0:0,0:0:0:0:
147,311,5309,2,0,P|220:324|257:259,1,160,10|0,0:0|0:0,0:0:0:0:
254,46,5613,6,0,L|254:134,1,80,10|0,0:0|0:0,0:0:0:0:
256,337,5816,2,0,L|256:249,1,80,12|0,0:0|0:0,0:0:0:0:
17,112,6019,5,2,0:0:0:0:
181,173,6120,1,2,0:0:0:0:
65,234,6222,5,8,0:0:0:0:
99,142,6323,1,8,0:0:0:0:
256,256,6424,5,8,0:0:0:0:
31,326,6526,1,8,0:0:0:0:
145,320,6627,6,0,P|214:327|256:252,1,160,12|0,0:0|0:0,0:0:0:0:
292,109,6931,2,0,P|223:102|181:177,1,160,10|0,0:0|0:0,0:0:0:0:
369,263,7235,2,0,L|375:184,1,80,10|0,0:0|0:0,0:0:0:0:
186,92,7438,2,0,L|180:171,1,80,10|0,0:0|0:0,0:0:0:0:
369,263,7640,2,0,L|375:184,1,80,0|10,0:0|0:0,0:0:0:0:
145,320,7843,5,0,0:0:0:0:
256,257,7945,1,0,0:0:0:0:
56,241,8046,2,0,L|62:320,1,80,12|0,0:0|0:0,0:0:0:0:
480,326,8249,6,0,P|411:333|369:258,1,160,12|0,0:0|0:0,0:0:0:0:
334,124,8553,2,0,P|403:117|445:192,1,160,10|0,0:0|0:0,0:0:0:0:
256,257,8857,2,0,L|250:178,1,80,10|0,0:0|0:0,0:0:0:0:
439,107,9059,2,0,L|445:186,1,80,10|0,0:0|0:0,0:0:0:0:
256,257,9262,2,0,L|250:178,1,80,0|10,0:0|0:0,0:0:0:0:
480,326,9465,5,0,0:0:0:0:
368,262,9566,1,0,0:0:0:0:
264,357,9668,2,0,L|343:351,1,80,12|0,0:0|0:0,0:0:0:0:
170,250,9870,6,0,P|101:243|59:318,1,160,12|0,0:0|0:0,0:0:0:0:
256,257,10174,2,0,L|238:19,1,160,10|0,0:0|0:0,0:0:0:0:
58,154,10478,2,0,L|67:272,1,80,10|0,0:0|0:0,0:0:0:0:
355,160,10681,6,0,P|286:167|244:92,1,160,12|0,0:0|0:0,0:0:0:0:
441,153,10985,2,0,L|423:390,1,160,10|0,0:0|0:0,0:0:0:0:
256,257,11289,2,0,L|265:138,1,80,10|0,0:0|0:0,0:0:0:0:
512,350,11492,6,0,L|275:332,1,160,12|0,0:0|0:0,0:0:0:0:
96,244,11796,2,0,L|333:262,1,160,10|0,0:0|0:0,0:0:0:0:
441,153,12100,2,0,L|432:272,1,80,10|0,0:0|0:0,0:0:0:0:
11,237,12303,6,0,L|248:219,1,160,12|0,0:0|0:0,0:0:0:0:
427,131,12607,2,0,L|190:149,1,160,10|0,0:0|0:0,0:0:0:0:
82,40,12911,2,0,L|91:159,1,80,10|0,0:0|0:0,0:0:0:0:
352,337,13113,5,2,0:0:0:0:
352,337,13316,1,2,0:0:0:0:
184,313,13519,1,2,0:0:0:0:
184,313,13722,1,2,0:0:0:0:
436,277,13924,5,2,0:0:0:0:
436,277,14127,1,2,0:0:0:0:
184,313,14330,1,2,0:0:0:0:
184,313,14532,1,2,0:0:0:0:
452,175,14735,5,2,0:0:0:0:
184,313,14938,1,2,0:0:0:0:
436,277,15140,5,2,0:0:0:0:
184,313,15343,1,2,0:0:0:0:
352,337,15546,5,2,0:0:0:0:
184,313,15749,5,8,0:0:0:0:
268,301,15850,1,8,0:0:0:0:
142,283,15951,5,8,0:0:0:0:
268,301,16053,1,8,0:0:0:0:
134,232,16154,5,8,0:0:0:0:
268,301,16255,1,8,0:0:0:0:
27,361,16357,6,0,L|43:195,1,100,4|0,0:0|0:0,0:0:0:0:
72,155,16559,2,0,P|120:138|169:138,1,100,8|0,0:0|0:0,0:0:0:0:
268,301,16762,2,0,P|317:300|364:283,1,100,2|2,0:0|0:0,0:0:0:0:
134,232,16965,2,0,L|118:398,1,100,8|0,0:0|0:0,0:0:0:0:
436,232,17168,2,0,L|420:66,1,100,2|0,0:0|0:0,0:0:0:0:
282,22,17370,6,0,L|303:241,2,200,8|2|8,0:0|0:0|0:0,0:0:0:0:
27,349,17978,6,0,P|69:349|123:331,1,100,2|0,0:0|0:0,0:0:0:0:
48,162,18181,2,0,L|32:328,1,100,12|0,0:0|0:0,0:0:0:0:
213,369,18384,1,2,0:0:0:0:
413,351,18485,1,2,0:0:0:0:
313,360,18586,2,0,L|329:194,1,100,12|0,0:0|0:0,0:0:0:0:
468,42,18789,6,0,P|426:42|372:60,1,100,2|0,0:0|0:0,0:0:0:0:
447,229,18992,2,0,L|463:63,1,100,12|0,0:0|0:0,0:0:0:0:
282,22,19195,1,2,0:0:0:0:
82,40,19296,1,2,0:0:0:0:
182,31,19397,2,0,L|166:196,1,100,12|0,0:0|0:0,0:0:0:0:
27,349,19600,6,0,P|69:349|123:331,1,100,2|0,0:0|0:0,0:0:0:0:
333,174,19803,2,0,L|317:340,1,100,8|0,0:0|0:0,0:0:0:0:
243,221,20005,2,0,L|259:55,1,100,2|2,0:0|0:0,0:0:0:0:
403,325,20208,5,8,0:0:0:0:
13,157,20411,6,0,P|83:94|176:137,1,200,2|8,0:0|0:0,0:0:0:0:
331,104,20715,2,0,P|260:166|167:123,1,200,0|2,0:0|0:0,0:0:0:0:
414,36,21019,2,0,L|430:202,1,100,8|0,0:0|0:0,0:0:0:0:
483,377,21222,5,2,0:0:0:0:
100,193,21424,6,0,L|84:359,1,100,12|0,0:0|0:0,0:0:0:0:
244,68,21627,1,2,0:0:0:0:
171,129,21728,1,2,0:0:0:0:
331,104,21830,2,0,L|315:-62,1,100,12|0,0:0|0:0,0:0:0:0:
36,355,22032,6,0,B|88:379|88:379|146:356,1,120.000004577637,12|0,0:0|0:0,0:0:0:0:
266,237,22235,5,2,0:0:0:0:
92,181,22336,2,0,B|68:233|68:233|90:291,1,120.000004577637,12|0,0:0|0:0,0:0:0:0:
375,307,22539,5,2,0:0:0:0:
266,237,22640,2,0,B|214:212|214:212|155:235,1,120.000004577637,12|0,0:0|0:0,0:0:0:0:
483,377,22843,6,0,L|467:211,1,100,4|0,0:0|0:0,0:0:0:0:
82,81,23046,2,0,L|98:247,1,100,8|0,0:0|0:0,0:0:0:0:
260,367,23249,1,2,0:0:0:0:
375,307,23350,1,2,0:0:0:0:
155,234,23451,2,0,L|139:400,1,100,8|0,0:0|0:0,0:0:0:0:
460,170,23654,5,2,0:0:0:0:
460,170,23857,5,8,0:0:0:0:
171,129,23958,1,2,0:0:0:0:
171,129,24161,5,2,0:0:0:0:
338,90,24262,1,8,0:0:0:0:
338,90,24465,6,0,L|322:256,1,120.000004577637,2|0,0:0|0:0,0:0:0:0:
143,353,24668,2,0,L|159:187,1,120.000004577637,12|0,0:0|0:0,0:0:0:0:
375,307,24870,5,2,0:0:0:0:
240,221,24972,1,2,0:0:0:0:
460,170,25073,1,12,0:0:0:0:
56,77,25276,6,0,L|72:243,1,120.000004577637,2|0,0:0|0:0,0:0:0:0:
251,340,25478,2,0,L|235:174,1,120.000004577637,12|0,0:0|0:0,0:0:0:0:
143,114,25681,6,0,L|159:280,1,120.000004577637,2|2,0:0|0:0,0:0:0:0:
326,209,25884,2,0,L|310:43,1,120.000004577637,12|0,0:0|0:0,0:0:0:0:
46,364,26086,6,0,L|212:348,1,120.000004577637,2|0,0:0|0:0,0:0:0:0:
284,340,26289,2,0,L|118:356,1,120.000004577637,10|0,0:0|0:0,0:0:0:0:
154,233,26492,6,0,L|320:249,1,120.000004577637,2|0,0:0|0:0,0:0:0:0:
392,257,26695,2,0,L|226:241,1,120.000004577637,10|0,0:0|0:0,0:0:0:0:
46,364,26897,6,0,L|30:198,1,120.000004577637,2|0,0:0|0:0,0:0:0:0:
380,137,27100,2,0,L|396:303,1,120.000004577637,10|0,0:0|0:0,0:0:0:0:
154,233,27303,6,0,L|165:113,1,120.000004577637,2|0,0:0|0:0,0:0:0:0:
510,220,27505,2,0,L|499:340,1,120.000004577637,10|0,0:0|0:0,0:0:0:0:
34,244,27708,5,2,0:0:0:0:
154,233,27911,1,8,0:0:0:0:
391,256,28113,1,2,0:0:0:0:
510,220,28316,1,8,0:0:0:0:
280,345,28519,6,0,L|272:245,1,100,0|0,0:0|0:0,0:0:0:0:
88,123,28722,5,8,0:0:0:0:
38,206,28823,1,8,0:0:0:0:
173,149,28924,1,2,0:0:0:0:
14,75,29026,1,2,0:0:0:0:
154,233,29127,1,10,0:0:0:0:
258,123,29228,1,10,0:0:0:0:
340,204,29330,6,0,P|477:213|444:80,1,320,2|2,0:0|0:0,0:0:0:0:
36,207,30343,2,0,L|33:252,1,40,8|0,0:0|0:0,0:0:0:0:
63,303,30546,2,0,L|66:258,1,40,2|0,0:0|0:0,0:0:0:0:
88,123,30749,1,8,0:0:0:0:
191,247,30951,6,0,P|54:256|87:123,1,320,2|2,0:0|0:0,0:0:0:0:
392,288,31965,2,0,L|395:333,1,40,8|0,0:0|0:0,0:0:0:0:
365,384,32168,2,0,L|362:339,1,40,2|0,0:0|0:0,0:0:0:0:
340,204,32370,1,8,0:0:0:0:
492,334,32573,6,0,L|489:379,1,40,2|0,0:0|0:0,0:0:0:0:
191,247,32776,6,0,L|254:233,1,40,8|0,0:0|0:0,0:0:0:0:
362,344,32978,2,0,L|299:330,1,40,2|0,0:0|0:0,0:0:0:0:
340,204,33181,5,8,0:0:0:0:
340,204,33282,1,0,0:0:0:0:
339,203,33384,6,0,L|402:189,1,40,2|0,0:0|0:0,0:0:0:0:
191,247,33586,2,0,L|254:233,1,40,8|0,0:0|0:0,0:0:0:0:
82,282,33789,1,2,0:0:0:0:
470,368,33992,1,8,0:0:0:0:
87,122,34195,6,0,L|84:167,1,40,2|0,0:0|0:0,0:0:0:0:
191,247,34397,6,0,L|194:202,1,40,8|0,0:0|0:0,0:0:0:0:
304,61,34600,2,0,L|301:100,1,40,2|2,0:0|0:0,0:0:0:0:
376,368,34803,5,8,0:0:0:0:
229,325,34904,1,0,0:0:0:0:
121,290,35005,6,0,L|58:276,1,40,2|0,0:0|0:0,0:0:0:0:
269,334,35208,2,0,L|206:320,1,40,8|0,0:0|0:0,0:0:0:0:
376,368,35411,1,2,0:0:0:0:
0,252,35613,1,8,0:0:0:0:
335,100,35816,6,0,P|468:67|458:204,1,320,2|2,0:0|0:0,0:0:0:0:
282,183,36830,2,0,L|279:228,1,40,8|0,0:0|0:0,0:0:0:0:
309,279,37032,2,0,L|312:234,1,40,2|0,0:0|0:0,0:0:0:0:
334,99,37235,1,8,0:0:0:0:
458,204,37438,6,0,P|324:236|334:99,1,320,2|2,0:0|0:0,0:0:0:0:
510,288,38451,2,0,L|513:333,1,40,8|0,0:0|0:0,0:0:0:0:
483,384,38654,2,0,L|480:339,1,40,2|0,0:0|0:0,0:0:0:0:
458,204,38857,1,8,0:0:0:0:
157,287,39059,6,0,L|196:284,1,40,2|0,0:0|0:0,0:0:0:0:
480,344,39262,6,0,L|483:384,1,40,8|0,0:0|0:0,0:0:0:0:
292,279,39465,2,0,L|290:319,1,40,2|0,0:0|0:0,0:0:0:0:
458,204,39668,1,8,0:0:0:0:
371,194,39769,1,0,0:0:0:0:
281,182,39870,6,0,L|284:137,1,40,2|0,0:0|0:0,0:0:0:0:
373,233,40073,2,0,L|370:188,1,40,8|0,0:0|0:0,0:0:0:0:
290,319,40276,5,2,0:0:0:0:
290,319,40377,1,2,0:0:0:0:
157,287,40478,1,8,0:0:0:0:
157,287,40580,1,0,0:0:0:0:
373,233,40681,6,0,L|376:278,1,40,2|0,0:0|0:0,0:0:0:0:
283,142,40884,2,0,L|280:187,1,40,8|0,0:0|0:0,0:0:0:0:
418,46,41086,2,0,L|421:91,1,40,2|0,0:0|0:0,0:0:0:0:
464,380,41289,5,8,0:0:0:0:
375,369,41390,1,2,0:0:0:0:
287,358,41492,6,0,L|290:313,1,40,6|0,0:0|0:0,0:0:0:0:
420,85,41695,5,8,0:0:0:0:
280,181,41796,1,8,0:0:0:0:
373,233,41897,5,8,0:0:0:0:
291,52,41999,1,8,0:0:0:0:
179,192,42100,5,2,0:0:0:0:
280,181,42201,1,2,0:0:0:0:
78,203,42303,6,0,L|90:386,1,120.000004577637,6|0,0:0|0:0,0:0:0:0:
280,181,42505,2,0,L|267:-2,1,120.000004577637,12|0,0:0|0:0,0:0:0:0:
85,322,42708,6,0,L|268:310,1,120.000004577637,2|0,0:0|0:0,0:0:0:0:
271,61,42911,2,0,L|88:73,1,120.000004577637,12|0,0:0|0:0,0:0:0:0:
287,300,43113,6,0,L|279:180,1,120.000004577637,2|0,0:0|0:0,0:0:0:0:
69,83,43316,2,0,L|77:202,1,120.000004577637,12|0,0:0|0:0,0:0:0:0:
271,61,43519,6,0,L|88:73,1,120.000004577637,2|0,0:0|0:0,0:0:0:0:
85,322,43722,2,0,L|268:310,1,120.000004577637,12|0,0:0|0:0,0:0:0:0:
491,351,43924,6,0,L|308:363,1,120.000004577637,2|0,0:0|0:0,0:0:0:0:
0,197,44127,6,0,B|51:163|51:163|156:266,1,160,12|0,0:0|0:0,0:0:0:0:
204,314,44330,2,0,B|255:348|255:348|360:245,1,160,2|0,0:0|0:0,0:0:0:0:
430,71,44532,6,0,L|247:59,1,160,12|0,0:0|0:0,0:0:0:0:
1,329,44735,5,4,0:0:0:0:
465,180,44938,5,2,0:0:0:0:
420,163,45039,1,2,0:0:0:0:
375,180,45140,5,8,0:0:0:0:
204,314,45242,1,8,0:0:0:0:
285,146,45343,1,8,0:0:0:0:
325,278,45445,1,8,0:0:0:0:
93,199,45546,6,0,B|115:161|115:161|191:157,1,120.000004577637,2|0,0:0|0:0,0:0:0:0:
375,180,45749,2,0,P|257:228|189:115,2,240.000009155274,14|2|10,0:0|0:0|0:0,0:0:0:0:
101,79,46357,6,0,L|90:228,1,120.000004577637,2|0,0:0|0:0,0:0:0:0:
410,304,46559,1,8,0:0:0:0:
92,198,46762,1,2,0:0:0:0:
488,69,46965,1,8,0:0:0:0:
24,315,47168,5,2,0:0:0:0:
263,332,47370,2,0,L|-35:310,1,240.000009155274,12|2,0:0|0:0,0:0:0:0:
92,198,47674,5,2,0:0:0:0:
153,273,47776,1,8,0:0:0:0:
116,361,47877,2,0,L|138:63,1,240.000009155274,2|0,0:0|0:0,0:0:0:0:
383,60,48181,6,0,L|372:209,1,120.000004577637,12|0,0:0|0:0,0:0:0:0:
116,361,48384,2,0,L|127:212,1,120.000004577637,2|0,0:0|0:0,0:0:0:0:
484,307,48586,2,0,L|335:296,1,120.000004577637,12|0,0:0|0:0,0:0:0:0:
13,112,48789,6,0,L|162:123,1,120.000004577637,2|0,0:0|0:0,0:0:0:0:
484,307,48992,2,0,L|335:296,1,120.000004577637,10|0,0:0|0:0,0:0:0:0:
19,333,49195,5,2,0:0:0:0:
203,297,49296,1,2,0:0:0:0:
116,361,49397,2,0,L|127:212,1,120.000004577637,8|0,0:0|0:0,0:0:0:0:
383,60,49600,5,2,0:0:0:0:
484,307,49803,5,2,0:0:0:0:
431,198,49904,1,2,0:0:0:0:
316,158,50005,1,2,0:0:0:0:
206,211,50107,1,2,0:0:0:0:
91,171,50208,1,2,0:0:0:0:
38,62,50309,1,2,0:0:0:0:
383,60,50411,6,0,L|442:55,1,60,4|0,0:0|0:0,0:0:0:0:
38,62,51222,6,0,L|34:106,3,40,2|0|0|0,0:0|0:0|0:0|0:0,0:0:0:0:
118,84,51424,2,0,L|236:74,1,80,2|0,0:0|0:0,0:0:0:0:
484,307,51627,5,2,0:0:0:0:
316,158,51728,1,2,0:0:0:0:
203,297,51830,5,2,0:0:0:0:
431,198,51931,1,2,0:0:0:0:
91,171,52032,6,0,L|75:347,1,100,2|0,0:0|0:0,0:0:0:0:
166,375,52235,2,0,P|217:379|275:350,1,100,10|0,0:0|0:0,0:0:0:0:
389,321,52438,2,0,P|435:302|484:307,1,100,2|0,0:0|0:0,0:0:0:0:
203,297,52640,2,0,L|219:121,1,100,8|0,0:0|0:0,0:0:0:0:
440,98,52843,6,0,L|424:274,1,100,2|0,0:0|0:0,0:0:0:0:
261,361,53046,1,8,0:0:0:0:
221,97,53147,6,0,L|197:361,1,200,2|0,0:0|0:0,0:0:0:0:
72,370,53451,2,0,L|88:194,1,100,8|0,0:0|0:0,0:0:0:0:
126,111,53654,6,0,P|172:92|221:97,1,100,2|0,0:0|0:0,0:0:0:0:
335,211,53857,2,0,P|384:215|429:196,1,100,12|0,0:0|0:0,0:0:0:0:
81,270,54059,1,2,0:0:0:0:
72,370,54161,1,2,0:0:0:0:
261,361,54262,2,0,L|277:185,1,100,12|0,0:0|0:0,0:0:0:0:
38,62,54465,6,0,L|22:238,1,100,2|0,0:0|0:0,0:0:0:0:
166,376,54668,2,0,P|215:380|260:361,1,100,12|0,0:0|0:0,0:0:0:0:
335,211,54870,2,0,P|380:191|429:195,1,100,2|0,0:0|0:0,0:0:0:0:
403,371,55073,2,0,L|387:195,1,100,12|0,0:0|0:0,0:0:0:0:
245,12,55276,6,0,L|235:111,1,100,2|0,0:0|0:0,0:0:0:0:
6,284,55478,2,0,B|56:317|56:317|114:303,1,120.000004577637,8|0,0:0|0:0,0:0:0:0:
335,211,55681,2,0,B|285:178|285:178|226:191,1,120.000004577637,2|2,0:0|0:0,0:0:0:0:
487,384,55884,6,0,L|471:208,1,120.000004577637,8|0,0:0|0:0,0:0:0:0:
123,87,56086,2,0,L|139:263,1,120.000004577637,2|0,0:0|0:0,0:0:0:0:
487,384,56289,2,0,L|471:208,1,120.000004577637,8|0,0:0|0:0,0:0:0:0:
6,284,56492,5,2,0:0:0:0:
133,206,56593,1,2,0:0:0:0:
250,353,56695,5,8,0:0:0:0:
377,155,56796,1,2,0:0:0:0:
487,384,56897,5,12,0:0:0:0:
6,284,57201,1,12,0:0:0:0:
512,180,57505,5,12,0:0:0:0:
123,87,57708,1,12,0:0:0:0:
123,87,58113,6,0,L|125:117,1,30,12|0,0:0|0:0,0:0:0:0:
46,51,58519,6,0,B|76:8|76:8|143:3,1,120.000004577637,2|2,0:0|0:0,0:0:0:0:
340,189,58722,2,0,L|149:205,1,120.000004577637,8|0,0:0|0:0,0:0:0:0:
419,61,58924,2,0,L|435:252,1,120.000004577637,2|2,0:0|0:0,0:0:0:0:
140,326,59127,2,0,L|124:135,1,120.000004577637,8|0,0:0|0:0,0:0:0:0:
340,189,59330,5,2,0:0:0:0:
254,322,59431,2,0,P|197:338|135:323,1,120.000004577637,2|8,0:0|0:0,0:0:0:0:
340,189,59634,2,0,P|450:195|462:305,1,240.000009155274,2|0,0:0|0:0,0:0:0:0:
140,326,59938,2,0,L|124:135,1,120.000004577637,8|0,0:0|0:0,0:0:0:0:
419,61,60140,6,0,L|435:252,1,120.000004577637,2|0,0:0|0:0,0:0:0:0:
41,189,60343,2,0,B|78:129|78:129|246:114,1,240.000009155274,8|2,0:0|0:0,0:0:0:0:
393,254,60647,1,2,0:0:0:0:
254,322,60749,2,0,L|238:131,1,120.000004577637,8|0,0:0|0:0,0:0:0:0:
496,329,60951,6,0,L|305:345,1,120.000004577637,2|0,0:0|0:0,0:0:0:0:
20,336,61154,2,0,L|211:320,1,120.000004577637,8|0,0:0|0:0,0:0:0:0:
419,61,61357,5,2,0:0:0:0:
338,147,61458,1,2,0:0:0:0:
475,248,61559,2,0,L|459:56,1,120.000004577637,8|0,0:0|0:0,0:0:0:0:
120,86,61762,6,0,L|136:278,1,120.000004577637,2|0,0:0|0:0,0:0:0:0:
140,326,61965,2,0,L|124:135,1,120.000004577637,12|0,0:0|0:0,0:0:0:0:
205,104,62168,6,0,L|221:296,1,100,2|0,0:0|0:0,0:0:0:0:
221,303,62370,2,0,L|205:111,1,100,12|0,0:0|0:0,0:0:0:0:
290,122,62573,6,0,L|298:218,1,80,2|0,0:0|0:0,0:0:0:0:
303,281,62776,2,0,L|295:185,1,80,12|0,0:0|0:0,0:0:0:0:
375,140,62978,6,0,L|383:236,1,60.0000022888184,2|0,0:0|0:0,0:0:0:0:
384,259,63181,2,0,L|376:163,1,60.0000022888184,12|0,0:0|0:0,0:0:0:0:
120,86,63384,6,0,L|136:278,1,120.000004577637,2|0,0:0|0:0,0:0:0:0:
375,140,63586,1,8,0:0:0:0:
212,203,63688,1,0,0:0:0:0:
306,320,63789,2,0,L|290:128,1,120.000004577637,2|0,0:0|0:0,0:0:0:0:
59,349,63992,5,8,0:0:0:0:
221,303,64093,1,0,0:0:0:0:
384,259,64195,2,0,L|391:355,1,60.0000022888184,4|0,0:0|0:0,0:0:0:0:
46,207,64397,5,8,0:0:0:0:
205,104,64499,1,8,0:0:0:0:
37,18,64600,1,2,0:0:0:0:
29,113,64701,1,2,0:0:0:0:
212,203,64803,1,8,0:0:0:0:
205,104,64904,1,8,0:0:0:0:
13,292,65005,6,0,B|78:354|78:354|305:319,1,320,2|2,0:0|0:0,0:0:0:0:
43,57,66019,6,0,P|75:49|111:53,1,40,8|0,0:0|0:0,0:0:0:0:
147,97,66222,2,0,P|166:95|185:89,1,40,2|0,0:0|0:0,0:0:0:0:
251,39,66424,1,8,0:0:0:0:
479,62,66627,6,0,B|414:124|414:124|187:89,1,320,2|2,0:0|0:0,0:0:0:0:
479,62,67640,6,0,P|487:94|483:130,1,40,8|0,0:0|0:0,0:0:0:0:
439,166,67843,2,0,P|441:185|447:204,1,40,2|0,0:0|0:0,0:0:0:0:
497,270,68045,1,8,0:0:0:0:
479,62,68249,5,2,0:0:0:0:
297,103,68451,6,0,L|337:106,1,40,8|0,0:0|0:0,0:0:0:0:
469,195,68654,2,0,L|430:198,1,40,2|0,0:0|0:0,0:0:0:0:
360,262,68857,5,8,0:0:0:0:
406,308,68958,1,2,0:0:0:0:
452,354,69059,6,0,L|406:351,1,40,2|0,0:0|0:0,0:0:0:0:
320,264,69262,2,0,L|366:261,1,40,8|0,0:0|0:0,0:0:0:0:
430,198,69465,1,2,0:0:0:0:
337,106,69566,1,2,0:0:0:0:
320,264,69668,1,8,0:0:0:0:
81,353,69870,6,0,L|84:307,1,40,2|0,0:0|0:0,0:0:0:0:
182,290,70073,2,0,L|179:250,1,40,8|0,0:0|0:0,0:0:0:0:
2,224,70276,1,2,0:0:0:0:
89,217,70377,1,2,0:0:0:0:
176,210,70478,2,0,L|179:256,1,40,8|0,0:0|0:0,0:0:0:0:
81,353,70681,6,0,L|35:356,1,40,2|0,0:0|0:0,0:0:0:0:
176,210,70884,2,0,L|215:207,1,40,8|0,0:0|0:0,0:0:0:0:
302,349,71086,1,2,0:0:0:0:
2,224,71289,1,8,0:0:0:0:
275,56,71492,6,0,B|337:121|337:121|302:348,1,320,2|2,0:0|0:0,0:0:0:0:
38,129,72505,6,0,P|70:137|106:133,1,40,8|0,0:0|0:0,0:0:0:0:
142,89,72708,2,0,P|161:91|180:97,1,40,2|0,0:0|0:0,0:0:0:0:
246,147,72911,1,8,0:0:0:0:
301,348,73113,6,0,B|239:283|239:283|274:56,1,320,2|2,0:0|0:0,0:0:0:0:
497,205,74127,6,0,P|465:213|429:209,1,40,8|0,0:0|0:0,0:0:0:0:
393,165,74330,2,0,P|374:167|355:173,1,40,2|0,0:0|0:0,0:0:0:0:
289,223,74533,1,8,0:0:0:0:
129,124,74735,5,2,0:0:0:0:
289,223,74938,6,0,L|286:177,1,40,8|0,0:0|0:0,0:0:0:0:
144,333,75140,2,0,L|141:379,1,40,2|0,0:0|0:0,0:0:0:0:
458,321,75343,1,8,0:0:0:0:
379,334,75444,1,2,0:0:0:0:
300,347,75546,6,0,L|303:301,1,40,0|0,0:0|0:0,0:0:0:0:
455,281,75749,2,0,L|458:327,1,40,8|0,0:0|0:0,0:0:0:0:
354,173,75951,1,2,0:0:0:0:
379,334,76053,1,2,0:0:0:0:
366,253,76154,1,8,0:0:0:0:
133,50,76357,6,0,L|87:53,1,40,2|0,0:0|0:0,0:0:0:0:
108,211,76559,6,0,L|62:214,1,40,8|0,0:0|0:0,0:0:0:0:
120,130,76762,2,0,L|74:133,1,40,2|2,0:0|0:0,0:0:0:0:
354,173,76965,5,8,0:0:0:0:
366,253,77066,1,0,0:0:0:0:
379,334,77168,6,0,L|425:331,1,40,4|0,0:0|0:0,0:0:0:0:
244,112,77370,5,8,0:0:0:0:
108,211,77472,1,8,0:0:0:0:
366,253,77573,5,8,0:0:0:0:
244,112,77674,1,8,0:0:0:0:
96,292,77776,5,2,0:0:0:0:
176,280,77877,1,2,0:0:0:0:
8,184,77978,6,0,L|20:368,1,120.000004577637,6|0,0:0|0:0,0:0:0:0:
255,267,78181,2,0,L|243:83,1,120.000004577637,12|0,0:0|0:0,0:0:0:0:
100,91,78384,6,0,L|112:275,1,120.000004577637,2|0,0:0|0:0,0:0:0:0:
373,372,78587,2,0,L|361:188,1,120.000004577637,12|0,0:0|0:0,0:0:0:0:
296,27,78789,6,0,L|112:39,1,120.000004577637,2|0,0:0|0:0,0:0:0:0:
373,372,78992,2,0,L|557:360,1,120.000004577637,12|0,0:0|0:0,0:0:0:0:
366,139,79195,6,0,L|182:151,1,120.000004577637,2|0,0:0|0:0,0:0:0:0:
365,252,79398,2,0,L|549:240,1,120.000004577637,12|0,0:0|0:0,0:0:0:0:
100,91,79600,6,0,L|112:275,1,120.000004577637,2|0,0:0|0:0,0:0:0:0:
365,252,79803,6,0,B|311:221|311:221|224:265,1,160,12|0,0:0|0:0,0:0:0:0:
12,331,80005,2,0,B|66:362|66:362|152:317,1,160,2|0,0:0|0:0,0:0:0:0:
455,37,80208,6,0,L|271:25,1,160,12|0,0:0|0:0,0:0:0:0:
12,331,80411,5,4,0:0:0:0:
295,26,81222,6,0,P|221:14|195:83,1,160,12|0,0:0|0:0,0:0:0:0:
95,141,81526,2,0,P|168:152|194:83,1,160,10|0,0:0|0:0,0:0:0:0:
15,77,81830,2,0,L|9:169,1,80,10|0,0:0|0:0,0:0:0:0:
375,120,82032,2,0,L|381:28,1,80,10|0,0:0|0:0,0:0:0:0:
15,77,82235,2,0,L|9:169,1,80,0|10,0:0|0:0,0:0:0:0:
323,322,82438,5,0,0:0:0:0:
222,264,82539,1,0,0:0:0:0:
423,265,82640,2,0,L|417:357,1,80,12|0,0:0|0:0,0:0:0:0:
123,207,82843,6,0,P|196:195|222:264,1,160,12|0,0:0|0:0,0:0:0:0:
323,322,83147,2,0,P|249:333|223:264,1,160,10|0,0:0|0:0,0:0:0:0:
423,265,83451,2,0,L|417:357,1,80,10|0,0:0|0:0,0:0:0:0:
34,308,83654,2,0,L|28:216,1,80,10|0,0:0|0:0,0:0:0:0:
221,149,83857,5,8,0:0:0:0:
322,207,83958,1,8,0:0:0:0:
142,287,84059,5,8,0:0:0:0:
177,70,84160,1,2,0:0:0:0:
423,149,84262,5,2,0:0:0:0:
322,207,84363,1,2,0:0:0:0:
221,149,84465,6,0,L|234:355,1,160,12|0,0:0|0:0,0:0:0:0:
322,207,84769,2,0,L|308:0,1,160,10|0,0:0|0:0,0:0:0:0:
90,384,85073,2,0,L|193:377,1,80,10|0,0:0|0:0,0:0:0:0:
322,207,85276,6,0,L|115:193,1,160,12|0,0:0|0:0,0:0:0:0:
311,47,85580,2,0,L|517:60,1,160,10|0,0:0|0:0,0:0:0:0:
34,308,85884,2,0,L|28:216,1,80,10|0,0:0|0:0,0:0:0:0:
483,227,86086,6,0,P|414:202|375:265,1,160,12|0,0:0|0:0,0:0:0:0:
334,358,86390,2,0,P|261:375|230:308,1,160,10|0,0:0|0:0,0:0:0:0:
162,196,86695,2,0,L|156:288,1,80,10|0,0:0|0:0,0:0:0:0:
12,66,86897,6,0,P|81:40|120:103,1,160,12|0,0:0|0:0,0:0:0:0:
162,196,87201,2,0,P|234:213|265:146,1,160,10|0,0:0|0:0,0:0:0:0:
334,34,87506,2,0,L|340:126,1,80,10|0,0:0|0:0,0:0:0:0:
1,225,87708,6,0,L|13:41,1,160,12|0,0:0|0:0,0:0:0:0:
264,145,88012,2,0,L|276:329,1,160,10|0,0:0|0:0,0:0:0:0:
179,71,88316,2,0,L|271:65,1,80,10|0,0:0|0:0,0:0:0:0:
358,377,88519,2,0,L|266:383,1,80,10|0,0:0|0:0,0:0:0:0:
179,71,88722,2,0,L|271:65,1,80,0|10,0:0|0:0,0:0:0:0:
348,229,88924,5,0,0:0:0:0:
190,219,89026,1,0,0:0:0:0:
258,65,89127,2,0,L|264:157,1,80,12|0,0:0|0:0,0:0:0:0:
155,347,89330,6,0,P|83:364|52:297,1,160,12|0,0:0|0:0,0:0:0:0:
274,304,89634,2,0,P|346:287|377:354,1,160,10|0,0:0|0:0,0:0:0:0:
110,224,89938,2,0,L|202:218,1,80,10|0,0:0|0:0,0:0:0:0:
479,279,90140,5,2,0:0:0:0:
485,358,90242,1,2,0:0:0:0:
348,229,90343,5,8,0:0:0:0:
512,152,90445,1,8,0:0:0:0:
512,152,90647,5,8,0:0:0:0:
258,65,90749,1,2,0:0:0:0:
258,65,90951,6,0,L|246:249,1,160,12|0,0:0|0:0,0:0:0:0:
281,306,91255,2,0,L|293:122,1,160,10|0,0:0|0:0,0:0:0:0:
258,65,91559,2,0,L|252:157,1,80,10|0,0:0|0:0,0:0:0:0:
405,373,91762,6,0,L|387:96,1,200,12|0,0:0|0:0,0:0:0:0:
465,79,92066,2,0,L|483:355,1,200,10|0,0:0|0:0,0:0:0:0:
405,373,92370,2,0,L|392:177,1,100,10|0,0:0|0:0,0:0:0:0:
194,44,92573,6,0,L|209:285,1,240.000009155274,12|0,0:0|0:0,0:0:0:0:
57,380,92877,2,0,L|35:50,1,240.000009155274,10|0,0:0|0:0,0:0:0:0:
194,44,93181,2,0,L|201:166,1,120.000004577637,10|0,0:0|0:0,0:0:0:0:
444,374,93384,2,0,L|298:364,1,120.000004577637,12|0,0:0|0:0,0:0:0:0:
52,296,93586,5,2,0:0:0:0:
210,284,93687,1,2,0:0:0:0:
52,296,93789,5,2,0:0:0:0:
283,214,93890,1,2,0:0:0:0:
52,296,93992,5,2,0:0:0:0:
324,365,94093,1,2,0:0:0:0:
52,296,94195,5,8,0:0:0:0:
463,200,94397,6,0,B|355:147|355:147|209:283,1,320,12|2,0:0|0:0,0:0:0:0:
367,272,94701,1,2,0:0:0:0:
188,63,94803,6,0,L|218:381,1,320,12|2,0:0|0:0,0:0:0:0:
52,296,95107,1,2,0:0:0:0:
197,161,95208,6,0,P|311:119|337:302,1,320,12|2,0:0|0:0,0:0:0:0:
283,214,95512,1,2,0:0:0:0:
453,368,95613,6,0,L|135:338,2,320,12|2|8,0:0|0:0|0:0,0:0:0:0:
52,21,96222,6,0,L|37:180,1,120.000004577637,2|0,0:0|0:0,0:0:0:0:
196,160,96424,2,0,L|211:1,1,120.000004577637,8|0,0:0|0:0,0:0:0:0:
40,140,96627,6,0,L|25:299,1,120.000004577637,2|0,0:0|0:0,0:0:0:0:
185,280,96829,2,0,L|200:121,1,120.000004577637,8|0,0:0|0:0,0:0:0:0:
52,21,97032,6,0,L|37:180,1,120.000004577637,2|2,0:0|0:0,0:0:0:0:
185,280,97235,2,0,L|200:121,1,120.000004577637,8|2,0:0|0:0,0:0:0:0:
340,21,97438,1,2,0:0:0:0:
512,306,97640,6,0,B|443:379|443:379|224:361,1,320,12|2,0:0|0:0,0:0:0:0:
28,259,97945,1,2,0:0:0:0:
254,42,98046,6,0,L|224:360,1,320,12|2,0:0|0:0,0:0:0:0:
118,150,98350,1,2,0:0:0:0:
451,215,98451,6,0,P|312:265|245:135,1,320,12|2,0:0|0:0,0:0:0:0:
353,162,98755,1,2,0:0:0:0:
98,358,98857,6,0,L|128:40,1,320,12|2,0:0|0:0,0:0:0:0:
446,380,99262,6,0,L|287:365,1,120.000004577637,8|0,0:0|0:0,0:0:0:0:
108,247,99465,2,0,L|267:232,1,120.000004577637,2|0,0:0|0:0,0:0:0:0:
462,95,99668,6,0,L|447:254,1,120.000004577637,8|0,0:0|0:0,0:0:0:0:
216,355,99870,2,0,L|231:196,1,120.000004577637,2|0,0:0|0:0,0:0:0:0:
450,214,100073,6,0,L|435:373,1,120.000004577637,8|0,0:0|0:0,0:0:0:0:
227,235,100276,2,0,L|242:76,1,120.000004577637,2|0,0:0|0:0,0:0:0:0:
462,95,100478,2,0,L|447:254,1,120.000004577637,8|0,0:0|0:0,0:0:0:0:
98,358,100681,5,2,0:0:0:0:
30,48,100884,6,0,P|167:-10|232:134,1,320,12|2,0:0|0:0,0:0:0:0:
357,307,101188,1,2,0:0:0:0:
450,214,101289,6,0,L|132:244,1,320,12|2,0:0|0:0,0:0:0:0:
5,368,101593,1,2,0:0:0:0:
130,96,101695,6,0,B|227:20|227:20|401:110,1,320,12|2,0:0|0:0,0:0:0:0:
450,214,101999,1,2,0:0:0:0:
237,115,102100,5,12,0:0:0:0:
237,115,102201,1,2,0:0:0:0:
237,115,102303,6,0,L|252:274,1,120.000004577637,2|0,0:0|0:0,0:0:0:0:
477,313,102505,2,0,P|406:266|344:402,1,240.000009155274,12|2,0:0|0:0,0:0:0:0:
237,115,102809,1,2,0:0:0:0:
477,313,102911,6,0,L|462:154,1,120.000004577637,12|0,0:0|0:0,0:0:0:0:
131,244,103113,2,0,L|146:403,1,120.000004577637,2|2,0:0|0:0,0:0:0:0:
248,234,103316,5,8,0:0:0:0:
20,203,103418,1,2,0:0:0:0:
20,203,103620,5,2,0:0:0:0:
401,110,103722,1,8,0:0:0:0:
401,110,103924,6,0,L|242:95,1,120.000004577637,2|0,0:0|0:0,0:0:0:0:
20,203,104127,2,0,P|91:175|146:313,1,240.000009155274,8|2,0:0|0:0,0:0:0:0:
248,234,104431,5,2,0:0:0:0:
86,380,104532,2,0,L|245:365,1,120.000004577637,8|0,0:0|0:0,0:0:0:0:
446,200,104735,6,0,L|287:185,1,120.000004577637,2|0,0:0|0:0,0:0:0:0:
20,203,104938,2,0,P|91:175|146:313,1,240.000009155274,8|2,0:0|0:0,0:0:0:0:
248,234,105242,5,2,0:0:0:0:
86,380,105343,2,0,L|245:365,1,120.000004577637,8|0,0:0|0:0,0:0:0:0:
491,290,105546,6,0,L|332:275,1,120.000004577637,2|0,0:0|0:0,0:0:0:0:
20,203,105749,2,0,P|91:175|146:313,1,240.000009155274,8|2,0:0|0:0,0:0:0:0:
248,234,106053,5,2,0:0:0:0:
86,380,106154,2,0,L|245:365,1,120.000004577637,8|0,0:0|0:0,0:0:0:0:
401,110,106357,6,0,L|242:95,1,120.000004577637,4|0,0:0|0:0,0:0:0:0:
20,203,106559,5,8,0:0:0:0:
248,234,106661,1,8,0:0:0:0:
111,135,106762,5,8,0:0:0:0:
158,294,106863,1,8,0:0:0:0:
202,66,106965,5,2,0:0:0:0:
20,203,107066,1,8,0:0:0:0:
362,249,107168,6,0,L|374:405,1,120,4|0,0:0|0:0,0:0:0:0:
242,310,107573,1,10,0:0:0:0:
362,249,107776,1,2,0:0:0:0:
158,181,107877,6,0,L|275:172,1,80,8|0,0:0|0:0,0:0:0:0:
397,70,108181,6,0,L|400:109,1,40,2|0,0:0|0:0,0:0:0:0:
474,174,108384,2,0,L|470:213,1,40,8|0,0:0|0:0,0:0:0:0:
488,302,108586,1,2,0:0:0:0:
238,322,108789,6,0,L|250:166,1,120,4|0,0:0|0:0,0:0:0:0:
358,383,109194,1,8,0:0:0:0:
238,322,109397,1,2,0:0:0:0:
441,254,109499,6,0,L|324:245,1,80,8|0,0:0|0:0,0:0:0:0:
115,70,109803,6,0,L|112:109,1,40,2|0,0:0|0:0,0:0:0:0:
38,174,110006,2,0,L|42:213,1,40,8|0,0:0|0:0,0:0:0:0:
24,302,110208,1,2,0:0:0:0:
434,94,110411,5,4,0:0:0:0:
362,5,110613,1,2,0:0:0:0:
275,82,110816,1,8,0:0:0:0:
188,159,111019,1,2,0:0:0:0:
151,114,111120,1,2,0:0:0:0:
114,69,111222,6,0,L|111:108,1,40,0|0,0:0|0:0,0:0:0:0:
38,174,111424,2,0,L|42:213,1,40,2|0,0:0|0:0,0:0:0:0:
24,302,111627,1,8,0:0:0:0:
79,368,111830,1,2,0:0:0:0:
152,325,112032,5,4,0:0:0:0:
262,249,112235,6,0,L|301:246,1,40,2|2,0:0|0:0,0:0:0:0:
424,330,112438,2,0,L|385:333,1,40,8|0,0:0|0:0,0:0:0:0:
152,325,112640,1,0,0:0:0:0:
152,325,112742,1,0,0:0:0:0:
152,325,112843,1,4,0:0:0:0:
146,237,113046,1,2,0:0:0:0:
138,149,113249,6,0,L|177:146,1,40,0|0,0:0|0:0,0:0:0:0:
424,330,113451,5,8,0:0:0:0:
262,249,113553,1,8,0:0:0:0:
401,50,113654,6,0,L|413:206,1,120,4|0,0:0|0:0,0:0:0:0:
411,170,114059,1,8,0:0:0:0:
262,249,114262,1,2,0:0:0:0:
423,329,114363,6,0,L|414:211,1,80,8|0,0:0|0:0,0:0:0:0:
152,325,114668,6,0,L|148:282,1,40,2|0,0:0|0:0,0:0:0:0:
262,249,114870,2,0,L|259:209,1,40,8|0,0:0|0:0,0:0:0:0:
62,158,115073,1,2,0:0:0:0:
268,328,115276,6,0,L|256:172,1,120,4|0,0:0|0:0,0:0:0:0:
259,209,115681,1,8,0:0:0:0:
408,130,115884,1,2,0:0:0:0:
247,50,115985,6,0,L|256:167,1,80,8|0,0:0|0:0,0:0:0:0:
108,288,116289,6,0,L|151:284,1,40,2|2,0:0|0:0,0:0:0:0:
219,211,116491,2,0,L|259:208,1,40,8|0,0:0|0:0,0:0:0:0:
368,319,116695,1,2,0:0:0:0:
147,284,116897,5,4,0:0:0:0:
271,369,117100,1,2,0:0:0:0:
26,345,117303,1,8,0:0:0:0:
119,185,117505,1,2,0:0:0:0:
147,284,117607,1,2,0:0:0:0:
23,210,117708,6,0,L|20:170,1,40,2|0,0:0|0:0,0:0:0:0:
88,46,117911,2,0,L|91:86,1,40,2|0,0:0|0:0,0:0:0:0:
147,284,118113,5,8,0:0:0:0:
23,210,118215,1,2,0:0:0:0:
23,210,118418,5,2,0:0:0:0:
311,135,118519,1,12,0:0:0:0:
311,135,118722,6,0,L|308:175,1,40,2|0,0:0|0:0,0:0:0:0:
381,320,118924,2,0,L|383:280,1,40,8|0,0:0|0:0,0:0:0:0:
445,200,119127,5,2,0:0:0:0:
254,276,119228,1,2,0:0:0:0:
492,355,119330,2,0,L|497:275,1,80,4|0,0:0|0:0,0:0:0:0:
212,187,119532,5,8,0:0:0:0:
497,275,119634,1,8,0:0:0:0:
178,382,119735,5,8,0:0:0:0:
351,51,119836,1,8,0:0:0:0:
17,210,119938,1,2,0:0:0:0:
383,279,120039,1,2,0:0:0:0:
127,10,120140,6,0,L|-28:36,1,120.000004577637,4|0,0:0|0:0,0:0:0:0:
49,367,120343,2,0,L|204:341,1,120.000004577637,8|0,0:0|0:0,0:0:0:0:
383,279,120546,5,2,0:0:0:0:
212,187,120647,1,2,0:0:0:0:
435,80,120749,2,0,L|447:236,1,120.000004577637,8|0,0:0|0:0,0:0:0:0:
307,352,120951,6,0,L|294:195,1,120.000004577637,2|0,0:0|0:0,0:0:0:0:
435,80,121154,2,0,L|447:236,1,120.000004577637,8|0,0:0|0:0,0:0:0:0:
167,347,121357,5,2,0:0:0:0:
383,279,121458,1,2,0:0:0:0:
39,247,121559,2,0,L|51:403,1,120.000004577637,8|0,0:0|0:0,0:0:0:0:
307,352,121762,6,0,L|294:195,1,120.000004577637,2|0,0:0|0:0,0:0:0:0:
29,127,121965,2,0,L|42:284,1,120.000004577637,8|0,0:0|0:0,0:0:0:0:
287,112,122168,5,2,0:0:0:0:
167,347,122269,1,2,0:0:0:0:
209,183,122370,5,8,0:0:0:0:
383,279,122471,1,2,0:0:0:0:
48,366,122573,6,0,L|36:210,1,120.000004577637,2|0,0:0|0:0,0:0:0:0:
287,112,122776,2,0,L|300:269,1,120.000004577637,8|0,0:0|0:0,0:0:0:0:
20,8,122978,5,2,0:0:0:0:
287,112,123080,1,2,0:0:0:0:
38,246,123181,2,0,L|25:89,1,120.000004577637,8|0,0:0|0:0,0:0:0:0:
366,339,123384,5,2,0:0:0:0:
512,53,123586,6,0,B|459:18|459:18|355:43,1,160,8|0,0:0|0:0,0:0:0:0:
296,231,123789,2,0,P|371:244|417:183,1,160,2|2,0:0|0:0,0:0:0:0:
165,64,123992,2,0,P|240:51|286:111,1,160,8|0,0:0|0:0,0:0:0:0:
366,339,124195,6,0,L|21:368,1,320,2|8,0:0|0:0,0:0:0:0:
24,86,124499,2,0,L|37:245,1,160,2|2,0:0|0:0,0:0:0:0:
207,352,124701,1,2,0:0:0:0:
296,231,124803,2,0,L|455:218,1,160,8|0,0:0|0:0,0:0:0:0:
24,86,125005,6,0,L|37:245,1,160,2|0,0:0|0:0,0:0:0:0:
296,231,125208,2,0,L|283:72,1,160,8|0,0:0|0:0,0:0:0:0:
47,365,125411,2,0,L|219:350,1,160,2|0,0:0|0:0,0:0:0:0:
512,309,125613,6,0,P|469:247|397:268,1,160,12|0,0:0|0:0,0:0:0:0:
206,351,125816,2,0,P|78:318|136:165,1,320,4|8,0:0|0:0,0:0:0:0:
289,151,126120,6,0,L|302:310,1,160,2|2,0:0|0:0,0:0:0:0:
120,170,126323,1,2,0:0:0:0:
466,72,126424,6,0,L|472:151,2,80,8|4|8,0:0|0:0|0:0,0:0:0:0:
282,71,126931,1,0,0:0:0:0:
472,151,127033,5,2,0:0:0:0:
431,317,127134,1,2,0:0:0:0:
389,232,127235,6,0,L|382:152,1,80,8|0,0:0|0:0,0:0:0:0:
511,309,127438,2,0,L|431:315,1,80,2|0,0:0|0:0,0:0:0:0:
126,249,127640,6,0,L|119:169,1,80,8|0,0:0|0:0,0:0:0:0:
268,339,127843,2,0,L|188:345,1,80,2|2,0:0|0:0,0:0:0:0:
39,176,128046,2,0,L|118:169,1,80,8|0,0:0|0:0,0:0:0:0:
432,315,128249,6,0,P|295:311|276:195,2,240.000009155274,2|8|2,0:0|0:0|0:0,0:0:0:0:
265,229,128755,1,2,0:0:0:0:
354,119,128857,2,0,L|367:278,1,120.000004577637,8|0,0:0|0:0,0:0:0:0:
48,295,129059,6,0,L|35:136,1,120.000004577637,2|0,0:0|0:0,0:0:0:0:
354,119,129262,2,0,L|367:278,1,120.000004577637,8|0,0:0|0:0,0:0:0:0:
28,54,129465,5,2,0:0:0:0:
126,249,129566,1,2,0:0:0:0:
264,109,129668,2,0,L|105:96,1,120.000004577637,8|0,0:0|0:0,0:0:0:0:
270,332,129870,6,0,L|429:319,1,120.000004577637,2|0,0:0|0:0,0:0:0:0:
499,192,130073,2,0,L|340:205,1,120.000004577637,12|0,0:0|0:0,0:0:0:0:
270,332,130276,2,0,L|429:319,1,120.000004577637,2|0,0:0|0:0,0:0:0:0:
487,14,130478,1,8,0:0:0:0:
493,103,130580,1,0,0:0:0:0:
499,192,130681,6,0,L|512:351,1,120.000004577637,2|0,0:0|0:0,0:0:0:0:
260,212,130884,2,0,L|247:53,1,120.000004577637,8|0,0:0|0:0,0:0:0:0:
509,312,131086,5,2,0:0:0:0:
260,212,131188,1,2,0:0:0:0:
367,4,131289,2,0,L|486:13,1,120.000004577637,8|2,0:0|0:0,0:0:0:0:
270,332,131492,6,0,L|150:322,1,120.000004577637,2|0,0:0|0:0,0:0:0:0:
34,130,131695,6,0,P|107:101|179:134,1,160,12|0,0:0|0:0,0:0:0:0:
270,332,131897,2,0,P|342:361|413:329,1,160,2|2,0:0|0:0,0:0:0:0:
105,200,132100,2,0,L|92:359,1,160,12|0,0:0|0:0,0:0:0:0:
486,13,132303,5,4,0:0:0:0:
34,130,132505,5,8,0:0:0:0:
258,211,132607,1,8,0:0:0:0:
91,359,132708,5,8,0:0:0:0:
105,200,132809,1,8,0:0:0:0:
405,343,132911,5,2,0:0:0:0:
270,332,133012,1,2,0:0:0:0:
405,343,133113,6,0,L|418:184,1,120.000004577637,4|0,0:0|0:0,0:0:0:0:
249,92,133316,2,0,L|262:251,1,120.000004577637,12|0,0:0|0:0,0:0:0:0:
414,223,133519,6,0,L|427:64,1,120.000004577637,2|0,0:0|0:0,0:0:0:0:
258,211,133722,2,0,L|271:370,1,120.000004577637,12|0,0:0|0:0,0:0:0:0:
484,17,133924,6,0,L|325:30,1,120.000004577637,2|0,0:0|0:0,0:0:0:0:
129,101,134127,2,0,L|288:88,1,120.000004577637,12|0,0:0|0:0,0:0:0:0:
512,216,134330,6,0,L|353:229,1,120.000004577637,2|0,0:0|0:0,0:0:0:0:
148,340,134532,2,0,L|307:327,1,120.000004577637,12|0,0:0|0:0,0:0:0:0:
512,384,134735,5,4,0:0:0:0:
256,192,135140,12,4,137852,0:0:0:0:
