osu file format v14

[General]
AudioFilename: audio.mp3
AudioLeadIn: 0
PreviewTime: 79621
Countdown: 0
SampleSet: Soft
StackLeniency: 0.7
Mode: 2
LetterboxInBreaks: 0
WidescreenStoryboard: 0

[Editor]
DistanceSpacing: 0.9
BeatDivisor: 3
GridSize: 32
TimelineZoom: 3.699999

[Metadata]
Title:DVP
TitleUnicode:DVP
Artist:PUP
ArtistUnicode:PUP
Creator:Jemzuu
Version:YUH
Source:osu!
Tags:ajamez jbhyperion jbh hyperion nelly ataraxia featured artist fa the dream is over english indie punk rock
BeatmapID:2420076
BeatmapSetID:1159828

[Difficulty]
HPDrainRate:7
CircleSize:3
OverallDifficulty:9.8
ApproachRate:9.8
SliderMultiplier:1.6
SliderTickRate:1

[Events]
//Background and Video events
0,0,"yuh.jpg",0,0
//Break Periods
//Storyboard Layer 0 (Background)
//Storyboard Layer 1 (Fail)
//Storyboard Layer 2 (Pass)
//Storyboard Layer 3 (Foreground)
//Storyboard Layer 4 (Overlay)
//Storyboard Sound Samples

[TimingPoints]
62,202.702702702703,4,2,10,80,1,0
1039,-100,4,2,10,80,0,0
13034,201.342281879195,4,2,10,80,1,0
13175,-100,4,2,1,40,0,0
13586,-100,4,2,1,50,0,0
13787,-100,4,2,10,60,0,0
13991,-100,4,2,1,80,0,0
14192,-100,4,2,2,70,0,0
14595,-100,4,2,10,80,0,0
14810,-100,4,2,1,80,0,0
15400,-100,4,2,10,80,0,0
15450,206.896551724138,4,2,1,80,1,0
16277,202.702702702703,4,2,10,80,1,0
26006,-83.3333333333333,4,2,10,80,0,0
26172,-83.3333333333333,4,2,10,80,0,0
26375,-83.3333333333333,4,2,10,80,0,0
26578,-83.3333333333333,4,2,10,80,0,0
26780,-83.3333333333333,4,2,10,80,0,0
26980,-83.3333333333333,4,2,10,80,0,0
27180,-83.3333333333333,4,2,10,80,0,0
27580,-83.3333333333333,4,2,10,80,0,0
27628,-100,4,2,10,80,0,0
29202,-100,4,2,11,60,0,0
32290,-100,4,2,11,80,0,0
37920,-100,4,2,11,60,0,0
38126,-100,4,2,11,80,0,0
40601,200.66889632107,4,2,10,80,1,0
41354,-100,4,2,10,60,0,0
41559,-100,4,2,10,80,0,0
42206,202.702702702703,4,2,10,80,1,0
42206,-83.3333333333333,4,2,10,80,0,0
42372,-83.3333333333333,4,2,10,80,0,0
42777,-83.3333333333333,4,2,10,80,0,0
43182,-83.3333333333333,4,2,10,80,0,0
43588,-83.3333333333333,4,2,10,80,0,0
43993,-83.3333333333333,4,2,10,80,0,0
44638,-100,4,2,10,80,0,0
44809,-100,4,2,2,80,0,0
45415,-100,4,2,10,80,0,0
49690,-100,4,2,1,80,0,0
50298,-100,4,2,10,80,0,0
51119,-100,4,2,2,80,0,0
51124,260.869565217391,4,2,10,80,1,0
51325,-100,4,2,10,80,0,0
51384,193.548387096774,4,2,10,80,1,0
51917,-100,4,2,10,80,0,0
51964,202.702702702703,4,2,10,80,1,0
56788,-100,4,2,2,80,0,0
57599,-100,4,2,1,80,0,0
57798,-100,4,2,10,80,0,0
58005,-100,4,2,1,80,0,0
58203,-100,4,2,10,80,0,0
61651,-100,4,1,10,80,0,0
61693,-83.3333333333333,4,1,10,80,0,0
61853,-83.3333333333333,4,2,10,80,0,0
62056,-83.3333333333333,4,2,10,80,0,0
62259,-83.3333333333333,4,2,10,80,0,0
62461,-83.3333333333333,4,2,10,80,0,0
62662,-83.3333333333333,4,2,10,60,0,0
62863,-83.3333333333333,4,2,10,80,0,0
63065,-83.3333333333333,4,2,10,80,0,0
63266,-83.3333333333333,4,2,10,80,0,0
63315,-100,4,2,10,80,0,0
64126,200,4,2,10,80,1,0
64895,-100,4,2,10,60,0,0
64926,202.702702702703,4,2,10,80,1,0
65088,-100,4,2,12,60,0,0
65705,-100,4,2,10,80,0,0
73609,-100,4,2,10,60,0,0
74216,-100,4,2,10,80,0,0
77898,-83.3333333333333,4,2,10,80,0,0
78101,-83.3333333333333,4,2,10,80,0,0
78507,-83.3333333333333,4,2,10,80,0,0
78912,-83.3333333333333,4,2,10,80,0,0
79317,-83.3333333333333,4,2,10,80,0,0
79723,-83.3333333333333,4,2,10,80,0,0
80331,-100,4,2,12,80,0,0
80597,-100,4,2,2,80,0,0
80806,-100,4,2,10,80,0,0
81125,202.702702702703,4,2,10,80,1,1
81125,-100,4,2,1,80,0,1
81175,-100,4,2,1,80,0,0
83557,206.896551724138,4,2,1,80,1,0
84384,202.702702702703,4,2,10,80,1,0
86005,200.66889632107,4,2,10,80,1,0
87610,202.702702702703,4,2,10,80,1,1
87612,-100,4,2,1,80,0,1
87660,-100,4,2,1,80,0,0
93285,-83.3333333333333,4,2,1,80,0,0
93691,-83.3333333333333,4,2,2,80,0,0
93896,-83.3333333333333,4,2,3,80,0,0
94096,-83.3333333333333,4,2,5,80,0,0
94299,-33.3333333333333,4,2,5,80,0,1
95718,-33.3333333333333,4,2,5,80,0,0
95884,-100,4,2,5,90,0,0
95895,-100,4,2,5,80,0,0
97542,-33.3333333333333,4,2,5,80,0,1
98961,-33.3333333333333,4,2,5,80,0,0
99128,-100,4,2,5,80,0,0
100582,206.896551724138,4,2,5,80,1,0
100749,-100,4,2,10,80,0,0
100788,-33.3333333333333,4,2,5,80,0,1
102237,202.702702702703,4,2,5,80,1,0
102842,-100,4,2,10,80,0,0
103013,-100,4,2,5,80,0,0
103813,-100,4,2,1,80,0,0
103908,-100,4,2,5,80,0,0
105423,-100,4,2,5,80,0,0
105823,-100,4,2,5,80,0,0
106235,-100,4,2,10,80,0,0
107045,-100,4,2,7,80,0,0
107451,-100,4,2,10,80,0,0
108419,-83.3333333333333,4,2,10,80,0,0
109737,-100,4,2,10,80,0,0
112372,213.523131672598,4,2,10,80,1,0
112799,202.702702702703,4,2,10,80,1,0
113204,192.926045016077,4,2,10,80,1,0
113589,202.702702702703,4,2,10,80,1,0
115210,-83.3333333333333,4,2,10,80,0,0
115580,-100,4,2,10,80,0,0
119467,196.078431372549,4,2,10,80,1,0
119653,-100,4,2,1,80,0,0
120009,-100,4,2,4,90,0,0
120055,202.702702702703,4,2,4,90,1,0
120830,-100,4,2,4,80,0,0
131569,-100,4,2,4,100,0,0
132177,-100,4,2,10,80,0,0
132993,-83.3333333333333,4,2,10,80,0,0
133027,205.831903945111,4,2,10,80,1,0
133027,-83.3333333333333,4,2,10,80,0,0
133198,-83.3333333333333,4,2,10,100,0,0
133609,-83.3333333333333,4,2,10,100,0,0
134020,-83.3333333333333,4,2,10,80,0,0
134428,-83.3333333333333,4,2,10,80,0,0
134467,243.90243902439,4,2,10,80,1,0
134705,-100,4,2,10,80,0,0
134711,250,4,2,10,80,1,0
135461,262.008733624454,4,2,10,80,1,0
135985,284.36018957346,4,2,10,80,1,0
136553,312.5,4,2,10,80,1,0
137178,286.396181384248,4,2,10,80,1,0
137750,-100,4,2,10,80,0,1
137822,-100,4,2,10,50,0,0
138323,-100,4,2,10,45,0,0
139469,-100,4,2,10,40,0,0
140614,-100,4,2,10,35,0,0
141760,-100,4,2,10,30,0,0
142905,-100,4,2,10,20,0,0
144051,-100,4,2,10,15,0,0
145197,-100,4,2,10,10,0,0
145626,-100,4,2,10,5,0,0

[Colours]
Combo1 : 192,192,192
Combo2 : 0,128,128
Combo3 : 255,174,255

[HitObjects]
283,311,62,6,0,L|447:293,1,160,12|0,0:1|0:0,0:0:0:0:
228,173,366,2,0,L|68:189,1,160,8|0,0:0|0:0,0:0:0:0:
291,229,670,2,0,P|313:178|297:131,1,80,8|0,0:0|0:0,0:0:0:0:
110,73,872,2,0,L|193:64,2,80,8|0|2,0:2|0:0|0:0,0:0:0:0:
308,41,1176,2,0,L|404:46,2,80,8|2|2,0:0|0:0|0:0,0:0:0:0:
123,60,1480,1,8,0:0:0:0:
314,58,1582,1,0,0:2:0:0:
119,190,1683,6,0,P|55:223|69:309,1,160,12|0,1:2|0:0,0:0:0:0:
274,352,1987,2,0,L|449:326,1,160,8|0,0:0|0:0,0:0:0:0:
242,241,2291,2,0,L|227:154,1,80,8|0,0:0|0:0,0:0:0:0:
428,93,2494,2,0,L|332:87,2,80,8|0|2,0:0|0:0|0:0,0:0:0:0:
252,62,2798,1,8,0:0:0:0:
433,189,2899,2,0,L|348:210,1,80,2|2,0:0|0:0,0:0:0:0:
180,340,3102,1,8,0:0:0:0:
351,232,3203,1,0,0:0:0:0:
167,316,3305,6,0,L|13:250,1,160,8|0,1:0|0:0,0:0:0:0:
231,67,3609,2,0,L|243:244,1,160,8|0,0:0|0:0,0:0:0:0:
454,248,3913,2,0,L|465:165,1,80,8|0,0:0|0:0,0:0:0:0:
245,132,4116,2,0,L|258:33,1,80,10|0,0:0|0:0,0:0:0:0:
356,36,4318,1,2,0:0:0:0:
133,93,4420,2,0,L|147:177,1,80,10|2,0:0|0:0,0:0:0:0:
252,156,4622,1,0,0:0:0:0:
37,198,4724,1,10,0:0:0:0:
221,290,4825,1,2,0:0:0:0:
426,321,4926,6,0,L|443:151,1,160,12|0,1:2|0:0,0:0:0:0:
244,110,5230,2,0,L|409:82,1,160,8|0,0:0|0:0,0:0:0:0:
198,18,5534,2,0,L|102:30,1,80,8|2,0:0|0:0,0:0:0:0:
327,226,5737,2,0,L|417:231,2,80,8|0|8,0:0|0:0|1:2,0:0:0:0:
137,319,6041,1,8,1:2:0:0:
318,200,6143,2,0,L|234:193,1,80,8|8,1:2|1:2,0:0:0:0:
27,95,6345,2,0,L|140:87,1,80,8|8,1:2|1:2,0:0:0:0:
325,338,6548,6,0,L|161:325,1,160,12|0,1:0|0:0,0:0:0:0:
398,267,6852,2,0,L|412:76,1,160,8|0,0:0|0:0,0:0:0:0:
218,38,7156,2,0,L|330:26,1,80,8|0,0:0|0:0,0:0:0:0:
107,136,7359,2,0,L|17:133,2,80,8|0|2,0:0|0:0|0:0,0:0:0:0:
292,236,7663,2,0,L|199:247,2,80,8|2|2,0:0|0:0|0:0,0:0:0:0:
480,354,7967,1,8,0:0:0:0:
291,378,8068,1,0,0:0:0:0:
481,254,8170,6,0,L|451:82,1,160,12|0,1:2|0:0,0:0:0:0:
218,38,8474,2,0,L|393:3,1,160,8|0,0:0|0:0,0:0:0:0:
170,255,8778,2,0,L|183:364,1,80,8|0,0:0|0:0,0:0:0:0:
414,301,8980,2,0,L|401:211,1,80,8|0,0:0|0:0,0:0:0:0:
303,195,9183,1,2,0:0:0:0:
110,166,9284,2,0,L|125:87,1,80,8|0,0:0|0:0,0:0:0:0:
226,65,9487,1,0,0:0:0:0:
30,42,9589,1,10,0:0:0:0:
234,83,9690,1,0,0:0:0:0:
32,68,9791,6,0,L|32:238,1,160,8|0,1:1|0:0,0:0:0:0:
245,314,10095,2,0,L|55:347,1,160,8|0,0:0|0:0,0:0:0:0:
298,199,10399,2,0,L|404:205,1,80,8|0,0:0|0:0,0:0:0:0:
181,108,10602,2,0,L|277:95,1,80,10|0,0:0|0:0,0:0:0:0:
154,68,10805,1,2,0:0:0:0:
340,17,10906,2,0,L|428:24,1,80,10|2,0:0|0:0,0:0:0:0:
232,123,11109,1,0,0:0:0:0:
426,51,11210,1,10,0:0:0:0:
241,231,11312,1,2,0:0:0:0:
41,296,11413,6,0,L|26:115,1,160,12|0,2:2|0:0,0:0:0:0:
239,97,11717,2,0,L|253:264,1,160,8|0,0:0|0:0,0:0:0:0:
51,317,12021,2,0,L|144:321,1,80,8|2,0:0|0:0,0:0:0:0:
322,176,12224,2,0,P|237:164|151:207,1,160,8|0,0:0|0:0,0:0:0:0:
405,335,12528,2,0,L|419:162,1,160,8|0,0:0|0:0,0:0:0:0:
228,69,12832,2,0,L|110:73,1,80,8|0,0:0|0:0,0:0:0:0:
370,62,13034,6,0,L|423:138,1,80,8|0,0:0|0:0,0:0:0:0:
319,154,13235,2,0,L|359:242,1,80,0|0,1:0|0:0,0:0:0:0:
248,226,13436,2,0,L|266:320,1,80,0|0,1:0|0:0,0:0:0:0:
148,297,13638,2,0,L|142:382,1,80,0|0,1:0|0:0,0:0:0:0:
384,42,13839,6,0,L|379:140,1,80,8|0,1:2|0:0,0:0:0:0:
266,148,14040,2,0,L|243:246,1,80,8|0,1:2|0:0,0:0:0:0:
117,252,14242,2,0,L|75:326,1,80,8|0,1:2|0:0,0:0:0:0:
293,366,14443,2,0,L|350:278,1,80,8|0,1:2|0:0,0:0:0:0:
51,299,14644,6,0,L|18:203,1,80,8|0,1:2|0:0,0:0:0:0:
263,215,14846,2,0,L|317:144,1,80,8|0,1:2|0:0,0:0:0:0:
75,110,15047,2,0,L|150:62,1,80,8|0,1:2|0:0,0:0:0:0:
388,51,15248,2,0,L|496:45,1,80,8|0,1:2|0:0,0:0:0:0:
179,147,15450,5,4,1:2:0:0:
493,352,15656,2,8,L|393:370,1,80,8|8,1:2|1:2,0:0:0:0:
226,296,15863,2,8,L|167:294,2,40,8|0|8,1:2|0:0|1:2,0:0:0:0:
466,106,16070,1,8,1:2:0:0:
490,136,16121,1,0,0:0:0:0:
485,175,16173,1,8,1:2:0:0:
453,198,16225,1,0,0:0:0:0:
231,193,16277,6,0,L|127:189,1,80,6|0,0:3|0:0,0:0:0:0:
351,126,16479,2,0,L|208:53,1,160,10|0,0:0|0:0,0:0:0:0:
300,42,16783,1,4,0:3:0:0:
194,207,16885,2,0,L|88:223,1,80,10|0,0:0|0:0,0:0:0:0:
294,325,17087,2,0,L|386:313,1,80,4|0,0:3|0:0,0:0:0:0:
169,296,17290,2,0,L|319:198,1,160,10|0,0:0|0:0,0:0:0:0:
213,189,17594,1,4,0:3:0:0:
414,106,17695,2,0,L|325:98,1,80,10|0,0:0|0:0,0:0:0:0:
142,98,17898,5,4,0:3:0:0:
323,45,18101,2,0,L|188:148,1,160,10|0,0:0|0:0,0:0:0:0:
281,146,18405,1,4,0:3:0:0:
173,198,18506,2,0,L|280:205,1,80,10|0,0:0|0:0,0:0:0:0:
450,170,18709,1,4,0:3:0:0:
267,375,18912,2,0,L|253:210,1,160,10|4,0:0|0:3,0:0:0:0:
161,222,19216,1,4,0:3:0:0:
253,215,19317,2,0,L|343:194,1,80,10|0,0:0|0:0,0:0:0:0:
76,56,19520,5,4,0:3:0:0:
413,38,19722,2,0,L|233:66,1,160,10|0,0:0|0:3,0:0:0:0:
242,139,20027,1,4,0:3:0:0:
332,146,20128,2,0,L|353:231,1,80,10|0,0:0|0:0,0:0:0:0:
114,149,20331,2,0,P|49:176|26:264,1,160,4|10,0:3|0:0,0:0:0:0:
223,334,20635,2,0,L|123:343,2,80,4|0|4,0:3|0:0|0:3,0:0:0:0:
415,220,20939,2,0,L|321:211,1,80,10|0,0:0|0:0,0:0:0:0:
243,244,21141,2,0,L|232:152,1,80,4|0,0:3|0:0,0:0:0:0:
461,81,21344,6,0,L|292:66,1,160,10|0,0:0|0:0,0:0:0:0:
390,36,21648,1,4,0:3:0:0:
177,78,21749,2,0,L|88:91,1,80,10|0,0:0|0:0,0:0:0:0:
330,206,21952,2,0,L|345:318,1,80,12|0,1:1|0:0,0:0:0:0:
239,331,22155,1,8,1:2:0:0:
30,14,22256,2,0,L|50:113,1,80,4|0,0:3|0:0,0:0:0:0:
225,166,22459,1,4,0:3:0:0:
30,125,22560,2,0,L|128:111,1,80,8|0,1:2|0:0,0:0:0:0:
354,114,22763,5,6,0:3:0:0:
47,348,22966,2,0,L|215:361,1,160,10|0,0:0|0:0,0:0:0:0:
125,326,23270,1,4,0:3:0:0:
222,278,23371,2,0,L|305:267,1,80,10|0,0:0|0:0,0:0:0:0:
109,113,23574,2,0,L|30:126,1,80,4|0,0:3|0:0,0:0:0:0:
229,161,23777,2,0,L|394:142,1,160,10|0,0:0|0:0,0:0:0:0:
307,113,24081,1,4,0:3:0:0:
203,44,24182,2,0,L|284:29,1,80,10|0,0:0|0:0,0:0:0:0:
486,94,24385,5,4,0:3:0:0:
305,136,24587,2,0,L|294:298,1,160,10|0,0:0|0:0,0:0:0:0:
378,313,24891,1,4,0:3:0:0:
286,319,24993,1,10,0:0:0:0:
373,336,25094,1,0,0:0:0:0:
136,358,25195,1,4,0:3:0:0:
314,133,25398,2,0,L|165:207,1,160,10|4,0:0|0:3,0:0:0:0:
256,127,25702,1,4,0:3:0:0:
48,48,25804,2,0,L|32:143,1,80,10|0,0:0|0:0,0:0:0:0:
284,352,26006,6,0,P|221:314|145:320,1,143.999995605469,6|0,0:3|0:0,0:0:0:0:
99,333,26209,2,0,L|90:209,1,95.9999970703126,10|0,0:0|0:0,0:0:0:0:
294,341,26412,6,0,P|231:303|155:309,1,143.999995605469,4|0,0:3|0:0,0:0:0:0:
109,322,26615,2,0,L|100:198,1,95.9999970703126,10|0,0:0|0:0,0:0:0:0:
303,332,26817,6,0,P|240:294|164:300,1,143.999995605469,4|0,0:3|0:0,0:0:0:0:
118,313,27020,2,0,L|109:189,1,95.9999970703126,10|0,0:0|0:0,0:0:0:0:
313,321,27223,6,0,P|250:283|174:289,1,143.999995605469,4|0,0:3|0:0,0:0:0:0:
128,302,27426,2,0,L|119:178,1,95.9999970703126,10|0,0:0|0:0,0:0:0:0:
343,203,27628,6,0,L|365:107,1,80,4|0,0:3|0:0,0:0:0:0:
255,126,27831,2,0,L|232:31,1,80,10|0,0:0|0:0,0:0:0:0:
457,224,28033,2,0,L|475:317,1,80,4|0,0:3|0:0,0:0:0:0:
221,104,28236,2,0,L|192:13,1,80,10|0,0:2|0:0,0:0:0:0:
445,40,28439,5,2,0:3:0:0:
251,148,28641,2,0,L|155:165,1,80,8|8,1:2|1:2,0:0:0:0:
418,232,28844,2,0,L|330:234,1,80,8|8,1:2|1:2,0:0:0:0:
130,293,29047,2,0,L|34:305,1,80,8|8,1:2|1:2,0:0:0:0:
279,349,29249,5,2,0:0:0:0:
100,352,29452,2,0,P|44:342|44:238,1,160,10|0,0:0|0:3,0:0:0:0:
117,225,29756,1,4,0:3:0:0:
221,211,29858,2,0,L|116:195,1,80,10|0,0:0|0:0,0:0:0:0:
37,169,30060,1,4,0:3:0:0:
317,158,30263,2,0,L|330:72,1,80,10|0,0:0|0:3,0:0:0:0:
226,71,30466,2,0,L|306:55,1,80,4|4,0:3|0:3,0:0:0:0:
400,55,30668,1,10,0:0:0:0:
116,81,30871,5,4,0:3:0:0:
307,159,31074,2,0,L|315:324,1,160,10|0,0:0|0:0,0:0:0:0:
226,329,31378,1,4,0:3:0:0:
132,315,31479,2,0,L|291:325,1,160,10|4,0:0|0:3,0:0:0:0:
14,120,31885,2,0,L|175:102,1,160,10|4,0:0|0:3,0:0:0:0:
88,56,32189,1,4,0:3:0:0:
173,102,32290,2,0,L|281:105,1,80,10|0,0:0|0:0,0:0:0:0:
470,221,32493,5,4,0:3:0:0:
298,331,32695,2,0,L|276:243,1,80,10|0,0:0|0:0,0:0:0:0:
381,225,32898,2,0,L|357:138,1,80,4|4,0:3|0:3,0:0:0:0:
151,158,33101,1,10,0:0:0:0:
338,44,33304,2,0,L|164:35,1,160,4|10,0:3|0:0,0:0:0:0:
261,28,33608,1,0,0:0:0:0:
346,48,33709,1,0,0:0:0:0:
124,193,33810,2,0,L|29:201,2,80,4|10|4,0:3|0:0|0:3,0:0:0:0:
358,351,34114,5,4,0:3:0:0:
173,271,34317,2,0,L|342:253,1,160,10|4,0:0|0:3,0:0:0:0:
241,222,34621,1,4,0:3:0:0:
344,202,34722,2,0,L|356:104,1,80,10|4,0:0|0:3,0:0:0:0:
121,80,34925,1,4,0:3:0:0:
285,38,35128,2,0,L|185:42,1,80,10|0,0:0|0:0,0:0:0:0:
405,76,35331,2,0,L|492:86,1,80,2|4,0:0|0:3,0:0:0:0:
281,101,35533,2,0,L|197:109,1,80,10|0,0:0|0:0,0:0:0:0:
424,258,35736,5,4,0:3:0:0:
247,340,35939,2,0,P|205:289|265:214,1,160,10|0,0:0|0:0,0:0:0:0:
334,205,36243,1,4,0:3:0:0:
238,175,36344,2,0,L|129:172,1,80,10|0,0:0|0:0,0:0:0:0:
375,110,36547,1,4,0:3:0:0:
190,254,36749,2,0,L|167:79,1,160,10|4,0:0|0:3,0:0:0:0:
266,83,37054,1,4,0:3:0:0:
149,45,37155,2,0,L|69:39,1,80,10|0,0:0|0:0,0:0:0:0:
306,20,37358,5,4,0:3:0:0:
129,251,37560,2,0,L|304:257,1,160,10|0,0:0|0:0,0:0:0:0:
195,301,37864,1,4,0:3:0:0:
288,256,37966,1,10,0:0:0:0:
474,232,38168,1,4,0:3:0:0:
177,282,38371,2,0,L|167:186,1,80,10|0,0:0|0:0,0:0:0:0:
276,150,38574,2,0,L|183:136,1,80,4|4,0:3|0:3,0:0:0:0:
91,135,38777,2,0,L|77:39,1,80,10|0,0:0|0:0,0:0:0:0:
285,48,38979,5,4,0:3:0:0:
102,146,39182,2,0,P|39:199|67:293,1,160,10|0,0:0|0:0,0:0:0:0:
159,315,39486,2,0,L|195:268,2,40,4|0|10,0:3|0:0|0:0,0:0:0:0:
44,238,39689,1,0,0:0:0:0:
272,173,39790,1,4,0:3:0:0:
91,57,39993,2,0,L|179:47,1,80,10|0,0:0|0:0,0:0:0:0:
256,90,40195,2,0,L|177:103,1,80,0|4,0:3|0:3,0:0:0:0:
90,131,40398,2,0,L|88:210,1,80,10|0,0:0|0:0,0:0:0:0:
322,338,40601,6,0,L|410:323,1,80,4|4,0:3|0:3,0:0:0:0:
190,235,40801,1,10,0:0:0:0:
374,157,41002,2,0,L|281:141,1,80,4|4,0:3|0:3,0:0:0:0:
396,124,41203,2,0,L|492:126,1,80,10|4,0:0|0:3,0:0:0:0:
210,54,41403,6,0,L|189:147,1,80,2|0,0:0|0:0,0:0:0:0:
292,212,41604,2,0,L|189:222,1,80,8|8,1:2|1:2,0:0:0:0:
413,295,41805,2,0,L|529:308,1,80,8|8,1:2|1:2,0:0:0:0:
309,372,42005,1,8,1:2:0:0:
120,371,42106,1,8,1:2:0:0:
348,62,42206,6,0,L|501:42,1,143.999995605469,6|0,0:3|0:0,0:0:0:0:
492,21,42408,2,0,L|382:31,1,95.9999970703126,10|0,0:0|0:0,0:0:0:0:
197,204,42611,6,0,L|350:184,1,143.999995605469,4|0,0:3|0:0,0:0:0:0:
341,163,42813,2,0,L|231:173,1,95.9999970703126,10|0,0:0|0:0,0:0:0:0:
27,98,43016,6,0,L|180:78,1,143.999995605469,4|0,0:3|0:0,0:0:0:0:
171,57,43218,2,0,L|61:67,1,95.9999970703126,10|0,0:0|0:0,0:0:0:0:
296,309,43422,6,0,L|143:289,1,143.999995605469,4|0,0:3|0:0,0:0:0:0:
152,268,43624,2,0,L|262:278,1,95.9999970703126,10|0,0:0|0:0,0:0:0:0:
464,188,43827,6,0,L|311:168,1,143.999995605469,4|0,0:3|0:0,0:0:0:0:
320,147,44029,2,0,L|430:157,1,95.9999970703126,10|0,0:0|0:0,0:0:0:0:
195,40,44233,2,0,L|89:80,1,95.9999970703126,4|0,0:3|0:0,0:0:0:0:
339,305,44435,2,0,L|234:272,1,95.9999970703126,10|0,0:0|0:0,0:0:0:0:
43,306,44638,6,0,L|48:202,1,80,2|0,0:3|0:0,0:0:0:0:
151,185,44841,2,0,L|252:174,1,80,8|4,0:3|0:3,0:0:0:0:
21,107,45043,2,0,L|123:94,1,80,8|8,1:2|1:2,0:0:0:0:
311,42,45246,1,8,1:2:0:0:
100,73,45347,1,8,1:2:0:0:
320,63,45449,6,0,L|419:64,1,80,6|0,0:3|0:0,0:0:0:0:
203,93,45651,2,0,L|188:258,1,160,10|0,0:0|0:0,0:0:0:0:
278,322,45956,1,4,0:3:0:0:
192,308,46057,1,10,0:0:0:0:
107,282,46158,1,0,0:0:0:0:
344,262,46260,1,4,0:3:0:0:
41,363,46462,6,0,L|29:195,1,160,10|4,0:0|0:3,0:0:0:0:
146,159,46766,1,4,0:3:0:0:
64,117,46868,1,10,0:0:0:0:
147,91,46969,1,0,0:0:0:0:
370,78,47070,1,4,0:3:0:0:
82,28,47273,6,0,L|247:23,1,160,10|0,0:0|0:0,0:0:0:0:
154,64,47577,1,4,0:3:0:0:
360,110,47678,2,0,L|371:204,1,80,10|0,0:0|0:0,0:0:0:0:
262,201,47881,2,0,L|246:285,1,80,4|0,0:3|0:0,0:0:0:0:
455,349,48084,2,0,L|356:360,1,80,10|0,0:0|0:0,0:0:0:0:
476,318,48287,2,0,L|487:231,1,80,4|4,0:3|0:3,0:0:0:0:
278,105,48489,2,0,L|165:109,1,80,10|0,0:0|0:0,0:0:0:0:
434,51,48692,5,4,0:3:0:0:
134,32,48895,2,0,L|128:217,1,160,10|0,0:0|0:0,0:0:0:0:
215,230,49199,1,4,0:3:0:0:
306,248,49300,1,10,0:0:0:0:
400,256,49401,1,0,0:0:0:0:
134,346,49503,5,10,0:0:0:0:
332,145,49706,2,0,L|217:133,1,80,8|8,0:3|0:3,0:0:0:0:
139,84,49908,2,0,L|40:97,1,80,4|4,0:3|0:3,0:0:0:0:
280,34,50111,2,0,L|359:36,1,80,4|4,0:3|0:3,0:0:0:0:
39,184,50314,6,0,B|26:342|26:342|43:151,1,320,6|2,0:3|0:0,0:0:0:0:
345,72,51124,1,4,0:3:0:0:
393,76,51189,1,4,0:3:0:0:
424,114,51254,1,4,0:3:0:0:
394,165,51319,1,4,0:3:0:0:
341,177,51384,2,0,L|252:182,2,80,4|4|4,1:3|0:3|0:3,0:0:0:0:
150,299,51674,2,0,L|62:289,1,80,8|8,1:2|1:2,0:0:0:0:
283,314,51867,1,8,1:2:0:0:
49,382,51964,6,0,L|32:220,1,160,6|10,0:0|0:0,0:0:0:0:
118,194,52268,1,0,0:0:0:0:
317,113,52369,2,0,L|306:20,1,80,0|0,0:3|0:0,0:0:0:0:
204,93,52572,2,0,L|93:103,1,80,10|0,0:0|0:0,0:0:0:0:
327,206,52774,6,0,L|338:305,1,80,4|0,0:3|0:0,0:0:0:0:
239,316,52977,1,10,0:0:0:0:
455,265,53078,2,0,L|466:364,1,80,4|0,0:3|0:0,0:0:0:0:
367,375,53281,1,4,0:3:0:0:
144,213,53382,2,0,L|236:206,1,80,10|0,0:0|0:0,0:0:0:0:
449,135,53585,5,4,0:3:0:0:
251,129,53788,2,0,L|240:310,1,160,10|0,0:0|0:0,0:0:0:0:
324,307,54092,1,4,0:3:0:0:
222,340,54193,2,0,L|311:358,1,80,10|0,0:0|0:0,0:0:0:0:
75,262,54396,5,4,0:3:0:0:
268,150,54599,2,0,L|95:138,1,160,10|4,0:0|0:3,0:0:0:0:
194,100,54903,1,4,0:3:0:0:
94,66,55004,2,0,L|10:73,1,80,10|0,0:0|0:0,0:0:0:0:
288,35,55207,1,4,0:1:0:0:
17,277,55409,6,0,L|200:295,1,160,12|4,0:0|0:3,0:0:0:0:
92,247,55714,1,4,0:3:0:0:
299,208,55815,2,0,L|393:189,1,80,10|0,0:2|0:3,0:0:0:0:
162,168,56018,2,0,L|142:75,1,80,4|4,0:3|0:3,0:0:0:0:
384,353,56220,2,0,L|399:266,1,80,10|0,0:0|0:0,0:0:0:0:
168,188,56423,2,0,L|254:171,1,80,4|4,0:3|0:3,0:0:0:0:
491,60,56626,2,0,L|393:53,1,80,8|0,0:0|0:0,0:0:0:0:
174,208,56828,6,0,L|366:157,1,160,12|0,0:0|0:0,0:0:0:0:
97,299,57132,2,0,L|283:273,1,160,12|0,0:0|0:0,0:0:0:0:
24,371,57436,2,0,L|128:375,1,80,12|0,0:0|0:0,0:0:0:0:
490,297,57639,5,12,0:0:0:0:
11,149,58045,1,12,0:0:0:0:
485,101,58450,5,6,0:3:0:0:
278,89,58653,2,0,L|265:255,1,160,12|0,0:0|0:0,0:0:0:0:
461,317,58957,2,0,L|359:332,2,80,4|10|0,0:3|0:0|0:0,0:0:0:0:
265,354,59261,2,0,L|168:342,1,80,4|4,0:3|0:3,0:0:0:0:
399,207,59464,1,10,0:0:0:0:
486,183,59565,2,0,L|315:167,1,160,0|4,0:0|0:3,0:0:0:0:
101,196,59869,6,0,L|90:117,1,80,10|0,0:0|0:0,0:0:0:0:
200,86,60072,2,0,L|297:79,1,80,4|0,0:3|0:0,0:0:0:0:
50,29,60274,2,0,L|29:192,1,160,10|0,0:0|0:0,0:0:0:0:
122,223,60578,1,4,0:3:0:0:
345,323,60680,2,0,L|255:338,1,80,10|0,0:0|0:0,0:0:0:0:
365,359,60882,2,0,L|452:374,1,80,4|0,0:3|0:0,0:0:0:0:
214,258,61085,2,0,L|390:227,1,160,10|4,0:0|0:3,0:0:0:0:
285,205,61389,1,4,0:3:0:0:
490,116,61491,2,0,L|372:109,1,80,10|0,0:0|0:0,0:0:0:0:
169,138,61693,6,0,P|215:106|312:93,1,143.999995605469,4|0,0:1|0:0,0:0:0:0:
355,106,61896,2,0,L|363:8,1,95.9999970703126,10|0,0:0|0:0,0:0:0:0:
150,159,62099,6,0,P|196:127|293:114,1,143.999995605469,4|0,0:3|0:0,0:0:0:0:
336,127,62302,2,0,L|344:29,1,95.9999970703126,10|0,0:0|0:0,0:0:0:0:
138,185,62504,6,0,P|184:153|281:140,1,143.999995605469,4|0,0:3|0:0,0:0:0:0:
324,153,62707,2,0,L|332:55,1,95.9999970703126,10|0,0:0|0:0,0:0:0:0:
125,217,62909,6,0,P|171:185|268:172,1,143.999995605469,4|0,0:3|0:0,0:0:0:0:
311,185,63112,2,0,L|319:87,1,95.9999970703126,10|0,0:0|0:0,0:0:0:0:
91,366,63315,6,0,L|72:285,1,80,4|0,0:3|0:0,0:0:0:0:
188,123,63518,2,0,L|203:34,1,80,10|0,0:0|0:0,0:0:0:0:
421,366,63720,2,0,L|440:285,1,80,4|0,0:3|0:0,0:0:0:0:
324,123,63923,2,0,L|309:34,1,80,10|0,0:0|0:0,0:0:0:0:
88,186,64126,6,0,L|177:206,1,80,6|0,0:3|0:0,0:0:0:0:
69,245,64326,2,0,L|52:207,2,40,8|0|8,1:2|0:0|1:2,0:0:0:0:
284,307,64526,1,8,1:2:0:0:
189,322,64626,2,0,L|161:263,2,40,8|0|8,1:2|0:0|1:2,0:0:0:0:
411,353,64826,1,8,1:2:0:0:
194,345,64926,5,2,0:2:0:0:
34,290,65128,2,0,L|203:234,1,160,10|0,0:0|0:0,0:0:0:0:
276,197,65432,1,4,0:3:0:0:
380,177,65534,1,10,0:0:0:0:
188,49,65736,1,4,0:3:0:0:
490,358,65939,6,0,P|425:328|317:326,1,160,10|4,0:2|0:3,0:0:0:0:
255,318,66243,1,4,0:3:0:0:
338,307,66344,1,10,0:0:0:0:
427,304,66446,1,0,0:0:0:0:
213,218,66547,5,4,0:3:0:0:
391,119,66750,2,0,L|232:111,1,160,10|0,0:0|0:0,0:0:0:0:
317,76,67054,1,4,0:3:0:0:
227,47,67155,1,10,0:0:0:0:
46,52,67358,1,4,0:3:0:0:
341,167,67561,6,0,L|352:333,1,160,10|4,0:0|0:3,0:0:0:0:
267,348,67865,1,4,0:3:0:0:
169,341,67966,1,10,0:0:0:0:
364,141,68169,1,4,0:3:0:0:
58,232,68371,6,0,L|17:58,1,160,10|4,0:0|0:3,0:0:0:0:
108,56,68676,1,4,0:3:0:0:
196,63,68777,1,10,0:0:0:0:
103,73,68878,1,4,0:3:0:0:
309,166,68980,1,4,0:3:0:0:
132,294,69182,2,0,L|40:311,2,80,8|0|4,0:0|0:0|0:3,0:0:0:0:
346,348,69486,1,4,0:3:0:0:
245,351,69588,2,0,L|228:257,1,80,10|4,0:0|0:3,0:0:0:0:
462,217,69790,5,4,0:3:0:0:
191,129,69993,2,0,L|358:74,1,160,10|0,0:0|0:0,0:0:0:0:
251,60,70297,1,4,0:3:0:0:
342,78,70398,2,0,L|435:70,1,80,10|0,0:0|0:0,0:0:0:0:
225,260,70601,2,0,L|115:272,1,80,4|0,0:3|0:0,0:0:0:0:
355,358,70804,2,0,L|455:352,1,80,10|0,0:0|0:0,0:0:0:0:
194,210,71007,2,0,L|294:201,1,80,0|4,0:0|0:3,0:0:0:0:
465,180,71209,1,10,0:0:0:0:
171,113,71412,6,0,L|156:283,1,160,4|10,0:3|0:0,0:0:0:0:
353,84,71817,1,0,0:0:0:0:
279,41,71918,1,4,0:3:0:0:
196,30,72019,1,10,0:0:0:0:
15,120,72223,1,4,0:3:0:0:
333,178,72426,6,0,L|349:349,1,160,10|4,0:0|0:3,0:0:0:0:
265,355,72730,1,4,0:3:0:0:
351,364,72831,1,10,0:0:0:0:
438,377,72932,1,0,0:0:0:0:
237,248,73034,1,4,0:3:0:0:
418,131,73236,2,0,L|259:111,1,160,10|0,0:0|0:0,0:0:0:0:
344,76,73540,1,4,0:3:0:0:
255,56,73642,1,10,0:0:0:0:
68,82,73844,1,4,0:3:0:0:
418,131,74047,6,0,L|436:303,1,160,10|4,0:0|0:3,0:0:0:0:
345,310,74351,1,4,0:3:0:0:
437,312,74453,1,10,0:0:0:0:
247,357,74655,2,0,L|148:345,1,80,4|0,0:3|0:0,0:0:0:0:
375,215,74858,2,0,L|290:208,2,80,10|0|4,0:0|0:0|0:3,0:0:0:0:
466,190,75162,2,0,L|484:147,2,40,4|0|10,0:3|0:0|0:0,0:0:0:0:
377,201,75365,1,4,0:3:0:0:
160,115,75466,6,0,L|14:220,1,160,4|10,0:3|0:0,0:0:0:0:
232,278,75770,2,0,L|250:377,1,80,4|0,0:3|0:0,0:0:0:0:
28,192,75973,2,0,L|139:184,2,80,4|10|0,0:3|0:0|0:0,0:0:0:0:
246,135,76277,1,4,0:3:0:0:
66,46,76480,2,0,P|149:13|233:19,1,160,10|4,0:0|0:3,0:0:0:0:
438,117,76784,2,0,L|344:102,1,80,4|8,0:3|0:0,0:0:0:0:
153,75,76986,1,4,0:3:0:0:
371,127,77088,5,6,0:3:0:0:
207,190,77290,2,0,L|196:284,1,80,8|8,1:2|1:2,0:0:0:0:
392,262,77493,2,0,L|486:270,1,80,8|8,1:2|1:2,0:0:0:0:
236,374,77696,2,0,L|324:362,1,80,8|8,1:2|1:2,0:0:0:0:
70,318,77898,6,0,P|123:277|211:273,1,143.999995605469,6|0,0:3|0:0,0:0:0:0:
144,233,78101,2,0,L|35:183,1,95.9999970703126,10|0,0:0|0:0,0:0:0:0:
257,170,78304,6,0,P|310:129|398:125,1,143.999995605469,4|0,0:3|0:0,0:0:0:0:
331,85,78507,2,0,L|222:35,1,95.9999970703126,10|0,0:0|0:0,0:0:0:0:
460,184,78709,6,0,P|407:225|319:229,1,143.999995605469,4|0,0:3|0:0,0:0:0:0:
386,269,78912,2,0,L|495:319,1,95.9999970703126,10|0,0:0|0:0,0:0:0:0:
257,170,79115,6,0,P|204:211|116:215,1,143.999995605469,4|0,0:3|0:0,0:0:0:0:
183,255,79318,2,0,L|292:305,1,95.9999970703126,10|0,0:0|0:0,0:0:0:0:
40,35,79520,6,0,P|93:76|181:80,1,143.999995605469,4|0,0:3|0:0,0:0:0:0:
114,120,79723,2,0,L|5:170,1,95.9999970703126,10|0,0:2|0:0,0:0:0:0:
255,200,79926,2,0,L|271:301,1,95.9999970703126,4|4,0:3|0:3,0:0:0:0:
41,348,80128,2,0,L|146:282,1,95.9999970703126,10|0,0:0|0:0,0:0:0:0:
379,360,80331,6,0,B|484:361|484:361|485:138,1,320,6|0,0:3|2:0,0:0:0:0:
259,86,80838,1,0,3:0:0:0:
374,67,80939,1,2,0:0:0:0:
147,28,81040,1,2,2:0:0:0:
399,77,81125,6,0,L|418:259,1,160,12|0,0:1|0:0,0:0:0:0:
175,318,81429,2,0,L|340:333,1,160,8|0,0:0|0:0,0:0:0:0:
107,178,81733,2,0,L|2:190,1,80,8|0,0:0|0:0,0:0:0:0:
236,154,81935,1,8,0:0:0:0:
21,151,82037,2,0,L|117:140,1,80,0|2,0:0|0:0,0:0:0:0:
294,66,82239,1,8,0:0:0:0:
95,105,82341,1,2,0:0:0:0:
305,39,82442,1,2,0:0:0:0:
88,64,82543,2,0,L|181:48,1,80,8|0,0:0|0:0,0:0:0:0:
410,86,82746,6,0,L|428:249,1,160,12|0,0:0|3:3,0:0:0:0:
193,225,83050,2,0,L|164:400,1,160,8|0,0:0|3:0,0:0:0:0:
381,368,83354,2,0,L|285:358,1,80,8|0,0:0|0:0,0:0:0:0:
88,151,83557,2,0,L|193:137,1,80,0|0,3:0|3:0,0:0:0:0:
362,100,83763,1,10,1:2:0:0:
193,58,83867,1,0,1:0:0:0:
17,208,83970,1,10,1:2:0:0:
192,267,84074,2,0,L|292:279,1,80,0|0,1:0|1:2,0:0:0:0:
22,238,84281,1,0,1:0:0:0:
299,180,84384,6,0,L|469:174,1,160,12|0,0:1|0:0,0:0:0:0:
207,344,84688,2,0,L|374:314,1,160,8|0,0:0|0:0,0:0:0:0:
104,113,84992,2,0,L|-1:108,1,80,8|0,0:0|0:0,0:0:0:0:
245,51,85194,2,0,L|254:141,1,80,14|0,0:0|0:0,0:0:0:0:
154,191,85397,1,2,0:0:0:0:
380,135,85498,2,0,L|353:235,1,80,10|2,0:0|0:0,0:0:0:0:
160,220,85701,1,0,0:0:0:0:
370,239,85802,2,0,L|483:248,1,80,10|2,0:0|0:0,0:0:0:0:
208,327,86005,6,0,L|43:355,1,160,12|0,0:2|0:0,0:0:0:0:
262,177,86306,2,0,L|88:170,1,160,8|0,0:0|0:0,0:0:0:0:
339,53,86607,2,0,L|244:48,1,80,8|2,0:0|0:0,0:0:0:0:
39,254,86807,2,0,L|134:265,2,80,8|0|0,0:0|0:0|0:0,0:0:0:0:
236,164,87108,2,0,L|329:152,1,80,8|0,0:0|0:0,0:0:0:0:
214,126,87309,1,0,0:0:0:0:
435,318,87409,2,0,L|333:326,1,80,8|2,0:0|0:0,0:0:0:0:
110,360,87610,6,0,L|43:194,1,160,12|0,0:1|0:0,0:0:0:0:
263,245,87914,2,0,L|269:64,1,160,8|0,0:0|0:0,0:0:0:0:
495,5,88218,2,0,L|407:-1,1,80,8|0,0:0|0:0,0:0:0:0:
195,21,88420,2,0,L|204:100,1,80,8|0,0:0|0:0,0:0:0:0:
410,38,88623,1,2,0:0:0:0:
194,140,88724,2,0,L|90:150,1,80,8|2,0:0|0:0,0:0:0:0:
308,223,88927,1,2,0:0:0:0:
97,188,89028,1,8,0:0:0:0:
305,260,89130,1,0,0:0:0:0:
82,224,89231,6,0,L|38:377,1,160,12|0,0:0|3:0,0:0:0:0:
301,300,89535,2,0,L|107:322,1,160,8|0,0:0|3:0,0:0:0:0:
364,384,89839,2,0,L|472:376,1,80,8|0,0:0|0:0,0:0:0:0:
217,210,90042,2,0,L|322:198,1,80,8|8,3:3|3:3,0:0:0:0:
490,135,90245,1,8,1:0:0:0:
290,156,90346,2,0,L|196:164,1,80,8|2,1:0|3:3,0:0:0:0:
398,38,90549,1,8,1:0:0:0:
218,115,90650,1,8,0:0:0:0:
27,45,90751,1,0,0:0:0:0:
270,295,90853,6,0,L|437:315,1,160,12|0,0:1|0:0,0:0:0:0:
193,89,91157,2,0,L|15:69,1,160,8|0,0:0|0:0,0:0:0:0:
262,215,91461,2,0,L|272:325,1,80,8|0,0:0|0:0,0:0:0:0:
30,289,91664,2,0,L|41:197,1,80,12|0,0:2|0:0,0:0:0:0:
252,323,91866,1,0,0:0:0:0:
25,182,91968,2,0,L|136:168,1,80,8|0,0:0|0:0,0:0:0:0:
295,111,92170,1,0,3:0:0:0:
90,142,92272,1,8,0:0:0:0:
303,72,92373,1,0,3:0:0:0:
69,110,92474,6,0,L|31:283,1,160,12|0,0:1|0:0,0:0:0:0:
244,208,92778,2,0,L|260:368,1,160,8|0,0:0|3:0,0:0:0:0:
471,367,93082,1,8,0:0:0:0:
268,347,93184,1,0,3:0:0:0:
72,342,93285,6,0,L|285:283,1,191.999994140625,4|8,0:0|1:2,0:0:0:0:
61,310,93589,1,8,1:2:0:0:
246,260,93691,1,8,1:2:0:0:
76,273,93792,1,8,1:2:0:0:
211,232,93893,1,8,1:2:0:0:
97,235,93995,1,8,1:2:0:0:
185,206,94096,1,0,3:0:0:0:
117,200,94197,1,0,3:0:0:0:
328,14,94299,6,0,L|10:393,1,480.000018310548,12|0,0:0|3:0,0:0:0:0:
103,375,94603,1,0,3:0:0:0:
363,8,94704,6,0,L|57:377,1,480.000018310548,12|0,0:0|3:0,0:0:0:0:
142,378,95008,1,0,3:0:0:0:
416,14,95110,6,0,L|110:383,1,480.000018310548,12|0,0:0|3:0,0:0:0:0:
195,384,95414,1,0,3:0:0:0:
471,14,95515,6,0,L|165:383,1,480.000018310548,12|4,0:0|3:3,0:0:0:0:
250,384,95819,1,0,0:0:0:0:
468,363,95920,6,0,L|482:194,1,160,10|0,0:0|0:2,0:0:0:0:
383,183,96224,2,0,L|290:173,1,80,2|8,3:2|0:0,0:0:0:0:
401,144,96427,1,0,0:0:0:0:
170,74,96528,2,0,L|150:189,1,80,2|0,3:2|0:0,0:0:0:0:
271,268,96731,2,0,L|287:355,1,80,10|0,0:0|0:0,0:0:0:0:
65,343,96934,2,0,L|144:322,1,80,2|0,3:2|0:0,0:0:0:0:
340,209,97137,2,0,L|223:205,1,80,10|0,0:0|0:0,0:0:0:0:
344,166,97339,2,0,L|442:166,1,80,0|0,3:0|3:0,0:0:0:0:
171,14,97542,6,0,L|489:393,1,480.000018310548,12|0,0:0|3:0,0:0:0:0:
396,375,97846,1,0,3:0:0:0:
136,8,97947,6,0,L|442:377,1,480.000018310548,12|0,0:0|3:0,0:0:0:0:
357,378,98251,1,0,3:0:0:0:
83,14,98353,6,0,L|389:383,1,480.000018310548,12|0,0:0|3:0,0:0:0:0:
304,384,98657,1,0,3:0:0:0:
28,14,98758,6,0,L|334:383,1,480.000018310548,12|4,0:0|3:3,0:0:0:0:
249,384,99062,1,0,0:0:0:0:
46,364,99164,6,0,L|29:194,1,160,10|2,0:0|3:2,0:0:0:0:
114,185,99468,1,0,0:0:0:0:
213,128,99569,2,0,L|112:121,1,80,10|0,3:2|0:0,0:0:0:0:
341,93,99772,2,0,L|430:77,1,80,2|0,3:2|0:0,0:0:0:0:
320,51,99974,2,0,L|207:42,1,80,10|0,0:0|0:0,0:0:0:0:
452,164,100177,2,0,L|470:266,1,80,2|0,3:2|0:0,0:0:0:0:
232,253,100380,2,0,L|344:259,1,80,10|0,0:0|0:0,0:0:0:0:
214,342,100582,2,0,L|197:237,1,80,0|0,3:0|3:0,0:0:0:0:
442,13,100788,6,0,L|136:382,1,480.000018310548,12|0,0:0|3:0,0:0:0:0:
221,383,101099,1,0,3:0:0:0:
486,14,101202,6,0,L|180:383,1,480.000018310548,12|0,0:0|3:0,0:0:0:0:
265,384,101513,1,0,3:0:0:0:
26,14,101616,6,0,L|332:383,1,480.000018310548,12|0,0:0|3:0,0:0:0:0:
247,384,101927,1,0,3:0:0:0:
26,14,102030,6,0,L|332:383,1,480.000018310548,12|4,0:0|0:3,0:0:0:0:
134,344,102439,6,0,L|121:161,1,160,10|0,0:0|0:0,0:0:0:0:
207,149,102743,1,2,3:2:0:0:
298,134,102845,1,8,0:0:0:0:
106,78,103047,1,0,3:0:0:0:
444,49,103250,1,8,0:0:0:0:
355,52,103351,2,0,L|342:223,1,160,0|0,3:0|3:0,0:0:0:0:
134,344,103655,2,0,L|213:340,1,80,10|0,0:0|0:0,0:0:0:0:
457,313,103858,5,4,0:0:0:0:
268,129,104061,2,0,L|110:165,1,160,8|0,0:0|0:0,0:0:0:0:
196,211,104365,1,0,3:0:0:0:
281,222,104466,1,8,0:0:0:0:
101,272,104669,2,0,L|9:286,1,80,0|0,3:0|0:0,0:0:0:0:
257,300,104872,6,0,L|268:129,1,160,8|0,0:0|0:0,0:0:0:0:
180,112,105176,1,0,3:0:0:0:
86,102,105277,1,8,0:0:0:0:
280,40,105480,2,0,L|375:44,1,80,0|0,3:0|0:0,0:0:0:0:
135,238,105682,2,0,L|305:251,1,160,8|0,0:0|0:0,0:0:0:0:
208,296,105987,1,0,3:0:0:0:
308,334,106088,2,0,L|406:338,1,80,8|0,0:0|0:0,0:0:0:0:
138,367,106291,5,4,0:0:0:0:
311,200,106493,2,0,L|212:192,1,80,8|8,1:2|1:2,0:0:0:0:
53,121,106696,1,8,1:2:0:0:
228,151,106797,1,8,1:2:0:0:
416,137,106899,1,8,1:2:0:0:
226,117,107000,1,8,1:2:0:0:
474,37,107101,6,0,B|477:204|477:204|326:223,1,320,4|10,0:2|0:0,0:0:0:0:
68,357,107811,2,0,L|233:291,1,160,8|0,0:0|0:0,0:0:0:0:
39,173,108115,2,0,L|199:111,1,160,4|10,0:3|0:0,0:0:0:0:
379,100,108419,2,0,L|209:212,1,191.999994140625,4|0,0:3|0:0,0:0:0:0:
432,333,108723,6,0,B|262:274|262:274|256:68,1,383.99998828125,6|10,0:3|0:0,0:0:0:0:
39,266,109432,2,0,L|34:64,1,191.999994140625,8|0,0:0|0:0,0:0:0:0:
262,113,109737,2,0,L|119:183,1,160,4|10,0:3|0:0,0:0:0:0:
315,301,110041,2,0,L|476:217,1,160,4|0,0:3|0:0,0:0:0:0:
267,383,110345,6,0,L|252:213,1,160,6|0,0:3|0:0,0:0:0:0:
445,151,110750,2,0,L|289:107,1,160,10|0,0:0|0:0,0:0:0:0:
80,64,111054,2,0,L|74:149,1,80,8|0,0:0|0:0,0:0:0:0:
381,285,111358,2,0,L|206:228,1,160,4|10,0:3|0:0,0:0:0:0:
28,35,111662,2,0,L|198:93,1,160,4|0,0:3|0:0,0:0:0:0:
420,0,111966,6,0,L|428:177,1,160,6|4,0:3|0:3,0:0:0:0:
331,206,112270,1,4,0:3:0:0:
114,320,112372,1,10,1:2:0:0:
301,351,112585,2,0,L|401:348,1,80,0|0,1:2|1:3,0:0:0:0:
141,360,112799,2,0,L|117:186,1,160,2|4,1:2|0:3,0:0:0:0:
314,185,113103,1,4,0:3:0:0:
89,105,113204,2,0,L|255:83,1,160,10|8,0:0|1:2,0:0:0:0:
451,65,113493,1,8,1:2:0:0:
212,174,113589,6,0,B|66:231|66:231|223:275,1,320,4|10,0:0|0:0,0:0:0:0:
435,349,114298,2,0,L|256:346,1,160,8|0,0:0|0:0,0:0:0:0:
43,328,114602,2,0,L|17:160,1,160,4|10,0:3|0:0,0:0:0:0:
243,183,114906,2,0,L|271:-11,1,160,4|0,0:3|0:0,0:0:0:0:
54,51,115210,6,0,B|215:100|215:100|223:315,1,383.99998828125,6|10,0:3|0:0,0:0:0:0:
464,355,115920,2,0,L|450:158,1,160,8|0,0:0|0:0,0:0:0:0:
267,153,116224,2,0,L|435:81,1,160,4|10,0:3|0:0,0:0:0:0:
230,357,116528,2,0,L|65:300,1,160,4|0,0:3|0:0,0:0:0:0:
281,231,116832,6,0,L|292:44,1,160,6|0,0:3|0:0,0:0:0:0:
189,65,117136,1,0,0:0:0:0:
86,120,117237,2,0,L|246:133,1,160,10|0,0:0|0:0,0:0:0:0:
37,252,117541,2,0,L|130:241,2,80,8|0|0,0:0|0:0|0:0,0:0:0:0:
249,342,117845,2,0,L|424:316,1,160,4|10,0:3|0:0,0:0:0:0:
192,274,118149,2,0,L|171:89,1,160,4|0,0:3|0:0,0:0:0:0:
392,72,118453,5,6,0:3:0:0:
199,20,118656,2,0,L|291:15,1,80,0|4,0:0|0:3,0:0:0:0:
499,235,118859,2,0,L|333:220,1,160,8|0,1:2|1:0,0:0:0:0:
141,300,119163,1,0,1:0:0:0:
347,334,119264,2,0,L|372:145,1,160,2|8,0:0|1:2,0:0:0:0:
279,154,119565,1,8,1:2:0:0:
87,137,119663,5,8,1:0:0:0:
190,110,119761,1,8,1:0:0:0:
15,60,119859,1,8,1:0:0:0:
222,22,119957,1,8,1:0:0:0:
423,36,120055,6,0,L|428:125,1,80,4|0,0:1|0:0,0:0:0:0:
237,334,120257,2,0,L|433:339,1,160,8|0,0:0|0:0,0:0:0:0:
315,296,120561,1,0,3:0:0:0:
110,257,120663,2,0,L|10:239,2,80,8|0|2,0:0|0:0|3:2,0:0:0:0:
401,36,121068,2,0,L|206:56,1,160,8|0,0:0|3:0,0:0:0:0:
331,88,121372,1,0,3:0:0:0:
140,122,121473,2,0,L|24:117,1,80,10|0,0:0|0:0,0:0:0:0:
245,185,121676,6,0,L|261:280,1,80,0|0,3:0|0:0,0:0:0:0:
67,353,121879,2,0,L|252:361,1,160,8|0,0:0|0:0,0:0:0:0:
140,331,122183,1,0,3:0:0:0:
234,300,122284,2,0,L|330:288,1,80,8|0,0:0|0:0,0:0:0:0:
117,188,122487,2,0,L|8:178,1,80,2|0,3:2|0:0,0:0:0:0:
251,209,122690,2,0,L|261:37,1,160,8|0,0:0|3:0,0:0:0:0:
56,37,122994,2,0,L|163:22,2,80,0|10|0,3:0|0:0|0:0,0:0:0:0:
293,246,123298,5,0,3:0:0:0:
21,68,123500,2,0,L|192:77,1,160,10|0,0:0|3:0,0:0:0:0:
96,101,123805,1,0,0:0:0:0:
298,139,123906,2,0,L|389:143,1,80,10|0,0:0|0:0,0:0:0:0:
196,277,124109,5,2,3:2:0:0:
491,349,124311,2,0,L|314:364,1,160,8|0,0:0|0:0,0:0:0:0:
410,326,124615,1,2,3:2:0:0:
201,289,124717,2,0,L|184:204,1,80,8|8,0:2|0:2,0:0:0:0:
292,195,124919,2,0,L|307:109,1,80,0|0,3:0|0:0,0:0:0:0:
74,51,125122,6,0,L|171:36,1,80,10|0,0:0|0:0,0:0:0:0:
55,89,125325,2,0,L|41:181,1,80,0|0,3:0|0:0,0:0:0:0:
245,361,125527,2,0,L|346:362,1,80,10|0,0:0|0:0,0:0:0:0:
98,279,125730,2,0,L|273:255,1,160,4|8,0:1|0:0,0:0:0:0:
42,168,126034,2,0,L|142:155,2,80,0|0|0,3:0|0:0|3:0,0:0:0:0:
260,73,126338,2,0,L|154:71,1,80,8|8,0:0|0:0,0:0:0:0:
425,42,126541,5,4,0:1:0:0:
247,119,126744,2,0,L|256:308,1,160,8|0,0:0|0:0,0:0:0:0:
336,309,127048,1,0,3:0:0:0:
120,350,127149,2,0,L|113:252,1,80,8|0,0:0|0:0,0:0:0:0:
211,188,127352,2,0,L|103:188,1,80,2|0,3:2|0:0,0:0:0:0:
346,102,127555,2,0,L|174:88,1,160,8|0,0:0|3:0,0:0:0:0:
269,54,127859,1,0,3:0:0:0:
64,24,127960,2,0,L|169:7,1,80,10|0,0:0|0:0,0:0:0:0:
406,32,128163,5,0,3:0:0:0:
103,146,128365,2,0,L|72:341,1,160,8|0,0:0|0:0,0:0:0:0:
166,334,128669,1,0,3:0:0:0:
360,304,128771,2,0,L|443:280,1,80,8|0,0:0|0:0,0:0:0:0:
331,257,128973,2,0,L|232:245,1,80,2|0,3:2|0:0,0:0:0:0:
478,193,129176,2,0,L|495:20,1,160,8|0,0:0|3:0,0:0:0:0:
269,60,129480,2,0,L|357:48,2,80,0|10|0,3:0|0:0|0:0,0:0:0:0:
37,64,129784,5,0,3:0:0:0:
338,160,129987,2,0,L|153:186,1,160,10|2,0:0|3:2,0:0:0:0:
101,189,130291,1,0,0:0:0:0:
209,238,130392,2,0,L|305:224,1,80,10|2,0:0|3:2,0:0:0:0:
60,338,130595,6,0,L|41:252,1,80,2|0,3:2|0:0,0:0:0:0:
148,240,130798,2,0,L|162:128,1,80,10|0,0:2|0:0,0:0:0:0:
375,95,131000,2,0,L|272:99,1,80,0|0,3:0|0:0,0:0:0:0:
79,27,131203,2,0,L|176:17,1,80,8|0,0:0|0:0,0:0:0:0:
398,188,131406,5,0,3:0:0:0:
60,338,131609,2,0,L|243:358,1,160,8|0,0:0|3:0,0:0:0:0:
139,302,131913,1,0,0:0:0:0:
345,271,132014,2,0,L|236:260,1,80,8|0,0:0|0:0,0:0:0:0:
40,182,132217,6,0,L|26:88,1,80,4|0,0:1|0:0,0:0:0:0:
126,71,132419,1,8,1:0:0:0:
330,109,132521,2,0,L|227:130,1,80,8|0,1:0|1:0,0:0:0:0:
350,159,132723,2,0,L|467:163,1,80,0|8,1:0|1:0,0:0:0:0:
241,249,132926,1,8,1:0:0:0:
463,354,133027,6,0,P|403:318|292:320,1,143.999995605469,6|0,3:0|0:0,0:0:0:0:
162,341,133232,2,0,L|150:237,1,95.9999970703126,10|0,0:0|0:0,0:0:0:0:
416,274,133438,6,0,P|356:238|245:240,1,143.999995605469,4|0,0:3|0:0,0:0:0:0:
115,261,133644,2,0,L|103:157,1,95.9999970703126,10|0,0:0|0:0,0:0:0:0:
376,184,133850,6,0,P|316:148|205:150,1,143.999995605469,4|0,0:3|0:0,0:0:0:0:
75,171,134056,2,0,L|63:67,1,95.9999970703126,10|0,0:0|0:0,0:0:0:0:
324,109,134261,6,0,P|264:73|153:75,1,143.999995605469,4|0,0:3|0:0,0:0:0:0:
23,96,134467,2,0,L|11:-16,1,80,10|0,0:0|0:0,0:0:0:0:
308,14,134711,6,0,L|483:53,1,160,6|0,0:3|0:0,0:0:0:0:
362,95,135127,1,8,0:0:0:0:
199,130,135294,1,8,0:0:0:0:
479,226,135461,1,8,0:0:0:0:
289,289,135723,1,4,0:3:0:0:
478,338,135985,1,4,0:3:0:0:
141,224,136174,5,8,0:3:0:0:
435,73,136553,1,4,0:3:0:0:
199,42,136787,1,8,0:0:0:0:
426,62,137178,1,8,0:0:0:0:
27,107,137750,5,4,0:0:0:0:
256,192,137822,12,0,145626,0:0:0:0:
