osu file format v14

[General]
AudioFilename: audio.mp3
AudioLeadIn: 0
PreviewTime: 79621
Countdown: 0
SampleSet: Soft
StackLeniency: 0.7
Mode: 2
LetterboxInBreaks: 0
WidescreenStoryboard: 1

[Editor]
DistanceSpacing: 0.8
BeatDivisor: 4
GridSize: 32
TimelineZoom: 3.699999

[Metadata]
Title:DVP
TitleUnicode:DVP
Artist:PUP
ArtistUnicode:PUP
Creator:Jemzuu
Version:CUP
Source:osu!
Tags:ajamez jbhyperion jbh hyperion nelly ataraxia featured artist fa the dream is over english indie punk rock
BeatmapID:2422638
BeatmapSetID:1159828

[Difficulty]
HPDrainRate:3
CircleSize:2
OverallDifficulty:6.4
ApproachRate:6.4
SliderMultiplier:0.700000005960464
SliderTickRate:1

[Events]
//Background and Video events
0,0,"yuh.jpg",0,0
//Break Periods
2,107301,109543
2,113789,116030
//Storyboard Layer 0 (Background)
//Storyboard Layer 1 (Fail)
//Storyboard Layer 2 (Pass)
//Storyboard Layer 3 (Foreground)
//Storyboard Layer 4 (Overlay)
//Storyboard Sound Samples

[TimingPoints]
62,202.702702702703,4,2,10,80,1,0
1039,-100,4,2,10,80,0,0
13034,201.342281879195,4,2,10,80,1,0
13175,-100,4,2,1,40,0,0
13586,-100,4,2,1,50,0,0
13787,-100,4,2,10,60,0,0
13991,-100,4,2,1,80,0,0
14192,-100,4,2,2,70,0,0
14595,-100,4,2,10,80,0,0
14810,-100,4,2,1,80,0,0
15400,-100,4,2,10,80,0,0
15450,206.896551724138,4,2,1,80,1,0
16277,202.702702702703,4,2,10,80,1,0
26006,-100,4,2,10,80,0,0
26172,-100,4,2,10,80,0,0
26245,-100,4,2,10,5,0,0
26375,-100,4,2,10,80,0,0
26499,-100,4,2,10,5,0,0
26578,-100,4,2,10,80,0,0
26651,-100,4,2,10,5,0,0
26780,-100,4,2,10,80,0,0
26904,-100,4,2,10,5,0,0
26980,-100,4,2,10,80,0,0
27056,-100,4,2,10,5,0,0
27180,-100,4,2,10,80,0,0
27462,-100,4,2,10,5,0,0
27580,-100,4,2,10,80,0,0
27628,-100,4,2,10,80,0,0
29202,-100,4,2,11,60,0,0
32290,-100,4,2,11,80,0,0
37920,-100,4,2,11,60,0,0
38126,-100,4,2,11,80,0,0
40601,200.66889632107,4,2,10,80,1,0
41354,-100,4,2,10,60,0,0
41559,-100,4,2,10,80,0,0
42206,202.702702702703,4,2,10,80,1,0
42206,-100,4,2,10,80,0,0
42310,-100,4,2,10,5,0,0
42372,-100,4,2,10,80,0,0
42718,-100,4,2,10,5,0,0
42777,-100,4,2,10,80,0,0
43126,-100,4,2,10,5,0,0
43182,-100,4,2,10,80,0,0
43534,-100,4,2,10,5,0,0
43588,-100,4,2,10,80,0,0
43942,-100,4,2,10,5,0,0
43993,-100,4,2,10,80,0,0
44638,-100,4,2,10,80,0,0
44809,-100,4,2,2,80,0,0
45415,-100,4,2,10,80,0,0
49690,-100,4,2,1,80,0,0
50298,-100,4,2,10,80,0,0
51119,-100,4,2,2,80,0,0
51124,260.869565217391,4,2,10,80,1,0
51325,-100,4,2,10,80,0,0
51384,193.548387096774,4,2,10,80,1,0
51917,-100,4,2,10,80,0,0
51964,202.702702702703,4,2,10,80,1,0
56788,-100,4,2,2,80,0,0
57599,-100,4,2,1,80,0,0
57798,-100,4,2,10,80,0,0
58005,-100,4,2,1,80,0,0
58203,-100,4,2,10,80,0,0
61651,-100,4,1,10,80,0,0
61693,-100,4,1,10,80,0,0
61798,-100,4,2,10,5,0,0
61853,-100,4,2,10,80,0,0
62000,-100,4,2,10,5,0,0
62056,-100,4,2,10,80,0,0
62203,-100,4,2,10,5,0,0
62259,-100,4,2,10,80,0,0
62405,-100,4,2,10,5,0,0
62461,-100,4,2,10,80,0,0
62608,-100,4,2,10,5,0,0
62662,-100,4,2,10,60,0,0
62810,-100,4,2,10,5,0,0
62863,-100,4,2,10,80,0,0
63013,-100,4,2,10,5,0,0
63065,-100,4,2,10,80,0,0
63215,-100,4,2,10,5,0,0
63266,-100,4,2,10,80,0,0
63315,-100,4,2,10,80,0,0
64126,200,4,2,10,80,1,0
64895,-100,4,2,10,60,0,0
64926,202.702702702703,4,2,10,80,1,0
65088,-100,4,2,12,60,0,0
65705,-100,4,2,10,80,0,0
73609,-100,4,2,10,60,0,0
74216,-100,4,2,10,80,0,0
77898,-100,4,2,10,80,0,0
77998,-100,4,2,10,5,0,0
78101,-100,4,2,10,80,0,0
78403,-100,4,2,10,5,0,0
78507,-100,4,2,10,80,0,0
78808,-100,4,2,10,5,0,0
78912,-100,4,2,10,80,0,0
79213,-100,4,2,10,5,0,0
79317,-100,4,2,10,80,0,0
79672,-100,4,2,10,5,0,0
79723,-100,4,2,10,80,0,0
80331,-100,4,2,12,80,0,0
80597,-100,4,2,2,80,0,0
80806,-100,4,2,10,80,0,0
81125,202.702702702703,4,2,10,80,1,1
81125,-100,4,2,1,80,0,1
81175,-100,4,2,1,80,0,0
83557,206.896551724138,4,2,1,80,1,0
84384,202.702702702703,4,2,10,80,1,0
86005,200.66889632107,4,2,10,80,1,0
87610,202.702702702703,4,2,10,80,1,1
87612,-100,4,2,1,80,0,1
87660,-100,4,2,1,80,0,0
93285,-100,4,2,1,80,0,0
93691,-100,4,2,2,80,0,0
93896,-100,4,2,3,80,0,0
94096,-100,4,2,5,80,0,0
94299,-100,4,2,5,80,0,1
95718,-100,4,2,5,80,0,0
95884,-100,4,2,5,90,0,0
95895,-100,4,2,5,80,0,0
97542,-100,4,2,5,80,0,1
98961,-100,4,2,5,80,0,0
99128,-100,4,2,5,80,0,0
100582,206.896551724138,4,2,5,80,1,0
100749,-100,4,2,10,80,0,0
100788,-100,4,2,5,80,0,1
102237,202.702702702703,4,2,5,80,1,0
102842,-100,4,2,10,80,0,0
103013,-100,4,2,5,80,0,0
103813,-100,4,2,1,80,0,0
103908,-100,4,2,5,80,0,0
105423,-100,4,2,5,80,0,0
105823,-100,4,2,5,80,0,0
106235,-100,4,2,10,80,0,0
107045,-100,4,2,7,80,0,0
107451,-100,4,2,10,80,0,0
108419,-100,4,2,10,80,0,0
109737,-100,4,2,10,80,0,0
112372,213.523131672598,4,2,10,80,1,0
112799,202.702702702703,4,2,10,80,1,0
113204,192.926045016077,4,2,10,80,1,0
113589,202.702702702703,4,2,10,80,1,0
115210,-100,4,2,10,80,0,0
115580,-100,4,2,10,80,0,0
119467,196.078431372549,4,2,10,80,1,0
119653,-100,4,2,1,80,0,0
120009,-100,4,2,4,90,0,0
120055,202.702702702703,4,2,4,90,1,0
120830,-100,4,2,4,80,0,0
131569,-100,4,2,4,100,0,0
132177,-100,4,2,10,80,0,0
132993,-100,4,2,10,80,0,0
133027,205.831903945111,4,2,10,80,1,0
133027,-100,4,2,10,80,0,0
133140,-100,4,2,10,5,0,0
133198,-100,4,2,10,100,0,0
133545,-100,4,2,10,5,0,0
133609,-100,4,2,10,100,0,0
133951,-100,4,2,10,5,0,0
134020,-100,4,2,10,80,0,0
134357,-100,4,2,10,5,0,0
134428,-100,4,2,10,80,0,0
134467,243.90243902439,4,2,10,80,1,0
134705,-100,4,2,10,80,0,0
134711,250,4,2,10,80,1,0
135461,262.008733624454,4,2,10,80,1,0
135985,284.36018957346,4,2,10,80,1,0
136553,312.5,4,2,10,80,1,0
137178,286.396181384248,4,2,10,80,1,0
137750,-100,4,2,10,80,0,1
137822,-100,4,2,10,50,0,0
138323,-100,4,2,10,45,0,0
139469,-100,4,2,10,40,0,0
140614,-100,4,2,10,35,0,0
141760,-100,4,2,10,30,0,0
142905,-100,4,2,10,20,0,0
144051,-100,4,2,10,15,0,0
145197,-100,4,2,10,10,0,0
145626,-100,4,2,10,5,0,0

[Colours]
Combo1 : 192,192,192
Combo2 : 0,128,128
Combo3 : 255,174,255

[HitObjects]
373,88,62,6,0,P|431:110|353:255,1,280.000002384186,12|8,0:1|0:2,0:0:0:0:
253,304,1176,2,0,L|148:304,1,105.00000089407,8|8,0:0|0:0,0:0:0:0:
248,321,1683,6,0,P|358:261|281:134,1,280.000002384186,12|8,1:2|0:0,0:0:0:0:
188,110,2798,2,0,L|70:118,1,105.00000089407,8|8,0:0|0:0,0:0:0:0:
187,153,3305,6,0,L|199:302,1,140.000001192093,8|0,1:0|0:0,0:0:0:0:
357,353,4116,2,0,L|371:188,1,140.000001192093,10|2,0:0|0:0,0:0:0:0:
199,155,4926,6,0,L|26:144,1,140.000001192093,12|0,1:2|0:0,0:0:0:0:
197,93,5737,1,8,0:0:0:0:
338,89,6143,1,8,1:2:0:0:
160,64,6548,6,0,P|122:96|238:235,1,280.000002384186,12|8,1:0|0:0,0:0:0:0:
347,284,7663,2,0,L|459:289,1,105.00000089407,8|8,0:0|0:0,0:0:0:0:
349,326,8170,2,0,P|271:326|294:172,1,280.000002384186,12|8,1:2|0:0,0:0:0:0:
414,79,9284,2,0,L|297:77,1,105.00000089407,8|10,0:0|0:0,0:0:0:0:
210,69,9791,6,0,L|205:229,1,140.000001192093,8|0,1:1|0:0,0:0:0:0:
44,214,10602,2,0,L|55:365,1,140.000001192093,10|2,0:0|0:0,0:0:0:0:
239,92,11413,6,0,L|100:114,1,140.000001192093,12|0,2:2|0:0,0:0:0:0:
236,194,12224,1,8,0:0:0:0:
377,209,12629,1,0,0:0:0:0:
202,324,13034,6,0,L|185:163,1,140.000001192093,8|0,0:0|1:0,0:0:0:0:
340,218,13839,2,0,L|352:63,1,140.000001192093,8|8,1:2|1:2,0:0:0:0:
175,38,14644,2,0,L|322:8,1,140.000001192093,8|8,1:2|1:2,0:0:0:0:
151,154,15450,1,4,1:2:0:0:
86,178,15656,1,8,1:2:0:0:
19,218,15863,1,8,1:2:0:0:
206,357,16277,6,0,L|306:360,1,70.0000005960464,6|10,0:3|0:0,0:0:0:0:
433,164,16885,2,0,L|343:168,1,70.0000005960464,10|4,0:0|0:3,0:0:0:0:
290,237,17290,2,0,P|266:183|288:120,1,105.00000089407,10|4,0:0|0:3,0:0:0:0:
405,64,17898,6,0,L|186:106,1,210.000001788139,4|10,0:3|0:0,0:0:0:0:
40,168,18912,2,0,L|57:321,1,140.000001192093,10|10,0:0|0:0,0:0:0:0:
130,338,19520,1,4,0:3:0:0:
204,348,19722,6,0,L|215:240,1,105.00000089407,10|4,0:0|0:3,0:0:0:0:
85,151,20331,2,0,L|219:131,1,105.00000089407,4|4,0:3|0:3,0:0:0:0:
80,68,20939,1,10,0:0:0:0:
241,46,21344,2,0,L|371:66,1,105.00000089407,10|4,0:0|0:3,0:0:0:0:
484,221,21952,6,0,L|363:258,2,105.00000089407,12|4|8,1:1|0:3|1:2,0:0:0:0:
394,170,22763,6,0,L|311:168,1,70.0000005960464,6|10,0:3|0:0,0:0:0:0:
167,357,23371,2,0,L|84:356,1,70.0000005960464,10|4,0:0|0:3,0:0:0:0:
171,311,23777,2,0,L|330:278,1,140.000001192093,10|10,0:0|0:0,0:0:0:0:
212,215,24385,6,0,P|106:215|79:110,1,210.000001788139,4|10,0:3|0:0,0:0:0:0:
230,72,25398,2,0,L|241:242,1,140.000001192093,10|10,0:0|0:0,0:0:0:0:
130,260,26006,6,0,L|284:273,1,140.000001192093,6|4,0:3|0:3,0:0:0:0:
435,343,26817,2,0,L|447:179,1,140.000001192093,4|4,0:3|0:3,0:0:0:0:
295,220,27628,2,0,L|276:49,1,140.000001192093,4|4,0:3|0:3,0:0:0:0:
109,40,28439,2,0,L|268:42,1,140.000001192093,2|8,0:3|1:2,0:0:0:0:
62,114,29249,6,0,P|32:167|209:339,1,350.000002980232,2|10,0:0|0:0,0:0:0:0:
348,355,30668,1,10,0:0:0:0:
426,358,30871,6,0,P|473:292|321:121,1,350.000002980232,4|10,0:3|0:0,0:0:0:0:
170,253,32290,1,10,0:0:0:0:
92,296,32493,6,0,P|61:274|70:168,1,140.000001192093,4|4,0:3|0:3,0:0:0:0:
206,138,33304,2,0,L|297:135,1,70.0000005960464,4|10,0:3|0:0,0:0:0:0:
155,240,33810,1,4,0:3:0:0:
288,304,34114,6,0,L|449:300,1,140.000001192093,4|4,0:3|0:3,0:0:0:0:
276,358,34925,2,0,L|260:215,1,140.000001192093,4|2,0:3|0:0,0:0:0:0:
426,233,35736,6,0,P|484:167|312:45,1,350.000002980232,4|10,0:3|0:0,0:0:0:0:
166,241,37155,1,10,0:0:0:0:
92,279,37358,2,0,P|37:240|188:91,1,350.000002980232,4|10,0:3|0:0,0:0:0:0:
325,71,38777,1,10,0:0:0:0:
401,116,38979,6,0,L|431:272,1,140.000001192093,4|0,0:3|0:0,0:0:0:0:
268,334,39790,1,4,0:3:0:0:
198,340,39992,1,10,0:0:0:0:
126,349,40195,1,0,0:3:0:0:
298,262,40601,6,0,L|324:109,1,140.000001192093,4|4,0:3|0:3,0:0:0:0:
139,52,41403,6,0,L|291:35,1,140.000001192093,2|8,0:0|1:2,0:0:0:0:
83,148,42206,6,0,L|70:291,1,140.000001192093,6|4,0:3|0:3,0:0:0:0:
230,208,43016,2,0,L|249:359,1,140.000001192093,4|4,0:3|0:3,0:0:0:0:
409,353,43827,2,0,L|263:351,1,140.000001192093,4|4,0:3|0:3,0:0:0:0:
82,230,44638,6,0,L|239:222,1,140.000001192093,2|8,0:3|1:2,0:0:0:0:
297,166,45246,1,8,1:2:0:0:
193,130,45449,6,0,L|183:47,1,70.0000005960464,6|10,0:3|0:0,0:0:0:0:
332,45,46057,2,0,L|414:39,1,70.0000005960464,10|4,0:0|0:3,0:0:0:0:
477,68,46462,6,0,P|478:112|389:187,1,140.000001192093,10|10,0:0|0:0,0:0:0:0:
267,238,47273,2,0,L|256:384,1,140.000001192093,10|10,0:0|0:0,0:0:0:0:
414,334,48084,2,0,L|250:319,1,140.000001192093,10|10,0:0|0:0,0:0:0:0:
88,324,48895,6,0,L|66:172,1,140.000001192093,10|10,0:0|0:0,0:0:0:0:
146,156,49503,1,10,0:0:0:0:
228,148,49706,2,0,L|236:57,1,70.0000005960464,8|4,0:3|0:3,0:0:0:0:
39,50,50314,5,6,0:3:0:0:
256,192,50618,12,8,51674,1:2:0:0:
358,284,51964,5,6,0:0:0:0:
433,329,52166,2,0,L|453:162,1,140.000001192093,10|10,0:0|0:0,0:0:0:0:
299,114,52977,2,0,L|139:106,1,140.000001192093,10|10,0:0|0:0,0:0:0:0:
330,63,53788,6,0,L|340:215,1,140.000001192093,10|10,0:0|0:0,0:0:0:0:
185,218,54599,2,0,L|178:362,1,140.000001192093,10|10,0:0|0:0,0:0:0:0:
20,199,55409,6,0,L|33:117,1,70.0000005960464,12|4,0:0|0:3,0:0:0:0:
106,104,55815,1,10,0:2:0:0:
258,47,56220,2,0,L|327:56,1,70.0000005960464,10|4,0:0|0:3,0:0:0:0:
138,219,56828,6,0,L|26:241,2,105.00000089407,12|12|12,0:0|0:0|0:0,0:0:0:0:
223,222,57639,5,12,0:0:0:0:
46,124,58045,1,12,0:0:0:0:
230,80,58450,6,0,L|375:86,1,140.000001192093,6|0,0:3|0:0,0:0:0:0:
300,135,59058,1,10,0:0:0:0:
147,191,59464,2,0,L|142:336,1,140.000001192093,10|10,0:0|0:0,0:0:0:0:
283,363,60274,5,10,0:0:0:0:
430,354,60680,1,10,0:0:0:0:
271,354,61085,2,0,L|258:187,1,140.000001192093,10|10,0:0|0:0,0:0:0:0:
351,153,61693,6,0,L|503:119,2,140.000001192093,4|4|4,0:1|0:3|0:3,0:0:0:0:
199,97,62909,1,4,0:3:0:0:
48,112,63315,6,0,L|44:265,1,140.000001192093,4|4,0:3|0:3,0:0:0:0:
197,301,64126,1,6,0:3:0:0:
266,308,64326,1,8,1:2:0:0:
336,315,64526,1,8,1:2:0:0:
143,372,64926,6,0,P|74:352|187:206,1,350.000002980232,2|10,0:2|0:2,0:0:0:0:
338,242,66344,1,10,0:0:0:0:
416,259,66547,6,0,P|458:223|301:55,1,350.000002980232,4|10,0:3|0:0,0:0:0:0:
166,74,67966,1,10,0:0:0:0:
87,97,68169,6,0,L|70:242,1,140.000001192093,4|4,0:3|0:3,0:0:0:0:
222,327,68980,2,0,L|230:243,1,70.0000005960464,4|8,0:3|0:0,0:0:0:0:
108,233,69486,1,4,0:3:0:0:
248,150,69790,6,0,L|403:130,1,140.000001192093,4|0,0:3|0:0,0:0:0:0:
223,55,70601,2,0,L|142:51,2,70.0000005960464,4|10|0,0:3|0:0|0:0,0:0:0:0:
402,52,71412,6,0,P|457:84|333:271,1,350.000002980232,4|10,0:3|0:0,0:0:0:0:
191,353,72831,1,10,0:0:0:0:
114,357,73034,6,0,P|46:317|181:174,1,350.000002980232,4|10,0:3|0:0,0:0:0:0:
339,136,74453,1,10,0:0:0:0:
418,93,74655,6,0,L|261:84,1,140.000001192093,4|4,0:3|0:3,0:0:0:0:
124,196,75466,2,0,L|234:205,2,105.00000089407,4|4|10,0:3|0:3|0:0,0:0:0:0:
296,358,76480,2,0,L|306:288,1,70.0000005960464,10|4,0:0|0:3,0:0:0:0:
121,199,77088,6,0,P|48:186|26:119,1,140.000001192093,6|8,0:3|1:2,0:0:0:0:
210,76,77898,6,0,L|375:64,2,140.000001192093,6|4|4,0:3|0:3|0:3,0:0:0:0:
55,158,79115,1,4,0:3:0:0:
215,234,79520,2,0,L|356:228,1,140.000001192093,4|4,0:3|0:3,0:0:0:0:
174,345,80331,5,6,0:3:0:0:
439,350,81125,6,0,L|490:230,2,105.00000089407,12|8|8,0:1|0:0|0:0,0:0:0:0:
359,364,81935,2,0,L|232:356,2,105.00000089407,8|8|8,0:0|0:0|0:0,0:0:0:0:
445,351,82746,6,0,L|467:221,1,105.00000089407,12|8,0:0|0:0,0:0:0:0:
352,205,83354,1,8,0:0:0:0:
274,201,83557,6,0,L|137:154,1,140.000001192093,0|10,3:0|1:2,0:0:0:0:
322,65,84384,6,0,L|448:41,2,105.00000089407,12|8|8,0:1|0:0|0:0,0:0:0:0:
247,85,85194,1,10,0:0:0:0:
127,138,85498,1,10,0:0:0:0:
244,219,85802,1,10,0:0:0:0:
170,248,86005,6,0,L|35:264,2,105.00000089407,12|8|8,0:2|0:0|0:0,0:0:0:0:
248,247,86807,2,0,L|262:376,1,105.00000089407,8|8,0:0|0:0,0:0:0:0:
123,371,87409,1,8,0:0:0:0:
45,355,87610,6,0,L|26:226,1,105.00000089407,12|8,0:1|0:0,0:0:0:0:
146,188,88218,2,0,L|230:184,1,70.0000005960464,8|8,0:0|0:0,0:0:0:0:
338,252,88724,2,0,L|352:123,1,105.00000089407,8|8,0:0|0:0,0:0:0:0:
263,107,89231,6,0,L|150:90,2,105.00000089407,12|8|8,0:0|0:0|0:0,0:0:0:0:
336,87,90042,1,8,3:3:0:0:
456,322,90346,2,0,L|384:340,1,70.0000005960464,8|8,1:0|1:0,0:0:0:0:
234,326,90853,6,0,L|172:219,2,105.00000089407,12|8|8,0:1|0:0|0:0,0:0:0:0:
318,326,91664,2,0,L|436:305,2,105.00000089407,12|8|8,0:2|0:0|0:0,0:0:0:0:
232,345,92474,6,0,L|219:227,1,105.00000089407,12|8,0:1|0:0,0:0:0:0:
333,198,93082,1,8,0:0:0:0:
232,151,93285,5,4,0:0:0:0:
77,121,93691,2,0,L|70:46,1,70.0000005960464,8|8,1:2|1:2,0:0:0:0:
262,60,94299,6,0,L|426:67,1,140.000001192093,12|12,0:0|0:0,0:0:0:0:
226,193,95110,6,0,L|68:208,1,140.000001192093,12|12,0:0|0:0,0:0:0:0:
246,341,95920,1,10,0:0:0:0:
325,356,96123,2,0,L|331:206,1,140.000001192093,0|2,0:2|3:2,0:0:0:0:
479,117,96934,2,0,L|400:108,1,70.0000005960464,2|10,3:2|0:0,0:0:0:0:
230,33,97542,6,0,L|393:22,1,140.000001192093,12|12,0:0|0:0,0:0:0:0:
192,151,98353,6,0,L|177:309,1,140.000001192093,12|12,0:0|0:0,0:0:0:0:
350,342,99164,2,0,L|257:351,1,70.0000005960464,10|2,0:0|3:2,0:0:0:0:
118,355,99772,2,0,P|80:348|51:246,1,140.000001192093,2|2,3:2|3:2,0:0:0:0:
120,231,100380,1,10,0:0:0:0:
301,109,100788,6,0,L|148:101,1,140.000001192093,12|12,0:0|0:0,0:0:0:0:
336,272,101616,6,0,L|488:254,1,140.000001192093,12|12,0:0|0:0,0:0:0:0:
385,342,102237,6,0,P|282:325|324:179,1,280.000002384186,4|0,0:3|3:0,0:0:0:0:
463,121,103453,1,2,0:0:0:0:
288,66,103858,6,0,L|129:58,1,140.000001192093,4|2,0:0|0:0,0:0:0:0:
302,157,104669,2,0,L|319:318,1,140.000001192093,0|2,3:0|0:0,0:0:0:0:
155,370,105480,2,0,L|17:333,1,140.000001192093,0|2,3:0|0:0,0:0:0:0:
191,240,106291,5,4,0:0:0:0:
260,230,106493,1,8,1:2:0:0:
329,221,106696,1,8,1:2:0:0:
122,150,107101,5,4,0:2:0:0:
93,279,110547,6,0,L|92:187,1,70.0000005960464,0|10,0:0|0:0,0:0:0:0:
236,138,111155,2,0,L|308:122,1,70.0000005960464,0|4,0:0|0:3,0:0:0:0:
441,58,111662,1,4,0:3:0:0:
430,252,112169,1,4,0:3:0:0:
361,270,112372,5,10,1:2:0:0:
168,340,112799,2,0,L|154:197,1,140.000001192093,2|10,1:2|0:0,0:0:0:0:
347,248,113589,5,4,0:0:0:0:
157,140,117034,6,0,L|55:138,2,70.0000005960464,0|10|0,0:0|0:0|0:0,0:0:0:0:
232,192,117643,2,0,L|350:184,1,105.00000089407
263,330,118149,1,4,0:3:0:0:
122,299,118453,6,0,P|57:281|25:203,1,140.000001192093,6|8,0:3|1:2,0:0:0:0:
207,135,119264,1,2,0:0:0:0:
282,114,119467,1,8,1:2:0:0:
207,135,119663,1,8,1:0:0:0:
30,49,120055,5,4,0:1:0:0:
106,37,120257,2,0,L|251:26,1,140.000001192093,8|8,0:0|0:0,0:0:0:0:
397,69,121068,6,0,L|410:209,1,140.000001192093,8|10,0:0|0:0,0:0:0:0:
334,226,121676,1,0,3:0:0:0:
256,249,121879,2,0,L|399:262,1,140.000001192093,8|8,0:0|0:0,0:0:0:0:
218,360,122690,6,0,L|65:341,1,140.000001192093,8|10,0:0|0:0,0:0:0:0:
265,255,123500,2,0,L|339:247,2,70.0000005960464,10|0|10,0:0|3:0|0:0,0:0:0:0:
177,240,124109,6,0,L|88:168,2,105.00000089407,2|2|8,3:2|0:0|0:2,0:0:0:0:
360,233,125122,1,10,0:0:0:0:
422,200,125324,1,0,3:0:0:0:
484,168,125527,1,10,0:0:0:0:
383,122,125730,6,0,L|264:120,1,105.00000089407,4|0,0:1|3:0,0:0:0:0:
426,59,126338,1,8,0:0:0:0:
349,38,126541,6,0,P|243:58|254:154,1,210.000001788139,4|8,0:1|0:0,0:0:0:0:
421,171,127555,2,0,L|433:322,1,140.000001192093,8|10,0:0|0:0,0:0:0:0:
358,340,128163,1,0,3:0:0:0:
281,355,128365,6,0,L|128:336,1,140.000001192093,8|8,0:0|0:0,0:0:0:0:
308,252,129176,2,0,L|319:108,1,140.000001192093,8|10,0:0|0:0,0:0:0:0:
137,86,129987,2,0,L|59:55,2,70.0000005960464,10|2|10,0:0|3:2|0:0,0:0:0:0:
212,125,130595,2,0,L|72:156,1,140.000001192093,2|0,3:2|3:0,0:0:0:0:
152,203,131203,5,8,0:0:0:0:
336,344,131609,2,0,L|413:347,2,70.0000005960464,8|0|8,0:0|3:0|0:0,0:0:0:0:
252,335,132217,6,0,L|141:320,2,105.00000089407,4|8|8,0:1|1:0|1:0,0:0:0:0:
347,340,133027,6,0,L|361:189,1,140.000001192093,6|4,3:0|0:3,0:0:0:0:
197,211,133850,2,0,L|43:206,1,140.000001192093,4|4,0:3|0:3,0:0:0:0:
261,129,134711,5,6,0:3:0:0:
256,192,134961,12,8,137178,0:0:0:0:
255,198,137750,5,4,0:0:0:0:
256,192,138037,12,0,145626,0:0:0:0:
