osu file format v14

[General]
AudioFilename: audio.mp3
AudioLeadIn: 0
PreviewTime: 79621
Countdown: 0
SampleSet: Soft
StackLeniency: 0.7
Mode: 2
LetterboxInBreaks: 0
WidescreenStoryboard: 1

[Editor]
Bookmarks: 51964
DistanceSpacing: 0.8
BeatDivisor: 4
GridSize: 32
TimelineZoom: 3.699999

[Metadata]
Title:DVP
TitleUnicode:DVP
Artist:PUP
ArtistUnicode:PUP
Creator:Jemzuu
Version:COLLAB RAIN
Source:osu!
Tags:ajamez jbhyperion jbh hyperion nelly ataraxia featured artist fa the dream is over english indie punk rock
BeatmapID:2428779
BeatmapSetID:1159828

[Difficulty]
HPDrainRate:6
CircleSize:3
OverallDifficulty:9.1
ApproachRate:9.1
SliderMultiplier:1.2
SliderTickRate:1

[Events]
//Background and Video events
0,0,"yuh.jpg",0,0
//Break Periods
//Storyboard Layer 0 (Background)
//Storyboard Layer 1 (Fail)
//Storyboard Layer 2 (Pass)
//Storyboard Layer 3 (Foreground)
//Storyboard Layer 4 (Overlay)
//Storyboard Sound Samples

[TimingPoints]
62,202.702702702703,4,2,10,80,1,0
1039,-100,4,2,10,80,0,0
13034,201.342281879195,4,2,10,80,1,0
13175,-100,4,2,1,40,0,0
13586,-100,4,2,1,50,0,0
13787,-100,4,2,10,60,0,0
13991,-100,4,2,1,80,0,0
14192,-100,4,2,2,70,0,0
14595,-100,4,2,10,80,0,0
14810,-100,4,2,1,80,0,0
15400,-100,4,2,10,80,0,0
15450,206.896551724138,4,2,1,80,1,0
16277,202.702702702703,4,2,10,80,1,0
26006,-83.3333333333333,4,2,10,80,0,0
26172,-83.3333333333333,4,2,10,80,0,0
26245,-83.3333333333333,4,2,10,5,0,0
26375,-83.3333333333333,4,2,10,80,0,0
26499,-83.3333333333333,4,2,10,5,0,0
26578,-83.3333333333333,4,2,10,80,0,0
26651,-83.3333333333333,4,2,10,5,0,0
26780,-83.3333333333333,4,2,10,80,0,0
26904,-83.3333333333333,4,2,10,5,0,0
26980,-83.3333333333333,4,2,10,80,0,0
27056,-83.3333333333333,4,2,10,5,0,0
27180,-83.3333333333333,4,2,10,80,0,0
27462,-83.3333333333333,4,2,10,5,0,0
27580,-83.3333333333333,4,2,10,80,0,0
27628,-100,4,2,10,80,0,0
29202,-100,4,2,11,60,0,0
32290,-100,4,2,11,80,0,0
37920,-100,4,2,11,60,0,0
38126,-100,4,2,11,80,0,0
40601,200.66889632107,4,2,10,80,1,0
41354,-100,4,2,10,60,0,0
41559,-100,4,2,10,80,0,0
42206,202.702702702703,4,2,10,80,1,0
42206,-83.3333333333333,4,2,10,80,0,0
42310,-83.3333333333333,4,2,10,5,0,0
42372,-83.3333333333333,4,2,10,80,0,0
42718,-83.3333333333333,4,2,10,5,0,0
42777,-83.3333333333333,4,2,10,80,0,0
43126,-83.3333333333333,4,2,10,5,0,0
43182,-83.3333333333333,4,2,10,80,0,0
43534,-83.3333333333333,4,2,10,5,0,0
43588,-83.3333333333333,4,2,10,80,0,0
43942,-83.3333333333333,4,2,10,5,0,0
43993,-83.3333333333333,4,2,10,80,0,0
44638,-100,4,2,10,80,0,0
44809,-100,4,2,2,80,0,0
45415,-100,4,2,10,80,0,0
49690,-100,4,2,1,80,0,0
50298,-100,4,2,10,80,0,0
51119,-100,4,2,2,80,0,0
51124,260.869565217391,4,2,10,80,1,0
51325,-100,4,2,10,80,0,0
51384,193.548387096774,4,2,10,80,1,0
51917,-100,4,2,10,80,0,0
51964,202.702702702703,4,2,10,80,1,0
56788,-100,4,2,2,80,0,0
57599,-100,4,2,1,80,0,0
57798,-100,4,2,10,80,0,0
58005,-100,4,2,1,80,0,0
58203,-100,4,2,10,80,0,0
61651,-100,4,1,10,80,0,0
61693,-100,4,1,10,80,0,0
61798,-100,4,2,10,5,0,0
61853,-100,4,2,10,80,0,0
62000,-100,4,2,10,5,0,0
62056,-100,4,2,10,80,0,0
62203,-100,4,2,10,5,0,0
62259,-100,4,2,10,80,0,0
62405,-100,4,2,10,5,0,0
62461,-100,4,2,10,80,0,0
62608,-100,4,2,10,5,0,0
62662,-100,4,2,10,60,0,0
62810,-100,4,2,10,5,0,0
62863,-100,4,2,10,80,0,0
63013,-100,4,2,10,5,0,0
63065,-100,4,2,10,80,0,0
63215,-100,4,2,10,5,0,0
63266,-100,4,2,10,80,0,0
63315,-100,4,2,10,80,0,0
64126,200,4,2,10,80,1,0
64895,-100,4,2,10,60,0,0
64926,202.702702702703,4,2,10,80,1,0
65088,-100,4,2,12,60,0,0
65705,-100,4,2,10,80,0,0
73609,-100,4,2,10,60,0,0
74216,-100,4,2,10,80,0,0
77898,-100,4,2,10,80,0,0
77998,-100,4,2,10,5,0,0
78101,-100,4,2,10,80,0,0
78403,-100,4,2,10,5,0,0
78507,-100,4,2,10,80,0,0
78808,-100,4,2,10,5,0,0
78912,-100,4,2,10,80,0,0
79213,-100,4,2,10,5,0,0
79317,-100,4,2,10,80,0,0
79672,-100,4,2,10,5,0,0
79723,-100,4,2,10,80,0,0
80331,-100,4,2,12,80,0,0
80597,-100,4,2,2,80,0,0
80806,-100,4,2,10,80,0,0
81125,202.702702702703,4,2,10,80,1,1
81125,-100,4,2,1,80,0,1
81175,-100,4,2,1,80,0,0
83557,206.896551724138,4,2,10,80,1,0
84384,202.702702702703,4,2,10,80,1,0
86005,200.66889632107,4,2,10,80,1,0
87610,202.702702702703,4,2,10,80,1,1
87612,-100,4,2,1,80,0,1
87660,-100,4,2,1,80,0,0
93691,-83.3333333333333,4,2,2,80,0,0
93896,-83.3333333333333,4,2,3,80,0,0
94096,-83.3333333333333,4,2,5,80,0,0
94299,-100,4,2,5,80,0,1
95718,-100,4,2,5,80,0,0
95884,-100,4,2,5,90,0,0
95895,-100,4,2,5,80,0,0
97542,-100,4,2,5,80,0,1
98961,-100,4,2,5,80,0,0
99128,-100,4,2,5,80,0,0
100582,206.896551724138,4,2,5,80,1,0
100749,-100,4,2,10,80,0,0
100788,-100,4,2,5,80,0,1
102237,202.702702702703,4,2,5,80,1,0
102842,-100,4,2,10,80,0,0
103013,-100,4,2,5,80,0,0
103813,-100,4,2,1,80,0,0
103908,-100,4,2,5,80,0,0
105423,-100,4,2,10,80,0,0
105823,-100,4,2,5,80,0,0
106235,-100,4,2,10,80,0,0
107045,-100,4,2,7,80,0,0
107451,-100,4,2,10,80,0,0
108419,-83.3333333333333,4,2,10,80,0,0
109737,-100,4,2,10,80,0,0
112372,213.523131672598,4,2,10,80,1,0
112799,202.702702702703,4,2,10,80,1,0
113204,192.926045016077,4,2,10,80,1,0
113589,202.702702702703,4,2,10,80,1,0
115210,-83.3333333333333,4,2,10,80,0,0
115580,-100,4,2,10,80,0,0
119467,196.078431372549,4,2,10,80,1,0
119653,-100,4,2,1,80,0,0
120009,-100,4,2,4,90,0,0
120055,202.702702702703,4,2,4,90,1,0
120830,-100,4,2,4,80,0,0
131569,-100,4,2,4,100,0,0
132177,-100,4,2,10,80,0,0
132993,-83.3333333333333,4,2,10,80,0,0
133027,205.831903945111,4,2,10,80,1,0
133027,-100,4,2,10,80,0,0
133140,-100,4,2,10,5,0,0
133198,-100,4,2,10,100,0,0
133545,-100,4,2,10,5,0,0
133609,-100,4,2,10,100,0,0
133951,-100,4,2,10,5,0,0
134020,-100,4,2,10,80,0,0
134357,-100,4,2,10,5,0,0
134428,-100,4,2,10,80,0,0
134467,243.90243902439,4,2,10,80,1,0
134705,-100,4,2,10,80,0,0
134711,250,4,2,10,80,1,0
135461,262.008733624454,4,2,10,80,1,0
135985,284.36018957346,4,2,10,80,1,0
136553,312.5,4,2,10,80,1,0
137178,286.396181384248,4,2,10,80,1,0
137750,-100,4,2,10,80,0,1
137822,-100,4,2,10,50,0,0
138323,-100,4,2,10,45,0,0
139469,-100,4,2,10,40,0,0
140614,-100,4,2,10,35,0,0
141760,-100,4,2,10,30,0,0
142905,-100,4,2,10,20,0,0
144051,-100,4,2,10,15,0,0
145197,-100,4,2,10,10,0,0
145626,-100,4,2,10,5,0,0

[Colours]
Combo1 : 192,192,192
Combo2 : 0,128,128
Combo3 : 255,174,255

[HitObjects]
148,288,62,6,0,L|268:282,1,120,12|0,0:1|0:0,0:0:0:0:
195,186,366,2,0,L|75:180,1,120,8|0,0:0|0:0,0:0:0:0:
147,87,670,1,8,0:0:0:0:
445,84,872,6,0,P|470:103|440:174,1,120,8|2,0:2|0:0,0:0:0:0:
358,216,1176,2,0,L|298:213,2,60,8|2|2,0:0|0:0|0:0,0:0:0:0:
442,269,1480,1,8,0:0:0:0:
167,270,1683,6,0,P|147:268|95:190,1,120,12|0,1:2|0:0,0:0:0:0:
179,113,1987,2,0,L|301:117,1,120,8|0,0:0|0:0,0:0:0:0:
383,122,2291,1,8,0:0:0:0:
68,275,2494,6,0,P|43:256|73:185,1,120,8|2,0:0|0:0,0:0:0:0:
155,143,2798,2,0,L|215:145,2,60,8|2|2,0:0|0:0|0:0,0:0:0:0:
71,90,3102,1,8,0:0:0:0:
353,76,3305,6,0,L|473:72,1,120,8|0,1:0|0:0,0:0:0:0:
388,173,3609,2,0,P|368:175|316:253,1,120,8|0,0:0|0:0,0:0:0:0:
400,296,3913,1,8,0:0:0:0:
116,305,4116,6,0,L|110:182,1,120,10|2,0:0|0:0,0:0:0:0:
193,172,4420,1,10,0:0:0:0:
276,161,4521,2,0,L|279:99,1,60,2|0,0:0|0:0,0:0:0:0:
110,185,4724,2,0,L|107:123,1,60,10|2,0:0|0:0,0:0:0:0:
364,110,4926,6,0,P|389:129|359:200,1,120,12|0,1:2|0:0,0:0:0:0:
277,199,5230,2,0,P|252:218|282:289,1,120,8|0,0:0|0:0,0:0:0:0:
363,288,5534,1,8,0:0:0:0:
279,288,5636,1,2,0:0:0:0:
69,288,5737,6,0,P|68:261|132:197,1,120,8|8,0:0|1:2,0:0:0:0:
212,197,6041,1,8,1:2:0:0:
296,197,6143,1,8,1:2:0:0:
325,134,6244,1,8,1:2:0:0:
297,70,6345,1,8,1:2:0:0:
231,47,6447,1,8,1:2:0:0:
35,49,6548,6,0,P|34:76|98:140,1,120,12|0,1:0|0:0,0:0:0:0:
178,316,6852,2,0,L|59:312,1,120,8|0,0:0|0:0,0:0:0:0:
142,220,7156,1,8,0:0:0:0:
418,216,7359,6,0,P|452:172|420:126,1,120,8|2,0:0|0:0,0:0:0:0:
334,125,7663,2,0,L|273:127,2,60,8|2|2,0:0|0:0|0:0,0:0:0:0:
419,125,7967,1,8,0:0:0:0:
44,311,8170,6,0,P|36:275|91:215,1,120,12|0,1:2|0:0,0:0:0:0:
170,212,8474,2,0,L|293:208,1,120,8|0,0:0|0:0,0:0:0:0:
205,115,8778,1,8,0:0:0:0:
489,296,8980,6,0,P|497:260|442:200,1,120,8|2,0:0|0:0,0:0:0:0:
362,193,9284,2,0,L|300:190,1,60,8|0,0:0|0:0,0:0:0:0:
386,90,9487,2,0,L|448:87,1,60,0|10,0:0|0:0,0:0:0:0:
149,319,9791,6,0,L|29:316,1,120,8|0,1:1|0:0,0:0:0:0:
113,218,10095,2,0,L|233:215,1,120,8|0,0:0|0:0,0:0:0:0:
148,121,10399,1,8,0:0:0:0:
430,309,10602,6,0,P|433:284|369:223,1,120,10|2,0:0|0:0,0:0:0:0:
286,126,10906,2,0,L|412:125,1,120,10|0,0:0|0:0,0:0:0:0:
490,125,11210,1,10,0:0:0:0:
192,309,11413,6,0,P|162:309|117:235,1,120,12|0,2:2|0:0,0:0:0:0:
200,153,11717,2,0,L|321:151,1,120,8|0,0:0|0:0,0:0:0:0:
235,57,12021,2,0,L|174:56,1,60,8|2,0:0|0:0,0:0:0:0:
380,62,12224,6,0,L|500:65,1,120,8|0,0:0|0:0,0:0:0:0:
416,163,12528,2,0,L|296:165,1,120,8|0,0:0|0:0,0:0:0:0:
381,260,12832,1,8,0:0:0:0:
104,329,13034,5,8,0:0:0:0:
56,222,13235,1,0,1:0:0:0:
99,114,13436,1,0,1:0:0:0:
207,69,13638,1,0,1:0:0:0:
374,67,13839,5,8,1:2:0:0:
195,175,14040,1,8,1:2:0:0:
374,162,14242,1,8,1:2:0:0:
183,288,14443,1,8,1:2:0:0:
477,330,14644,5,8,1:2:0:0:
312,311,14846,1,8,1:2:0:0:
310,167,15047,1,8,1:2:0:0:
483,151,15248,1,8,1:2:0:0:
173,66,15450,6,0,L|51:65,1,120,4|8,1:2|1:2,0:0:0:0:
112,150,15760,1,8,1:2:0:0:
289,217,15863,2,0,L|353:214,1,60,8|8,1:2|1:2,0:0:0:0:
126,283,16070,2,0,L|62:280,1,60,8|8,1:2|1:2,0:0:0:0:
283,337,16277,6,0,L|403:332,1,120,6|10,0:3|0:0,0:0:0:0:
234,202,16682,2,0,L|174:200,2,60,0|4|10,0:0|0:3|0:0,0:0:0:0:
503,100,17087,6,0,L|383:95,1,120,4|10,0:3|0:0,0:0:0:0:
214,216,17493,1,0,0:0:0:0:
273,213,17594,1,4,0:3:0:0:
333,211,17695,1,10,0:0:0:0:
50,320,17898,5,4,0:3:0:0:
218,312,18101,2,0,P|219:275|156:224,1,120,10|0,0:0|0:0,0:0:0:0:
99,221,18405,1,4,0:3:0:0:
39,221,18506,1,10,0:0:0:0:
342,112,18709,6,0,L|221:108,1,120,4|10,0:3|0:0,0:0:0:0:
390,250,19114,2,0,L|450:248,2,60,4|4|10,0:3|0:3|0:0,0:0:0:0:
117,260,19520,6,0,L|236:256,1,120,4|10,0:3|0:0,0:0:0:0:
72,142,19925,2,0,L|11:140,2,60,0|4|10,0:3|0:3|0:0,0:0:0:0:
355,146,20331,6,0,P|383:148|439:220,1,120,4|10,0:3|0:0,0:0:0:0:
270,322,20736,1,0,0:0:0:0:
329,320,20837,1,4,0:3:0:0:
389,319,20938,1,10,0:0:0:0:
107,292,21141,6,0,L|98:172,1,120,4|10,0:3|0:0,0:0:0:0:
267,70,21547,1,0,0:0:0:0:
208,68,21648,1,4,0:3:0:0:
148,67,21749,1,10,0:0:0:0:
423,229,21952,6,0,P|451:224|499:150,1,120,12|8,1:1|1:2,0:0:0:0:
414,144,22256,2,0,P|386:139|338:65,1,120,4|4,0:3|0:3,0:0:0:0:
422,60,22560,1,8,1:2:0:0:
131,38,22763,6,0,L|11:35,1,120,6|10,0:3|0:0,0:0:0:0:
179,149,23168,2,0,L|173:213,1,60,0|4,0:0|0:3,0:0:0:0:
89,222,23371,1,10,0:0:0:0:
369,317,23574,6,0,L|493:314,1,120,4|10,0:3|0:0,0:0:0:0:
320,177,23979,1,0,0:0:0:0:
260,176,24080,1,4,0:3:0:0:
200,174,24181,1,10,0:0:0:0:
479,65,24385,5,4,0:3:0:0:
312,73,24588,2,0,P|311:110|374:161,1,120,10|0,0:0|0:0,0:0:0:0:
431,163,24892,1,4,0:3:0:0:
491,164,24993,1,10,0:0:0:0:
188,273,25196,6,0,L|309:277,1,120,4|10,0:3|0:0,0:0:0:0:
140,135,25601,2,0,L|80:137,2,60,4|4|10,0:3|0:3|0:0,0:0:0:0:
451,123,26006,5,6,0:3:0:0:
306,130,26209,2,0,L|302:276,1,143.999995605469,10|4,0:0|0:3,0:0:0:0:
445,288,26614,1,10,0:0:0:0:
129,309,26817,2,0,L|277:301,2,143.999995605469,4|10|4,0:3|0:0|0:3,0:0:0:0:
302,188,27425,1,10,0:0:0:0:
23,102,27628,6,0,L|143:97,1,120,4|10,0:3|0:0,0:0:0:0:
287,244,28033,2,0,L|167:239,1,120,4|10,0:3|0:2,0:0:0:0:
476,325,28439,6,0,P|486:282|474:205,1,120,2|8,0:3|1:2,0:0:0:0:
391,196,28743,1,8,1:2:0:0:
308,184,28844,1,8,1:2:0:0:
305,113,28945,1,8,1:2:0:0:
347,56,29046,1,8,1:2:0:0:
416,38,29148,1,8,1:2:0:0:
163,30,29249,6,0,L|41:29,1,120,2|10,0:0|0:0,0:0:0:0:
227,176,29655,2,0,L|288:175,2,60,0|4|10,0:3|0:3|0:0,0:0:0:0:
43,313,30060,2,0,L|165:312,1,120,4|10,0:3|0:0,0:0:0:0:
331,171,30466,1,4,0:3:0:0:
271,170,30567,1,4,0:3:0:0:
211,170,30668,1,10,0:0:0:0:
379,307,30871,6,0,L|498:306,1,120,4|10,0:3|0:0,0:0:0:0:
315,174,31277,2,0,L|254:175,2,60,0|4|10,0:0|0:3|0:0,0:0:0:0:
498,34,31682,2,0,L|376:35,1,120,4|10,0:3|0:0,0:0:0:0:
209,177,32087,1,4,0:3:0:0:
269,176,32188,1,4,0:3:0:0:
329,176,32289,1,10,0:0:0:0:
42,332,32493,6,0,L|35:211,1,120,4|10,0:3|0:0,0:0:0:0:
203,161,32898,2,0,L|263:157,1,60,4|4,0:3|0:3,0:0:0:0:
277,73,33101,1,10,0:0:0:0:
79,279,33304,2,0,L|199:276,1,120,4|10,0:3|0:0,0:0:0:0:
366,272,33709,2,0,L|426:273,2,60,0|4|10,0:0|0:3|0:0,0:0:0:0:
198,276,34114,6,0,L|193:156,1,120,4|10,0:3|0:0,0:0:0:0:
370,86,34520,2,0,L|430:88,2,60,4|4|10,0:3|0:3|0:0,0:0:0:0:
223,204,34925,2,0,L|343:202,1,120,4|10,0:3|0:0,0:0:0:0:
173,64,35331,2,0,L|113:63,2,60,2|4|10,0:0|0:3|0:0,0:0:0:0:
492,87,35736,6,0,L|370:88,1,120,4|10,0:3|0:0,0:0:0:0:
204,229,36142,1,0,0:0:0:0:
264,230,36243,1,4,0:3:0:0:
324,230,36344,1,10,0:0:0:0:
131,230,36547,2,0,L|125:109,1,120,4|10,0:3|0:0,0:0:0:0:
292,94,36952,2,0,L|297:33,1,60,4|4,0:3|0:3,0:0:0:0:
213,20,37155,1,10,0:0:0:0:
20,235,37358,6,0,L|139:230,1,120,4|10,0:3|0:0,0:0:0:0:
308,360,37763,1,0,0:0:0:0:
248,357,37864,1,4,0:3:0:0:
188,355,37965,1,10,0:0:0:0:
373,230,38168,2,0,L|492:235,1,120,4|10,0:3|0:0,0:0:0:0:
300,138,38574,2,0,L|305:74,1,60,4|4,0:3|0:3,0:0:0:0:
389,73,38777,1,10,0:0:0:0:
64,248,38979,6,0,L|184:251,2,120,4|10|0,0:3|0:0|0:0,0:0:0:0:
148,154,39486,2,0,L|208:152,2,60,4|10|0,0:3|0:0|0:0,0:0:0:0:
64,248,39790,2,0,L|184:251,1,120,4|10,0:3|0:0,0:0:0:0:
352,145,40195,1,0,0:3:0:0:
292,146,40296,1,4,0:3:0:0:
232,148,40397,1,10,0:0:0:0:
292,146,40499,1,0,0:0:0:0:
492,235,40601,6,0,L|373:230,1,120,4|10,0:3|0:0,0:0:0:0:
204,341,41002,1,4,0:3:0:0:
264,338,41102,1,4,0:3:0:0:
324,336,41203,1,10,0:0:0:0:
53,211,41403,5,2,0:0:0:0:
221,222,41604,2,0,L|226:160,1,60,8|8,1:2|1:2,0:0:0:0:
144,143,41805,1,8,1:2:0:0:
67,111,41905,1,8,1:2:0:0:
67,54,42005,1,8,1:2:0:0:
145,24,42106,1,8,1:2:0:0:
343,21,42206,6,0,L|457:112,1,143.999995605469,6|10,0:3|0:0,0:0:0:0:
172,188,42611,2,0,L|162:331,1,143.999995605469,4|10,0:3|0:0,0:0:0:0:
335,331,43016,2,0,L|345:188,1,143.999995605469,4|10,0:3|0:0,0:0:0:0:
56,110,43422,2,0,L|169:21,2,143.999995605469,4|10|4,0:3|0:0|0:3,0:0:0:0:
354,199,44030,5,10,0:0:0:0:
210,210,44233,1,4,0:3:0:0:
354,199,44435,1,10,0:0:0:0:
66,323,44638,2,0,P|57:285|147:197,1,180,2|4,0:3|0:3,0:0:0:0:
230,196,45043,2,0,L|295:199,1,60,8|8,1:2|1:2,0:0:0:0:
207,93,45246,2,0,L|142:96,1,60,8|8,1:2|1:2,0:0:0:0:
404,129,45449,6,0,L|412:251,1,120,6|10,0:3|0:0,0:0:0:0:
243,350,45854,1,0,0:0:0:0:
302,348,45955,1,4,0:3:0:0:
362,346,46056,1,10,0:0:0:0:
64,267,46260,6,0,L|56:145,1,120,4|10,0:3|0:0,0:0:0:0:
225,46,46665,1,4,0:3:0:0:
166,48,46766,1,4,0:3:0:0:
106,50,46867,1,10,0:0:0:0:
378,218,47070,6,0,L|500:215,1,120,4|10,0:3|0:0,0:0:0:0:
328,127,47476,2,0,L|324:67,1,60,0|4,0:0|0:3,0:0:0:0:
405,49,47678,1,10,0:0:0:0:
136,305,47881,6,0,L|14:302,1,120,4|10,0:3|0:0,0:0:0:0:
186,214,48287,2,0,L|190:154,1,60,4|4,0:3|0:3,0:0:0:0:
109,136,48489,1,10,0:0:0:0:
437,319,48692,6,0,L|442:200,1,120,4|10,0:3|0:0,0:0:0:0:
273,122,49097,2,0,L|269:62,1,60,0|4,0:0|0:3,0:0:0:0:
350,44,49299,1,10,0:0:0:0:
39,311,49503,6,0,L|158:306,1,120,10|8,0:0|0:3,0:0:0:0:
243,297,49807,1,8,0:3:0:0:
158,305,49908,1,4,0:3:0:0:
106,242,50009,1,4,0:3:0:0:
120,162,50110,1,4,0:3:0:0:
191,122,50212,1,4,0:3:0:0:
430,123,50314,5,6,0:3:0:0:
245,75,51124,5,4,0:3:0:0:
208,92,51189,1,4,0:3:0:0:
192,130,51254,1,4,0:3:0:0:
206,169,51319,1,4,0:3:0:0:
242,188,51384,2,0,L|305:185,2,60,4|4|4,1:3|0:3|0:3,0:0:0:0:
75,284,51674,2,0,L|12:281,2,60,8|8|8,1:2|1:2|1:2,0:0:0:0:
312,333,51964,5,6,0:0:0:0:
476,244,52166,2,0,L|332:222,1,120,10|0,0:0|0:3,0:0:0:0:
284,194,52470,1,0,0:0:0:0:
359,167,52572,1,10,0:0:0:0:
80,219,52774,6,0,L|54:94,1,120,4|10,0:3|0:0,0:0:0:0:
128,72,53078,1,4,0:3:0:0:
213,72,53180,1,0,0:0:0:0:
41,25,53382,2,0,L|27:155,1,120,10|4,0:0|0:3,0:0:0:0:
305,184,53788,6,0,L|326:329,1,120,10|0,0:0|0:0,0:0:0:0:
244,326,54092,1,4,0:3:0:0:
161,342,54193,2,0,L|285:360,1,120,10|4,0:0|0:3,0:0:0:0:
456,346,54599,2,0,L|465:210,1,120,10|4,0:0|0:3,0:0:0:0:
390,198,54903,1,4,0:3:0:0:
310,180,55004,1,10,0:0:0:0:
468,96,55207,2,0,L|389:89,1,60,4|0,0:1|0:0,0:0:0:0:
200,120,55409,6,0,L|60:135,1,120,12|4,0:0|0:3,0:0:0:0:
152,182,55714,1,4,0:3:0:0:
239,204,55815,2,0,L|250:291,1,60,10|0,0:2|0:3,0:0:0:0:
45,338,56018,2,0,L|34:204,1,120,4|10,0:3|0:0,0:0:0:0:
115,187,56322,1,0,0:0:0:0:
197,175,56423,2,0,L|63:166,1,120,4|8,0:3|0:0,0:0:0:0:
421,73,56828,5,12,0:0:0:0:
204,69,57132,1,12,0:0:0:0:
458,177,57436,1,12,0:0:0:0:
65,343,57639,6,0,P|17:257|19:102,1,240,12|12,0:0|0:0,0:0:0:0:
491,48,58450,6,0,L|363:51,1,120,6|12,0:3|0:0,0:0:0:0:
204,166,58855,1,0,0:0:0:0:
263,170,58956,1,4,0:3:0:0:
323,175,59057,1,0,0:0:0:0:
139,309,59261,2,0,L|74:318,1,60,4|4,0:3|0:3,0:0:0:0:
165,284,59464,2,0,L|297:279,1,120,10|0,0:0|0:0,0:0:0:0:
353,280,59768,1,4,0:3:0:0:
133,120,59869,6,0,L|1:110,1,120,10|4,0:0|0:3,0:0:0:0:
203,46,60274,2,0,L|219:182,1,120,10|0,0:0|0:0,0:0:0:0:
136,196,60578,1,4,0:3:0:0:
50,228,60680,2,0,L|189:247,1,120,10|4,0:0|0:3,0:0:0:0:
362,343,61085,2,0,L|232:363,1,120,10|4,0:0|0:3,0:0:0:0:
325,326,61389,1,4,0:3:0:0:
425,317,61491,1,10,0:0:0:0:
120,348,61693,6,0,L|97:217,1,120,4|10,0:1|0:0,0:0:0:0:
288,224,62099,2,0,L|309:90,1,120,4|10,0:3|0:0,0:0:0:0:
107,76,62504,2,0,L|247:58,1,120,4|10,0:3|0:0,0:0:0:0:
439,85,62909,2,0,L|452:218,1,120,4|10,0:3|0:0,0:0:0:0:
169,340,63315,1,4,0:3:0:0:
329,299,63518,1,10,0:0:0:0:
180,250,63720,1,4,0:3:0:0:
12,244,63923,1,10,0:0:0:0:
331,160,64126,5,6,0:3:0:0:
149,79,64326,1,8,1:2:0:0:
98,107,64426,1,8,1:2:0:0:
84,164,64526,1,8,1:2:0:0:
116,212,64626,1,8,1:2:0:0:
174,221,64726,2,0,L|255:217,1,60,8|8,1:2|1:2,0:0:0:0:
483,337,64926,5,2,0:2:0:0:
315,373,65128,2,0,L|296:254,1,120,10|0,0:0|0:0,0:0:0:0:
377,233,65432,1,4,0:3:0:0:
465,228,65534,1,10,0:0:0:0:
266,156,65736,1,4,0:3:0:0:
473,71,65939,2,0,L|338:73,1,120,10|4,0:2|0:3,0:0:0:0:
273,60,66243,1,4,0:3:0:0:
353,72,66344,1,10,0:0:0:0:
173,150,66547,5,4,0:3:0:0:
361,240,66750,2,0,L|219:259,1,120,10|0,0:0|0:0,0:0:0:0:
315,302,67054,1,4,0:3:0:0:
411,322,67155,2,0,L|423:183,1,120,10|4,0:0|0:3,0:0:0:0:
210,142,67561,2,0,L|334:126,1,120,10|4,0:0|0:3,0:0:0:0:
413,97,67865,1,4,0:3:0:0:
328,71,67966,1,10,0:0:0:0:
49,57,68169,5,4,0:3:0:0:
207,116,68371,2,0,L|231:250,1,120,10|4,0:0|0:3,0:0:0:0:
143,270,68676,1,4,0:3:0:0:
48,283,68777,1,10,0:0:0:0:
358,355,68980,5,4,0:3:0:0:
181,249,69182,2,0,L|306:236,1,120,8|4,0:0|0:3,0:0:0:0:
371,244,69486,1,4,0:3:0:0:
160,112,69588,2,0,L|22:110,1,120,10|4,0:0|0:3,0:0:0:0:
225,41,69993,5,10,0:0:0:0:
30,218,70196,1,0,0:0:0:0:
89,221,70297,1,4,0:3:0:0:
149,224,70398,1,10,0:0:0:0:
467,133,70601,2,0,L|339:151,2,120,4|10|0,0:3|0:0|0:0,0:0:0:0:
395,198,71108,1,4,0:3:0:0:
311,209,71209,1,10,0:0:0:0:
27,335,71412,5,4,0:3:0:0:
201,332,71615,2,0,L|214:188,1,120,10|0,0:0|0:0,0:0:0:0:
128,179,71919,1,4,0:3:0:0:
39,165,72020,1,10,0:0:0:0:
234,112,72223,1,4,0:3:0:0:
34,71,72426,2,0,L|166:54,1,120,10|4,0:0|0:3,0:0:0:0:
232,24,72730,1,4,0:3:0:0:
151,33,72831,1,10,0:0:0:0:
439,116,73034,5,4,0:3:0:0:
267,138,73236,2,0,L|257:279,1,120,10|0,0:0|0:0,0:0:0:0:
339,288,73540,1,4,0:3:0:0:
434,298,73642,1,10,0:0:0:0:
243,362,73844,1,4,0:3:0:0:
451,373,74047,2,0,L|460:237,1,120,10|4,0:0|0:3,0:0:0:0:
377,220,74351,1,4,0:3:0:0:
285,196,74453,1,10,0:0:0:0:
16,123,74655,5,4,0:3:0:0:
201,49,74858,2,0,L|63:37,1,120,10|4,0:0|0:3,0:0:0:0:
159,39,75162,1,4,0:3:0:0:
81,38,75263,1,10,0:0:0:0:
245,151,75466,2,0,L|374:156,1,120,4|10,0:3|0:0,0:0:0:0:
285,187,75770,1,4,0:3:0:0:
455,231,75973,2,0,L|485:300,2,60,4|10|0,0:3|0:0|0:0,0:0:0:0:
245,343,76277,5,4,0:3:0:0:
415,288,76480,2,0,L|283:259,1,120,10|4,0:0|0:3,0:0:0:0:
380,219,76784,1,4,0:3:0:0:
474,202,76885,1,8,0:0:0:0:
180,160,77088,5,6,0:3:0:0:
344,95,77290,2,0,L|406:86,1,60,8|8,1:2|1:2,0:0:0:0:
319,67,77493,1,8,1:2:0:0:
296,130,77594,1,8,1:2:0:0:
340,176,77695,1,8,1:2:0:0:
410,174,77797,1,8,1:2:0:0:
175,279,77898,6,0,L|50:298,1,120,6|10,0:3|0:0,0:0:0:0:
237,365,78304,2,0,L|248:235,1,120,4|10,0:3|0:0,0:0:0:0:
430,248,78709,2,0,L|441:108,1,120,4|10,0:3|0:0,0:0:0:0:
237,50,79115,2,0,L|356:43,1,120,4|10,0:3|0:0,0:0:0:0:
74,146,79520,5,4,0:3:0:0:
244,170,79723,2,0,L|257:302,1,120,10|4,0:2|0:3,0:0:0:0:
172,312,80027,1,4,0:3:0:0:
382,336,80128,2,0,L|465:340,1,60,10|0,0:0|0:0,0:0:0:0:
208,365,80331,6,0,P|130:369|148:233,1,240,6|0,0:3|2:0,0:0:0:0:
204,207,80838,1,0,3:0:0:0:
288,197,80939,1,2,0:0:0:0:
373,197,81040,1,2,2:0:0:0:
158,100,81125,6,0,L|23:89,1,120,12|0,0:1|0:0,0:0:0:0:
235,40,81429,2,0,L|361:25,1,120,8|0,0:0|0:0,0:0:0:0:
278,77,81733,1,8,0:0:0:0:
472,140,81935,2,0,L|477:269,1,120,8|2,0:0|0:0,0:0:0:0:
283,320,82239,2,0,L|141:335,1,120,8|2,0:0|0:0,0:0:0:0:
241,301,82543,1,8,0:0:0:0:
320,296,82645,1,0,0:0:0:0:
86,268,82746,6,0,L|66:142,1,120,12|0,0:0|3:3,0:0:0:0:
178,129,83050,2,0,L|320:114,1,120,8|0,0:0|3:0,0:0:0:0:
73,53,83354,1,8,0:0:0:0:
245,50,83557,2,0,L|255:184,1,120,0|10,3:0|1:2,0:0:0:0:
175,193,83867,1,0,1:0:0:0:
92,213,83970,1,10,1:2:0:0:
178,271,84074,1,0,1:0:0:0:
375,313,84177,2,0,L|454:320,1,60,0|0,1:2|1:0,0:0:0:0:
206,362,84384,6,0,L|75:353,1,120,12|0,0:1|0:0,0:0:0:0:
290,238,84688,2,0,L|436:211,1,120,8|0,0:0|0:0,0:0:0:0:
330,182,84992,1,8,0:0:0:0:
38,231,85194,6,0,L|21:101,1,120,14|2,0:0|0:0,0:0:0:0:
151,58,85498,2,0,L|7:77,1,120,10|0,0:0|0:0,0:0:0:0:
250,150,85802,2,0,L|318:152,1,60,10|2,0:0|0:0,0:0:0:0:
86,204,86005,2,0,L|66:329,1,120,12|0,0:2|0:0,0:0:0:0:
193,362,86306,2,0,L|317:346,1,120,8|0,0:0|0:0,0:0:0:0:
95,202,86607,2,0,L|28:193,1,60,8|2,0:0|0:0,0:0:0:0:
257,124,86807,6,0,L|395:92,1,120,8|0,0:0|0:0,0:0:0:0:
248,38,87108,2,0,L|111:51,1,120,8|0,0:0|0:0,0:0:0:0:
213,74,87409,1,8,0:0:0:0:
492,179,87610,6,0,L|366:204,1,120,12|0,0:1|0:0,0:0:0:0:
161,328,87914,2,0,L|153:192,1,120,8|0,0:0|0:0,0:0:0:0:
239,182,88218,1,8,0:0:0:0:
329,178,88319,1,0,0:0:0:0:
117,106,88420,6,0,L|0:162,1,120,8|2,0:0|0:0,0:0:0:0:
205,295,88724,2,0,L|324:304,1,120,8|2,0:0|0:0,0:0:0:0:
425,363,89028,2,0,L|343:378,1,60,8|0,0:0|0:0,0:0:0:0:
155,373,89231,6,0,L|13:360,1,120,12|0,0:0|3:0,0:0:0:0:
231,238,89535,2,0,L|368:217,1,120,8|0,0:0|3:0,0:0:0:0:
273,178,89839,1,8,0:0:0:0:
192,174,89941,1,0,0:0:0:0:
418,124,90042,5,8,3:3:0:0:
255,91,90245,2,0,L|250:18,1,60,8|8,1:0|1:0,0:0:0:0:
434,31,90549,2,0,L|505:37,1,60,8|8,1:0|0:0,0:0:0:0:
149,214,90853,6,0,L|17:232,1,120,12|0,0:1|0:0,0:0:0:0:
138,266,91157,2,0,L|268:272,1,120,8|0,0:0|0:0,0:0:0:0:
163,320,91461,1,8,0:0:0:0:
465,350,91664,2,0,L|478:220,1,120,12|0,0:2|0:0,0:0:0:0:
271,249,91968,2,0,L|249:120,1,120,8|0,0:0|3:0,0:0:0:0:
359,111,92272,1,8,0:0:0:0:
50,51,92474,6,0,L|41:197,1,120,12|0,0:1|0:0,0:0:0:0:
260,263,92778,2,0,L|393:239,1,120,8|0,0:0|0:0,0:0:0:0:
297,212,93082,1,8,0:0:0:0:
17,78,93285,5,4,0:0:0:0:
180,97,93488,2,0,L|253:95,1,60,8|8,1:2|1:2,0:0:0:0:
142,136,93691,1,8,1:2:0:0:
110,198,93792,1,8,1:2:0:0:
142,259,93893,1,8,1:2:0:0:
210,271,93995,1,8,1:2:0:0:
420,352,94096,2,0,L|503:346,1,71.9999978027344,0|0,3:0|3:0,0:0:0:0:
275,354,94299,6,0,L|253:226,1,120,12|0,0:0|3:0,0:0:0:0:
450,168,94704,2,0,L|323:158,1,120,12|0,0:0|3:0,0:0:0:0:
26,56,95110,2,0,L|166:45,1,120,12|0,0:0|3:0,0:0:0:0:
458,89,95515,6,0,L|476:224,1,120,12|4,0:0|3:3,0:0:0:0:
299,269,95920,1,10,0:0:0:0:
458,360,96123,1,0,0:2:0:0:
479,297,96224,1,2,3:2:0:0:
440,249,96325,1,8,0:0:0:0:
378,237,96427,1,0,0:0:0:0:
142,120,96528,6,0,L|11:122,1,120,2|10,3:2|0:0,0:0:0:0:
202,39,96934,1,2,3:2:0:0:
261,34,97035,1,0,0:0:0:0:
321,30,97136,1,10,0:0:0:0:
147,45,97339,1,0,3:0:0:0:
461,118,97542,6,0,L|470:264,1,120,12|0,0:0|3:0,0:0:0:0:
198,314,97947,2,0,L|340:320,1,120,12|0,0:0|3:0,0:0:0:0:
41,364,98353,2,0,L|23:220,1,120,12|0,0:0|3:0,0:0:0:0:
305,158,98758,2,0,L|438:146,1,120,12|4,0:0|3:3,0:0:0:0:
232,80,99164,1,10,0:0:0:0:
417,69,99366,1,2,3:2:0:0:
424,128,99467,1,0,0:0:0:0:
432,188,99568,1,10,3:2:0:0:
154,228,99772,6,0,L|28:240,1,120,2|10,3:2|0:0,0:0:0:0:
210,346,100177,1,2,3:2:0:0:
211,286,100278,1,0,0:0:0:0:
213,226,100379,1,10,0:0:0:0:
42,158,100582,1,0,3:0:0:0:
332,111,100788,6,0,L|455:102,1,120,12|0,0:0|3:0,0:0:0:0:
378,81,101099,1,0,3:0:0:0:
151,302,101202,2,0,L|28:293,1,120,12|0,0:0|3:0,0:0:0:0:
105,272,101513,1,0,3:0:0:0:
316,234,101616,2,0,L|193:225,1,120,12|0,0:0|3:0,0:0:0:0:
270,204,101927,1,0,3:0:0:0:
490,171,102030,1,12,0:0:0:0:
317,103,102237,6,0,L|304:234,1,120,4|10,0:3|0:0,0:0:0:0:
135,246,102642,1,0,0:0:0:0:
193,260,102743,1,2,3:2:0:0:
251,274,102844,1,8,0:0:0:0:
422,308,103047,1,0,3:0:0:0:
129,364,103250,6,0,L|51:355,2,60,8|0|0,0:0|3:0|0:0,0:0:0:0:
201,362,103554,1,0,3:0:0:0:
281,353,103655,2,0,L|288:276,1,60,10|0,0:0|0:0,0:0:0:0:
65,235,103858,5,4,0:0:0:0:
234,150,104061,2,0,L|88:138,1,120,8|0,0:0|0:0,0:0:0:0:
196,104,104365,1,0,3:0:0:0:
284,97,104466,2,0,L|302:215,1,120,8|0,0:0|3:0,0:0:0:0:
22,48,104872,6,0,L|159:34,1,120,8|0,0:0|0:0,0:0:0:0:
226,72,105176,1,0,3:0:0:0:
142,63,105277,1,8,0:0:0:0:
429,185,105480,1,0,3:0:0:0:
257,270,105682,2,0,L|121:287,1,120,8|0,0:0|0:0,0:0:0:0:
224,335,105987,1,0,3:0:0:0:
321,348,106088,1,8,0:0:0:0:
22,130,106291,5,4,0:0:0:0:
193,71,106493,2,0,L|268:69,1,60,8|8,1:2|1:2,0:0:0:0:
69,175,106696,1,8,1:2:0:0:
50,229,106797,1,8,1:2:0:0:
82,278,106898,1,8,1:2:0:0:
139,283,107000,1,8,1:2:0:0:
350,357,107101,6,0,P|426:334|456:184,1,240,4|10,0:2|0:0,0:0:0:0:
250,138,107811,2,0,L|115:129,1,120,8|0,0:0|0:0,0:0:0:0:
256,73,108115,2,0,L|260:194,1,120,4|10,0:3|0:0,0:0:0:0:
149,217,108419,1,4,0:3:0:0:
442,350,108723,6,0,P|366:321|463:199,1,287.999991210938,6|10,0:3|0:0,0:0:0:0:
454,84,109432,2,0,L|294:78,1,143.999995605469,8|0,0:0|0:0,0:0:0:0:
186,101,109737,2,0,L|193:223,1,120,4|10,0:3|0:0,0:0:0:0:
308,259,110041,1,4,0:3:0:0:
41,304,110345,6,0,L|28:175,1,120,6|0,0:3|0:0,0:0:0:0:
106,151,110649,1,0,0:0:0:0:
199,136,110750,1,10,0:0:0:0:
24,62,110953,2,0,L|90:54,1,60,0|8,0:0|0:0,0:0:0:0:
174,53,111155,1,0,0:0:0:0:
369,105,111358,2,0,L|387:235,1,120,4|10,0:3|0:0,0:0:0:0:
257,251,111662,2,0,L|392:259,1,120,4|0,0:3|0:0,0:0:0:0:
491,295,111966,6,0,L|487:164,1,120,6|4,0:3|0:3,0:0:0:0:
284,106,112372,2,0,L|141:106,1,120,10|0,1:2|1:2,0:0:0:0:
248,74,112692,1,0,1:3:0:0:
338,61,112799,2,0,L|459:66,1,120,2|4,1:2|0:3,0:0:0:0:
259,244,113204,1,10,0:0:0:0:
435,333,113396,2,0,L|365:343,1,60,8|8,1:2|1:2,0:0:0:0:
156,368,113589,6,0,P|88:364|72:211,1,240,4|10,0:0|0:0,0:0:0:0:
263,143,114298,2,0,L|277:270,1,120,8|0,0:0|0:0,0:0:0:0:
153,309,114602,2,0,L|25:326,1,120,4|10,0:3|0:0,0:0:0:0:
139,261,114906,1,4,0:3:0:0:
431,265,115210,6,0,B|426:117|426:117|271:104,1,287.999991210938,6|10,0:3|0:0,0:0:0:0:
76,133,115920,2,0,L|63:263,1,120,8|0,0:0|0:0,0:0:0:0:
196,288,116224,2,0,L|213:165,1,120,4|10,0:3|0:0,0:0:0:0:
84,145,116528,1,4,0:3:0:0:
346,93,116832,6,0,L|221:71,1,120,6|0,0:3|0:0,0:0:0:0:
148,58,117136,1,0,0:0:0:0:
231,63,117237,1,10,0:0:0:0:
407,60,117440,2,0,L|474:60,1,60,0|8,0:0|0:0,0:0:0:0:
395,110,117643,1,0,0:0:0:0:
190,177,117845,2,0,L|322:196,1,120,4|10,0:3|0:0,0:0:0:0:
432,205,118149,2,0,L|448:351,1,120,4|0,0:3|0:0,0:0:0:0:
228,364,118453,5,6,0:3:0:0:
394,295,118656,2,0,L|322:269,1,60,0|4,0:0|0:3,0:0:0:0:
252,281,118859,2,0,L|239:157,1,120,8|0,1:2|1:0,0:0:0:0:
323,148,119163,1,0,1:0:0:0:
95,103,119264,5,2,0:0:0:0:
249,76,119467,1,8,1:2:0:0:
314,98,119565,1,8,1:2:0:0:
339,164,119663,1,8,1:0:0:0:
303,224,119761,1,8,1:0:0:0:
104,278,119859,2,0,L|16:291,1,60,8|8,1:0|1:0,0:0:0:0:
277,359,120055,5,4,0:1:0:0:
448,362,120257,2,0,L|457:226,1,120,8|0,0:0|0:0,0:0:0:0:
377,211,120561,1,0,3:0:0:0:
293,197,120663,1,8,0:0:0:0:
464,141,120865,1,2,3:2:0:0:
176,93,121068,2,0,L|41:95,1,120,8|0,0:0|3:0,0:0:0:0:
130,58,121372,1,0,3:0:0:0:
223,60,121473,1,10,0:0:0:0:
44,187,121676,5,0,3:0:0:0:
317,186,121879,2,0,L|339:314,1,120,8|0,0:0|0:0,0:0:0:0:
245,330,122183,1,0,3:0:0:0:
343,349,122284,2,0,L|463:343,1,120,8|2,0:0|3:2,0:0:0:0:
192,232,122690,2,0,L|316:216,1,120,8|0,0:0|3:0,0:0:0:0:
400,194,122994,1,0,3:0:0:0:
397,115,123095,1,10,0:0:0:0:
100,77,123298,5,0,3:0:0:0:
263,135,123500,2,0,L|119:156,1,120,10|0,0:0|3:0,0:0:0:0:
64,194,123805,1,0,0:0:0:0:
149,262,123906,1,10,0:0:0:0:
339,345,124109,5,2,3:2:0:0:
132,278,124311,2,0,L|257:265,1,120,8|0,0:0|0:0,0:0:0:0:
320,255,124615,1,2,3:2:0:0:
92,186,124717,2,0,L|79:59,1,120,8|0,0:2|3:0,0:0:0:0:
386,36,125122,5,10,0:0:0:0:
214,93,125325,2,0,L|137:96,2,60,0|0|10,3:0|0:0|0:0,0:0:0:0:
399,149,125730,2,0,L|414:282,1,120,4|8,0:1|0:0,0:0:0:0:
372,319,126034,1,0,3:0:0:0:
310,349,126135,1,0,0:0:0:0:
246,352,126237,1,0,3:0:0:0:
452,377,126338,2,0,L|462:313,1,60,8|8,0:0|0:0,0:0:0:0:
234,249,126541,5,4,0:1:0:0:
395,177,126744,2,0,L|273:155,1,120,8|0,0:0|0:0,0:0:0:0:
350,119,127048,1,0,3:0:0:0:
438,114,127149,2,0,L|450:242,1,120,8|2,0:0|3:2,0:0:0:0:
175,75,127555,2,0,L|294:59,1,120,8|0,0:0|3:0,0:0:0:0:
371,39,127859,1,0,3:0:0:0:
286,31,127960,1,10,0:0:0:0:
18,142,128163,5,0,3:0:0:0:
187,169,128365,2,0,L|210:300,1,120,8|0,0:0|0:0,0:0:0:0:
130,326,128669,1,0,3:0:0:0:
42,338,128771,1,8,0:0:0:0:
231,364,128973,1,2,3:2:0:0:
35,214,129176,2,0,L|170:196,1,120,8|0,0:0|3:0,0:0:0:0:
232,148,129480,1,0,3:0:0:0:
144,124,129582,1,10,0:0:0:0:
443,68,129784,5,0,3:0:0:0:
276,73,129987,2,0,L|276:206,1,120,10|2,0:0|3:2,0:0:0:0:
360,225,130291,1,0,0:0:0:0:
448,232,130392,1,10,0:0:0:0:
262,326,130595,2,0,L|142:321,1,120,2|10,3:2|0:2,0:0:0:0:
211,284,130899,1,0,0:0:0:0:
416,139,131000,2,0,L|499:137,2,60,0|0|8,3:0|0:0|0:0,0:0:0:0:
337,136,131305,1,0,0:0:0:0:
101,127,131406,5,0,3:0:0:0:
262,203,131609,2,0,L|387:179,1,120,8|0,0:0|3:0,0:0:0:0:
298,150,131913,1,0,0:0:0:0:
379,116,132014,1,8,0:0:0:0:
67,288,132217,5,4,0:1:0:0:
235,336,132419,2,0,L|249:256,1,60,8|8,1:0|1:0,0:0:0:0:
55,217,132622,1,0,1:0:0:0:
31,165,132724,1,0,1:0:0:0:
60,114,132825,1,8,1:0:0:0:
118,107,132926,1,8,1:0:0:0:
364,92,133027,6,0,L|484:82,1,120,6|10,3:0|0:0,0:0:0:0:
284,213,133438,2,0,L|161:220,1,120,4|10,0:3|0:0,0:0:0:0:
455,345,133850,2,0,L|336:359,1,120,4|10,0:3|0:0,0:0:0:0:
166,258,134261,1,4,0:3:0:0:
339,238,134467,1,10,0:0:0:0:
23,141,134710,5,6,0:3:0:0:
308,84,135127,1,8,0:0:0:0:
179,128,135294,1,8,0:0:0:0:
310,179,135461,1,8,0:0:0:0:
465,195,135723,1,4,0:3:0:0:
291,329,135985,2,0,L|205:321,1,80,4|8,0:3|0:3,0:0:0:0:
22,149,136553,5,4,0:3:0:0:
212,121,136787,1,8,0:0:0:0:
425,104,137178,1,8,0:0:0:0:
29,55,137750,5,4,0:0:0:0:
256,192,137893,12,0,145626,0:0:0:0:
