osu file format v14

[General]
AudioFilename: audio.mp3
AudioLeadIn: 0
PreviewTime: 51992
Countdown: 0
SampleSet: Soft
StackLeniency: 0.4
Mode: 0
LetterboxInBreaks: 0
WidescreenStoryboard: 1

[Editor]
DistanceSpacing: 1.2
BeatDivisor: 4
GridSize: 16
TimelineZoom: 3.600004

[Metadata]
Title:DVP
TitleUnicode:DVP
Artist:PUP
ArtistUnicode:PUP
Creator:Hobbes2
Version:Normal
Source:osu!
Tags:fa featured artist the dream is over english indie punk rock fieryrage lasse milan- maestrosplinter mir
BeatmapID:1600996
BeatmapSetID:756815

[Difficulty]
HPDrainRate:4
CircleSize:3
OverallDifficulty:4
ApproachRate:5.5
SliderMultiplier:0.7
SliderTickRate:1

[Events]
//Background and Video events
0,0,"BG BG.jpg"
//Break Periods
2,45589,49072
//Storyboard Layer 0 (Background)
//Storyboard Layer 1 (Fail)
//Storyboard Layer 2 (Pass)
//Storyboard Layer 3 (Foreground)
//Storyboard Layer 4 (Overlay)
//Storyboard Sound Samples

[TimingPoints]
0,202.702702702703,4,2,1,80,1,0
1013,196.078431372549,4,2,1,80,1,0
1111,-100,4,2,1,80,0,0
1601,204.081632653061,4,2,1,80,1,0
1601,-100,4,2,1,80,0,0
3233,205.479452054795,4,2,1,80,1,0
3233,-100,4,2,1,80,0,0
4465,200,4,2,1,80,1,0
4465,-100,4,2,1,80,0,0
4665,-100,4,2,1,80,0,0
4865,202.702702702703,4,2,1,80,1,0
4865,-100,4,2,1,80,0,0
11351,198.675496688742,4,2,1,80,1,0
11351,-100,4,2,1,80,0,0
12145,200,4,2,1,80,1,0
12145,-100,4,2,1,80,0,0
12945,204.081632653061,4,2,10,80,1,0
12945,-100,4,2,10,80,0,0
13149,-100,4,2,1,40,0,0
13557,-100,4,2,1,40,0,0
13560,-100,4,2,1,50,0,0
13761,-100,4,2,2,60,0,0
13762,-100,4,2,2,60,0,0
13965,201.342281879195,4,2,2,60,1,0
13965,-100,4,2,2,60,0,0
14166,-100,4,2,2,70,0,0
14569,201.342281879195,4,2,3,80,1,0
14570,-100,4,2,3,80,0,0
15374,205.479452054795,4,2,1,80,1,0
15374,-100,4,2,1,80,0,0
15378,-100,4,2,1,80,0,0
15579,-100,4,2,1,80,0,0
16195,202.702702702703,4,2,10,80,1,0
16195,-100,4,2,10,80,0,0
17816,206.896551724138,4,2,10,80,1,0
17816,-100,4,2,10,80,0,0
18643,202.702702702703,4,2,10,80,1,0
18643,-100,4,2,10,80,0,0
21278,197.368421052632,4,2,10,80,1,0
21278,-100,4,2,10,80,0,0
21861,-100,4,2,10,80,0,0
22462,202.702702702703,4,2,10,80,1,0
22462,-100,4,2,10,80,0,0
22664,204.081632653061,4,2,10,80,1,0
22664,-100,4,2,10,80,0,0
24296,222.222222222222,4,2,10,80,1,0
24296,-96.3391136801541,4,2,10,80,0,0
24740,198.675496688742,4,2,10,80,1,0
24740,-100,4,2,10,80,0,0
25336,202.702702702703,4,2,10,80,1,0
25336,-100,4,2,10,80,0,0
25944,202.702702702703,4,2,10,80,1,0
25944,-100,4,2,10,80,0,0
26067,-100,4,2,10,5,0,0
26146,-100,4,2,10,80,0,0
26219,-100,4,2,10,5,0,0
26349,-100,4,2,10,80,0,0
26473,-100,4,2,10,5,0,0
26552,-100,4,2,10,80,0,0
26625,-100,4,2,10,5,0,0
26754,200,4,2,10,80,1,0
26754,-100,4,2,10,80,0,0
26878,-100,4,2,10,5,0,0
26954,-100,4,2,10,80,0,0
27030,-100,4,2,10,5,0,0
27154,-100,4,2,10,80,0,0
27436,-100,4,2,10,5,0,0
27554,-100,4,2,10,80,0,0
28348,-100,4,2,10,80,0,0
28954,222.222222222222,4,2,10,80,1,0
28954,-100,4,2,10,80,0,0
29176,202.702702702703,4,2,11,60,1,0
29176,-100,4,2,11,60,0,0
32216,192.307692307692,4,2,11,60,1,0
32216,-100,4,2,11,60,0,0
32408,214.285714285714,4,2,11,60,1,0
32408,-100,4,2,11,60,0,0
32622,202.702702702703,4,2,11,60,1,0
32622,-100,4,2,11,60,0,0
33027,205.479452054795,4,2,11,60,1,0
33027,-100,4,2,11,60,0,0
33643,201.342281879195,4,2,11,60,1,0
33643,-100,4,2,11,60,0,0
34045,201.342281879195,4,2,11,60,1,0
34045,-100,4,2,11,60,0,0
35253,197.368421052632,4,2,11,60,1,0
35253,-100,4,2,11,60,0,0
35647,202.702702702703,4,2,11,60,1,0
35647,-100,4,2,11,60,0,0
36457,208.333333333333,4,2,11,60,1,0
36457,-100,4,2,11,60,0,0
37082,191.082802547771,4,2,11,60,1,0
37082,-100,4,2,11,60,0,0
37273,208.333333333333,4,2,11,60,1,0
37273,-100,4,2,11,60,0,0
37689,205.831903945111,4,2,10,80,1,0
37689,-100,4,2,10,80,0,0
37894,-100,4,2,11,60,0,0
38100,202.702702702703,4,2,11,60,1,0
38100,-100,4,2,11,60,0,0
38910,201.342281879195,4,2,11,60,1,0
38910,-100,4,2,11,60,0,0
40520,202.702702702703,4,2,11,60,1,0
40520,-100,4,2,11,60,0,0
41321,-100,4,2,11,60,0,0
41328,-100,4,2,10,60,0,0
41533,194.805194805195,4,2,10,80,1,0
41533,-100,4,2,10,80,0,0
42117,229.007633587786,4,2,10,80,1,0
42117,-100,4,2,10,80,0,0
42284,-100,4,2,10,5,0,0
42346,202.702702702703,4,2,10,80,1,0
42346,-100,4,2,10,80,0,0
42692,-100,4,2,10,5,0,0
42750,-100,4,2,10,80,0,0
43100,-100,4,2,10,5,0,0
43156,-100,4,2,10,80,0,0
43508,-100,4,2,10,5,0,0
43562,-100,4,2,10,80,0,0
43916,-100,4,2,10,5,0,0
43967,200,4,2,10,80,1,0
43967,-100,4,2,10,80,0,0
44367,212.765957446809,4,2,10,80,1,0
44367,-100,4,2,10,80,0,0
44579,202.702702702703,4,2,10,80,1,0
44579,-100,4,2,10,80,0,0
44783,-100,4,2,2,80,0,0
44987,-100,4,2,2,80,0,0
45389,206.896551724138,4,2,10,80,1,0
45389,-100,4,2,10,80,0,0
46009,194.805194805195,4,2,10,80,1,0
46009,-100,4,2,10,80,0,0
46203,202.702702702703,4,2,10,80,1,0
46203,-100,4,2,10,80,0,0
47824,205.479452054795,4,2,10,80,1,0
47824,-100,4,2,10,80,0,0
49467,201.342281879195,4,2,10,80,1,0
49467,-100,4,2,10,80,0,0
49664,-100,4,2,1,80,0,0
50272,205.479452054795,4,2,12,80,1,0
50272,-100,4,2,12,80,0,0
51093,-100,4,2,2,80,0,0
51299,197.368421052632,4,2,2,80,1,0
51299,-100,4,2,2,80,0,0
51891,202.702702702703,4,2,10,80,1,0
51891,-100,4,2,10,80,0,0
52904,200,4,2,10,80,1,0
52904,-100,4,2,10,80,0,0
53504,202.702702702703,4,2,10,80,1,0
53504,-100,4,2,10,80,0,0
55125,206.896551724138,4,2,10,80,1,0
55125,-100,4,2,10,80,0,0
55342,-100,4,2,10,80,0,0
55952,202.702702702703,4,2,10,80,1,0
55952,-100,4,2,10,80,0,0
56760,-100,4,2,2,80,0,0
56762,-100,4,2,2,80,0,0
57570,-100,4,2,2,80,0,0
57573,-100,4,2,1,80,0,0
57772,-100,4,2,10,80,0,0
57979,-100,4,2,1,80,0,0
58177,-100,4,2,10,80,0,0
58380,-100,4,2,10,80,0,0
59803,212.765957446809,4,2,10,80,1,0
59803,-100,4,2,10,80,0,0
60000,-100,4,2,10,80,0,0
60015,201.342281879195,4,2,10,80,1,0
60015,-100,4,2,10,80,0,0
61625,202.702702702703,4,1,10,80,1,0
61625,-100,4,1,10,80,0,0
61772,-100,4,2,10,5,0,0
61827,-100,4,2,10,80,0,0
61974,-100,4,2,10,5,0,0
62030,-100,4,2,10,80,0,0
62177,-100,4,2,10,5,0,0
62233,-100,4,2,10,80,0,0
62379,-100,4,2,10,5,0,0
62435,201.342281879195,4,2,10,80,1,0
62435,-100,4,2,10,80,0,0
62582,-100,4,2,10,5,0,0
62636,-100,4,2,10,60,0,0
62784,-100,4,2,10,5,0,0
62837,-100,4,2,10,80,0,0
62987,-100,4,2,10,5,0,0
63039,-100,4,2,10,80,0,0
63189,-100,4,2,10,5,0,0
63240,-100,4,2,10,80,0,0
64649,220.588235294118,4,2,10,80,1,0
64649,-100,4,2,10,80,0,0
64869,202.702702702703,4,2,10,60,1,0
64869,-100,4,2,10,60,0,0
65062,-100,4,2,12,60,0,0
65679,200,4,2,10,60,1,0
65679,-100,4,2,10,60,0,0
66479,204.081632653061,4,2,10,60,1,0
66479,-100,4,2,10,60,0,0
67499,202.702702702703,4,2,10,60,1,0
67499,-100,4,2,10,60,0,0
68107,202.702702702703,4,2,10,60,1,0
68107,-100,4,2,10,60,0,0
69728,201.342281879195,4,2,10,60,1,0
69728,-100,4,2,10,60,0,0
71338,204.081632653061,4,2,10,60,1,0
71338,-100,4,2,10,60,0,0
71340,-100,4,2,10,60,0,0
72970,206.896551724138,4,2,10,60,1,0
72970,-99.009900990099,4,2,10,60,0,0
73383,200,4,2,10,60,1,0
73383,-100,4,2,10,60,0,0
73583,-100,4,2,10,60,0,0
73783,203.735144312394,4,2,10,60,1,0
73783,-100,4,2,10,60,0,0
74190,202.702702702703,4,2,10,60,1,0
74190,-100,4,2,10,60,0,0
74392,-100,4,2,10,60,0,0
74595,202.702702702703,4,2,10,60,1,0
74595,-100,4,2,10,60,0,0
77230,197.368421052632,4,2,10,80,1,0
77230,-100,4,2,10,80,0,0
77822,202.702702702703,4,2,10,80,1,0
77822,-100,4,2,10,80,0,0
77972,-100,4,2,10,5,0,0
78024,-100,4,2,10,80,0,0
78377,-100,4,2,10,5,0,0
78430,-100,4,2,10,80,0,0
78782,-100,4,2,10,5,0,0
78835,-100,4,2,10,80,0,0
79187,-100,4,2,10,5,0,0
79240,-100,4,2,10,80,0,0
79592,-100,4,2,10,5,0,0
79642,-100,4,2,10,5,0,0
79646,-100,4,2,10,80,0,0
80051,208.333333333333,4,2,10,80,1,0
80051,-100,4,2,10,80,0,0
80259,-100,4,2,12,80,0,0
80571,-100,4,2,2,80,0,0
80655,-100,4,2,2,80,0,0
80780,189.873417721519,4,2,2,80,1,0
80780,-100,4,2,2,80,0,0
81064,202.702702702703,4,2,1,80,1,0
81064,-100,4,2,1,80,0,0
82482,205.479452054795,4,2,1,80,1,0
82482,-100,4,2,1,80,0,0
82995,193.548387096774,4,2,1,80,1,0
82995,-100,4,2,1,80,0,0
83285,204.081632653061,4,2,1,80,1,0
83285,-100,4,2,1,80,0,0
83303,-100,4,2,1,80,0,0
83693,218.978102189781,4,2,1,80,1,0
83693,-100,4,2,1,80,0,0
84021,202.702702702703,4,2,1,80,1,0
84021,-100,4,2,1,80,0,0
84121,-100,4,2,1,80,0,0
84325,202.702702702703,4,2,1,80,1,0
84325,-100,4,2,1,80,0,0
85135,201.342281879195,4,2,1,80,1,0
85135,-100,4,2,1,80,0,0
85940,202.702702702703,4,2,1,80,1,0
85940,-100,4,2,1,80,0,0
86750,200,4,2,1,80,1,0
86750,-100,4,2,1,80,0,0
87550,205.479452054795,4,2,1,80,1,0
87550,-100,4,2,1,80,0,0
88371,202.702702702703,4,2,1,80,1,0
88371,-100,4,2,1,80,0,0
89181,197.368421052632,4,2,1,80,1,0
89181,-100,4,2,1,80,0,0
89970,208.333333333333,4,2,1,80,1,0
89970,-100,4,2,1,80,0,0
90803,202.702702702703,4,2,1,80,1,0
90803,-100,4,2,1,80,0,0
91613,206.896551724138,4,2,1,80,1,0
91613,-100,4,2,1,80,0,0
92440,200,4,2,1,80,1,0
92440,-100,4,2,1,80,0,0
93040,220.588235294118,4,2,1,80,1,0
93040,-100,4,2,1,80,0,0
93260,202.702702702703,4,2,1,80,1,0
93260,-100,4,2,1,80,0,0
93665,-100,4,2,2,80,0,0
93867,-100,4,2,2,80,0,0
93870,-100,4,2,3,80,0,0
94070,194.805194805195,4,2,5,80,1,0
94070,-100,4,2,5,80,0,0
94272,-100,4,2,5,80,0,0
94654,202.702702702703,4,2,5,80,1,0
94654,-100,4,2,5,80,0,0
94856,202.702702702703,4,2,5,80,1,0
94856,-100,4,2,5,80,0,0
95058,-100,4,2,5,80,0,0
95077,-100,4,2,5,80,0,0
95464,-100,4,2,5,80,0,0
95680,-100,4,2,5,90,0,0
95869,-100,4,2,5,80,0,0
97491,-100,4,2,5,80,0,0
98296,-100,4,2,5,80,0,0
98707,196.078431372549,4,2,5,90,1,0
98707,-100,4,2,5,90,0,0
98903,200,4,2,5,90,1,0
98903,-100,4,2,5,90,0,0
99101,-100,4,2,5,80,0,0
99103,-100,4,2,5,80,0,0
99703,204.081632653061,4,2,5,80,1,0
99703,-100,4,2,5,80,0,0
100723,211.267605633803,4,2,5,80,1,0
100723,-100,4,2,5,80,0,0
101356,202.702702702703,4,2,5,80,1,0
101356,-100,4,2,5,80,0,0
101546,-100,4,2,5,80,0,0
101558,-100,4,2,5,80,0,0
101964,204.081632653061,4,2,10,80,1,0
101964,-100,4,2,10,80,0,0
102166,-100,4,2,5,80,0,0
102362,-100,4,2,5,80,0,0
102780,207.612456747405,4,2,10,80,1,0
102780,-100,4,2,10,80,0,0
102987,200,4,2,5,80,1,0
102987,-100,4,2,5,80,0,0
103787,201.342281879195,4,2,1,80,1,0
103787,-100,4,2,1,80,0,0
103882,-100,4,2,5,80,0,0
103988,-100,4,2,5,80,0,0
105397,200,4,2,5,80,1,0
105397,-98.7654320987654,4,2,5,80,0,0
105797,168.539325842697,4,2,5,80,1,0
105797,-100,4,2,5,80,0,0
105881,218.978102189781,4,2,5,80,1,0
105881,-100,4,2,5,80,0,0
105990,-100,4,2,5,80,0,0
106209,202.702702702703,4,2,1,80,1,0
106209,-100,4,2,1,80,0,0
107019,-100,4,2,7,80,0,0
107425,212.765957446809,4,2,10,80,1,0
107425,-100,4,2,10,80,0,0
107744,192.307692307692,4,2,10,80,1,0
107744,-100,4,2,10,80,0,0
108032,200,4,2,10,80,1,0
108032,-100,4,2,10,80,0,0
108632,209.79020979021,4,2,10,80,1,0
108632,-100,4,2,10,80,0,0
109366,192.307692307692,4,2,10,80,1,0
109366,-100,4,2,10,80,0,0
109654,202.702702702703,4,2,10,80,1,0
109654,-100,4,2,10,80,0,0
110262,209.79020979021,4,2,10,80,1,0
110262,-100,4,2,10,80,0,0
110996,191.082802547771,4,2,10,80,1,0
110996,-100,4,2,10,80,0,0
111282,200,4,2,10,80,1,0
111282,-100,4,2,10,80,0,0
111882,202.702702702703,4,2,10,80,1,0
111882,-100,4,2,10,80,0,0
112692,212.765957446809,4,2,10,80,1,0
112692,-100,4,2,10,80,0,0
113330,189.873417721519,4,2,10,80,1,0
113330,-100,4,2,10,80,0,0
113519,205.479452054795,4,2,10,80,1,0
113519,-100,4,2,10,80,0,0
114238,202.702702702703,4,2,10,80,1,0
114238,-100,4,2,10,80,0,0
114846,197.368421052632,4,2,10,80,1,0
114846,-100,4,2,10,80,0,0
115142,204.081632653061,4,2,10,80,1,0
115142,-100,4,2,10,80,0,0
115856,192.307692307692,4,2,10,80,1,0
115856,-100,4,2,10,80,0,0
116144,202.702702702703,4,2,10,80,1,0
116144,-100,4,2,10,80,0,0
116752,202.702702702703,4,2,10,80,1,0
116752,-100,4,2,10,80,0,0
117765,204.081632653061,4,2,10,80,1,0
117765,-100,4,2,10,80,0,0
118377,200,4,2,10,80,1,0
118377,-100,4,2,10,80,0,0
119077,238.095238095238,4,2,10,80,1,0
119077,-100,4,2,10,80,0,0
119102,-100,4,2,10,80,0,0
119196,202.702702702703,4,2,10,80,1,0
119196,-100,4,2,10,80,0,0
119300,-100,4,2,10,80,0,0
119398,-97.0873786407767,4,2,10,80,0,0
119591,-97.0873786407767,4,2,1,80,0,0
119601,191.082802547771,4,2,10,80,1,0
119601,-100,4,2,10,80,0,0
119983,205.479452054795,4,2,4,90,1,0
119983,-100,4,2,4,90,0,0
120804,202.702702702703,4,2,4,90,1,0
120804,-100,4,2,4,90,0,0
122425,201.342281879195,4,2,4,90,1,0
122425,-100,4,2,4,90,0,0
123230,205.479452054795,4,2,4,90,1,0
123230,-100,4,2,4,90,0,0
124873,201.342281879195,4,2,4,90,1,0
124873,-100,4,2,4,90,0,0
125074,-100,4,2,4,90,0,0
126282,212.765957446809,4,2,4,90,1,0
126282,-100,4,2,4,90,0,0
126469,-100,4,2,4,90,0,0
126494,201.342281879195,4,2,4,90,1,0
126494,-100,4,2,4,90,0,0
128104,200,4,2,4,90,1,0
128104,-100,4,2,4,90,0,0
128904,202.702702702703,4,2,4,90,1,0
128904,-100,4,2,4,90,0,0
129714,200,4,2,4,90,1,0
129714,-100,4,2,4,90,0,0
130514,206.896551724138,4,2,4,90,1,0
130514,-100,4,2,4,90,0,0
131341,202.702702702703,4,2,4,90,1,0
131341,-100,4,2,4,90,0,0
131543,-100,4,2,4,100,0,0
132151,204.081632653061,4,2,1,90,1,0
132151,-100,4,2,1,90,0,0
132967,205.479452054795,4,2,10,100,1,0
132967,-100,4,2,10,100,0,0
133114,-100,4,2,10,5,0,0
133172,-100,4,2,10,100,0,0
133519,-100,4,2,10,5,0,0
133582,-100,4,2,10,100,0,0
133925,-100,4,2,10,5,0,0
133994,204.081632653061,4,2,10,100,1,0
133994,-100,4,2,10,100,0,0
134331,-100,4,2,10,5,0,0
134402,241.935483870968,4,2,10,100,1,0
134402,-100,4,2,10,100,0,0
134643,254.237288135593,4,2,10,80,1,0
134643,-100,4,2,10,80,0,0
134897,270.27027027027,4,2,10,80,1,0
135032,348.837209302326,4,2,10,80,1,0
135729,361.44578313253,4,2,10,80,1,0
135909,405.405405405405,4,2,10,80,1,0
136719,384.615384615385,4,2,10,80,1,0
137103,576.923076923077,4,2,10,80,1,0
137679,656.994251300301,4,2,10,80,1,0

[Colours]
Combo1 : 255,255,0
Combo2 : 193,193,255
Combo3 : 255,153,153
Combo4 : 113,113,255
Combo5 : 0,128,128
Combo6 : 238,0,0

[HitObjects]
401,224,0,6,0,P|427:180|417:130,2,105,12|8|8,0:1|0:0|0:0,0:0:0:0:
317,211,810,2,0,L|212:220,1,104,8|8,0:2|0:0,2:0:0:0:
109,292,1405,1,8,0:0:0:0:
47,235,1601,6,0,B|38:201|38:201|54:112,2,105,12|8|8,1:2|0:0|0:0,0:0:0:0:
109,292,2417,2,0,B|143:283|143:283|232:299,2,105,8|8|8,0:0|0:0|0:0,1:0:0:0:
47,235,3233,5,12,1:0:0:0:
165,192,3541,1,8,0:0:0:0:
50,139,3849,1,8,0:0:0:0:
66,56,4054,2,0,P|126:45|166:58,1,105,10|10,0:0|0:0,0:0:0:0:
262,142,4665,1,10,0:0:0:0:
181,158,4865,6,0,L|190:262,1,105,12|8,1:2|0:0,0:0:0:0:
290,339,5473,1,8,0:0:0:0:
348,278,5675,2,0,P|297:158|336:96,1,210,8|8,0:0|1:2,0:0:0:0:
411,58,6486,38,0,P|349:51|307:10,2,105,12|8|8,1:0|0:0|0:0,0:0:0:0:
475,111,7297,2,0,L|462:244,1,105,8|8,0:0|0:0,0:0:0:0:
390,317,7905,1,8,0:0:0:0:
326,261,8108,6,0,P|276:252|199:283,1,105,12|8,1:2|0:0,0:0:0:0:
116,331,8716,1,8,0:0:0:0:
73,258,8919,1,8,0:0:0:0:
147,156,9223,1,8,0:0:0:0:
87,44,9527,1,10,0:0:0:0:
159,1,9729,6,0,L|294:12,2,105,12|8|8,1:1|0:0|0:0,0:0:0:0:
87,44,10540,2,0,P|101:92|97:159,1,105,10|10,0:0|0:0,0:0:0:0:
26,249,11148,1,10,0:0:0:0:
94,297,11351,6,0,L|198:288,1,105,12|8,2:2|0:0,0:0:0:0:
271,185,11947,1,8,0:0:0:0:
333,241,12145,2,0,P|347:283|330:367,2,105,8|8|8,0:0|0:0|0:0,0:0:0:0:
271,185,12945,38,0,P|266:132|266:89,1,70,8|0,0:0|1:0,0:0:0:0:
323,54,13353,2,0,P|376:49|419:49,1,70,0|0,1:0|1:0,0:0:0:0:
466,88,13761,6,0,L|459:172,1,70,8|8,1:2|1:2,0:0:0:0:
403,219,14166,2,0,L|410:303,1,70,8|8,1:2|1:2,0:0:0:0:
350,348,14569,6,0,B|327:358|327:358|278:348,1,70,8|8,1:2|1:2,0:0:0:0:
231,282,14971,2,0,B|208:272|208:272|159:282,1,70,8|8,1:2|1:2,0:0:0:0:
86,312,15374,21,4,1:2:0:0:
99,229,15579,2,0,P|97:166|56:88,1,140,8|8,1:2|1:2,0:0:0:0:
1,42,16195,21,6,0:3:0:0:
77,8,16397,2,0,B|118:0|118:0|214:18,1,140,10|10,0:0|0:0,0:0:0:0:
282,67,17005,1,4,0:3:0:0:
235,137,17208,2,0,P|203:199|200:268,1,140,10|10,0:0|0:0,0:0:0:0:
259,328,17816,6,0,P|334:351|340:237,1,210,4|10,0:3|0:0,0:0:0:0:
323,169,18643,2,0,P|324:114|335:70,1,70,4|10,0:3|0:0,0:0:0:0:
387,41,19048,2,0,P|442:42|486:53,1,70,4|10,0:3|0:0,0:0:0:0:
495,119,19453,5,4,0:3:0:0:
460,195,19656,2,0,L|447:350,1,140,10|10,0:0|0:0,0:0:0:0:
365,317,20264,2,0,P|306:306|251:346,2,105,4|4|10,0:3|0:3|0:0,0:0:0:0:
413,156,21278,6,0,P|418:92|428:65,2,70,10|0|10,0:0|0:0|0:0,0:0:0:0:
451,230,21870,21,12,1:1:0:0:
378,332,22166,1,4,0:3:0:0:
284,248,22462,1,8,1:2:0:0:
219,302,22664,5,6,0:3:0:0:
151,251,22868,2,0,L|138:111,1,140,10|10,0:0|0:0,0:0:0:0:
196,50,23480,1,4,0:3:0:0:
123,6,23684,2,0,P|45:24|-7:93,1,140,10|10,0:0|0:0,0:0:0:0:
29,146,24296,6,0,B|56:274|-19:228|23:367,1,210,4|10,0:3|0:0,0:0:0:0:
99,371,25137,2,0,P|143:370|186:359,1,70,4|10,0:3|0:0,0:0:0:0:
213,293,25538,2,0,P|257:294|300:305,1,70,4|10,0:3|0:0,0:0:0:0:
337,362,25944,6,0,L|323:201,1,140,6|4,0:3|0:3,0:0:0:0:
440,100,26754,2,0,L|427:239,1,140,4|4,0:3|0:3,0:0:0:0:
337,362,27554,6,0,L|323:201,1,140,4|4,0:3|0:3,0:0:0:0:
440,100,28354,1,2,0:3:0:0:
368,56,28554,2,0,P|316:42|237:72,1,140,8|8,1:2|1:2,0:0:0:0:
223,153,29176,38,0,B|233:239|155:282|155:282|146:188|68:170,1,280,2|4,0:0|0:3,0:0:0:0:
12,191,30189,1,10,0:0:0:0:
114,58,30594,1,10,0:0:0:0:
187,17,30797,6,0,B|244:-3|284:46|284:46|252:85|252:85|248:140|290:197,1,280,4|4,0:3|0:3,0:0:0:0:
366,236,31811,1,10,0:0:0:0:
422,74,32216,1,10,0:0:0:0:
488,21,32408,5,4,0:3:0:0:
501,103,32622,2,0,P|505:141|505:176,1,70,10|4,0:0|0:3,0:0:0:0:
447,233,33027,1,10,0:0:0:0:
376,187,33232,2,0,P|297:184|256:223,1,140,4|0,0:3|0:0,0:0:0:0:
217,298,33844,1,10,0:0:0:0:
276,357,34045,6,0,L|415:347,1,140,4|4,0:3|0:3,0:0:0:0:
281,246,34850,2,0,L|141:236,1,140,4|0,0:3|0:0,0:0:0:0:
73,186,35450,1,10,0:0:0:0:
37,110,35647,38,0,B|100:82|115:24|115:24|136:72|188:91|188:91|213:55|263:46,1,280,4|4,0:3|0:3,0:0:0:0:
315,49,36665,1,10,0:0:0:0:
397,195,37082,1,10,0:0:0:0:
417,279,37273,6,0,P|370:274|140:356,1,278,4|4,0:3|0:3,0:0:0:0:
74,316,38302,1,10,0:0:0:0:
21,156,38708,1,10,0:0:0:0:
68,85,38910,5,4,0:3:0:0:
137,132,39111,2,0,P|218:158|276:141,1,140,10|10,0:0|0:0,0:0:0:0:
336,93,39715,2,0,P|336:45|332:18,2,70,4|10|0,0:3|0:0|0:3,0:0:0:0:
253,239,40520,5,4,0:3:0:0:
330,274,40722,2,0,P|385:275|412:267,1,70,10|4,0:0|0:3,0:0:0:0:
473,231,41128,1,10,0:0:0:0:
495,150,41330,37,2,0:0:0:0:
449,79,41533,2,0,L|309:65,1,140,8|8,1:2|1:2,0:0:0:0:
227,71,42117,6,0,P|217:129|224:155,1,70,6|10,0:3|0:0,0:0:0:0:
145,179,42548,2,0,P|155:237|148:263,1,70,4|10,0:3|0:0,0:0:0:0:
185,324,42954,6,0,L|288:318,1,70,4|10,0:3|0:0,0:0:0:0:
297,247,43359,2,0,L|400:241,2,70,4|10|4,0:3|0:0|0:3,0:0:0:0:
234,191,43967,21,10,0:0:0:0:
287,126,44167,1,4,0:3:0:0:
225,68,44367,1,10,0:0:0:0:
289,14,44579,6,0,P|343:10|406:49,1,105,2|4,0:3|0:3,0:0:0:0:
449,88,45085,1,8,1:2:0:0:
421,211,45389,5,6,0:3:0:0:
209,155,50272,6,0,P|283:142|201:219,1,280,6|4,0:3|0:3,0:0:0:0:
22,27,51891,5,6,0:0:0:0:
96,66,52093,2,0,P|165:81|231:59,1,140,10|10,0:0|0:0,0:0:0:0:
300,13,52701,1,4,0:3:0:0:
357,73,52904,2,0,L|343:212,1,140,10|10,0:0|0:0,0:0:0:0:
276,264,53504,5,4,0:3:0:0:
324,332,53706,2,0,P|408:348|465:321,1,140,10|10,0:0|0:0,0:0:0:0:
496,257,54314,2,0,P|501:205|493:162,1,70,4|10,0:3|0:0,0:0:0:0:
448,120,54720,2,0,P|443:68|451:25,2,70,4|10|4,0:3|0:0|0:1,0:0:0:0:
375,164,55331,5,12,0:0:0:0:
310,110,55538,1,4,0:3:0:0:
247,166,55745,1,10,0:2:0:0:
182,112,55952,6,0,P|147:109|112:111,1,70,4|10,0:3|0:0,0:0:0:0:
55,174,56357,1,4,0:3:0:0:
34,255,56560,1,8,0:0:0:0:
80,325,56762,69,12,0:0:0:0:
193,271,57066,1,12,0:0:0:0:
307,324,57370,1,12,0:0:0:0:
369,268,57573,5,12,0:0:0:0:
331,104,57979,1,12,0:0:0:0:
474,17,58384,5,6,0:3:0:0:
509,93,58587,2,0,P|509:151|476:242,1,140,12|10,0:0|0:0,0:0:0:0:
399,222,59195,1,4,0:3:0:0:
340,282,59397,2,0,P|274:305|204:307,1,140,10|10,0:0|0:0,0:0:0:0:
137,256,60015,5,4,0:3:0:0:
197,198,60216,2,0,L|184:58,1,140,10|10,0:0|0:0,0:0:0:0:
112,15,60820,2,0,P|70:8|17:32,1,70,4|10,0:3|0:0,0:0:0:0:
12,92,61223,2,0,P|5:134|29:187,1,70,4|10,0:3|0:0,0:0:0:0:
74,215,61625,6,0,L|66:305,1,70,4|10,0:1|0:0,0:0:0:0:
127,344,62030,2,0,L|217:336,1,70,4|10,0:3|0:0,0:0:0:0:
244,268,62435,6,0,L|334:276,1,70,4|10,0:3|0:0,0:0:0:0:
373,215,62837,2,0,L|365:125,1,70,4|10,0:3|0:0,0:0:0:0:
306,86,63240,38,0,P|255:77|215:96,1,70,4|10,0:3|0:0,0:0:0:0:
170,131,63643,2,0,P|119:140|79:121,1,70,4|10,0:3|0:0,0:0:0:0:
27,96,64045,6,0,P|18:147|37:187,1,70,6|8,0:3|1:2,0:0:0:0:
72,232,64448,2,0,P|81:283|62:323,1,70,8|8,1:2|1:2,0:0:0:0:
139,353,64869,6,0,B|213:360|250:306|250:306|242:275|261:248|261:248|252:189|201:150,1,280,2|4,0:2|0:3,0:0:0:0:
141,139,65879,1,10,0:2:0:0:
289,61,66279,1,10,0:0:0:0:
363,99,66479,6,0,B|400:132|411:158|411:158|361:204|369:259|369:259|430:258|457:301,1,280,4|4,0:3|0:3,0:0:0:0:
453,374,67499,1,10,0:0:0:0:
285,364,67904,1,10,0:0:0:0:
230,299,68107,37,4,0:3:0:0:
150,271,68309,2,0,P|146:233|146:198,1,70,10|4,0:0|0:3,0:0:0:0:
204,141,68715,1,10,0:0:0:0:
275,187,68917,2,0,P|354:190|395:151,1,140,4|4,0:3|0:3,0:0:0:0:
434,76,69525,1,10,0:0:0:0:
375,17,69728,6,0,L|236:27,1,140,4|0,0:3|0:0,0:0:0:0:
140,164,70533,2,0,L|0:154,1,140,4|0,0:3|0:0,0:0:0:0:
0,68,71137,1,10,0:0:0:0:
66,16,71338,6,0,B|130:1|130:1|163:44|163:44|242:-10|342:26,1,280,4|4,0:3|0:3,0:0:0:0:
384,66,72358,1,10,0:0:0:0:
374,233,72766,1,10,0:0:0:0:
292,254,72970,6,0,B|263:298|241:341|241:341|362:350|427:315,1,278,4|4,0:3|0:3,0:0:0:0:
482,267,73986,1,10,0:0:0:0:
488,99,74392,1,10,0:0:0:0:
421,47,74595,37,4,0:3:0:0:
356,100,74797,2,0,P|310:107|267:94,2,70,10|4|10,0:0|0:3|0:0,0:0:0:0:
408,165,75405,2,0,P|417:228|415:282,2,105,4|4|10,0:3|0:3|0:0,0:0:0:0:
327,189,76216,5,4,0:3:0:0:
262,242,76419,2,0,P|204:246|109:215,1,140,10|8,0:0|0:0,0:0:0:0:
86,149,77027,1,6,0:3:0:0:
39,218,77230,2,0,B|33:278|30:331|30:331|48:381,1,140,8|8,1:2|1:2,0:0:0:0:
123,354,77822,6,0,P|180:337|216:348,1,70,6|10,0:3|0:0,0:0:0:0:
272,350,78227,2,0,P|329:367|365:356,1,70,4|10,0:3|0:0,0:0:0:0:
411,323,78632,6,0,L|416:229,1,70,4|10,0:3|0:0,0:0:0:0:
363,186,79038,2,0,L|358:92,2,70,4|10|4,0:3|0:0|0:3,0:0:0:0:
288,224,79646,5,10,0:2:0:0:
246,297,79849,1,4,0:3:0:0:
315,344,80051,1,10,0:0:0:0:
398,335,80259,6,0,P|437:301|449:240,1,105,6|0,0:3|3:0,0:0:0:0:
412,175,80780,1,0,3:0:0:0:
326,83,81064,6,0,L|215:74,2,105,12|8|8,0:1|0:0|0:0,0:0:0:0:
381,19,81874,2,0,P|445:4|498:18,1,105,8|8,0:0|0:0,0:0:0:0:
503,135,82482,1,8,0:0:0:0:
448,198,82687,6,0,L|337:189,1,105,12|8,0:0|0:0,0:0:0:0:
241,127,83285,1,8,0:0:0:0:
170,172,83489,1,0,3:0:0:0:
106,126,83693,2,0,P|64:179|64:246,1,137,10|0,1:2|1:2,0:0:0:0:
115,313,84325,5,12,0:1:0:0:
227,256,84629,1,8,0:0:0:0:
248,380,84933,1,8,0:0:0:0:
325,346,85135,2,0,P|378:354|451:343,2,105,10|10|10,0:0|0:0|0:0,0:0:0:0:
261,292,85940,6,0,B|250:246|250:246|266:170,1,105,12|8,0:2|0:0,0:0:0:0:
374,133,86548,1,8,0:0:0:0:
316,70,86750,2,0,P|260:69|202:95,2,105,8|8|8,0:0|0:0|0:0,0:0:0:0:
384,25,87550,37,12,0:1:0:0:
485,100,87858,1,8,0:0:0:0:
394,187,88166,1,8,0:0:0:0:
329,242,88371,2,0,L|339:346,2,105,8|8|8,0:0|0:0|0:0,0:0:0:0:
246,264,89181,5,12,0:0:0:0:
125,228,89477,1,8,0:0:0:0:
89,107,89773,1,8,0:0:0:0:
169,127,89970,2,0,P|240:144|346:65,1,210,8|8,3:3|0:0,0:0:0:0:
422,100,90803,6,4,P|437:161|467:218,2,105,12|8|8,0:1|0:0|0:0,0:1:0:0:
345,69,91613,2,0,P|284:84|227:114,2,105,12|8|8,0:2|0:0|0:0,0:0:0:0:
422,100,92440,5,12,0:1:0:0:
429,225,92740,1,8,0:0:0:0:
324,295,93040,1,8,0:0:0:0:
257,243,93260,37,4,0:0:0:0:
185,287,93462,2,0,P|120:289|48:251,1,140,8|8,1:2|1:2,0:0:0:0:
14,180,94070,1,0,3:0:0:0:
38,99,94264,53,12,0:0:0:0:
186,19,94654,1,12,0:0:0:0:
282,156,95058,1,12,0:0:0:0:
430,76,95464,1,12,0:0:0:0:
487,136,95666,21,4,3:3:0:0:
430,197,95869,2,0,P|362:213|294:199,1,140,10|8,0:0|0:0,0:0:0:0:
266,120,96477,1,2,3:2:0:0:
209,59,96680,2,0,P|141:42|73:56,1,140,10|10,0:0|0:0,0:0:0:0:
23,124,97288,1,0,3:0:0:0:
33,207,97491,69,12,0:0:0:0:
133,341,97896,1,12,0:0:0:0:
201,187,98301,1,12,0:0:0:0:
301,321,98707,1,12,0:0:0:0:
369,272,98903,21,4,3:3:0:0:
430,214,99103,2,0,P|476:228|516:259,2,70,10|2|10,0:0|3:2|3:2,0:0:0:0:
350,190,99703,2,0,P|345:138|351:98,1,70,2|10,3:2|0:0,0:0:0:0:
284,63,100111,2,0,P|232:68|192:62,1,70,2|10,3:2|0:0,0:0:0:0:
142,22,100519,1,0,3:0:0:0:
82,81,100723,37,12,0:0:0:0:
47,245,101145,1,12,0:0:0:0:
200,175,101558,1,12,0:0:0:0:
235,339,101964,1,12,0:0:0:0:
308,295,102168,53,4,0:3:0:0:
378,340,102371,2,0,P|443:342|468:271,1,140,10|8,0:0|0:0,0:0:0:0:
433,205,102987,1,0,3:0:0:0:
369,149,103187,2,0,L|229:160,1,140,8|10,0:0|0:0,0:0:0:0:
151,130,103787,6,0,P|141:74|142:50,1,70,4|8,0:0|0:0,0:0:0:0:
56,55,104189,2,0,P|47:88|46:123,1,70,0|8,0:0|0:0,0:0:0:0:
38,207,104592,2,0,P|71:277|210:271,1,210,0|8,3:0|0:0,0:0:0:0:
266,246,105397,38,0,L|285:36,1,210,0|8,3:0|0:0,0:0:0:0:
368,21,106209,1,4,0:0:0:0:
436,68,106411,2,0,B|455:103|455:103|445:214,1,140,8|8,1:2|1:2,0:0:0:0:
396,271,107019,6,0,P|343:247|253:300,1,140,4|10,0:2|0:0,0:0:0:0:
164,342,107744,2,2,L|59:333,1,105,8|4,0:0|0:3,1:2:0:0:
15,215,108332,1,4,0:3:0:0:
17,94,108632,6,0,P|86:92|151:117,1,140,6|10,0:3|0:0,0:0:0:0:
204,244,109366,2,2,L|309:236,1,105,8|4,0:0|0:3,1:2:0:0:
337,113,109958,1,4,0:3:0:0:
424,28,110262,5,6,0:3:0:0:
481,89,110471,2,0,P|487:154|433:226,1,140
361,229,111091,2,0,P|356:299|361:347,1,107
287,378,111582,1,4,0:3:0:0:
188,301,111882,38,0,P|137:295|49:334,1,140,6|10,0:3|1:2,0:0:0:0:
33,169,112692,2,0,P|96:139|165:142,1,140,2|10,1:2|0:0,0:0:0:0:
223,203,113330,1,8,1:2:0:0:
295,160,113519,6,0,L|285:21,1,140,4|10,0:0|0:0,0:0:0:0:
158,38,114238,2,2,P|102:34|55:57,2,105,8|4|4,0:0|0:3|0:3,1:2:0:0:
153,159,115142,6,0,L|143:299,1,140,6|10,0:3|0:0,0:0:0:0:
252,375,115856,2,2,P|308:379|355:356,1,105,8|4,0:0|0:3,1:2:0:0:
378,235,116448,1,4,0:3:0:0:
339,115,116752,6,0,P|269:88|183:98,1,140,6|10,0:3|0:0,0:0:0:0:
129,127,117360,1,0,0:0:0:0:
92,201,117562,2,0,P|82:235|86:270,1,70,0|4,0:0|0:3,0:0:0:0:
140,332,117969,1,10,0:0:0:0:
310,349,118377,38,0,P|360:301|379:227,1,140,6|8,0:3|1:2,0:0:0:0:
259,109,119196,1,2,0:0:0:0:
188,153,119398,2,0,B|153:162|153:162|37:125,1,140,8|8,1:2|1:0,0:0:0:0:
36,52,119983,5,4,0:1:0:0:
110,15,120188,2,0,P|179:6|246:25,1,140,8|8,0:0|0:0,0:0:0:0:
306,95,120804,1,2,3:2:0:0:
260,165,121006,2,0,P|256:221|260:256,1,70,8|0,0:0|3:0,0:0:0:0:
315,296,121412,1,10,0:0:0:0:
394,322,121614,5,0,3:0:0:0:
457,266,121817,2,0,P|467:192|447:121,1,140,8|8,0:0|0:0,0:0:0:0:
394,67,122425,1,2,3:2:0:0:
315,38,122626,1,8,0:0:0:0:
180,139,123029,1,10,0:0:0:0:
100,111,123230,5,0,3:0:0:0:
42,172,123435,2,0,P|32:224|52:314,1,140,10|10,0:0|0:0,0:0:0:0:
132,297,124051,2,0,P|200:312|232:349,2,105,2|2|8,3:2|0:2|0:2,0:0:0:0:
217,152,125074,38,0,P|270:136|315:137,1,70,10|0,0:0|3:0,0:0:0:0:
365,159,125477,1,10,0:0:0:0:
429,213,125678,2,0,P|440:273|422:355,1,140,4|0,0:1|0:0,0:0:0:0:
344,323,126282,1,8,0:0:0:0:
265,352,126494,5,4,0:1:0:0:
206,292,126695,2,0,P|197:227|215:146,1,140,8|8,0:0|0:0,0:0:0:0:
286,115,127299,1,2,3:2:0:0:
359,155,127500,2,0,P|426:161|446:152,2,70,8|0|10,0:0|3:0|0:0,0:0:0:0:
359,70,128104,5,0,3:0:0:0:
284,30,128304,2,0,L|144:42,1,140,8|8,0:0|0:0,0:0:0:0:
79,95,128904,1,2,3:2:0:0:
53,175,129106,1,8,0:0:0:0:
143,316,129512,1,10,0:0:0:0:
205,259,129714,5,0,3:0:0:0:
256,192,129914,2,0,P|249:109|216:45,1,140,10|10,0:0|0:0,0:0:0:0:
151,18,130514,2,0,P|74:14|67:15,2,70,2|10|0,3:2|0:2|3:0,0:0:0:0:
146,102,131134,2,0,L|146:180,1,70,8|0,0:0|3:0,0:0:0:0:
111,249,131543,5,8,0:0:0:0:
168,309,131746,1,0,3:0:0:0:
241,267,131949,1,8,0:0:0:0:
298,327,132151,5,4,0:1:0:0:
374,227,132457,1,8,1:0:0:0:
305,121,132763,1,8,1:0:0:0:
378,79,132967,6,0,P|426:71|466:82,1,70,6|10,3:0|0:0,0:0:0:0:
506,133,133377,2,0,L|502:202,1,70,4|10,0:3|0:0,0:0:0:0:
429,244,133788,6,0,P|381:252|341:241,1,70,4|10,0:3|0:0,0:0:0:0:
301,190,134198,2,0,L|304:120,1,70,4|10,0:3|0:0,0:0:0:0:
256,192,134643,12,4,137679,0:0:0:0:
