osu file format v14

[General]
AudioFilename: audio.mp3
AudioLeadIn: 0
PreviewTime: 51992
Countdown: 0
SampleSet: Soft
StackLeniency: 0.4
Mode: 0
LetterboxInBreaks: 0
WidescreenStoryboard: 1

[Editor]
DistanceSpacing: 0.7
BeatDivisor: 2
GridSize: 32
TimelineZoom: 3.339999

[Metadata]
Title:DVP
TitleUnicode:DVP
Artist:PUP
ArtistUnicode:PUP
Creator:Hobbes2
Version:Mir's Extra
Source:osu!
Tags:fa featured artist the dream is over english indie punk rock fieryrage lasse milan- maestrosplinter mir
BeatmapID:1596326
BeatmapSetID:756815

[Difficulty]
HPDrainRate:5
CircleSize:4
OverallDifficulty:8.7
ApproachRate:9.5
SliderMultiplier:1.6
SliderTickRate:1

[Events]
//Background and Video events
0,0,"BG BG.jpg",0,0
//Break Periods
//Storyboard Layer 0 (Background)
//Storyboard Layer 1 (Fail)
//Storyboard Layer 2 (Pass)
//Storyboard Layer 3 (Foreground)
//Storyboard Layer 4 (Overlay)
//Storyboard Sound Samples

[TimingPoints]
0,202.702702702703,4,2,1,80,1,0
0,-100,4,2,1,80,0,0
1013,196.078431372549,4,2,1,80,1,0
1013,-100,4,2,1,80,0,0
1601,204.081632653061,4,2,1,80,1,0
1601,-100,4,2,1,80,0,0
3233,205.479452054795,4,2,1,80,1,0
3233,-100,4,2,1,80,0,0
4363,-99.009900990099,4,2,1,80,0,0
4465,200,4,2,1,80,1,0
4465,-100,4,2,1,80,0,0
4566,-100,4,2,1,80,0,0
4865,202.702702702703,4,2,1,80,1,0
4865,-100,4,2,1,80,0,0
11351,198.675496688742,4,2,1,80,1,0
11351,-100,4,2,1,80,0,0
12145,200,4,2,1,80,1,0
12145,-100,4,2,1,80,0,0
12945,204.081632653061,4,2,10,80,1,0
12945,-100,4,2,10,80,0,0
13149,-100,4,2,1,40,0,0
13557,-100,4,2,1,40,0,0
13560,-100,4,2,1,50,0,0
13761,-100,4,2,2,60,0,0
13762,-100,4,2,2,60,0,0
13965,201.342281879195,4,2,2,60,1,0
14166,-100,4,2,2,70,0,0
14569,201.342281879195,4,2,3,80,1,0
14569,-83.3333333333333,4,2,3,80,0,0
15374,205.479452054795,4,2,1,80,1,0
15374,-66.6666666666667,4,2,1,80,0,0
16195,202.702702702703,4,2,10,80,1,0
16195,-83.3333333333333,4,2,10,80,0,0
17816,206.896551724138,4,2,10,80,1,0
17816,-58.8235294117647,4,2,10,80,0,0
18111,-83.3333333333333,4,2,10,80,0,0
18643,202.702702702703,4,2,10,80,1,0
18643,-83.3333333333333,4,2,10,80,0,0
21278,197.368421052632,4,2,10,80,1,0
21278,-83.3333333333333,4,2,10,80,0,0
21861,-66.6666666666667,4,2,10,80,0,0
22462,202.702702702703,4,2,10,80,1,0
22462,-66.6666666666667,4,2,10,80,0,0
22664,204.081632653061,4,2,10,80,1,0
22664,-83.3333333333333,4,2,10,80,0,0
24296,222.222222222222,4,2,10,80,1,0
24296,-58.8235294117647,4,2,10,80,0,0
24598,-83.3333333333333,4,2,10,80,0,0
24740,198.675496688742,4,2,10,80,1,0
24740,-83.3333333333333,4,2,10,80,0,0
25336,202.702702702703,4,2,10,80,1,0
25336,-83.3333333333333,4,2,10,80,0,0
25944,202.702702702703,4,2,10,80,1,0
25944,-100,4,2,10,80,0,0
26067,-83.3333333333333,4,2,10,5,0,0
26118,-83.3333333333333,4,2,10,5,0,0
26146,-83.3333333333333,4,2,10,80,0,0
26219,-83.3333333333333,4,2,10,5,0,0
26321,-83.3333333333333,4,2,10,5,0,0
26349,-83.3333333333333,4,2,10,80,0,0
26473,-83.3333333333333,4,2,10,5,0,0
26523,-83.3333333333333,4,2,10,5,0,0
26552,-83.3333333333333,4,2,10,80,0,0
26625,-83.3333333333333,4,2,10,5,0,0
26754,200,4,2,10,80,1,0
26754,-83.3333333333333,4,2,10,80,0,0
26878,-83.3333333333333,4,2,10,5,0,0
26928,-83.3333333333333,4,2,10,5,0,0
26954,-83.3333333333333,4,2,10,80,0,0
27030,-83.3333333333333,4,2,10,5,0,0
27131,-83.3333333333333,4,2,10,5,0,0
27154,-83.3333333333333,4,2,10,80,0,0
27436,-83.3333333333333,4,2,10,5,0,0
27537,-83.3333333333333,4,2,10,5,0,0
27554,-83.3333333333333,4,2,10,80,0,0
28348,-66.6666666666667,4,2,10,80,0,0
28954,222.222222222222,4,2,10,80,1,0
28954,-66.6666666666667,4,2,10,80,0,0
29176,202.702702702703,4,2,11,60,1,0
29176,-100,4,2,11,60,0,0
32216,192.307692307692,4,2,11,60,1,0
32216,-100,4,2,11,60,0,0
32312,-100,4,2,11,60,0,0
32408,214.285714285714,4,2,11,60,1,0
32408,-100,4,2,11,60,0,0
32622,202.702702702703,4,2,11,60,1,0
32622,-100,4,2,11,60,0,0
33027,205.479452054795,4,2,11,60,1,0
33027,-100,4,2,11,60,0,0
33539,-100,4,2,11,60,0,0
33643,201.342281879195,4,2,11,60,1,0
33643,-100,4,2,11,60,0,0
34045,201.342281879195,4,2,11,60,1,0
34045,-100,4,2,11,60,0,0
34950,-100,4,2,11,60,0,0
35051,-100,4,2,11,60,0,0
35152,-100,4,2,11,60,0,0
35253,197.368421052632,4,2,11,60,1,0
35253,-100,4,2,11,60,0,0
35647,202.702702702703,4,2,11,60,1,0
35647,-100,4,2,11,60,0,0
36457,208.333333333333,4,2,11,60,1,0
36457,-100,4,2,11,60,0,0
37082,191.082802547771,4,2,11,60,1,0
37082,-100,4,2,11,60,0,0
37177,-100,4,2,11,60,0,0
37273,208.333333333333,4,2,11,60,1,0
37273,-100,4,2,11,60,0,0
37689,205.831903945111,4,2,10,80,1,0
37689,-100,4,2,10,80,0,0
37894,-100,4,2,11,60,0,0
37898,-100,4,2,11,60,0,0
38100,202.702702702703,4,2,11,60,1,0
38100,-100,4,2,11,60,0,0
38808,-100,4,2,11,60,0,0
38910,201.342281879195,4,2,11,60,1,0
38910,-100,4,2,11,60,0,0
39211,-100,4,2,11,60,0,0
39312,-100,4,2,11,60,0,0
39463,-100,4,2,11,60,0,0
39514,-100,4,2,11,60,0,0
39815,-100,4,2,11,60,0,0
39916,-100,4,2,11,60,0,0
40016,-100,4,2,11,60,0,0
40118,-100,4,2,11,60,0,0
40520,202.702702702703,4,2,11,60,1,0
40520,-100,4,2,11,60,0,0
41328,-58.8235294117647,4,2,10,60,0,0
41533,194.805194805195,4,2,10,80,1,0
41533,-58.8235294117647,4,2,10,80,0,0
42117,229.007633587786,4,2,10,80,1,0
42117,-83.3333333333333,4,2,10,80,0,0
42284,-83.3333333333333,4,2,10,5,0,0
42346,202.702702702703,4,2,10,80,1,0
42346,-83.3333333333333,4,2,10,80,0,0
42692,-83.3333333333333,4,2,10,5,0,0
42742,-83.3333333333333,4,2,10,5,0,0
42751,-83.3333333333333,4,2,10,80,0,0
43100,-83.3333333333333,4,2,10,5,0,0
43150,-83.3333333333333,4,2,10,5,0,0
43156,-83.3333333333333,4,2,10,80,0,0
43508,-83.3333333333333,4,2,10,5,0,0
43558,-83.3333333333333,4,2,10,5,0,0
43562,-83.3333333333333,4,2,10,80,0,0
43916,-83.3333333333333,4,2,10,5,0,0
43967,200,4,2,10,80,1,0
43967,-58.8235294117647,4,2,10,80,0,0
44367,212.765957446809,4,2,10,80,1,0
44367,-58.8235294117647,4,2,10,80,0,0
44579,202.702702702703,4,2,10,80,1,0
44579,-58.8235294117647,4,2,10,80,0,0
44783,-58.8235294117647,4,2,2,80,0,0
44984,-50,4,2,2,80,0,0
45389,206.896551724138,4,2,10,80,1,0
45389,-83.3333333333333,4,2,10,80,0,0
45598,-83.3333333333333,4,2,10,80,0,0
46009,194.805194805195,4,2,10,80,1,0
46009,-83.3333333333333,4,2,10,80,0,0
46203,202.702702702703,4,2,10,80,1,0
46203,-83.3333333333333,4,2,10,80,0,0
47824,205.479452054795,4,2,10,80,1,0
47824,-83.3333333333333,4,2,10,80,0,0
49467,201.342281879195,4,2,10,80,1,0
49467,-83.3333333333333,4,2,10,80,0,0
49664,-100,4,2,1,80,0,0
50272,205.479452054795,4,2,12,80,1,0
50274,-100,4,2,12,80,0,0
51087,-100,4,2,12,80,0,0
51093,-100,4,2,2,80,0,0
51299,197.368421052632,4,2,2,80,1,0
51299,-100,4,2,2,80,0,0
51792,-100,4,2,2,80,0,0
51891,202.702702702703,4,2,10,80,1,0
51900,-66.6666666666667,4,2,10,80,0,0
52904,200,4,2,10,80,1,0
52904,-66.6666666666667,4,2,10,80,0,0
53504,202.702702702703,4,2,10,80,1,0
53504,-83.3333333333333,4,2,10,80,0,0
54308,-83.3333333333333,4,2,10,80,0,0
55125,206.896551724138,4,2,10,80,1,0
55140,-66.6666666666667,4,2,10,80,0,0
55952,202.702702702703,4,2,10,80,1,0
55952,-66.6666666666667,4,2,10,80,0,0
56760,-50,4,2,2,80,0,0
56762,-50,4,2,2,80,0,0
57570,-50,4,2,2,80,0,0
57573,-50,4,2,1,80,0,0
57772,-50,4,2,10,80,0,0
57975,-50,4,2,10,80,0,0
57979,-50,4,2,1,80,0,0
58177,-50,4,2,10,80,0,0
58380,-66.6666666666667,4,2,10,80,0,0
59803,212.765957446809,4,2,10,80,1,0
59803,-66.6666666666667,4,2,10,80,0,0
60015,201.342281879195,4,2,10,80,1,0
60015,-83.3333333333333,4,2,10,80,0,0
61625,202.702702702703,4,1,10,80,1,0
61625,-83.3333333333333,4,1,10,80,0,0
61772,-83.3333333333333,4,2,10,5,0,0
61822,-83.3333333333333,4,2,10,5,0,0
61827,-83.3333333333333,4,2,10,80,0,0
61974,-83.3333333333333,4,2,10,5,0,0
62024,-83.3333333333333,4,2,10,5,0,0
62030,-83.3333333333333,4,2,10,80,0,0
62177,-83.3333333333333,4,2,10,5,0,0
62227,-83.3333333333333,4,2,10,5,0,0
62233,-83.3333333333333,4,2,10,80,0,0
62379,-83.3333333333333,4,2,10,5,0,0
62435,201.342281879195,4,2,10,80,1,0
62435,-83.3333333333333,4,2,10,80,0,0
62582,-83.3333333333333,4,2,10,5,0,0
62632,-83.3333333333333,4,2,10,5,0,0
62636,-83.3333333333333,4,2,10,60,0,0
62784,-83.3333333333333,4,2,10,5,0,0
62834,-83.3333333333333,4,2,10,5,0,0
62837,-83.3333333333333,4,2,10,80,0,0
62987,-83.3333333333333,4,2,10,5,0,0
63037,-83.3333333333333,4,2,10,80,0,0
63189,-83.3333333333333,4,2,10,5,0,0
63239,-83.3333333333333,4,2,10,80,0,0
64649,220.588235294118,4,2,10,80,1,0
64649,-100,4,2,10,80,0,0
64860,-100,4,2,10,80,0,0
64869,202.702702702703,4,2,10,60,1,0
65062,-100,4,2,12,60,0,0
65679,200,4,2,10,60,1,0
66379,-100,4,2,10,60,0,0
66479,204.081632653061,4,2,10,60,1,0
66479,-100,4,2,10,60,0,0
67499,202.702702702703,4,2,10,60,1,0
67499,-100,4,2,10,60,0,0
68005,-100,4,2,10,60,0,0
68107,202.702702702703,4,2,10,60,1,0
68107,-100,4,2,10,60,0,0
69018,-100,4,2,10,60,0,0
69120,-100,4,2,10,60,0,0
69221,-100,4,2,10,60,0,0
69322,-100,4,2,10,60,0,0
69728,201.342281879195,4,2,10,60,1,0
69728,-100,4,2,10,60,0,0
70029,-100,4,2,10,60,0,0
70130,-100,4,2,10,60,0,0
70281,-100,4,2,10,60,0,0
70332,-100,4,2,10,60,0,0
70633,-100,4,2,10,60,0,0
70734,-100,4,2,10,60,0,0
70834,-100,4,2,10,60,0,0
70936,-100,4,2,10,60,0,0
71338,204.081632653061,4,2,10,60,1,0
71338,-100,4,2,10,60,0,0
72868,-100,4,2,10,60,0,0
72970,206.896551724138,4,2,10,60,1,0
72970,-100,4,2,10,60,0,0
73383,200,4,2,10,60,1,0
73383,-100,4,2,10,60,0,0
73583,-100,4,2,10,60,0,0
73590,-100,4,2,10,60,0,0
73783,203.735144312394,4,2,10,60,1,0
74190,202.702702702703,4,2,10,60,1,0
74190,-100,4,2,10,60,0,0
74493,-100,4,2,10,60,0,0
74595,202.702702702703,4,2,10,60,1,0
74595,-100,4,2,10,60,0,0
75152,-100,4,2,10,60,0,0
75203,-100,4,2,10,60,0,0
75810,-100,4,2,10,60,0,0
75912,-100,4,2,10,60,0,0
77010,-100,4,2,10,60,0,0
77027,-100,4,2,10,60,0,0
77230,197.368421052632,4,2,10,80,1,0
77230,-100,4,2,10,80,0,0
77822,202.702702702703,4,2,10,80,1,0
77822,-100,4,2,10,80,0,0
77972,-100,4,2,10,5,0,0
78022,-100,4,2,10,80,0,0
78377,-100,4,2,10,5,0,0
78427,-100,4,2,10,5,0,0
78430,-100,4,2,10,80,0,0
78782,-100,4,2,10,5,0,0
78832,-100,4,2,10,5,0,0
78835,-100,4,2,10,80,0,0
79187,-100,4,2,10,5,0,0
79237,-100,4,2,10,5,0,0
79240,-100,4,2,10,80,0,0
79592,-100,4,2,10,5,0,0
79642,-66.6666666666667,4,2,10,5,0,0
79646,-66.6666666666667,4,2,10,80,0,0
80051,208.333333333333,4,2,10,80,1,0
80051,-66.6666666666667,4,2,10,80,0,0
80250,-50,4,2,10,80,0,0
80259,-50,4,2,12,80,0,0
80554,-200,4,2,12,80,0,0
80571,-200,4,2,2,80,0,0
80780,189.873417721519,4,2,2,80,1,0
80780,-200,4,2,2,80,0,0
81064,202.702702702703,4,2,1,80,1,0
81064,-83.3333333333333,4,2,1,80,0,0
82482,205.479452054795,4,2,1,80,1,0
82482,-83.3333333333333,4,2,1,80,0,0
82995,193.548387096774,4,2,1,80,1,0
82995,-83.3333333333333,4,2,1,80,0,0
83285,204.081632653061,4,2,1,80,1,0
83285,-83.3333333333333,4,2,1,80,0,0
83693,218.978102189781,4,2,1,80,1,0
83693,-100,4,2,1,80,0,0
84021,202.702702702703,4,2,1,80,1,0
84021,-83.3333333333333,4,2,1,80,0,0
84325,202.702702702703,4,2,1,80,1,0
84325,-83.3333333333333,4,2,1,80,0,0
85135,201.342281879195,4,2,1,80,1,0
85135,-83.3333333333333,4,2,1,80,0,0
85940,202.702702702703,4,2,1,80,1,0
85940,-83.3333333333333,4,2,1,80,0,0
86750,200,4,2,1,80,1,0
86750,-83.3333333333333,4,2,1,80,0,0
87550,205.479452054795,4,2,1,80,1,0
87550,-83.3333333333333,4,2,1,80,0,0
88371,202.702702702703,4,2,1,80,1,0
88371,-83.3333333333333,4,2,1,80,0,0
89181,197.368421052632,4,2,1,80,1,0
89181,-83.3333333333333,4,2,1,80,0,0
89970,208.333333333333,4,2,1,80,1,0
89970,-83.3333333333333,4,2,1,80,0,0
90803,202.702702702703,4,2,1,80,1,0
90803,-83.3333333333333,4,2,1,80,0,0
91613,206.896551724138,4,2,1,80,1,0
91613,-83.3333333333333,4,2,1,80,0,0
92440,200,4,2,1,80,1,0
92440,-83.3333333333333,4,2,1,80,0,0
93040,220.588235294118,4,2,1,80,1,0
93040,-83.3333333333333,4,2,1,80,0,0
93260,202.702702702703,4,2,1,80,1,0
93260,-50,4,2,1,80,0,0
93665,-50,4,2,2,80,0,0
93870,-50,4,2,3,80,0,0
94070,194.805194805195,4,2,5,80,1,0
94264,-50,4,2,5,80,0,0
94654,202.702702702703,4,2,5,80,1,0
94654,-50,4,2,5,80,0,0
94856,202.702702702703,4,2,5,80,1,0
94856,-50,4,2,5,80,0,0
95680,-100,4,2,5,90,0,0
95869,-66.6666666666667,4,2,5,80,0,0
98707,196.078431372549,4,2,5,90,1,0
98707,-66.6666666666667,4,2,5,90,0,0
98899,-66.6666666666667,4,2,5,90,0,0
98903,200,4,2,5,90,1,0
99101,-66.6666666666667,4,2,5,80,0,0
99103,-66.6666666666667,4,2,5,80,0,0
99703,204.081632653061,4,2,5,80,1,0
99703,-66.6666666666667,4,2,5,80,0,0
100723,211.267605633803,4,2,5,80,1,0
100723,-50,4,2,5,80,0,0
101356,202.702702702703,4,2,5,80,1,0
101356,-50,4,2,5,80,0,0
101964,204.081632653061,4,2,10,80,1,0
101964,-50,4,2,10,80,0,0
102166,-100,4,2,5,80,0,0
102362,-100,4,2,5,80,0,0
102780,207.612456747405,4,2,10,80,1,0
102987,200,4,2,5,80,1,0
103780,-100,4,2,5,80,0,0
103787,201.342281879195,4,2,1,80,1,0
103882,-100,4,2,5,80,0,0
103988,-100,4,2,5,80,0,0
105397,200,4,2,5,80,1,0
105797,168.539325842697,4,2,5,80,1,0
105881,218.978102189781,4,2,5,80,1,0
105881,-100,4,2,5,80,0,0
105990,-100,4,2,5,80,0,0
106209,202.702702702703,4,2,1,80,1,0
106209,-66.6666666666667,4,2,1,80,0,0
107019,-133.333333333333,4,2,7,80,0,0
107425,212.765957446809,4,2,10,80,1,0
107425,-133.333333333333,4,2,10,80,0,0
107744,192.307692307692,4,2,10,80,1,0
107744,-133.333333333333,4,2,10,80,0,0
108032,200,4,2,10,80,1,0
108032,-133.333333333333,4,2,10,80,0,0
108632,209.79020979021,4,2,10,80,1,0
108632,-133.333333333333,4,2,10,80,0,0
109366,192.307692307692,4,2,10,80,1,0
109366,-133.333333333333,4,2,10,80,0,0
109654,202.702702702703,4,2,10,80,1,0
109654,-133.333333333333,4,2,10,80,0,0
110262,209.79020979021,4,2,10,80,1,0
110262,-133.333333333333,4,2,10,80,0,0
110996,191.082802547771,4,2,10,80,1,0
110996,-133.333333333333,4,2,10,80,0,0
111282,200,4,2,10,80,1,0
111282,-133.333333333333,4,2,10,80,0,0
111882,202.702702702703,4,2,10,80,1,0
111882,-133.333333333333,4,2,10,80,0,0
112591,-136.986301369863,4,2,10,80,0,0
112692,212.765957446809,4,2,10,80,1,0
113330,189.873417721519,4,2,10,80,1,0
113519,205.479452054795,4,2,10,80,1,0
113519,-133.333333333333,4,2,10,80,0,0
114238,202.702702702703,4,2,10,80,1,0
114238,-133.333333333333,4,2,10,80,0,0
114846,197.368421052632,4,2,10,80,1,0
114846,-133.333333333333,4,2,10,80,0,0
115142,204.081632653061,4,2,10,80,1,0
115142,-133.333333333333,4,2,10,80,0,0
115856,192.307692307692,4,2,10,80,1,0
116144,202.702702702703,4,2,10,80,1,0
116144,-133.333333333333,4,2,10,80,0,0
116752,202.702702702703,4,2,10,80,1,0
116752,-133.333333333333,4,2,10,80,0,0
117765,204.081632653061,4,2,10,80,1,0
117765,-133.333333333333,4,2,10,80,0,0
118377,200,4,2,10,80,1,0
118377,-133.333333333333,4,2,10,80,0,0
119077,238.095238095238,4,2,10,80,1,0
119102,-100,4,2,10,80,0,0
119196,202.702702702703,4,2,10,80,1,0
119297,-66.6666666666667,4,2,10,80,0,0
119591,-66.6666666666667,4,2,1,80,0,0
119601,191.082802547771,4,2,10,80,1,0
119983,205.479452054795,4,2,4,90,1,0
119983,-100,4,2,4,90,0,0
120804,202.702702702703,4,2,4,90,1,0
120804,-100,4,2,4,90,0,0
121512,-100,4,2,4,90,0,0
121614,-100,4,2,4,90,0,0
122425,201.342281879195,4,2,4,90,1,0
123129,-100,4,2,4,90,0,0
123230,205.479452054795,4,2,4,90,1,0
123332,-100,4,2,4,90,0,0
123435,-100,4,2,4,90,0,0
124153,-100,4,2,4,90,0,0
124257,-100,4,2,4,90,0,0
124873,201.342281879195,4,2,4,90,1,0
124973,-100,4,2,4,90,0,0
125074,-100,4,2,4,90,0,0
126282,212.765957446809,4,2,4,90,1,0
126494,201.342281879195,4,2,4,90,1,0
126494,-66.6666666666667,4,2,4,90,0,0
126997,-100,4,2,4,90,0,0
128003,-66.6666666666667,4,2,4,90,0,0
128104,200,4,2,4,90,1,0
128104,-100,4,2,4,90,0,0
128904,202.702702702703,4,2,4,90,1,0
128904,-100,4,2,4,90,0,0
129612,-100,4,2,4,90,0,0
129714,200,4,2,4,90,1,0
129714,-100,4,2,4,90,0,0
130264,-100,4,2,4,90,0,0
130314,-100,4,2,4,90,0,0
130514,206.896551724138,4,2,4,90,1,0
130514,-100,4,2,4,90,0,0
131030,-100,4,2,4,90,0,0
131134,-100,4,2,4,90,0,0
131238,-100,4,2,4,90,0,0
131339,-66.6666666666667,4,2,4,90,0,0
131341,202.702702702703,4,2,4,90,1,0
131542,-66.6666666666667,4,2,4,100,0,0
131543,-66.6666666666667,4,2,4,100,0,0
132151,204.081632653061,4,2,1,90,1,0
132151,-66.6666666666667,4,2,1,90,0,0
132967,205.479452054795,4,2,10,100,1,0
132967,-100,4,2,10,100,0,0
133069,-100,4,2,10,100,0,0
133114,-100,4,2,10,5,0,0
133172,-100,4,2,10,100,0,0
133479,-100,4,2,10,100,0,0
133519,-100,4,2,10,5,0,0
133583,-100,4,2,10,100,0,0
133890,-100,4,2,10,100,0,0
133925,-100,4,2,10,5,0,0
133994,204.081632653061,4,2,10,100,1,0
133994,-100,4,2,10,100,0,0
134300,-100,4,2,10,100,0,0
134331,-100,4,2,10,5,0,0
134402,241.935483870968,4,2,10,100,1,0
134402,-100,4,2,10,100,0,0
134643,254.237288135593,4,2,10,80,1,0
134897,270.27027027027,4,2,10,80,1,0
135032,348.837209302326,4,2,10,80,1,0
135729,361.44578313253,4,2,10,80,1,0
135909,405.405405405405,4,2,10,80,1,0
136719,384.615384615385,4,2,10,80,1,0
137103,576.923076923077,4,2,10,80,1,0
137679,656.994251300301,4,2,10,80,1,0

[Colours]
Combo1 : 255,255,0
Combo2 : 193,193,255
Combo3 : 255,153,153
Combo4 : 113,113,255
Combo5 : 0,128,128
Combo6 : 238,0,0

[HitObjects]
136,149,0,6,0,P|217:137|279:201,1,160,12|0,0:1|0:0,0:0:0:0:
278,320,304,2,0,P|354:333|415:285,1,160,8|0,0:0|0:0,2:0:0:0:
382,118,608,2,0,L|368:236,1,80,8|0,0:0|0:0,0:0:0:0:
512,304,810,2,0,L|502:224,1,80,8|0,0:2|0:0,2:0:0:0:
482,24,1013,5,2,0:0:0:0:
465,50,1111,1,8,0:0:0:0:
382,118,1209,1,2,0:0:0:0:
365,92,1307,1,2,0:0:0:0:
289,25,1405,2,0,P|220:35|195:46,1,80,8|0,0:0|0:2,0:0:0:0:
19,178,1601,6,0,P|92:144|176:184,1,160,12|0,1:2|0:0,0:0:0:0:
324,283,1907,2,0,P|250:308|180:274,1,160,8|0,0:0|0:0,0:0:0:0:
270,130,2213,2,0,L|255:222,1,80,8|0,0:0|0:0,2:0:0:0:
431,335,2417,2,0,L|418:256,1,80,8|0,0:0|0:0,1:0:0:0:
471,59,2621,5,2,0:0:0:0:
458,88,2723,1,8,0:0:0:0:
351,55,2825,1,2,0:0:0:0:
338,26,2927,1,2,0:0:0:0:
268,104,3029,2,0,P|229:113|180:113,1,80,8|0,0:0|0:0,0:0:0:0:
43,47,3233,38,0,P|47:123|18:225,1,160,12|0,1:0|0:0,0:0:0:0:
150,368,3541,2,0,P|130:290|134:210,1,160,8|0,0:0|0:0,0:0:0:0:
310,236,3849,2,0,P|270:244|213:240,1,80,8|0,0:0|0:0,0:0:0:0:
260,23,4054,6,0,P|311:38|296:146,1,160,10|2,0:0|0:0,0:0:0:0:
134,210,4363,2,0,P|123:135|189:101,1,160,10|0,0:0|0:0,0:0:0:0:
310,236,4665,2,0,P|270:244|213:240,1,80,10|2,0:0|0:0,0:0:0:0:
412,192,4865,6,0,L|432:363,1,160,12|0,1:2|0:0,0:0:0:0:
204,346,5169,2,0,L|222:187,1,160,8|0,0:0|0:0,0:0:0:0:
189,101,5473,1,8,0:0:0:0:
254,33,5574,1,2,0:0:0:0:
156,112,5675,6,0,P|96:110|22:27,1,160,8|8,0:0|1:2,0:0:0:0:
130,13,5979,1,8,1:2:0:0:
62,143,6081,2,0,P|49:192|41:229,1,80,8|8,1:2|1:2,0:0:0:0:
241,264,6283,2,0,P|232:224|221:186,1,80,8|8,1:2|1:2,0:0:0:0:
55,344,6486,38,0,P|145:313|204:371,1,160,12|0,1:0|0:0,0:0:0:0:
378,261,6790,2,0,P|309:297|240:263,1,160,8|0,0:0|0:0,0:0:0:0:
301,93,7094,2,0,P|311:136|316:189,1,80,8|0,0:0|0:0,0:0:0:0:
127,279,7297,2,0,P|131:239|141:200,1,80,8|0,0:0|0:0,0:0:0:0:
301,93,7500,5,2,0:0:0:0:
308,61,7601,1,8,0:0:0:0:
200,1,7702,1,2,0:0:0:0:
181,18,7804,1,2,0:0:0:0:
125,95,7905,2,0,P|86:84|48:74,1,80,8|0,0:0|0:0,0:0:0:0:
46,303,8108,6,0,B|130:266|116:349|227:291,1,160,12|0,1:2|0:0,0:0:0:0:
378,147,8412,2,0,P|331:112|218:122,1,160,8|0,0:0|0:0,0:0:0:0:
162,219,8716,2,0,P|217:218|257:192,1,80,8|0,0:0|0:0,0:0:0:0:
428,240,8919,2,0,P|390:225|351:228,1,80,8|0,0:0|0:0,0:0:0:0:
288,332,9121,5,2,0:0:0:0:
303,359,9223,1,8,0:0:0:0:
200,303,9324,1,0,0:0:0:0:
185,330,9425,1,0,0:0:0:0:
94,364,9527,2,0,P|54:366|17:352,1,80,10|0,0:0|0:0,0:0:0:0:
69,115,9729,38,0,P|79:186|64:298,1,160,12|0,1:1|0:0,0:0:0:0:
287,338,10033,2,0,P|278:258|288:179,1,160,8|0,0:0|0:0,0:0:0:0:
234,47,10337,2,0,P|202:88|211:140,1,80,8|0,0:0|0:0,0:0:0:0:
450,77,10540,6,0,P|404:45|318:118,1,160,10|2,0:0|0:0,0:0:0:0:
228,231,10844,2,0,P|274:263|360:190,1,160,10|0,0:0|0:0,0:0:0:0:
200,114,11148,2,0,P|155:137|131:169,1,80,10|2,0:0|0:0,0:0:0:0:
356,217,11351,6,0,P|480:227|527:244,1,160,12|0,2:2|0:0,0:0:0:0:
309,333,11649,2,0,P|185:323|138:306,1,160,8|0,0:0|0:0,0:0:0:0:
67,102,11947,1,8,0:0:0:0:
174,65,12046,1,2,0:0:0:0:
100,198,12145,6,0,P|71:260|-4:210,1,160,8|0,0:0|0:0,0:0:0:0:
174,65,12445,2,0,P|239:34|274:98,1,160,8|0,0:0|0:0,0:0:0:0:
162,281,12745,1,8,0:0:0:0:
132,267,12845,1,0,0:0:0:0:
236,192,12945,38,0,P|293:192|335:196,1,80,8|0,0:0|0:0,0:0:0:0:
263,49,13149,2,0,P|303:89|330:121,1,80,0|0,1:0|0:0,0:0:0:0:
407,0,13353,2,0,P|407:57|403:99,1,80,0|0,1:0|0:0,0:0:0:0:
512,107,13557,2,0,P|471:147|439:174,1,80,0|0,1:0|0:0,0:0:0:0:
415,338,13761,6,0,P|430:274|405:238,1,80,8|0,1:2|0:0,0:0:0:0:
271,336,13965,2,0,P|326:301|334:258,1,80,8|0,1:2|0:0,0:0:0:0:
175,237,14166,2,0,P|238:252|275:227,1,80,8|0,1:2|0:0,0:0:0:0:
175,99,14367,2,0,P|209:154|252:162,1,80,8|0,1:2|0:0,0:0:0:0:
80,341,14569,6,0,P|86:239|90:219,1,95.9999970703126,8|0,1:2|0:0,0:0:0:0:
310,69,14770,2,0,P|315:116|314:164,1,95.9999970703126,8|0,1:2|0:0,0:0:0:0:
14,183,14971,2,0,P|77:153|123:165,1,95.9999970703126,8|0,1:2|0:0,0:0:0:0:
335,258,15173,2,0,P|287:256|248:230,1,95.9999970703126,8|0,1:2|0:0,0:0:0:0:
103,45,15374,22,0,B|154:37|154:37|169:44|169:44|229:38,1,120.000004577637,4|0,1:2|0:0,0:0:0:0:
434,37,15579,1,8,1:2:0:0:
509,96,15682,1,8,1:2:0:0:
469,183,15784,5,8,1:2:0:0:
373,174,15887,1,8,1:2:0:0:
335,258,15990,1,8,1:2:0:0:
405,323,16093,1,8,1:2:0:0:
489,275,16195,5,6,0:3:0:0:
299,47,16397,2,0,P|226:38|187:42,1,95.9999970703126,10|0,0:0|0:0,0:0:0:0:
0,150,16600,2,0,P|73:141|112:145,1,95.9999970703126,0|4,0:0|0:3,0:0:0:0:
373,174,16803,2,0,P|300:165|261:169,1,95.9999970703126,10|0,0:0|0:0,0:0:0:0:
47,261,17005,6,0,P|120:252|159:256,1,95.9999970703126,4|0,0:3|0:0,0:0:0:0:
441,275,17208,2,0,P|361:267|302:363,1,191.999994140625,10|0,0:0|0:0,0:0:0:0:
398,358,17512,1,4,0:3:0:0:
206,339,17613,2,0,P|166:340|109:355,1,95.9999970703126,10|0,0:0|0:0,0:0:0:0:
53,62,17816,38,0,B|100:85|153:50|153:50|180:83|180:83|230:40|340:73,1,272.000005187988,4|10,0:3|0:0,0:0:0:0:
419,89,18126,54,0,P|346:135|297:63,1,191.999994140625,0|4,0:0|0:3,0:0:0:0:
485,162,18436,2,0,P|485:260|474:282,1,95.9999970703126,10|0,0:0|0:0,0:0:0:0:
196,232,18643,5,4,0:3:0:0:
431,341,18845,1,10,0:0:0:0:
404,251,18947,2,0,P|326:237|264:335,1,191.999994140625,0|4,0:0|0:3,0:0:0:0:
92,339,19251,2,0,P|159:352|204:371,1,95.9999970703126,10|0,0:0|0:0,0:0:0:0:
263,318,19453,37,4,0:3:0:0:
443,51,19656,2,0,P|386:35|332:29,1,95.9999970703126,10|0,0:0|0:0,0:0:0:0:
44,69,19859,2,0,P|101:53|155:47,1,95.9999970703126,4|0,0:3|0:3,0:0:0:0:
493,159,20061,2,0,P|436:143|382:137,1,95.9999970703126,10|0,0:0|0:0,0:0:0:0:
60,159,20264,5,4,0:3:0:0:
129,235,20365,2,0,P|217:249|252:251,1,95.9999970703126,0|10,0:0|0:0,0:0:0:0:
399,138,20568,2,0,P|337:115|314:218,1,191.999994140625,4|4,0:3|0:3,0:0:0:0:
490,311,20872,6,0,B|392:258|413:365|267:299,1,191.999994140625,10|4,0:0|0:3,0:0:0:0:
137,44,21278,2,0,P|143:92|141:165,1,95.9999970703126,10|0,0:0|0:0,0:0:0:0:
34,346,21475,2,0,P|34:298|40:250,1,95.9999970703126,0|4,0:0|0:3,0:0:0:0:
245,111,21672,1,10,0:0:0:0:
245,111,21771,1,0,0:0:0:0:
223,205,21870,38,0,P|271:147|432:215,1,240.000009155274,12|8,1:1|1:2,0:0:0:0:
135,362,22166,2,0,P|126:283|146:204,1,120.000004577637,4|0,0:3|0:0,0:0:0:0:
324,226,22363,1,4,0:3:0:0:
225,323,22462,2,0,P|216:244|236:165,1,120.000004577637,8|0,1:2|0:0,0:0:0:0:
363,98,22664,5,6,0:3:0:0:
5,47,22868,2,0,P|57:49|122:64,1,95.9999970703126,10|0,0:0|0:0,0:0:0:0:
374,114,23072,2,0,P|322:116|257:131,1,95.9999970703126,0|4,0:0|0:3,0:0:0:0:
27,146,23276,2,0,P|79:148|144:163,1,95.9999970703126,10|0,0:0|0:0,0:0:0:0:
419,215,23480,2,0,P|367:217|302:232,1,95.9999970703126,4|0,0:3|0:0,0:0:0:0:
112,374,23684,6,0,P|182:355|172:241,1,191.999994140625,10|0,0:0|0:0,0:0:0:0:
95,288,23990,2,0,P|47:287|0:279,2,95.9999970703126,4|10|0,0:3|0:0|0:0,0:0:0:0:
272,99,24296,38,0,B|271:73|291:38|291:38|358:103|360:165|323:223,1,272.000005187988,4|10,0:3|0:0,0:0:0:0:
126,185,24629,54,0,P|187:167|232:181,1,95.9999970703126
446,255,24839,1,4,0:3:0:0:
378,297,24938,2,0,P|331:253|321:207,1,95.9999970703126,10|0,0:0|0:0,0:0:0:0:
394,0,25137,6,0,P|401:69|290:115,1,191.999994140625,4|10,0:3|0:0,0:0:0:0:
108,33,25437,2,0,P|186:27|331:29,1,191.999994140625,0|4,0:0|0:3,0:0:0:0:
66,123,25741,2,0,P|32:99|7:35,1,95.9999970703126,10|0,0:0|0:0,0:0:0:0:
299,27,25944,37,6,0:3:0:0:
46,352,26146,2,0,P|56:296|68:258,1,95.9999970703126,10|0,0:0|0:0,0:0:0:0:
182,26,26349,2,0,P|195:71|203:119,1,95.9999970703126,4|0,0:3|0:0,0:0:0:0:
163,353,26552,2,0,P|173:297|185:259,1,95.9999970703126,10|0,0:0|0:0,0:0:0:0:
299,27,26754,6,0,P|312:72|320:120,1,95.9999970703126,4|0,0:3|0:0,0:0:0:0:
276,364,26954,2,0,P|286:308|298:270,1,95.9999970703126,10|0,0:0|0:0,0:0:0:0:
417,38,27154,2,0,P|430:83|438:131,1,95.9999970703126,4|0,0:3|0:0,0:0:0:0:
393,377,27354,2,0,P|403:321|415:283,1,95.9999970703126,10|0,0:0|0:0,0:0:0:0:
320,120,27554,6,0,P|251:129|194:133,1,95.9999970703126,4|0,0:3|0:0,0:0:0:0:
4,79,27754,2,0,P|73:88|130:92,1,95.9999970703126,10|0,0:0|0:0,0:0:0:0:
335,19,27954,2,0,P|266:28|209:32,1,95.9999970703126,4|0,0:3|0:0,0:0:0:0:
11,186,28154,2,0,P|80:195|137:199,1,95.9999970703126,10|0,0:2|0:0,0:0:0:0:
436,131,28354,6,0,P|440:196|413:273,1,120.000004577637,2|0,0:3|0:0,0:0:0:0:
220,370,28554,2,0,P|205:312|209:252,1,120.000004577637,8|8,1:2|1:2,0:0:0:0:
355,45,28754,1,8,1:2:0:0:
313,131,28854,1,8,1:2:0:0:
218,149,28954,1,8,1:2:0:0:
149,81,29065,1,8,1:2:0:0:
53,91,29176,38,0,P|26:154|55:264,2,160,2|10|0,0:0|0:0|0:3,0:0:0:0:
154,84,29682,1,4,0:3:0:0:
154,84,29784,1,10,0:0:0:0:
176,341,29986,1,4,0:3:0:0:
391,253,30189,6,0,L|373:353,1,80,10|0,0:0|0:3,0:0:0:0:
218,149,30392,1,4,0:3:0:0:
218,149,30493,2,0,L|203:70,2,80,4|10|0,0:3|0:0|0:0,0:0:0:0:
486,107,30797,6,0,P|413:95|333:147,2,160,4|10|0,0:3|0:0|0:0,0:0:0:0:
387,15,31304,1,4,0:3:0:0:
387,15,31405,1,10,0:0:0:0:
308,347,31608,5,4,0:3:0:0:
449,178,31811,2,0,P|459:238|457:273,1,80,10|0,0:0|0:0,0:0:0:0:
208,227,32013,1,4,0:3:0:0:
207,226,32115,2,0,P|208:187|217:147,1,80,4|10,0:3|0:0,0:0:0:0:
284,370,32312,1,0,0:0:0:0:
284,370,32408,37,4,0:3:0:0:
104,192,32622,2,0,P|47:202|15:214,1,80,10|0,0:0|0:0,0:0:0:0:
317,62,32824,2,0,P|374:72|406:84,1,80,4|4,0:3|0:3,0:0:0:0:
79,84,33027,2,0,P|76:31|79:-4,1,80,10|4,0:0|0:3,0:0:0:0:
309,174,33232,2,0,P|311:213|307:253,1,80,4|0,0:3|0:0,0:0:0:0:
92,342,33437,6,0,L|191:323,1,80,10|0,0:0|0:0,0:0:0:0:
310,370,33643,1,0,0:0:0:0:
310,370,33743,2,0,L|409:351,2,80,4|10|4,0:3|0:0|0:3,0:0:0:0:
170,326,34045,5,4,0:3:0:0:
409,184,34246,2,0,P|411:223|407:263,1,80,10|0,0:0|0:0,0:0:0:0:
92,342,34447,2,0,P|89:302|93:262,1,80,4|4,0:3|0:3,0:0:0:0:
331,71,34649,2,0,P|333:110|329:150,1,80,10|4,0:0|0:3,0:0:0:0:
85,165,34850,6,0,L|197:176,1,80,4|0,0:3|0:0,0:0:0:0:
313,274,35051,1,10,0:0:0:0:
313,274,35152,2,0,L|201:285,1,80
409,184,35351,1,4,0:3:0:0:
409,184,35450,1,10,0:0:0:0:
307,32,35647,38,0,P|238:61|128:34,2,160,4|10|0,0:3|0:0|0:0,0:0:0:0:
426,59,36153,1,4,0:3:0:0:
426,59,36255,1,10,0:0:0:0:
357,348,36457,5,4,0:3:0:0:
34,244,36665,2,0,P|95:244|134:254,1,80,10|0,0:0|0:0,0:0:0:0:
240,340,36873,1,4,0:3:0:0:
240,340,36977,2,0,P|200:345|160:343,1,80,4|10,0:3|0:0,0:0:0:0:
324,153,37177,1,0,0:0:0:0:
324,153,37273,6,0,P|271:151|222:267,2,160,4|10|0,0:3|0:0|0:0,0:0:0:0:
398,211,37791,1,4,0:3:0:0:
398,211,37894,1,10,0:0:0:0:
153,128,38100,5,4,0:3:0:0:
409,33,38302,2,0,P|412:92|406:121,1,80,10|0,0:0|0:0,0:0:0:0:
302,257,38505,1,4,0:3:0:0:
302,257,38606,2,0,P|297:296|302:336,2,80,4|10|0,0:3|0:0|0:0,0:0:0:0:
408,214,38910,37,4,0:3:0:0:
47,66,39111,2,0,P|88:76|125:107,1,80,10|0,0:0|0:0,0:0:0:0:
419,93,39312,2,0,P|378:103|321:161,1,120
326,174,39514,2,0,P|285:164|248:133,1,80,10|0,0:0|0:0,0:0:0:0:
117,98,39715,6,0,L|107:203,1,80,4|0,0:3|0:0,0:0:0:0:
54,337,39916,2,0,L|46:257,1,80,10|0,0:0|0:0,0:0:0:0:
303,293,40118,2,0,P|236:303|120:250,1,160,0|10,0:3|0:0,0:0:0:0:
109,177,40420,1,0,0:0:0:0:
46,257,40520,6,0,L|54:337,1,80,4|4,0:3|0:3,0:0:0:0:
149,88,40722,2,0,P|94:85|43:96,1,80,10|0,0:0|0:0,0:0:0:0:
246,174,40925,2,0,P|301:177|352:166,1,80,4|4,0:3|0:3,0:0:0:0:
390,43,41128,1,10,0:0:0:0:
390,43,41229,1,4,0:3:0:0:
480,136,41330,6,0,P|496:223|485:299,1,136.000002593994,2|0,0:0|0:0,0:0:0:0:
148,345,41533,2,0,P|145:277|160:211,1,136.000002593994,8|8,1:2|1:2,0:0:0:0:
283,20,41727,37,8,1:2:0:0:
383,25,41825,1,8,1:2:0:0:
403,118,41922,1,8,1:2:0:0:
325,173,42020,1,8,1:2:0:0:
252,115,42117,6,0,P|191:101|133:92,1,95.9999970703126,6|0,0:3|0:0,0:0:0:0:
383,25,42346,2,0,P|444:11|502:2,1,95.9999970703126,10|0,0:0|0:0,0:0:0:0:
245,208,42548,2,0,P|184:194|126:185,1,95.9999970703126,4|0,0:3|0:0,0:0:0:0:
403,118,42751,2,0,P|464:104|522:95,1,95.9999970703126,10|0,0:0|0:0,0:0:0:0:
329,357,42954,6,0,L|313:253,1,95.9999970703126,4|0,0:3|0:0,0:0:0:0:
501,186,43156,2,0,L|486:280,1,95.9999970703126,10|0,0:0|0:0,0:0:0:0:
223,311,43359,2,0,L|207:207,1,95.9999970703126,4|0,0:3|0:0,0:0:0:0:
408,137,43562,2,0,L|393:231,1,95.9999970703126,10|0,0:0|0:0,0:0:0:0:
383,37,43764,6,0,P|279:52|256:51,1,95.9999970703126,4|0,0:3|0:0,0:0:0:0:
29,55,43967,6,0,P|76:59|173:110,1,136.000002593994,10|0,0:0|0:0,0:0:0:0:
408,137,44167,2,0,P|360:141|264:192,1,136.000002593994,4|0,0:3|0:0,0:0:0:0:
73,345,44367,6,0,P|123:271|104:198,1,136.000002593994,10|0,0:0|0:0,0:0:0:0:
32,12,44579,2,0,P|115:85|294:71,1,272.000005187988,2|8,0:3|0:3,0:0:0:0:
449,12,44883,1,4,0:3:0:0:
384,122,44984,70,0,B|405:196|405:196|379:324,1,160,8|8,1:2|1:2,0:0:0:0:
73,345,45187,2,0,B|56:263|56:263|77:189,1,160,8|8,1:2|1:2,0:0:0:0:
350,368,45389,22,0,P|296:350|248:340,1,95.9999970703126,6|0,0:3|0:0,0:0:0:0:
76,189,45595,2,0,B|179:159|138:251|289:204,1,191.999994140625,10|0,0:0|0:0,0:0:0:0:
384,122,45906,1,4,0:3:0:0:
310,24,46009,2,0,P|292:78|282:126,1,95.9999970703126,10|0,0:0|0:0,0:0:0:0:
346,263,46203,6,0,L|470:258,1,95.9999970703126,4|0,0:3|0:0,0:0:0:0:
310,24,46405,2,0,P|234:28|186:152,1,191.999994140625,10|4,0:0|0:3,0:0:0:0:
235,205,46709,1,4,0:3:0:0:
178,283,46811,2,0,L|82:286,1,95.9999970703126,10|0,0:0|0:0,0:0:0:0:
47,91,47013,6,0,P|54:173|52:214,1,95.9999970703126,4|0,0:3|0:0,0:0:0:0:
235,205,47216,2,0,B|327:246|320:160|422:207,1,191.999994140625,10|0,0:0|0:0,0:0:0:0:
470,339,47520,1,4,0:3:0:0:
348,375,47621,2,0,P|359:316|376:264,1,95.9999970703126,10|0,0:0|0:0,0:0:0:0:
213,111,47824,6,0,L|234:204,1,95.9999970703126,4|0,0:3|0:0,0:0:0:0:
411,114,48029,1,10,0:0:0:0:
358,37,48132,2,0,P|300:24|159:23,1,191.999994140625,0|4,0:0|0:3,0:0:0:0:
19,80,48440,2,0,P|78:88|149:92,1,95.9999970703126,10|0,0:0|0:0,0:0:0:0:
319,113,48645,37,4,0:3:0:0:
82,241,48851,2,0,P|154:196|257:275,1,191.999994140625,10|0,0:0|0:0,0:0:0:0:
204,334,49159,1,4,0:3:0:0:
342,280,49262,2,0,P|401:281|442:288,1,95.9999970703126,10|0,0:0|0:0,0:0:0:0:
26,377,49467,6,0,L|-5:269,1,95.9999970703126,10|0,0:0|0:0,0:0:0:0:
63,71,49668,1,8,0:3:0:0:
154,50,49769,1,8,0:3:0:0:
227,112,49869,5,4,0:3:0:0:
135,142,49970,1,4,0:3:0:0:
126,237,50071,1,4,0:3:0:0:
203,294,50171,1,4,0:3:0:0:
282,208,50272,5,6,0:3:0:0:
282,208,51792,1,8,1:2:0:0:
231,112,51891,37,6,0:0:0:0:
159,331,52093,2,0,P|218:335|278:343,1,120.000004577637,10|0,0:0|0:0,0:0:0:0:
507,268,52296,2,0,P|447:272|387:280,1,120.000004577637,0|0,0:3|0:0,0:0:0:0:
61,221,52499,2,0,P|120:225|180:233,1,120.000004577637,10|0,0:0|0:0,0:0:0:0:
403,63,52701,6,0,P|323:71|294:226,1,240.000009155274,4|10,0:3|0:0,0:0:0:0:
489,176,53004,2,0,P|429:167|369:163,1,120.000004577637,4|0,0:3|0:0,0:0:0:0:
199,31,53204,1,4,0:3:0:0:
147,125,53304,2,0,P|206:116|266:112,1,120.000004577637,10|0,0:0|0:0,0:0:0:0:
20,360,53504,6,0,L|54:163,1,191.999994140625,4|10,0:3|0:0,0:0:0:0:
321,308,53808,2,0,P|248:318|131:279,1,191.999994140625,0|4,0:0|0:3,0:0:0:0:
150,130,54112,1,10,0:0:0:0:
150,130,54213,1,0,0:0:0:0:
216,199,54314,6,0,P|289:209|340:200,1,95.9999970703126,4|0,0:3|0:0,0:0:0:0:
439,100,54517,2,0,P|366:110|313:100,1,95.9999970703126,10|0,0:0|0:3,0:0:0:0:
173,32,54720,2,0,P|246:42|299:32,1,95.9999970703126,4|4,0:3|0:3,0:0:0:0:
428,206,54922,1,10,0:0:0:0:
373,282,55024,1,0,0:0:0:0:
310,206,55125,1,4,0:1:0:0:
80,337,55331,6,0,P|169:343|213:316,1,120.000004577637,12|0,0:0|0:0,0:1:0:0:
487,288,55538,2,0,P|398:294|354:267,1,120.000004577637,4|4,0:3|0:3,0:0:0:0:
101,205,55745,2,0,P|190:211|234:184,1,120.000004577637,10|0,0:2|0:3,0:0:0:0:
393,27,55952,6,0,P|388:111|382:166,1,120.000004577637,4|4,0:3|0:3,0:0:0:0:
412,13,56154,2,0,P|408:72|403:132,1,120.000004577637,10|0,0:0|0:0,0:0:0:0:
224,318,56357,2,0,P|219:234|213:179,1,120.000004577637,4|4,0:3|0:3,0:0:0:0:
243,332,56560,2,0,P|239:272|234:212,1,120.000004577637,8|0,0:0|0:0,0:0:0:0:
23,68,56762,70,0,B|52:31|52:31|133:32|133:32|188:89|188:89|233:35|233:35|354:36,1,320,12|0,0:0|0:0,0:0:0:0:
464,47,57066,2,0,B|375:13|375:13|280:119|280:119|319:227,1,320,12|0,0:0|0:0,0:0:0:0:
448,169,57370,2,0,B|417:122|417:122|393:125|393:125|396:152|396:152|450:177,1,160,12|0,0:0|0:0,0:0:0:0:
495,374,57573,5,12,0:0:0:0:
23,68,57979,1,12,0:0:0:0:
32,82,58384,5,6,0:3:0:0:
135,295,58587,2,0,P|140:216|137:152,1,120.000004577637,12|0,0:0|0:0,0:0:0:0:
260,0,58789,2,0,P|259:59|263:119,1,120.000004577637,0|4,0:0|0:3,0:0:0:0:
507,200,58992,2,0,L|372:171,1,120.000004577637,10|0,0:0|0:0,0:0:0:0:
253,319,59195,6,0,L|388:290,2,120.000004577637,4|4|10,0:3|0:3|0:0,0:0:0:0:
0,259,59499,2,0,P|70:300|174:171,1,240.000009155274,0|4,0:0|0:3,0:0:0:0:
78,75,59803,2,0,P|77:134|81:194,1,120.000004577637,10|0,0:0|0:0,0:0:0:0:
120,343,60015,5,4,0:3:0:0:
354,93,60216,1,10,0:0:0:0:
304,14,60317,2,0,P|229:8|225:128,1,191.999994140625,0|4,0:0|0:3,0:0:0:0:
288,181,60619,2,0,P|301:227|286:288,1,95.9999970703126,10|0,0:0|0:0,0:0:0:0:
229,355,60820,5,4,0:3:0:0:
477,161,61021,1,10,0:0:0:0:
445,257,61122,2,0,P|374:258|283:166,1,191.999994140625,0|4,0:0|0:3,0:0:0:0:
348,0,61424,2,0,P|361:46|346:107,1,95.9999970703126,10|0,0:0|0:0,0:0:0:0:
68,69,61625,38,0,L|200:76,1,95.9999970703126,4|0,0:1|2:0,0:0:0:0:
353,92,61827,1,10,0:0:0:0:
68,69,62030,6,0,P|116:60|191:88,1,95.9999970703126,4|0,0:3|0:0,0:0:0:0:
353,92,62233,1,10,0:0:0:0:
68,69,62435,6,0,P|110:94|181:52,1,95.9999970703126,4|0,0:3|0:0,0:0:0:0:
353,92,62636,1,10,0:0:0:0:
68,69,62837,6,0,P|111:49|143:105,1,95.9999970703126,4|0,0:3|0:0,0:0:0:0:
353,92,63039,1,10,0:0:0:0:
404,297,63240,38,0,L|272:304,1,95.9999970703126,4|0,0:3|0:0,0:0:0:0:
119,320,63441,1,10,0:0:0:0:
404,297,63643,6,0,P|356:288|281:316,1,95.9999970703126,4|0,0:3|0:0,0:0:0:0:
119,320,63844,1,10,0:0:0:0:
404,297,64045,6,0,P|362:322|291:280,1,95.9999970703126,6|0,0:3|0:0,0:0:0:0:
119,320,64247,1,8,1:2:0:0:
61,247,64347,1,8,1:2:0:0:
131,180,64448,5,8,1:2:0:0:
202,115,64549,1,8,1:2:0:0:
141,40,64649,1,8,1:2:0:0:
68,102,64759,1,8,1:2:0:0:
131,180,64869,38,0,P|182:210|280:168,2,160,2|10|0,0:2|0:0|0:0,0:0:0:0:
68,102,65375,1,4,0:3:0:0:
68,102,65477,1,10,0:0:0:0:
120,367,65679,5,4,0:3:0:0:
271,179,65879,2,0,P|269:139|274:99,1,80,10|0,0:2|0:0,0:0:0:0:
351,292,66079,1,4,0:3:0:0:
351,292,66179,2,0,P|355:331|354:371,2,80,4|10|0,0:3|0:0|0:0,0:0:0:0:
406,116,66479,6,0,P|490:107|532:197,2,160,4|10|0,0:3|0:0|0:0,0:0:0:0:
350,197,66989,1,4,0:3:0:0:
350,197,67091,1,10,0:0:0:0:
72,48,67295,5,4,0:3:0:0:
156,286,67499,2,0,P|171:219|171:181,1,80,10|0,0:0|0:0,0:0:0:0:
20,139,67701,1,4,0:3:0:0:
20,139,67803,2,0,P|24:178|35:217,2,80,4|10|0,0:3|0:0|0:0,0:0:0:0:
72,48,68107,37,4,0:3:0:0:
340,50,68309,2,0,P|308:85|264:101,1,80,10|0,0:0|0:0,0:0:0:0:
171,207,68512,2,0,P|203:242|247:258,1,80,4|4,0:3|0:3,0:0:0:0:
417,308,68715,2,0,P|385:343|341:359,1,80,10|4,0:0|0:3,0:0:0:0:
166,374,68917,6,0,L|272:387,1,80,4|0,0:3|0:0,0:0:0:0:
84,317,69120,1,10,0:0:0:0:
84,317,69221,2,0,L|-22:330,2,80,0|4|4,0:0|0:3|0:3,0:0:0:0:
152,245,69525,2,0,L|258:258,1,80,10|4,0:0|0:3,0:0:0:0:
385,271,69728,5,4,0:3:0:0:
213,24,69929,2,0,P|213:82|227:137,1,80,10|0,0:0|0:0,0:0:0:0:
406,259,70130,2,0,P|411:219|381:130,1,120
413,110,70332,2,0,L|320:132,1,80,10|0,0:0|0:0,0:0:0:0:
35,125,70533,6,0,P|87:128|140:152,1,80,4|0,0:3|0:0,0:0:0:0:
406,259,70734,2,0,P|354:262|301:286,1,80,10|0,0:0|0:0,0:0:0:0:
34,321,70936,2,0,P|86:324|139:348,1,80,0|4,0:0|0:3,0:0:0:0:
197,384,71137,1,10,0:0:0:0:
230,193,71338,38,0,L|237:6,2,160,4|10|0,0:3|0:0|0:0,0:0:0:0:
225,288,71848,1,4,0:3:0:0:
225,288,71950,1,10,0:0:0:0:
118,43,72154,5,4,0:3:0:0:
391,124,72358,2,0,P|465:127|481:124,1,80,10|0,0:0|0:0,0:0:0:0:
304,285,72562,1,4,0:3:0:0:
304,285,72664,2,0,P|264:290|224:287,2,80,4|10|0,0:3|0:0|0:0,0:0:0:0:
478,212,72970,6,0,P|498:282|462:375,2,160,4|10|0,0:3|0:0|0:0,0:0:0:0:
391,124,73483,1,4,0:3:0:0:
391,124,73583,1,10,0:0:0:0:
270,383,73783,5,4,0:3:0:0:
90,152,73986,2,0,P|129:149|202:169,1,80,10|0,0:0|0:0,0:0:0:0:
309,22,74190,1,4,0:3:0:0:
309,22,74291,2,0,P|270:19|197:39,2,80,4|10|0,0:3|0:0|0:0,0:0:0:0:
483,92,74595,37,4,0:3:0:0:
238,374,74797,2,0,P|238:310|245:265,1,80,10|0,0:0|0:0,0:0:0:0:
370,162,75000,2,0,P|373:201|351:285,1,120,4|0,0:3|0:0,0:0:0:0:
319,299,75203,2,0,L|219:292,1,80,10|4,0:0|0:3,0:0:0:0:
123,330,75405,6,0,P|114:291|124:252,1,80,4|0,0:3|0:0,0:0:0:0:
15,143,75608,2,0,P|71:91|146:109,1,160,10|0,0:0|0:0,0:0:0:0:
201,199,75912,1,4,0:3:0:0:
201,199,76013,1,10,0:0:0:0:
59,12,76216,5,4,0:3:0:0:
294,158,76419,2,0,P|360:154|394:148,1,80,10|0,0:0|0:0,0:0:0:0:
124,252,76622,2,0,P|58:248|24:242,1,80,4|4,0:3|0:3,0:0:0:0:
150,113,76824,1,8,0:0:0:0:
150,113,76926,1,4,0:3:0:0:
216,202,77027,6,0,L|237:310,1,80,6|0,0:3|0:0,0:0:0:0:
394,373,77230,2,0,L|409:294,1,80,8|8,1:2|1:2,0:0:0:0:
446,95,77427,1,8,1:2:0:0:
367,40,77526,1,8,1:2:0:0:
273,65,77624,1,8,1:2:0:0:
181,91,77723,1,8,1:2:0:0:
110,26,77822,38,0,P|76:79|79:108,1,80,6|0,0:3|0:0,0:0:0:0:
18,162,78024,2,0,P|44:190|52:229,1,80,10|0,0:0|0:0,0:0:0:0:
181,91,78227,2,0,P|147:144|150:173,1,80,4|0,0:3|0:0,0:0:0:0:
137,243,78430,2,0,P|163:271|171:310,1,80,10|0,0:0|0:0,0:0:0:0:
322,99,78632,6,0,P|356:152|353:181,1,80,4|0,0:3|0:0,0:0:0:0:
414,235,78835,2,0,P|387:263|379:302,1,80,10|0,0:0|0:0,0:0:0:0:
251,164,79038,2,0,P|285:217|282:246,1,80,4|0,0:3|0:0,0:0:0:0:
295,316,79240,2,0,P|268:344|260:383,1,80,10|0,0:0|0:0,0:0:0:0:
414,235,79443,6,0,L|495:230,1,80,4|0,0:3|0:0,0:0:0:0:
251,164,79646,22,0,P|176:172|133:211,1,120.000004577637,10|0,0:2|0:0,0:0:0:0:
382,334,79849,2,0,P|457:342|500:381,1,120.000004577637,4|4,0:3|0:3,0:0:0:0:
172,384,80051,2,0,L|201:248,1,120.000004577637,10|0,0:0|0:0,0:0:0:0:
425,118,80259,6,0,B|476:195|476:195|222:160,1,320,6|4,0:3|0:3,0:0:0:0:
162,81,80571,70,2,P|170:99|174:118,1,40,0|0,3:0|2:0,2:2:0:0:
96,258,80780,6,2,P|100:238|149:195,1,80,0|0,3:0|2:0,2:2:0:0:
380,301,81064,6,0,L|171:270,1,191.999994140625,12|0,0:1|0:0,0:0:0:0:
64,69,81368,2,0,L|273:38,1,191.999994140625,8|0,0:0|0:0,0:0:0:0:
434,166,81672,2,0,L|304:146,1,95.9999970703126,8|0,0:0|0:0,0:0:0:0:
46,211,81874,2,0,L|175:191,1,95.9999970703126,8|0,0:0|0:0,0:0:0:0:
253,40,82077,5,2,0:0:0:0:
244,65,82178,1,8,0:0:0:0:
339,151,82280,1,2,0:0:0:0:
348,176,82381,1,2,0:0:0:0:
248,271,82482,2,0,B|241:311|262:380,1,95.9999970703126,8|0,0:0|0:0,0:0:0:0:
494,218,82687,6,0,P|444:210|265:190,1,191.999994140625,12|0,0:0|3:3,0:0:0:0:
57,295,82995,2,0,P|153:285|248:271,1,191.999994140625,8|0,0:0|3:0,0:0:0:0:
249,102,83285,2,0,P|208:153|194:214,1,95.9999970703126,8|0,0:0|0:0,0:0:0:0:
354,272,83489,2,0,P|335:228|302:192,1,95.9999970703126,0|0,3:0|3:0,0:0:0:0:
129,88,83693,5,10,1:2:0:0:
100,78,83802,1,0,1:0:0:0:
199,10,83911,1,10,1:2:0:0:
228,0,84021,1,0,1:0:0:0:
320,53,84122,2,0,P|364:101|378:159,1,95.9999970703126,0|0,1:2|1:0,0:0:0:0:
116,210,84325,38,0,P|183:186|338:207,1,191.999994140625,12|0,0:1|0:0,0:0:0:0:
507,332,84629,2,0,P|440:308|285:329,1,191.999994140625,8|0,0:0|0:0,0:0:0:0:
184,377,84933,2,0,P|196:313|218:284,1,95.9999970703126,8|0,0:0|0:0,0:0:0:0:
287,46,85135,6,0,P|343:98|280:199,1,191.999994140625,10|2,0:0|0:0,0:0:0:0:
34,115,85437,2,0,P|133:96|233:131,1,191.999994140625,10|0,0:0|0:0,0:0:0:0:
204,302,85739,2,0,P|178:238|168:194,1,95.9999970703126,10|2,0:0|0:0,0:0:0:0:
287,46,85940,6,0,B|374:4|434:58|434:58|372:86,1,191.999994140625,12|0,0:2|0:0,0:0:0:0:
218,121,86244,2,0,B|131:163|71:109|71:109|133:81,1,191.999994140625,8|0,0:0|0:0,0:0:0:0:
286,194,86548,1,8,0:0:0:0:
286,194,86649,1,2,0:0:0:0:
216,272,86750,6,0,P|297:229|377:275,1,191.999994140625,8|0,0:0|0:0,0:0:0:0:
84,280,87050,2,0,P|73:192|114:74,1,191.999994140625,8|0,0:0|0:0,0:0:0:0:
218,26,87350,2,0,P|226:81|213:132,1,95.9999970703126,8|2,0:0|0:0,0:0:0:0:
6,227,87550,38,0,P|59:191|166:252,1,191.999994140625,12|0,0:1|0:0,0:0:0:0:
233,331,87858,2,0,P|316:368|389:314,1,191.999994140625,8|0,0:0|0:0,0:0:0:0:
332,149,88166,2,0,P|311:216|301:263,1,95.9999970703126,8|0,0:0|0:0,0:0:0:0:
461,155,88371,2,0,P|449:108|434:62,1,95.9999970703126,8|0,0:0|0:0,0:0:0:0:
246,72,88573,5,2,0:0:0:0:
236,103,88675,1,8,0:0:0:0:
122,50,88776,1,2,0:0:0:0:
112,19,88877,1,2,0:0:0:0:
28,134,88979,2,0,P|11:185|5:255,1,95.9999970703126,8|0,0:0|0:0,0:0:0:0:
317,216,89181,6,0,B|210:163|225:268|94:194,1,191.999994140625,12|0,0:0|3:0,0:0:0:0:
377,314,89477,2,0,P|426:266|384:143,1,191.999994140625,8|0,0:0|3:0,0:0:0:0:
295,10,89773,2,0,P|301:81|319:120,1,95.9999970703126,8|0,0:0|0:0,0:0:0:0:
506,57,89970,2,0,L|381:51,1,95.9999970703126,8|8,3:3|3:3,0:0:0:0:
98,152,90178,5,8,1:0:0:0:
169,37,90282,1,8,1:0:0:0:
308,312,90490,37,8,1:0:0:0:
237,197,90595,1,8,0:0:0:0:
12,324,90803,6,4,B|54:289|104:330|104:330|153:340|189:310,1,191.999994140625,12|0,0:1|0:0,0:1:0:0:
413,210,91107,2,0,B|377:180|328:190|328:190|278:231|235:196,1,191.999994140625,8|0,0:0|0:0,0:0:0:0:
38,139,91411,2,0,P|108:129|149:145,1,95.9999970703126,8|0,0:0|0:0,1:0:0:0:
307,342,91613,6,0,L|328:109,1,191.999994140625,12|0,0:2|0:0,0:0:0:0:
138,34,91923,2,0,L|155:225,1,191.999994140625,8|0,0:0|0:0,0:0:0:0:
348,52,92233,2,2,L|236:61,1,95.9999970703126,8|0,0:0|0:0,0:0:0:0:
52,322,92440,6,0,P|122:326|138:204,1,191.999994140625,12|0,0:1|0:0,0:1:0:0:
40,26,92740,2,0,P|37:80|70:223,1,191.999994140625,8|0,0:0|0:0,0:0:0:0:
249,238,93040,2,0,P|199:226|141:226,1,95.9999970703126,8|0,0:0|0:0,0:0:0:0:
37,348,93260,6,0,B|101:340|101:340|130:349|130:349|227:333,1,160,4|0,0:0|0:0,0:0:0:0:
354,304,93462,1,8,1:2:0:0:
428,243,93564,1,8,1:2:0:0:
440,148,93665,5,8,1:2:0:0:
388,66,93766,1,8,1:2:0:0:
296,97,93868,1,8,1:2:0:0:
295,192,93969,1,8,1:2:0:0:
383,224,94070,5,0,3:0:0:0:
383,224,94167,1,0,3:0:0:0:
296,97,94264,54,0,B|214:62|214:62|173:139|173:139|217:167|217:167|202:315,1,320,12|0,0:0|3:0,0:0:0:0:
110,226,94557,1,0,3:0:0:0:
159,354,94654,2,0,B|241:346|241:346|288:373|288:373|340:367|340:367|372:328|372:328|499:312,1,320,12|0,0:0|3:0,0:0:0:0:
198,115,95058,6,0,B|169:102|139:102|139:102|81:148|81:148|76:207|140:259|206:257,1,320,12|0,0:0|3:0,0:0:0:0:
330,231,95362,1,0,3:0:0:0:
438,162,95464,2,0,P|460:238|451:317,1,160,12|0,0:0|0:0,0:0:0:0:
372,384,95666,1,4,3:3:0:0:
27,182,95869,6,0,B|105:167|105:167|155:193|155:193|284:166,1,240.000009155274,10|0,0:0|0:2,0:0:0:0:
393,115,96173,1,2,3:2:0:0:
263,41,96274,2,0,P|181:59|149:90,1,120.000004577637,8|0,0:0|0:0,0:0:0:0:
386,352,96477,6,0,B|415:303|415:303|397:202,1,120.000004577637,2|0,3:2|0:0,0:0:0:0:
141,166,96680,2,0,B|129:228|129:228|158:277,1,120.000004577637,10|0,0:0|0:0,0:0:0:0:
452,148,96883,2,0,P|388:136|311:187,1,120.000004577637,2|0,3:2|0:0,0:0:0:0:
111,354,97085,2,0,P|175:366|252:315,1,120.000004577637,10|0,0:0|0:0,0:0:0:0:
280,248,97288,1,0,3:0:0:0:
38,79,97491,38,0,B|177:119|123:8|286:58,1,240.000009155274,12|0,0:0|3:0,0:0:0:0:
339,182,97795,1,0,3:0:0:0:
512,39,97896,6,0,P|463:-5|358:103,1,240.000009155274,12|0,0:0|3:0,0:0:0:0:
32,308,98301,2,0,B|50:216|50:216|25:182|25:182|40:57,1,240.000009155274,12|0,0:0|3:0,0:0:0:0:
170,29,98606,1,0,3:0:0:0:
243,140,98707,70,0,P|180:143|110:123,1,120.000004577637,12|0,0:0|0:0,0:0:0:0:
0,0,98903,1,4,3:3:0:0:
255,156,99103,22,0,P|264:223|249:288,1,120.000004577637,10|0,0:0|0:0,0:0:0:0:
49,374,99303,2,0,P|39:315|48:256,1,120.000004577637,2|0,3:2|0:0,0:0:0:0:
312,364,99503,2,0,P|237:365|161:340,1,120.000004577637,10|0,3:2|0:0,0:0:0:0:
0,158,99703,6,0,P|75:157|151:182,1,120.000004577637,2|0,3:2|0:0,0:0:0:0:
254,273,99907,2,0,P|313:275|372:263,1,120.000004577637,10|0,0:0|0:0,0:0:0:0:
512,29,100111,2,0,P|453:16|393:19,1,120.000004577637,2|0,3:2|0:0,0:0:0:0:
345,134,100315,2,0,P|286:146|226:143,1,120.000004577637,10|0,0:0|0:0,0:0:0:0:
134,45,100519,1,0,3:0:0:0:
459,324,100723,38,0,B|475:390|475:390|507:245|507:245|480:219|480:219|492:150,1,320,12|0,0:0|3:0,0:0:0:0:
474,3,101039,1,0,3:0:0:0:
357,96,101145,2,0,B|270:109|270:109|133:45|133:45|269:30,1,320,12|0,0:0|3:0,0:0:0:0:
406,342,101558,6,0,B|391:272|391:272|340:248|340:248|281:273|281:273|234:242|234:242|103:262,1,320,12|0,0:0|3:0,0:0:0:0:
20,274,101862,1,0,3:0:0:0:
99,55,101964,2,0,P|148:132|51:62,1,320,12|4,0:0|0:3,0:0:0:0:
466,88,102372,6,0,L|287:71,1,160,10|0,0:0|0:0,0:0:0:0:
231,130,102678,1,2,3:2:0:0:
231,130,102780,1,8,0:0:0:0:
399,0,102987,1,0,3:0:0:0:
486,229,103187,1,8,0:0:0:0:
486,229,103287,2,0,P|481:281|465:328,1,80,0|2,3:0|0:0,0:0:0:0:
316,367,103487,1,0,3:0:0:0:
316,367,103587,2,0,P|306:328|303:288,1,80,10|0,0:0|0:0,0:0:0:0:
65,203,103787,6,0,B|98:214|151:216|136:174|186:174|240:192,2,160,4|8|0,0:0|0:0|0:0,0:0:0:0:
18,113,104290,1,0,3:0:0:0:
18,113,104391,2,0,P|22:63|35:18,1,80,8|0,0:0|0:0,0:0:0:0:
156,13,104592,2,0,P|164:51|167:91,1,80,0|0,3:0|0:0,0:0:0:0:
3,268,104793,6,0,P|65:234|156:292,1,160,8|0,0:0|0:0,0:0:0:0:
180,360,105095,1,0,3:0:0:0:
180,360,105196,2,0,P|223:365|288:356,1,80,8|0,0:0|0:0,0:0:0:0:
341,294,105397,1,0,3:0:0:0:
448,58,105597,6,0,P|354:47|313:115,1,160,8|0,0:0|0:0,0:0:0:0:
417,220,105881,1,0,3:0:0:0:
417,220,105990,2,0,P|472:225|522:227,1,80,8|0,0:0|0:0,0:0:0:0:
280,180,106209,2,0,P|208:178|152:185,1,120.000004577637,4|0,0:0|0:0,0:0:0:0:
93,300,106411,37,8,1:2:0:0:
185,326,106513,1,8,1:2:0:0:
267,275,106614,1,8,1:2:0:0:
280,180,106715,1,8,1:2:0:0:
217,107,106817,1,8,1:2:0:0:
120,111,106918,1,8,1:2:0:0:
169,213,107019,6,0,P|195:267|185:325,1,120,4|0,0:2|0:0,0:0:0:0:
0,297,107425,2,0,P|53:271|111:281,1,120,10|0,0:0|0:0,0:0:0:0:
111,281,107744,2,2,P|102:316|113:363,1,60.0000022888184,8|0,0:0|0:0,1:2:0:0:
216,131,108032,6,0,P|169:120|102:153,1,120.000004577637,4|10,0:3|0:0,0:0:0:0:
105,148,108332,2,0,L|91:13,1,120.000004577637,4|0,0:3|0:0,0:0:0:0:
327,63,108632,6,0,B|342:103|342:103|314:256,1,180.000006866455,6|0,0:3|0:0,0:0:0:0:
317,238,109051,1,10,0:0:0:0:
109,152,109261,1,0,0:0:0:0:
109,152,109366,2,2,P|155:136|233:156,1,120.000004577637,8|0,0:0|0:0,1:2:0:0:
78,353,109654,38,0,L|53:213,1,120.000004577637,4|10,0:3|0:0,0:0:0:0:
223,149,109958,2,0,L|201:267,1,120.000004577637,4|0,0:3|0:0,0:0:0:0:
56,29,110262,2,0,P|112:0|211:52,1,180.000006866455,6|0,0:3|0:0,0:0:0:0:
209,48,110681,1,10,0:0:0:0:
414,67,110891,5,0,0:0:0:0:
414,67,110996,2,0,P|357:67|305:23,1,120.000004577637,8|0,0:0|0:0,1:0:0:0:
487,137,111282,2,0,B|507:188|507:188|481:267,1,120.000004577637,4|10,0:3|0:0,0:0:0:0:
369,351,111582,2,0,B|348:289|348:289|368:238,1,120.000004577637,4|0,0:3|0:0,0:0:0:0:
193,71,111882,6,0,P|140:62|83:108,1,120.000004577637,6|0,0:3|0:0,0:0:0:0:
81,188,112186,1,4,0:3:0:0:
81,188,112287,2,0,L|92:270,1,60.0000022888184,10|0,1:2|0:0,0:0:0:0:
285,311,112490,1,0,1:2:0:0:
362,237,112591,6,0,B|305:213|305:213|244:219|244:219|181:270,1,180.000006866455,0|0,1:3|0:0,0:0:0:0:
181,354,113011,1,4,0:3:0:0:
181,354,113117,1,10,0:0:0:0:
207,40,113330,1,8,1:2:0:0:
199,87,113424,1,8,1:2:0:0:
192,134,113519,38,0,P|155:131|7:108,1,180.000006866455,4|0,0:0|0:0,0:0:0:0:
13,109,113929,1,10,0:0:0:0:
288,59,114135,1,0,0:0:0:0:
288,59,114238,2,2,L|411:75,1,120.000004577637,8|0,0:0|0:0,1:2:0:0:
234,269,114542,6,0,B|228:216|228:216|264:140,1,120.000004577637,4|10,0:3|0:0,0:0:0:0:
428,232,114846,2,0,B|434:285|434:285|398:361,1,120.000004577637,4|0,0:3|0:0,0:0:0:0:
251,371,115142,2,0,P|305:324|413:353,1,180.000006866455,6|0,0:3|0:0,0:0:0:0:
404,344,115550,1,10,0:0:0:0:
136,257,115754,1,0,0:0:0:0:
136,257,115856,1,8,0:0:0:0:
366,29,116144,6,0,B|381:86|381:86|361:168,1,120.000004577637,4|10,0:3|0:0,0:0:0:0:
247,259,116448,2,0,B|232:199|232:199|247:142,1,120.000004577637,4|0,0:3|0:0,0:0:0:0:
485,173,116752,2,0,L|238:141,1,240.000009155274,6|10,0:3|0:0,0:0:0:0:
32,247,117461,6,0,P|99:236|151:285,1,120.000004577637,8|0,0:0|0:0,0:0:0:0:
220,384,117765,2,0,L|233:307,1,60.0000022888184,4|0,0:3|0:0,0:0:0:0:
247,232,117969,1,10,0:0:0:0:
247,232,118071,2,0,P|314:221|366:270,1,120.000004577637,4|0,0:3|0:0,0:0:0:0:
181,154,118377,38,0,B|198:23|198:23|226:79,1,180.000006866455,6|4,0:3|0:3,0:0:0:0:
219,65,118777,1,8,1:2:0:0:
29,218,118977,1,0,1:0:0:0:
29,218,119077,6,0,P|73:229|119:230,1,80,0|2,1:0|0:0,0:0:0:0:
395,141,119297,2,0,P|258:158|237:170,1,120.000004577637,0|8,0:0|1:2,0:0:0:0:
197,280,119500,1,8,1:2:0:0:
253,357,119601,5,8,1:0:0:0:
348,349,119696,1,8,1:0:0:0:
396,265,119792,1,8,1:0:0:0:
359,176,119887,1,8,1:0:0:0:
277,150,119983,6,0,P|206:131|170:126,1,80,4|0,0:1|0:0,0:0:0:0:
62,236,120188,2,0,P|118:223|199:286,1,160,8|0,0:0|0:0,0:0:0:0:
156,368,120496,1,0,3:0:0:0:
156,368,120599,2,0,L|63:343,1,80,8|0,0:0|0:0,0:0:0:0:
282,336,120804,38,0,L|359:356,1,80,2|0,3:2|0:0,0:0:0:0:
458,219,121006,2,0,P|391:215|342:224,1,80,8|2,0:0|0:0,0:0:0:0:
253,130,121209,1,0,3:0:0:0:
253,130,121310,2,0,P|320:126|369:135,2,80,0|10|0,3:0|0:0|0:0,0:0:0:0:
68,143,121614,6,0,P|61:89|74:42,1,80,0|0,3:0|0:0,0:0:0:0:
199,270,121817,2,0,P|203:309|95:328,1,160,8|0,0:0|0:0,0:0:0:0:
108,237,122121,1,0,3:0:0:0:
177,152,122222,2,0,P|212:134|252:129,1,80,8|0,0:0|0:0,0:0:0:0:
388,55,122425,6,0,P|352:37|312:32,1,80,2|0,3:2|0:0,0:0:0:0:
457,216,122626,2,0,L|474:121,1,80,8|2,0:0|0:0,0:0:0:0:
318,214,122827,1,0,3:0:0:0:
386,288,122928,1,0,3:0:0:0:
321,360,123029,2,0,P|246:356|227:352,1,80,10|0,0:0|0:0,0:0:0:0:
83,268,123230,2,0,P|122:262|162:263,1,80,0|0,3:0|0:0,0:0:0:0:
332,135,123435,6,0,L|311:247,1,80,10|0,0:0|0:0,0:0:0:0:
96,83,123640,2,0,L|117:195,1,80,0|0,3:0|0:0,0:0:0:0:
435,53,123846,2,0,L|414:165,1,80,10|0,0:0|0:0,0:0:0:0:
0,25,124051,2,0,L|21:137,1,80,2|0,3:2|0:0,0:0:0:0:
278,342,124257,38,0,P|251:285|142:271,1,160,8|0,0:0|0:0,0:0:0:0:
110,338,124565,1,2,3:2:0:0:
110,161,124668,2,0,L|96:83,1,80,8|8,0:2|0:2,0:0:0:0:
245,164,124873,2,0,L|230:242,1,80,0|0,3:0|0:0,0:0:0:0:
86,358,125074,6,0,P|46:360|7:352,1,80,10|0,0:0|0:0,0:0:0:0:
292,327,125275,2,0,P|331:324|370:332,1,80,0|0,3:0|0:0,0:0:0:0:
81,262,125477,2,0,P|41:264|2:256,1,80,10|0,0:0|0:0,0:0:0:0:
264,235,125678,2,0,P|303:226|429:262,1,160,4|8,0:1|0:0,0:0:0:0:
493,174,125980,2,0,P|426:149|453:83,1,160,0|0,3:0|3:0,0:0:0:0:
489,17,126282,2,0,P|481:55|452:82,1,80,8|8,0:0|0:0,0:0:0:0:
308,80,126494,38,0,B|230:71|230:71|240:83|240:83|158:69|158:69|203:92|207:129,2,240.000009155274,4|8|0,0:1|0:0|0:0,0:0:0:0:
347,178,126997,21,0,3:0:0:0:
266,236,127098,2,0,P|218:231|169:217,1,80,8|0,0:0|0:0,0:0:0:0:
123,124,127299,2,0,P|171:119|220:105,1,80,2|0,3:2|0:0,0:0:0:0:
21,91,127500,6,0,L|38:198,1,80,8|2,0:0|0:0,0:0:0:0:
61,343,127702,1,0,3:0:0:0:
61,343,127802,2,0,L|48:263,2,80,0|10|0,3:0|0:0|0:0,0:0:0:0:
187,248,128104,2,0,P|235:243|284:229,1,80,0|0,3:0|0:0,0:0:0:0:
472,101,128304,6,0,P|391:68|305:108,1,160,8|0,0:0|0:0,0:0:0:0:
358,174,128604,1,0,3:0:0:0:
238,75,128704,2,0,P|192:60|140:55,1,80,8|0,0:0|0:0,0:0:0:0:
23,154,128904,2,0,P|69:139|121:134,1,80,2|0,3:2|0:0,0:0:0:0:
277,314,129106,6,0,L|262:216,1,80,8|2,0:0|0:0,0:0:0:0:
114,159,129309,1,0,3:0:0:0:
101,256,129410,2,0,L|88:335,2,80,0|10|0,3:0|0:0|0:0,0:0:0:0:
126,67,129714,37,0,3:0:0:0:
470,290,129914,2,0,P|432:289|368:277,1,80,10|0,0:0|0:0,0:0:0:0:
101,256,130114,2,0,P|139:255|187:190,1,120,2|0,3:2|0:0,0:0:0:0:
189,162,130314,2,0,L|173:67,1,80,10|2,0:0|3:2,0:0:0:0:
393,112,130514,6,0,L|379:190,1,80,2|0,3:2|0:0,0:0:0:0:
280,378,130720,2,0,L|266:299,1,80,10|0,0:2|0:0,0:0:0:0:
107,201,130927,2,0,P|148:194|214:199,1,80,0|0,3:0|0:0,0:0:0:0:
281,213,131134,1,8,0:0:0:0:
281,213,131238,1,0,0:0:0:0:
175,287,131341,1,0,3:0:0:0:
223,0,131543,38,0,P|253:44|279:125,1,120.000004577637,8|0,0:0|0:0,0:0:0:0:
353,344,131746,2,0,P|372:287|405:237,1,120.000004577637,0|0,3:0|0:0,0:0:0:0:
512,52,131949,2,0,L|365:69,1,120.000004577637,8|0,0:0|0:0,0:0:0:0:
161,199,132151,6,0,P|219:209|308:216,2,120.000004577637,4|0|8,0:1|0:0|1:0,0:0:0:0:
120,78,132457,1,8,1:0:0:0:
51,154,132559,69,0,1:0:0:0:
52,250,132661,1,0,1:0:0:0:
121,315,132763,1,8,1:0:0:0:
217,312,132865,1,8,1:0:0:0:
273,228,132967,22,0,P|326:207|381:204,1,80,6|0,3:0|0:0,0:0:0:0:
512,211,133172,1,10,0:0:0:0:
273,228,133377,6,0,P|326:207|375:229,1,80,4|0,0:3|0:0,0:0:0:0:
512,211,133583,1,10,0:0:0:0:
273,228,133788,6,0,P|326:207|360:233,1,80,4|0,0:3|0:0,0:0:0:0:
512,211,133994,1,10,0:0:0:0:
273,228,134198,6,0,P|326:207|346:234,1,80,4|0,0:3|0:0,0:0:0:0:
512,211,134402,1,10,0:0:0:0:
126,263,134643,5,6,0:3:0:0:
256,192,134770,12,4,137679,0:0:0:0:
