osu file format v14

[General]
AudioFilename: audio.mp3
AudioLeadIn: 0
PreviewTime: 51992
Countdown: 0
SampleSet: Soft
StackLeniency: 0.7
Mode: 0
LetterboxInBreaks: 0
WidescreenStoryboard: 1

[Editor]
Bookmarks: 6621,13045,16428,29299,42274,45536,51990,65051,77961,81201,94216,107112,115259,120168,137827
DistanceSpacing: 0.7
BeatDivisor: 4
GridSize: 16
TimelineZoom: 8

[Metadata]
Title:DVP
TitleUnicode:DVP
Artist:PUP
ArtistUnicode:PUP
Creator:Hobbes2
Version:Milan-'s Expert
Source:osu!
Tags:fa featured artist the dream is over english indie punk rock fieryrage lasse milan- maestrosplinter mir
BeatmapID:1656650
BeatmapSetID:756815

[Difficulty]
HPDrainRate:5
CircleSize:4.3
OverallDifficulty:8
ApproachRate:9.3
SliderMultiplier:2
SliderTickRate:1

[Events]
//Background and Video events
0,0,"BG BG.jpg"
//Break Periods
//Storyboard Layer 0 (Background)
//Storyboard Layer 1 (Fail)
//Storyboard Layer 2 (Pass)
//Storyboard Layer 3 (Foreground)
//Storyboard Layer 4 (Overlay)
//Storyboard Sound Samples

[TimingPoints]
0,202.702702702703,4,2,1,80,1,0
1013,196.078431372549,4,2,1,80,1,0
1111,-100,4,2,1,80,0,0
1601,204.081632653061,4,2,1,80,1,0
3233,205.479452054795,4,2,1,80,1,0
4465,200,4,2,1,80,1,0
4865,202.702702702703,4,2,1,80,1,0
6075,-83.3333333333333,4,2,1,80,0,0
6081,-83.3333333333333,4,2,1,80,0,0
6480,-100,4,2,1,80,0,0
6486,-100,4,2,1,80,0,0
11351,198.675496688742,4,2,1,80,1,0
12145,200,4,2,1,80,1,0
12945,204.081632653061,4,2,10,80,1,0
12945,-100,4,2,10,80,0,0
13149,-100,4,2,1,40,0,0
13557,-100,4,2,1,40,0,0
13560,-100,4,2,1,50,0,0
13761,-90.9090909090909,4,2,2,60,0,0
13965,201.342281879195,4,2,2,60,1,0
13965,-90.9090909090909,4,2,2,60,0,0
14116,-90.9090909090909,4,2,2,60,0,0
14166,-90.9090909090909,4,2,2,70,0,0
14569,201.342281879195,4,2,3,80,1,0
14569,-83.3333333333333,4,2,3,80,0,0
15374,205.479452054795,4,2,1,80,1,0
15374,-66.6666666666667,4,2,1,80,0,0
16195,202.702702702703,4,2,10,80,1,0
16195,-90.9090909090909,4,2,10,80,0,0
17816,206.896551724138,4,2,10,80,1,0
17816,-66.6666666666667,4,2,10,80,0,0
18213,-76.9230769230769,4,2,10,80,0,0
18643,202.702702702703,4,2,10,80,1,0
18821,-83.3333333333333,4,2,10,80,0,0
19429,-90.9090909090909,4,2,10,80,0,0
21278,197.368421052632,4,2,10,80,1,0
21278,-90.9090909090909,4,2,10,80,0,0
21861,-66.6666666666667,4,2,10,80,0,0
22165,-62.5,4,2,10,80,0,0
22462,202.702702702703,4,2,10,80,1,0
22462,-58.8235294117647,4,2,10,80,0,0
22664,204.081632653061,4,2,10,80,1,0
22868,-90.9090909090909,4,2,10,80,0,0
24296,222.222222222222,4,2,10,80,1,0
24296,-66.6666666666667,4,2,10,80,0,0
24740,198.675496688742,4,2,10,80,1,0
24740,-76.9230769230769,4,2,10,80,0,0
25336,202.702702702703,4,2,10,80,1,0
25336,-83.3333333333333,4,2,10,80,0,0
25944,202.702702702703,4,2,10,80,1,0
25944,-90.9090909090909,4,2,10,80,0,0
26067,-90.9090909090909,4,2,10,5,0,0
26146,-90.9090909090909,4,2,10,80,0,0
26219,-90.9090909090909,4,2,10,5,0,0
26349,-90.9090909090909,4,2,10,80,0,0
26473,-90.9090909090909,4,2,10,5,0,0
26552,-90.9090909090909,4,2,10,80,0,0
26625,-90.9090909090909,4,2,10,5,0,0
26754,200,4,2,10,80,1,0
26754,-90.9090909090909,4,2,10,80,0,0
26878,-90.9090909090909,4,2,10,5,0,0
26954,-90.9090909090909,4,2,10,80,0,0
27030,-90.9090909090909,4,2,10,5,0,0
27154,-90.9090909090909,4,2,10,80,0,0
27436,-90.9090909090909,4,2,10,5,0,0
27554,-90.9090909090909,4,2,10,80,0,0
28550,-83.3333333333333,4,2,10,80,0,0
28954,222.222222222222,4,2,10,80,1,0
28954,-83.3333333333333,4,2,10,80,0,0
29176,202.702702702703,4,2,11,60,1,0
29176,-125,4,2,11,60,0,0
32216,192.307692307692,4,2,11,60,1,0
32216,-125,4,2,11,60,0,0
32312,-125,4,2,11,60,0,0
32408,214.285714285714,4,2,11,60,1,0
32408,-125,4,2,11,60,0,0
32622,202.702702702703,4,2,11,60,1,0
32622,-125,4,2,11,60,0,0
33027,205.479452054795,4,2,11,60,1,0
33027,-125,4,2,11,60,0,0
33540,-125,4,2,11,60,0,0
33643,201.342281879195,4,2,11,60,1,0
33643,-125,4,2,11,60,0,0
33742,-125,4,2,11,60,0,0
34045,201.342281879195,4,2,11,60,1,0
34045,-125,4,2,11,60,0,0
34842,-111.111111111111,4,2,11,60,0,0
34850,-111.111111111111,4,2,11,60,0,0
35001,-111.111111111111,4,2,11,60,0,0
35051,-111.111111111111,4,2,11,60,0,0
35151,-111.111111111111,4,2,11,60,0,0
35247,-100,4,2,11,60,0,0
35253,197.368421052632,4,2,11,60,1,0
35401,-100,4,2,11,60,0,0
35450,-100,4,2,11,60,0,0
35647,202.702702702703,4,2,11,60,1,0
35647,-125,4,2,11,60,0,0
36457,208.333333333333,4,2,11,60,1,0
36457,-125,4,2,11,60,0,0
37082,191.082802547771,4,2,11,60,1,0
37082,-125,4,2,11,60,0,0
37177,-125,4,2,11,60,0,0
37273,208.333333333333,4,2,11,60,1,0
37273,-125,4,2,11,60,0,0
37689,205.831903945111,4,2,10,80,1,0
37689,-125,4,2,10,80,0,0
37894,-100,4,2,11,60,0,0
38100,202.702702702703,4,2,11,60,1,0
38100,-125,4,2,11,60,0,0
38809,-125,4,2,11,60,0,0
38910,201.342281879195,4,2,11,60,1,0
38910,-125,4,2,11,60,0,0
39212,-125,4,2,11,60,0,0
39413,-125,4,2,11,60,0,0
40017,-125,4,2,11,60,0,0
40218,-125,4,2,11,60,0,0
40520,202.702702702703,4,2,11,60,1,0
40520,-125,4,2,11,60,0,0
41077,-125,4,2,11,60,0,0
41128,-125,4,2,11,60,0,0
41328,-100,4,2,10,60,0,0
41533,194.805194805195,4,2,10,80,1,0
41533,-83.3333333333333,4,2,10,80,0,0
42117,229.007633587786,4,2,10,80,1,0
42117,-90.9090909090909,4,2,10,80,0,0
42284,-90.9090909090909,4,2,10,5,0,0
42288,-90.9090909090909,4,2,10,5,0,0
42346,202.702702702703,4,2,10,80,1,0
42346,-90.9090909090909,4,2,10,80,0,0
42539,-83.3333333333333,4,2,10,80,0,0
42692,-83.3333333333333,4,2,10,5,0,0
42751,-83.3333333333333,4,2,10,80,0,0
42947,-76.9230769230769,4,2,10,80,0,0
43100,-76.9230769230769,4,2,10,5,0,0
43156,-76.9230769230769,4,2,10,80,0,0
43355,-71.4285714285714,4,2,10,80,0,0
43508,-71.4285714285714,4,2,10,5,0,0
43511,-71.4285714285714,4,2,10,5,0,0
43562,-71.4285714285714,4,2,10,80,0,0
43763,-66.6666666666667,4,2,10,80,0,0
43916,-66.6666666666667,4,2,10,5,0,0
43967,200,4,2,10,80,1,0
43967,-66.6666666666667,4,2,10,80,0,0
44367,212.765957446809,4,2,10,80,1,0
44367,-66.6666666666667,4,2,10,80,0,0
44579,202.702702702703,4,2,10,80,1,0
44579,-66.6666666666667,4,2,10,80,0,0
44781,-66.6666666666667,4,2,2,80,0,0
45389,206.896551724138,4,2,10,80,1,0
45389,-90.9090909090909,4,2,10,80,0,0
45595,-76.9230769230769,4,2,10,80,0,0
46009,194.805194805195,4,2,10,80,1,0
46009,-90.9090909090909,4,2,10,80,0,0
46203,202.702702702703,4,2,10,80,1,0
46203,-90.9090909090909,4,2,10,80,0,0
46405,-76.9230769230769,4,2,10,80,0,0
46811,-90.9090909090909,4,2,10,80,0,0
47216,-76.9230769230769,4,2,10,80,0,0
47621,-90.9090909090909,4,2,10,80,0,0
47824,205.479452054795,4,2,10,80,1,0
47824,-90.9090909090909,4,2,10,80,0,0
48029,-76.9230769230769,4,2,10,80,0,0
48234,-83.3333333333333,4,2,10,80,0,0
48440,-71.4285714285714,4,2,10,80,0,0
48645,-90.9090909090909,4,2,10,80,0,0
48851,-76.9230769230769,4,2,10,80,0,0
49257,-90.9090909090909,4,2,10,80,0,0
49467,201.342281879195,4,2,10,80,1,0
49467,-90.9090909090909,4,2,10,80,0,0
49664,-100,4,2,1,80,0,0
49867,-111.111111111111,4,2,1,80,0,0
50070,-125,4,2,1,80,0,0
50272,205.479452054795,4,2,12,80,1,0
51087,-111.111111111111,4,2,12,80,0,0
51093,-111.111111111111,4,2,2,80,0,0
51299,197.368421052632,4,2,2,80,1,0
51299,-100,4,2,2,80,0,0
51494,-90.9090909090909,4,2,2,80,0,0
51693,-83.3333333333333,4,2,2,80,0,0
51891,202.702702702703,4,2,10,80,1,0
51891,-83.3333333333333,4,2,10,80,0,0
52904,200,4,2,10,80,1,0
52904,-83.3333333333333,4,2,10,80,0,0
53304,-62.5,4,2,10,80,0,0
53504,202.702702702703,4,2,10,80,1,0
53706,-71.4285714285714,4,2,10,80,0,0
54515,-76.9230769230769,4,2,10,80,0,0
55125,206.896551724138,4,2,10,80,1,0
55125,-83.3333333333333,4,2,10,80,0,0
55952,202.702702702703,4,2,10,80,1,0
55952,-83.3333333333333,4,2,10,80,0,0
56760,-66.6666666666667,4,2,2,80,0,0
56762,-66.6666666666667,4,2,2,80,0,0
57570,-62.5,4,2,2,80,0,0
57573,-62.5,4,2,1,80,0,0
57772,-62.5,4,2,10,80,0,0
57975,-58.8235294117647,4,2,10,80,0,0
57979,-58.8235294117647,4,2,1,80,0,0
58177,-58.8235294117647,4,2,10,80,0,0
58384,-58.8235294117647,4,2,10,80,0,0
58582,-83.3333333333333,4,2,10,80,0,0
59803,212.765957446809,4,2,10,80,1,0
59803,-62.5,4,2,10,80,0,0
60015,201.342281879195,4,2,10,80,1,0
60216,-71.4285714285714,4,2,10,80,0,0
61012,-76.9230769230769,4,2,10,80,0,0
61625,202.702702702703,4,1,10,80,1,0
61625,-83.3333333333333,4,1,10,80,0,0
61772,-83.3333333333333,4,2,10,5,0,0
61777,-83.3333333333333,4,2,10,5,0,0
61827,-83.3333333333333,4,2,10,80,0,0
61974,-83.3333333333333,4,2,10,5,0,0
62030,-83.3333333333333,4,2,10,80,0,0
62177,-83.3333333333333,4,2,10,5,0,0
62233,-83.3333333333333,4,2,10,80,0,0
62379,-83.3333333333333,4,2,10,5,0,0
62435,201.342281879195,4,2,10,80,1,0
62435,-83.3333333333333,4,2,10,80,0,0
62582,-83.3333333333333,4,2,10,5,0,0
62586,-83.3333333333333,4,2,10,5,0,0
62636,-83.3333333333333,4,2,10,60,0,0
62784,-83.3333333333333,4,2,10,5,0,0
62837,-83.3333333333333,4,2,10,80,0,0
62988,-83.3333333333333,4,2,10,5,0,0
63039,-83.3333333333333,4,2,10,80,0,0
63189,-83.3333333333333,4,2,10,5,0,0
63240,-83.3333333333333,4,2,10,80,0,0
64247,-76.9230769230769,4,2,10,80,0,0
64649,220.588235294118,4,2,10,80,1,0
64649,-76.9230769230769,4,2,10,80,0,0
64869,202.702702702703,4,2,10,60,1,0
64869,-125,4,2,10,60,0,0
65062,-125,4,2,12,60,0,0
65679,200,4,2,10,60,1,0
65679,-125,4,2,10,60,0,0
66379,-125,4,2,10,60,0,0
66479,204.081632653061,4,2,10,60,1,0
66479,-125,4,2,10,60,0,0
67499,202.702702702703,4,2,10,60,1,0
67499,-125,4,2,10,60,0,0
68005,-125,4,2,10,60,0,0
68107,202.702702702703,4,2,10,60,1,0
68107,-125,4,2,10,60,0,0
69221,-125,4,2,10,60,0,0
69423,-125,4,2,10,60,0,0
69728,201.342281879195,4,2,10,60,1,0
69728,-125,4,2,10,60,0,0
70030,-125,4,2,10,60,0,0
70231,-125,4,2,10,60,0,0
70530,-111.111111111111,4,2,10,60,0,0
70533,-111.111111111111,4,2,10,60,0,0
70684,-111.111111111111,4,2,10,60,0,0
70734,-111.111111111111,4,2,10,60,0,0
70834,-111.111111111111,4,2,10,60,0,0
70935,-100,4,2,10,60,0,0
71087,-100,4,2,10,60,0,0
71137,-100,4,2,10,60,0,0
71338,204.081632653061,4,2,10,60,1,0
71338,-125,4,2,10,60,0,0
72868,-125,4,2,10,60,0,0
72970,206.896551724138,4,2,10,60,1,0
72970,-125,4,2,10,60,0,0
73383,200,4,2,10,60,1,0
73383,-125,4,2,10,60,0,0
73583,-100,4,2,10,60,0,0
73783,203.735144312394,4,2,10,60,1,0
73783,-125,4,2,10,60,0,0
74190,202.702702702703,4,2,10,60,1,0
74190,-125,4,2,10,60,0,0
74493,-125,4,2,10,60,0,0
74595,202.702702702703,4,2,10,60,1,0
74595,-125,4,2,10,60,0,0
76317,-125,4,2,10,60,0,0
76419,-125,4,2,10,60,0,0
76774,-125,4,2,10,60,0,0
76824,-125,4,2,10,60,0,0
77010,-100,4,2,10,60,0,0
77027,-100,4,2,10,60,0,0
77179,-100,4,2,10,60,0,0
77230,197.368421052632,4,2,10,80,1,0
77230,-83.3333333333333,4,2,10,80,0,0
77822,202.702702702703,4,2,10,80,1,0
77822,-90.9090909090909,4,2,10,80,0,0
77974,-90.9090909090909,4,2,10,5,0,0
78024,-90.9090909090909,4,2,10,80,0,0
78225,-83.3333333333333,4,2,10,80,0,0
78379,-83.3333333333333,4,2,10,5,0,0
78430,-83.3333333333333,4,2,10,80,0,0
78630,-76.9230769230769,4,2,10,80,0,0
78784,-76.9230769230769,4,2,10,5,0,0
78835,-76.9230769230769,4,2,10,80,0,0
79035,-71.4285714285714,4,2,10,80,0,0
79187,-71.4285714285714,4,2,10,5,0,0
79190,-71.4285714285714,4,2,10,5,0,0
79240,-71.4285714285714,4,2,10,80,0,0
79440,-66.6666666666667,4,2,10,80,0,0
79592,-66.6666666666667,4,2,10,5,0,0
79595,-66.6666666666667,4,2,10,5,0,0
79646,-66.6666666666667,4,2,10,80,0,0
80051,208.333333333333,4,2,10,80,1,0
80051,-66.6666666666667,4,2,10,80,0,0
80259,-100,4,2,12,80,0,0
80571,-100,4,2,2,80,0,0
80780,189.873417721519,4,2,2,80,1,0
81064,202.702702702703,4,2,1,80,1,0
82482,205.479452054795,4,2,1,80,1,0
82995,193.548387096774,4,2,1,80,1,0
83285,204.081632653061,4,2,1,80,1,0
83693,218.978102189781,4,2,1,80,1,0
83693,-76.9230769230769,4,2,1,80,0,0
83911,-83.3333333333333,4,2,1,80,0,0
84021,202.702702702703,4,2,1,80,1,0
84122,-90.9090909090909,4,2,1,80,0,0
84325,202.702702702703,4,2,1,80,1,0
85135,201.342281879195,4,2,1,80,1,0
85940,202.702702702703,4,2,1,80,1,0
86750,200,4,2,1,80,1,0
87550,205.479452054795,4,2,1,80,1,0
88371,202.702702702703,4,2,1,80,1,0
89181,197.368421052632,4,2,1,80,1,0
89970,208.333333333333,4,2,1,80,1,0
90178,-76.9230769230769,4,2,1,80,0,0
90386,-83.3333333333333,4,2,1,80,0,0
90595,-90.9090909090909,4,2,1,80,0,0
90803,202.702702702703,4,2,1,80,1,0
91613,206.896551724138,4,2,1,80,1,0
92440,200,4,2,1,80,1,0
93040,220.588235294118,4,2,1,80,1,0
93260,202.702702702703,4,2,1,80,1,0
93460,-76.9230769230769,4,2,1,80,0,0
93665,-76.9230769230769,4,2,2,80,0,0
93868,-83.3333333333333,4,2,3,80,0,0
93870,-83.3333333333333,4,2,3,80,0,0
94070,194.805194805195,4,2,5,80,1,0
94070,-83.3333333333333,4,2,5,80,0,0
94264,-66.6666666666667,4,2,5,80,0,0
94654,202.702702702703,4,2,5,80,1,0
94654,-62.5,4,2,5,80,0,0
94856,202.702702702703,4,2,5,80,1,0
94958,-100,4,2,5,80,0,0
95058,-58.8235294117647,4,2,5,80,0,0
95464,-55.5555555555556,4,2,5,80,0,0
95680,-55.5555555555556,4,2,5,90,0,0
95869,-55.5555555555556,4,2,5,80,0,0
95970,-76.9230769230769,4,2,5,80,0,0
96477,-83.3333333333333,4,2,5,80,0,0
97491,-66.6666666666667,4,2,5,80,0,0
97893,-62.5,4,2,5,80,0,0
98296,-58.8235294117647,4,2,5,80,0,0
98707,196.078431372549,4,2,5,90,1,0
98707,-55.7724484104852,4,2,5,90,0,0
98903,200,4,2,5,90,1,0
98903,-100,4,2,5,90,0,0
99103,-100,4,2,5,80,0,0
99201,-76.9230769230769,4,2,5,80,0,0
99703,204.081632653061,4,2,5,80,1,0
99703,-83.3333333333333,4,2,5,80,0,0
100723,211.267605633803,4,2,5,80,1,0
100723,-66.6666666666667,4,2,5,80,0,0
101136,-62.5,4,2,5,80,0,0
101145,-62.5,4,2,5,80,0,0
101356,202.702702702703,4,2,5,80,1,0
101457,-100,4,2,5,80,0,0
101546,-58.8235294117647,4,2,5,80,0,0
101558,-58.8235294117647,4,2,5,80,0,0
101964,204.081632653061,4,2,10,80,1,0
101964,-55.5555555555556,4,2,10,80,0,0
102166,-100,4,2,5,80,0,0
102780,207.612456747405,4,2,10,80,1,0
102987,200,4,2,5,80,1,0
102987,-83.3333333333333,4,2,5,80,0,0
103787,201.342281879195,4,2,1,80,1,0
103787,-83.3333333333333,4,2,1,80,0,0
103882,-83.3333333333333,4,2,5,80,0,0
103988,-83.3333333333333,4,2,5,80,0,0
105397,200,4,2,5,80,1,0
105397,-83.3333333333333,4,2,5,80,0,0
105797,168.539325842697,4,2,5,80,1,0
105881,218.978102189781,4,2,5,80,1,0
105881,-83.3333333333333,4,2,5,80,0,0
105990,-100,4,2,5,80,0,0
106209,202.702702702703,4,2,1,80,1,0
106209,-83.3333333333333,4,2,1,80,0,0
106411,-76.9230769230769,4,2,1,80,0,0
106614,-83.3333333333333,4,2,1,80,0,0
106817,-90.9090909090909,4,2,1,80,0,0
107019,-166.666666666667,4,2,7,80,0,0
107425,212.765957446809,4,2,10,80,1,0
107744,192.307692307692,4,2,10,80,1,0
107744,-166.666666666667,4,2,10,80,0,0
108032,200,4,2,10,80,1,0
108232,-125,4,2,10,80,0,0
108632,209.79020979021,4,2,10,80,1,0
108632,-166.666666666667,4,2,10,80,0,0
109366,192.307692307692,4,2,10,80,1,0
109366,-166.666666666667,4,2,10,80,0,0
109654,202.702702702703,4,2,10,80,1,0
109856,-125,4,2,10,80,0,0
110262,209.79020979021,4,2,10,80,1,0
110262,-166.666666666667,4,2,10,80,0,0
110996,191.082802547771,4,2,10,80,1,0
110996,-166.666666666667,4,2,10,80,0,0
111282,200,4,2,10,80,1,0
111282,-125,4,2,10,80,0,0
111582,-100,4,2,10,80,0,0
111882,202.702702702703,4,2,10,80,1,0
111882,-125,4,2,10,80,0,0
112591,-103.412616339193,4,2,10,80,0,0
112692,212.765957446809,4,2,10,80,1,0
113114,-83.3333333333333,4,2,10,80,0,0
113330,189.873417721519,4,2,10,80,1,0
113330,-83.3333333333333,4,2,10,80,0,0
113519,205.479452054795,4,2,10,80,1,0
113519,-166.666666666667,4,2,10,80,0,0
114238,202.702702702703,4,2,10,80,1,0
114238,-166.666666666667,4,2,10,80,0,0
114738,-125,4,2,10,80,0,0
114838,-166.666666666667,4,2,10,80,0,0
114846,197.368421052632,4,2,10,80,1,0
115142,204.081632653061,4,2,10,80,1,0
115142,-166.666666666667,4,2,10,80,0,0
115856,192.307692307692,4,2,10,80,1,0
115856,-166.666666666667,4,2,10,80,0,0
116144,202.702702702703,4,2,10,80,1,0
116346,-125,4,2,10,80,0,0
116462,-166.666666666667,4,2,10,80,0,0
116752,202.702702702703,4,2,10,80,1,0
116752,-166.666666666667,4,2,10,80,0,0
117765,204.081632653061,4,2,10,80,1,0
117765,-125,4,2,10,80,0,0
118071,-100,4,2,10,80,0,0
118377,200,4,2,10,80,1,0
118377,-125,4,2,10,80,0,0
119077,238.095238095238,4,2,10,80,1,0
119077,-94.6969696969697,4,2,10,80,0,0
119196,202.702702702703,4,2,10,80,1,0
119397,-83.3333333333333,4,2,10,80,0,0
119591,-83.3333333333333,4,2,1,80,0,0
119601,191.082802547771,4,2,10,80,1,0
119601,-83.3333333333333,4,2,10,80,0,0
119983,205.479452054795,4,2,4,90,1,0
119983,-76.9230769230769,4,2,4,90,0,0
120804,202.702702702703,4,2,4,90,1,0
120804,-76.9230769230769,4,2,4,90,0,0
120991,-71.4285714285714,4,2,4,90,0,0
121006,-71.4285714285714,4,2,4,90,0,0
121158,-71.4285714285714,4,2,4,90,0,0
121209,-71.4285714285714,4,2,4,90,0,0
121361,-71.4285714285714,4,2,4,90,0,0
121412,-71.4285714285714,4,2,4,90,0,0
121564,-71.4285714285714,4,2,4,90,0,0
121600,-76.9230769230769,4,2,4,90,0,0
121614,-76.9230769230769,4,2,4,90,0,0
121766,-76.9230769230769,4,2,4,90,0,0
121817,-76.9230769230769,4,2,4,90,0,0
121918,-76.9230769230769,4,2,4,90,0,0
122020,-76.9230769230769,4,2,4,90,0,0
122425,201.342281879195,4,2,4,90,1,0
122425,-76.9230769230769,4,2,4,90,0,0
122614,-71.4285714285714,4,2,4,90,0,0
122626,-71.4285714285714,4,2,4,90,0,0
122777,-71.4285714285714,4,2,4,90,0,0
122827,-71.4285714285714,4,2,4,90,0,0
122978,-71.4285714285714,4,2,4,90,0,0
123029,-71.4285714285714,4,2,4,90,0,0
123180,-71.4285714285714,4,2,4,90,0,0
123230,205.479452054795,4,2,4,90,1,0
123230,-76.9230769230769,4,2,4,90,0,0
123384,-76.9230769230769,4,2,4,90,0,0
123435,-76.9230769230769,4,2,4,90,0,0
124035,-71.4285714285714,4,2,4,90,0,0
124051,-71.4285714285714,4,2,4,90,0,0
124873,201.342281879195,4,2,4,90,1,0
125049,-76.9230769230769,4,2,4,90,0,0
125074,-76.9230769230769,4,2,4,90,0,0
125658,-71.4285714285714,4,2,4,90,0,0
125678,-71.4285714285714,4,2,4,90,0,0
125962,-66.6666666666667,4,2,4,90,0,0
125980,-66.6666666666667,4,2,4,90,0,0
126282,212.765957446809,4,2,4,90,1,0
126282,-62.5,4,2,4,90,0,0
126494,201.342281879195,4,2,4,90,1,0
126494,-55.5555555555556,4,2,4,90,0,0
126977,-76.9230769230769,4,2,4,90,0,0
126997,-76.9230769230769,4,2,4,90,0,0
127281,-71.4285714285714,4,2,4,90,0,0
127298,-71.4285714285714,4,2,4,90,0,0
127651,-71.4285714285714,4,2,4,90,0,0
127702,-71.4285714285714,4,2,4,90,0,0
127853,-71.4285714285714,4,2,4,90,0,0
127903,-71.4285714285714,4,2,4,90,0,0
128054,-71.4285714285714,4,2,4,90,0,0
128104,200,4,2,4,90,1,0
128104,-76.9230769230769,4,2,4,90,0,0
128253,-76.9230769230769,4,2,4,90,0,0
128304,-76.9230769230769,4,2,4,90,0,0
128403,-76.9230769230769,4,2,4,90,0,0
128504,-76.9230769230769,4,2,4,90,0,0
128904,202.702702702703,4,2,4,90,1,0
129106,-71.4285714285714,4,2,4,90,0,0
129258,-71.4285714285714,4,2,4,90,0,0
129309,-71.4285714285714,4,2,4,90,0,0
129461,-71.4285714285714,4,2,4,90,0,0
129512,-71.4285714285714,4,2,4,90,0,0
129664,-71.4285714285714,4,2,4,90,0,0
129714,200,4,2,4,90,1,0
129714,-76.9230769230769,4,2,4,90,0,0
129863,-76.9230769230769,4,2,4,90,0,0
129914,-76.9230769230769,4,2,4,90,0,0
130514,206.896551724138,4,2,4,90,1,0
130514,-76.9230769230769,4,2,4,90,0,0
130669,-76.9230769230769,4,2,4,90,0,0
130720,-76.9230769230769,4,2,4,90,0,0
131082,-76.9230769230769,4,2,4,90,0,0
131134,-76.9230769230769,4,2,4,90,0,0
131237,-76.9230769230769,4,2,4,90,0,0
131341,202.702702702703,4,2,4,90,1,0
131341,-76.9230769230769,4,2,4,90,0,0
131493,-76.9230769230769,4,2,4,90,0,0
131543,-76.9230769230769,4,2,4,100,0,0
132151,204.081632653061,4,2,1,90,1,0
132151,-76.9230769230769,4,2,1,90,0,0
132304,-76.9230769230769,4,2,1,90,0,0
132354,-71.4285714285714,4,2,1,90,0,0
132967,205.479452054795,4,2,10,100,1,0
132967,-76.9230769230769,4,2,10,100,0,0
133114,-76.9230769230769,4,2,10,5,0,0
133172,-76.9230769230769,4,2,10,100,0,0
133367,-71.4285714285714,4,2,10,100,0,0
133377,-71.4285714285714,4,2,10,100,0,0
133519,-71.4285714285714,4,2,10,5,0,0
133583,-71.4285714285714,4,2,10,100,0,0
133925,-71.4285714285714,4,2,10,5,0,0
133994,204.081632653061,4,2,10,100,1,0
133994,-66.6666666666667,4,2,10,100,0,0
134179,-62.5,4,2,10,100,0,0
134198,-62.5,4,2,10,100,0,0
134331,-62.5,4,2,10,5,0,0
134402,241.935483870968,4,2,10,100,1,0
134402,-43.859649122807,4,2,10,100,0,0
134643,254.237288135593,4,2,10,80,1,0
134897,270.27027027027,4,2,10,80,1,0
135032,348.837209302326,4,2,10,80,1,0
135729,361.44578313253,4,2,10,80,1,0
135909,405.405405405405,4,2,10,80,1,0
136719,384.615384615385,4,2,10,80,1,0
137103,576.923076923077,4,2,10,80,1,0
137679,656.994251300301,4,2,10,80,1,0

[Colours]
Combo1 : 255,255,0
Combo2 : 193,193,255
Combo3 : 255,153,153
Combo4 : 113,113,255
Combo5 : 0,128,128
Combo6 : 238,0,0

[HitObjects]
61,266,0,6,0,P|36:250|43:144,2,100,12|0|0,0:1|0:0|0:0,0:0:0:0:
185,350,304,2,0,P|138:366|93:348,2,100,8|0|0,0:0|0:0|0:0,2:0:0:0:
318,302,608,2,0,P|308:350|270:380,1,100,8|0,0:0|0:0,0:0:0:0:
71,110,810,2,0,P|181:180|226:58,1,297,8|8,0:2|0:0,2:0:0:0:
302,8,1209,2,0,P|339:38|344:87,1,100,2|2,0:0|0:0,0:0:0:0:
366,227,1405,2,0,P|404:196|409:148,1,100,8|0,0:0|0:2,0:0:0:0:
318,302,1601,6,0,P|269:303|230:272,2,100,12|0|0,1:2|0:0|0:0,0:0:0:0:
143,296,1907,2,0,P|118:255|125:206,2,100,8|0|0,0:0|0:0|0:0,0:0:0:0:
71,133,2213,2,0,P|94:89|140:72,1,100,8|0,0:0|0:0,2:0:0:0:
401,16,2417,2,0,P|274:29|358:157,1,300,8|8,0:0|0:0,1:0:0:0:
395,201,2825,2,0,P|418:132|365:84,1,100,2|2,0:0|0:0,0:0:0:0:
239,224,3029,2,0,P|227:271|252:313,1,100,8|0,0:0|0:0,0:0:0:0:
57,87,3233,6,0,P|23:208|148:188,1,300,12|8,1:0|0:0,0:0:0:0:
157,98,3643,2,0,P|172:49|237:31,1,100
389,71,3849,2,0,P|344:51|296:62,1,100,8|0,0:0|0:0,0:0:0:0:
280,311,4054,6,0,P|246:190|371:210,1,300,10|10,0:0|0:0,0:0:0:0:
433,144,4465,2,0,P|457:222|397:274,1,100,2|0,0:0|0:0,0:0:0:0:
401,384,4665,2,0,P|411:336|386:295,1,100,10|2,0:0|0:0,0:0:0:0:
232,218,4865,6,0,P|176:223|151:311,2,100,12|0|0,1:2|0:0|0:0,0:0:0:0:
207,87,5169,2,0,P|254:100|280:142,2,100,8|0|0,0:0|0:0|0:0,0:0:0:0:
105,182,5473,2,0,P|128:139|116:92,1,100,8|2,0:0|0:0,0:0:0:0:
0,267,5675,6,0,P|110:223|85:364,1,300,8|8,0:0|1:2,0:0:0:0:
40,129,6081,2,0,L|23:5,1,119.999996337891,8|8,1:2|1:2,0:0:0:0:
244,269,6283,2,0,L|227:390,1,119.999996337891,8|8,1:2|1:2,0:0:0:0:
131,100,6486,6,0,P|170:130|219:126,2,100,12|0|0,1:0|0:0|0:0,0:0:0:0:
297,170,6790,2,0,P|341:150|363:106,2,100,8|0|0,0:0|0:0|0:0,0:0:0:0:
453,96,7094,2,0,P|458:47|431:6,1,100,8|0,0:0|0:0,0:0:0:0:
357,273,7297,2,0,P|467:203|512:325,1,300,8|8,0:0|0:0,0:0:0:0:
424,353,7702,2,0,P|387:377|325:360,1,100,2|2,0:0|0:0,0:0:0:0:
179,312,7905,2,0,P|226:325|269:302,1,100,8|0,0:0|0:0,0:0:0:0:
120,243,8108,6,0,P|71:243|35:210,2,100,12|0|0,1:2|0:0|0:0,0:0:0:0:
91,140,8412,2,0,P|65:98|76:50,2,100,8|0|0,0:0|0:0|0:0,0:0:0:0:
162,56,8716,2,0,P|185:13|232:-1,1,100,8|0,0:0|0:0,0:0:0:0:
358,80,8919,2,0,P|231:93|315:221,1,300,8|8,0:0|0:0,0:0:0:0:
349,270,9324,2,0,P|372:201|319:153,1,100
453,284,9527,2,0,P|441:331|466:373,1,100,10|0,0:0|0:0,0:0:0:0:
256,384,9729,6,0,P|289:262|164:283,1,300,12|8,1:1|0:0,0:0:0:0:
99,346,10135,2,0,P|55:323|42:276,1,100
113,107,10337,2,0,P|82:145|81:195,1,100,8|0,0:0|0:0,0:0:0:0:
272,161,10540,6,0,P|238:40|363:60,1,300,10|10,0:0|0:0,0:0:0:0:
442,17,10946,2,0,P|466:95|406:147,1,100,2|0,0:0|0:0,0:0:0:0:
373,251,11148,2,0,P|363:203|389:162,1,100,10|2,0:0|0:0,0:0:0:0:
283,254,11351,6,0,P|235:256|200:290,2,100,12|0|0,2:2|0:0|0:0,0:0:0:0:
85,156,11649,2,0,P|110:198|158:211,2,100,8|0|0,0:0|0:0|0:0,0:0:0:0:
104,381,11947,2,0,P|127:338|115:291,1,100,8|2,0:0|0:0,0:0:0:0:
182,0,12145,6,0,P|166:125|288:89,2,300,8|8|8,0:0|0:0|0:0,0:0:0:0:
499,333,12945,6,0,L|328:318,1,150,8|0,0:0|0:0,0:0:0:0:
199,305,13149,2,0,L|349:319,1,150,0|0,1:0|0:0,0:0:0:0:
489,370,13353,2,0,L|327:311,1,150,0|0,1:0|0:0,0:0:0:0:
206,266,13557,2,0,L|346:317,1,150,0|0,1:0|0:0,0:0:0:0:
480,247,13761,6,0,L|455:81,1,165.000005035401,8|0,1:2|0:0,0:0:0:0:
438,0,13965,2,0,L|413:166,1,165.000005035401,8|0,1:2|0:0,0:0:0:0:
395,253,14166,2,0,L|370:87,1,165.000005035401,8|0,1:2|0:0,0:0:0:0:
353,6,14367,2,0,L|328:172,1,165.000005035401,8|0,1:2|0:0,0:0:0:0:
215,184,14569,6,0,L|-10:152,1,179.999994506836,8|0,1:2|0:0,0:0:0:0:
15,246,14770,2,0,L|193:220,1,179.999994506836,8|0,1:2|0:0,0:0:0:0:
300,276,14971,2,0,L|75:244,1,179.999994506836,8|0,1:2|0:0,0:0:0:0:
100,338,15173,2,0,L|278:312,1,179.999994506836,8|0,1:2|0:0,0:0:0:0:
481,230,15374,6,0,P|509:117|255:123,1,450.000017166138,4|8,1:2|1:2,0:0:0:0:
204,376,15784,2,0,B|171:277|171:277|242:189,1,150.000005722046,8|8,1:2|1:2,0:0:0:0:
368,103,15990,2,0,B|401:202|401:202|330:290,1,150.000005722046,8|8,1:2|1:2,0:0:0:0:
30,187,16195,6,0,P|96:93|154:120,1,165.000005035401,6|0,0:3|0:0,0:0:0:0:
123,121,16397,2,0,P|98:172|44:184,1,110.000003356934,10|0,0:0|0:0,0:0:0:0:
224,92,16600,2,0,P|227:148|187:186,1,110.000003356934,0|4,0:0|0:3,0:0:0:0:
310,30,16803,2,0,P|341:77|325:129,1,110.000003356934,10|0,0:0|0:0,0:0:0:0:
309,322,17005,6,0,P|339:215|415:230,1,165.000005035401,4|0,0:3|0:0,0:0:0:0:
383,229,17208,2,0,P|345:244|282:211,1,110.000003356934,10|4,0:0|0:3,0:0:0:0:
489,27,17411,2,0,P|459:134|383:119,1,165.000005035401
415,120,17613,2,0,P|453:105|516:138,1,110.000003356934,10|0,0:0|0:0,0:0:0:0:
487,327,17816,6,0,B|451:433|260:380|317:321|292:266|123:268|94:363,1,450.000017166138,4|0,0:3|0:0,0:0:0:0:
0,179,18229,2,0,P|37:226|123:219,1,129.999994049073,0|4,0:0|0:3,0:0:0:0:
107,33,18436,2,0,P|43:35|3:84,2,129.999994049073,10|0|4,0:0|0:0|0:3,0:0:0:0:
475,25,18845,6,0,P|523:80|384:111,1,239.999992675781,10|4,0:0|0:3,0:0:0:0:
310,24,19149,2,0,P|341:75|323:131,2,119.999996337891,4|10|0,0:3|0:0|0:0,0:0:0:0:
237,166,19453,6,0,P|177:216|195:292,1,165.000005035401,4|0,0:3|0:0,0:0:0:0:
213,282,19656,2,0,P|246:240|243:187,1,110.000003356934,10|0,0:0|0:0,0:0:0:0:
356,322,19859,2,0,P|364:268|335:223,1,110.000003356934,4|0,0:3|0:3,0:0:0:0:
495,264,20061,2,0,P|476:214|428:190,1,110.000003356934,10|0,0:0|0:0,0:0:0:0:
310,24,20264,6,0,P|311:120|405:99,1,220.000006713867,4|10,0:3|0:0,0:0:0:0:
190,74,20568,2,0,P|185:170|91:146,1,220.000006713867,4|4,0:3|0:3,0:0:0:0:
33,381,20872,2,0,P|14:253|117:331,1,330.000010070801,10|0,0:0|0:0,0:0:0:0:
205,376,21278,6,0,P|231:328|282:311,1,110.000003356934,10|0,0:0|0:0,0:0:0:0:
466,377,21475,2,0,P|412:380|371:344,1,110.000003356934,0|4,0:0|0:3,0:0:0:0:
340,149,21672,2,0,P|368:194|359:247,1,110.000003356934,10|0,0:0|0:0,0:0:0:0:
137,110,21870,6,0,P|147:232|245:158,1,300.000011444092,12|8,1:1|1:2,0:0:0:0:
498,115,22166,2,0,P|394:23|384:146,1,320,4|4,0:3|0:3,0:0:0:0:
434,340,22462,2,0,B|227:228|312:402|34:317,1,340.000006484985,8|6,1:2|0:3,0:0:0:0:
108,335,22868,6,0,P|142:293|126:221,1,110.000003356934,10|0,0:0|0:0,0:0:0:0:
194,28,23072,2,0,P|140:19|96:49,1,110.000003356934,0|4,0:0|0:3,0:0:0:0:
226,196,23276,2,0,P|207:145|159:121,1,110.000003356934,10|0,0:0|0:0,0:0:0:0:
234,296,23480,6,0,P|297:323|306:192,1,220.000006713867,4|10,0:3|0:0,0:0:0:0:
269,11,23786,2,0,P|273:108|371:97,1,220.000006713867,0|4,0:0|0:3,0:0:0:0:
512,238,24092,2,0,P|458:225|428:181,1,110.000003356934,10|0,0:0|0:0,0:0:0:0:
443,1,24296,6,0,B|542:34|492:215|437:161|385:184|374:371|529:374,1,450.000017166138,4|0,0:3|0:0,0:0:0:0:
347,334,24740,2,0,P|324:302|347:219,1,129.999994049073,0|4,0:0|0:3,0:0:0:0:
272,384,24938,2,0,P|221:369|186:290,2,129.999994049073,10|0|4,0:0|0:0|0:3,0:0:0:0:
14,27,25336,6,0,P|114:38|63:125,1,239.999992675781,10|4,0:0|0:3,0:0:0:0:
60,284,25640,2,0,P|49:226|0:198,2,119.999996337891,4|10|0,0:3|0:0|0:0,0:0:0:0:
165,384,25944,6,0,P|155:306|217:255,1,165.000005035401,6|0,0:3|0:0,0:0:0:0:
223,277,26146,2,0,P|225:331|178:373,1,110.000003356934,10|0,0:0|0:0,0:0:0:0:
304,239,26349,2,0,P|332:285|313:345,1,110.000003356934,4|0,0:3|0:0,0:0:0:0:
376,179,26552,2,0,P|424:204|439:256,1,110.000003356934,10|0,0:0|0:0,0:0:0:0:
291,148,26754,6,0,P|185:128|181:64,1,165.000005035401,4|0,0:3|0:0,0:0:0:0:
155,97,26954,2,0,P|166:30|218:3,1,110.000003356934,10|0,0:0|0:0,0:0:0:0:
22,179,27154,2,0,P|128:199|132:263,1,165.000005035401,4|0,0:3|0:0,0:0:0:0:
158,230,27354,2,0,P|147:297|95:324,1,110.000003356934,10|0,0:0|0:0,0:0:0:0:
258,372,27554,6,0,P|251:304|294:264,1,110.000003356934,4|0,0:3|0:0,0:0:0:0:
342,40,27754,2,0,P|396:38|436:74,1,110.000003356934,10|0,0:0|0:0,0:0:0:0:
235,186,27954,2,0,P|268:143|322:136,1,110.000003356934,4|0,0:3|0:0,0:0:0:0:
482,281,28154,2,0,P|449:323|395:330,2,110.000003356934,10|0|2,0:2|0:0|0:3,0:0:0:0:
482,281,28554,6,0,L|463:145,1,119.999996337891,8|8,1:2|1:2,0:0:0:0:
347,1,28754,2,0,L|328:137,1,119.999996337891,8|8,1:2|1:2,0:0:0:0:
238,328,28954,2,0,L|219:192,1,119.999996337891,8|8,1:2|1:2,0:0:0:0:
102,1,29176,6,0,P|74:74|101:148,1,160,2|10,0:0|0:0,0:0:0:0:
453,351,29581,2,0,P|481:277|454:204,2,160,0|10|4,0:3|0:0|0:3,0:0:0:0:
278,154,30189,6,0,P|288:115|272:80,1,80,10|0,0:0|0:3,0:0:0:0:
213,200,30392,2,0,P|176:211|153:243,1,80,4|4,0:3|0:3,0:0:0:0:
287,233,30594,2,0,P|315:260|355:265,1,80,10|0,0:0|0:0,0:0:0:0:
386,10,30797,6,0,P|414:84|387:157,1,160,4|10,0:3|0:0,0:0:0:0:
72,369,31203,2,0,P|44:296|71:222,2,160,0|10|4,0:0|0:0|0:3,0:0:0:0:
272,80,31811,6,0,P|288:116|278:154,1,80,10|0,0:0|0:0,0:0:0:0:
152,243,32013,2,0,P|175:211|213:200,1,80,4|4,0:3|0:3,0:0:0:0:
354,265,32216,2,0,P|315:260|287:233,1,80,10|0,0:0|0:0,0:0:0:0:
346,32,32408,6,0,P|414:84|500:79,1,160,4|10,0:3|0:0,0:0:0:0:
272,80,32723,2,0,P|193:82|132:132,1,160,0|4,0:0|0:3,0:0:0:0:
53,144,33027,2,0,P|56:221|72:237,1,80,10|4,0:0|0:3,0:0:0:0:
126,384,33232,2,0,P|156:311|133:237,1,160,4|10,0:3|0:0,0:0:0:0:
239,318,33540,2,0,P|322:353|395:347,1,158,0|4,0:0|0:3,0:0:0:0:
497,242,33844,2,0,P|466:267|428:277,1,80,10|4,0:0|0:3,0:0:0:0:
250,163,34045,6,0,P|248:109|334:13,1,160,4|10,0:3|0:0,0:0:0:0:
469,117,34347,2,0,P|394:142|341:201,1,160,0|4,0:0|0:3,0:0:0:0:
196,245,34649,2,0,P|162:208|153:169,1,80,10|4,0:0|0:3,0:0:0:0:
17,358,34850,6,0,P|62:309|127:296,1,134.999995880127,4|0,0:3|0:0,0:0:0:0:
120,314,35051,2,0,P|158:334|207:326,1,89.9999972534181,10|0,0:0|0:0,0:0:0:0:
485,275,35253,2,0,P|432:322|349:318,1,150
370,308,35450,2,0,P|332:282|279:283,1,100,10|0,0:0|0:0,0:0:0:0:
2,189,35647,6,0,P|79:204|153:177,1,160,4|10,0:3|0:0,0:0:0:0:
492,28,36052,2,0,P|418:1|341:17,2,160,0|10|4,0:0|0:0|0:3,0:0:0:0:
248,148,36665,6,0,P|231:112|196:95,1,80,10|0,0:0|0:0,0:0:0:0:
228,225,36873,2,0,P|206:257|209:297,1,80,4|4,0:3|0:3,0:0:0:0:
306,203,37082,2,0,P|344:206|378:184,1,80,10|0,0:0|0:0,0:0:0:0:
478,320,37273,6,0,P|401:335|327:308,1,160,4|10,0:3|0:0,0:0:0:0:
8,27,37689,2,0,P|82:0|159:16,2,160,0|10|4,0:0|0:0|0:3,0:0:0:0:
196,95,38302,6,0,P|231:112|248:148,1,80,10|0,0:0|0:0,0:0:0:0:
208,296,38505,2,0,P|205:257|228:225,1,80,4|4,0:3|0:3,0:0:0:0:
378,183,38708,2,0,P|345:205|306:203,1,80,10|0,0:0|0:0,0:0:0:0:
107,252,38910,6,0,P|83:195|93:92,1,160,4|10,0:3|0:0,0:0:0:0:
227,225,39212,2,0,P|237:303|210:378,1,160,0|4,0:0|0:3,0:0:0:0:
324,313,39514,2,0,P|356:289|401:285,1,80,10|0,0:0|0:0,0:0:0:0:
512,187,39715,2,0,P|454:191|363:122,1,160,4|10,0:3|0:0,0:0:0:0:
177,125,40017,2,0,P|238:76|317:75,1,160,0|4,0:0|0:3,0:0:0:0:
445,0,40319,2,0,P|427:35|395:59,1,80,10|0,0:0|0:0,0:0:0:0:
314,222,40520,6,0,P|297:186|265:162,1,80,4|4,0:3|0:3,0:0:0:0:
298,353,40722,2,0,P|316:317|347:293,1,80,10|0,0:0|0:0,0:0:0:0:
195,213,40925,2,0,P|142:270|77:282,1,120,4|0,0:3|0:0,0:0:0:0:
90,294,41128,2,0,P|40:276|14:246,1,80,10|4,0:0|0:3,0:0:0:0:
26,15,41330,2,0,P|81:90|138:101,1,150,2|0,0:0|0:0,0:0:0:0:
122,117,41533,6,0,L|249:87,1,119.999996337891,8|8,1:2|1:2,0:0:0:0:
170,230,41727,2,0,L|286:202,1,119.999996337891,8|8,1:2|1:2,0:0:0:0:
229,344,41922,2,0,L|356:314,1,119.999996337891,8|8,1:2|1:2,0:0:0:0:
512,68,42117,6,0,P|489:163|398:177,1,165.000005035401,6|0,0:3|0:0,0:0:0:0:
435,156,42346,2,0,P|471:80|515:74,1,110.000003356934,10|0,0:0|0:0,0:0:0:0:
351,212,42548,2,0,P|257:239|199:167,1,179.999994506836,4|0,0:3|0:0,0:0:0:0:
228,184,42751,2,0,P|311:177|339:212,1,119.999996337891,10|0,0:0|0:0,0:0:0:0:
183,365,42954,6,0,P|160:270|69:256,1,194.999991073609,4|0,0:3|0:0,0:0:0:0:
90,278,43156,2,0,P|126:354|170:360,1,129.999994049073,10|0,0:0|0:0,0:0:0:0:
162,94,43359,2,0,P|58:63|0:135,1,209.999993591309,4|0,0:3|0:0,0:0:0:0:
23,134,43562,2,0,P|116:141|148:102,1,139.999995727539,10|0,0:0|0:0,0:0:0:0:
449,24,43764,6,0,P|342:12|280:99,1,225.000008583069,4|0,0:3|0:0,0:0:0:0:
266,118,43967,2,0,P|355:162|384:93,1,150.000005722046,10|0,0:0|0:0,0:0:0:0:
170,245,44167,2,0,P|189:177|131:137,1,150.000005722046,4|0,0:3|0:0,0:0:0:0:
321,280,44367,2,0,P|252:297|246:367,2,150.000005722046,10|0|2,0:0|0:0|0:3,0:0:0:0:
321,280,44781,6,0,L|474:286,1,150.000005722046,8|4,0:3|0:3,0:0:0:0:
251,198,44984,2,0,L|400:164,1,150.000005722046,8|8,1:2|1:2,0:0:0:0:
148,154,45187,2,0,L|283:82,1,150.000005722046,8|8,1:2|1:2,0:0:0:0:
12,9,45389,6,0,P|80:35|48:111,1,165.000005035401,6|0,0:3|0:0,0:0:0:0:
46,103,45595,2,0,B|247:-13|199:213|455:56,1,389.999982147218,10|4,0:0|0:3,0:0:0:0:
495,137,46009,2,0,P|525:184|487:255,1,110.000003356934,10|0,0:0|0:0,0:0:0:0:
429,350,46203,6,0,P|447:296|345:275,1,165.000005035401,4|0,0:3|0:0,0:0:0:0:
371,266,46405,2,0,B|170:150|218:376|-38:219,1,389.999982147218,10|4,0:0|0:3,0:0:0:0:
91,194,46811,2,0,P|144:171|150:109,1,110.000003356934,10|0,0:0|0:0,0:0:0:0:
0,0,47013,6,0,P|-1:74|72:76,1,165.000005035401,4|0,0:3|0:0,0:0:0:0:
63,67,47216,2,0,B|120:3|203:3|261:59|260:136|260:136|258:203|345:222,1,389.999982147218,10|4,0:0|0:3,0:0:0:0:
355,120,47621,2,0,P|400:93|406:34,1,110.000003356934,10|0,0:0|0:0,0:0:0:0:
488,192,47824,6,0,P|411:284|449:331,1,165.000005035401,4|0,0:3|0:0,0:0:0:0:
421,325,48029,2,0,P|394:303|295:330,1,129.999994049073,10|0,0:0|0:0,0:0:0:0:
163,382,48234,2,0,P|108:275|50:291,1,179.999994506836,4|0,0:3|0:0,0:0:0:0:
66,268,48440,2,0,P|96:251|110:150,1,139.999995727539,10|0,0:0|0:0,0:0:0:0:
268,24,48645,6,0,P|192:61|240:124,1,165.000005035401,4|0,0:3|0:0,0:0:0:0:
201,128,48851,2,0,B|409:155|228:286|492:365,1,389.999982147218,10|4,0:0|0:3,0:0:0:0:
461,264,49262,2,0,P|420:221|444:150,1,110.000003356934,10|0,0:0|0:0,0:0:0:0:
143,245,49467,6,0,P|214:219|250:286,1,165.000005035401,10|0,0:0|0:0,0:0:0:0:
270,285,49668,6,0,L|237:407,1,100,8|8,0:3|0:3,0:0:0:0:
337,197,49869,2,0,L|441:169,1,89.9999972534181,4|4,0:3|0:3,0:0:0:0:
230,180,50071,2,0,L|160:109,2,80,4|4|6,0:3|0:3|0:3,0:0:0:0:
490,20,51093,6,0,L|382:44,1,89.9999972534181,4|0,0:3|0:0,0:0:0:0:
178,109,51299,2,0,L|275:130,1,100,4|4,1:3|0:3,0:0:0:0:
477,52,51496,2,0,L|374:94,1,110.000003356934,4|8,0:3|1:2,0:0:0:0:
195,142,51693,2,0,L|356:208,1,119.999996337891,8|8,1:2|1:2,0:0:0:0:
512,221,51891,6,0,P|446:315|387:289,1,179.999994506836,6|0,0:0|0:0,0:0:0:0:
411,285,52093,2,0,P|438:229|496:216,1,119.999996337891,10|0,0:0|0:0,0:0:0:0:
310,314,52296,2,0,P|306:246|354:201,1,119.999996337891,0|0,0:3|0:0,0:0:0:0:
224,376,52499,2,0,P|191:326|208:271,1,119.999996337891,10|0,0:0|0:0,0:0:0:0:
114,81,52701,6,0,P|92:169|1:184,1,179.999994506836,4|0,0:3|0:0,0:0:0:0:
32,174,52904,2,0,P|70:159|135:244,1,119.999996337891,10|4,0:0|0:3,0:0:0:0:
310,118,53104,2,0,P|332:30|423:15,1,179.999994506836
422,21,53304,6,0,B|385:150|176:131|219:49|178:-10|15:8|-28:131,1,484,10|0,0:0|0:0,0:0:0:0:
23,195,53706,6,0,P|78:124|83:288,1,419.999987182618,10|4,0:0|0:3,0:0:0:0:
109,205,54112,2,0,P|179:259|77:378,1,279.999991455078,10|4,0:0|0:3,0:0:0:0:
421,24,54517,6,0,P|309:52|351:160,1,259.999988098145,10|4,0:0|0:3,0:0:0:0:
474,215,54821,2,0,P|442:160|467:102,2,129.999994049073,4|10|0,0:3|0:0|0:0,0:0:0:0:
399,372,55125,6,0,P|421:309|299:320,1,239.999992675781,4|12,0:1|0:0,0:0:0:0:
67,297,55435,2,0,P|159:339|166:238,1,239.999992675781,0|4,0:0|0:3,0:0:0:0:
79,91,55745,2,0,P|53:144|74:199,1,119.999996337891,10|0,0:2|0:3,0:0:0:0:
175,48,55952,6,0,P|218:142|289:118,1,179.999994506836,4|0,0:3|0:0,0:0:0:0:
293,145,56154,2,0,P|336:87|321:33,1,119.999996337891,10|0,0:0|0:0,0:0:0:0:
290,290,56357,2,0,P|318:356|372:370,1,119.999996337891,4|4,0:3|0:3,0:0:0:0:
342,222,56560,2,0,P|413:230|452:190,1,119.999996337891,8|0,0:0|0:0,0:0:0:0:
184,318,56762,6,0,L|24:288,1,150.000005722046,12|0,0:0|0:0,0:0:0:0:
22,4,57066,6,0,L|169:31,1,150.000005722046,12|0,0:0|0:0,0:0:0:0:
180,284,57370,6,0,L|20:254,1,150.000005722046,12|0,0:0|0:0,0:0:0:0:
0,25,57573,6,0,B|242:-44|171:197|456:104,1,480,12|0,0:0|0:0,0:0:0:0:
0,264,57979,6,0,B|42:372|245:394|281:284|173:180|342:94|515:76|544:268,1,680.000012969971,12|6,0:0|0:3,0:0:0:0:
512,221,58587,6,0,P|478:263|501:348,1,119.999996337891,12|0,0:0|0:0,0:0:0:0:
446,146,58789,2,0,P|395:165|372:250,1,119.999996337891,0|4,0:0|0:3,0:0:0:0:
453,48,58992,2,0,P|399:39|337:101,1,119.999996337891,10|0,0:0|0:0,0:0:0:0:
146,0,59195,6,0,P|193:34|251:27,2,119.999996337891,4|4|10,0:3|0:3|0:0,0:0:0:0:
0,129,59499,2,0,P|55:90|67:231,1,239.999992675781,0|4,0:0|0:3,0:0:0:0:
27,365,59803,6,0,B|58:244|273:255|230:337|263:412|412:416|479:286,1,470,10|0,0:0|0:0,0:0:0:0:
361,104,60216,6,0,P|314:276|433:206,1,419.999987182618,10|4,0:0|0:3,0:0:0:0:
494,90,60619,2,0,P|400:122|450:1,1,279.999991455078,10|4,0:0|0:3,0:0:0:0:
115,220,61021,6,0,P|7:228|73:321,1,259.999988098145,10|4,0:0|0:3,0:0:0:0:
222,275,61323,2,0,P|164:298|150:359,2,129.999994049073,4|10|0,0:3|0:0|0:0,0:0:0:0:
444,358,61625,6,0,P|366:368|312:289,1,179.999994506836,4|0,0:1|0:0,0:0:0:0:
336,297,61827,2,0,P|390:295|434:349,1,119.999996337891,10|0,0:0|0:0,0:0:0:0:
299,219,62030,2,0,P|351:187|412:207,1,119.999996337891,4|0,0:3|0:0,0:0:0:0:
239,147,62233,2,0,P|264:99|334:83,1,119.999996337891,10|0,0:0|0:0,0:0:0:0:
2,12,62435,6,0,P|108:32|112:96,1,179.999994506836,4|0,0:3|0:0,0:0:0:0:
136,73,62636,2,0,P|125:140|73:167,1,119.999996337891,10|0,0:0|0:0,0:0:0:0:
257,373,62837,2,0,P|151:353|147:289,1,179.999994506836,4|0,0:3|0:0,0:0:0:0:
121,315,63039,2,0,P|132:248|184:221,1,119.999996337891,10|0,0:0|0:0,0:0:0:0:
430,135,63240,6,0,P|424:193|378:227,1,119.999996337891,4|0,0:3|0:0,0:0:0:0:
311,40,63441,2,0,P|363:15|417:38,1,119.999996337891,10|0,0:0|0:0,0:0:0:0:
289,190,63643,2,0,P|241:156|234:98,1,119.999996337891,4|0,0:3|0:0,0:0:0:0:
302,284,63844,2,0,P|295:341|247:375,2,119.999996337891,10|0|6,0:0|0:0|0:3,0:0:0:0:
302,284,64247,6,0,L|154:265,1,129.999994049073,8|8,1:2|1:2,0:0:0:0:
0,384,64448,2,0,L|148:365,1,129.999994049073,8|8,1:2|1:2,0:0:0:0:
295,256,64649,2,0,L|147:237,1,129.999994049073,8|8,1:2|1:2,0:0:0:0:
0,82,64869,6,0,P|73:110|147:83,1,160,2|10,0:2|0:0,0:0:0:0:
448,384,65274,2,0,P|374:356|301:383,2,160,0|10|4,0:0|0:0|0:3,0:0:0:0:
218,170,65879,6,0,P|179:160|144:176,1,80,10|0,0:2|0:0,0:0:0:0:
264,235,66079,2,0,P|275:272|307:295,1,80,4|4,0:3|0:3,0:0:0:0:
297,161,66279,2,0,P|324:133|329:93,1,80,10|0,0:0|0:0,0:0:0:0:
83,21,66479,6,0,P|157:49|230:22,1,160,4|10,0:3|0:0,0:0:0:0:
512,349,66887,2,0,P|439:321|365:348,2,160,0|10|4,0:0|0:0|0:3,0:0:0:0:
144,176,67499,6,0,P|180:160|218:170,1,80,10|0,0:0|0:0,0:0:0:0:
307,296,67701,2,0,P|275:273|264:235,1,80,4|4,0:3|0:3,0:0:0:0:
329,94,67904,2,0,P|324:133|297:161,1,80,10|0,0:0|0:0,0:0:0:0:
166,352,68107,6,0,P|98:300|12:305,1,160,4|10,0:3|0:0,0:0:0:0:
240,304,68411,2,0,P|319:302|380:252,1,160,0|4,0:0|0:3,0:0:0:0:
459,240,68715,2,0,P|456:163|440:147,1,80,10|4,0:0|0:3,0:0:0:0:
386,0,68917,2,0,P|356:73|379:147,1,160,4|10,0:3|0:0,0:0:0:0:
273,66,69221,2,0,P|190:31|117:37,1,160,0|4,0:0|0:3,0:0:0:0:
15,142,69525,2,0,P|46:117|84:107,1,80,10|4,0:0|0:3,0:0:0:0:
262,221,69728,6,0,P|264:275|178:371,1,160,4|10,0:3|0:0,0:0:0:0:
43,267,70030,2,0,P|118:242|171:183,1,160,0|4,0:0|0:3,0:0:0:0:
316,139,70332,2,0,P|350:176|359:215,1,80,10|0,0:0|0:0,0:0:0:0:
495,26,70533,6,0,P|450:75|385:88,1,134.999995880127,4|0,0:3|0:0,0:0:0:0:
392,70,70734,2,0,P|354:50|305:58,1,89.9999972534181,10|0,0:0|0:0,0:0:0:0:
27,109,70936,2,0,P|80:62|163:66,1,150
142,76,71137,2,0,P|180:102|233:101,1,100,10|0,0:0|0:0,0:0:0:0:
446,173,71338,6,0,P|473:247|458:324,1,160,4|10,0:3|0:0,0:0:0:0:
78,164,71746,2,0,P|61:86|88:12,2,160,0|10|4,0:0|0:0|0:3,0:0:0:0:
212,200,72358,6,0,P|176:217|159:252,1,80,10|0,0:0|0:0,0:0:0:0:
289,220,72562,2,0,P|321:242|361:239,1,80,4|4,0:3|0:3,0:0:0:0:
267,142,72766,2,0,P|270:104|248:70,1,80,10|0,0:0|0:0,0:0:0:0:
434,13,72970,6,0,P|449:90|422:164,1,160,4|10,0:3|0:0,0:0:0:0:
71,310,73383,2,0,P|44:236|60:159,2,160,0|10|4,0:0|0:0|0:3,0:0:0:0:
359,240,73986,6,0,P|320:242|289:220,1,80,10|0,0:0|0:0,0:0:0:0:
159,251,74190,2,0,P|176:216|211:200,1,80,4|4,0:3|0:3,0:0:0:0:
247,70,74392,2,0,P|269:103|267:142,1,80,10|0,0:0|0:0,0:0:0:0:
342,346,74595,6,0,P|413:312|462:249,1,160,4|10,0:3|0:0,0:0:0:0:
434,12,74899,2,0,P|406:86|416:165,1,160,0|4,0:0|0:3,0:0:0:0:
324,46,75203,2,0,P|292:70|247:74,1,80,10|4,0:0|0:3,0:0:0:0:
51,107,75405,2,0,P|109:103|200:172,1,160,4|10,0:3|0:0,0:0:0:0:
330,190,75709,2,0,P|269:240|191:241,1,160,4|4,0:3|0:3,0:0:0:0:
73,258,76013,2,0,P|91:223|123:200,1,80,10|0,0:0|0:0,0:0:0:0:
149,317,76216,6,0,P|166:353|198:377,1,80,4|0,0:3|0:0,0:0:0:0:
334,310,76419,2,0,P|316:346|285:370,1,80,10|0,0:0|0:0,0:0:0:0:
339,220,76622,2,0,P|392:163|457:151,1,120,4|0,0:3|0:0,0:0:0:0:
444,139,76824,2,0,P|494:157|520:187,1,80,8|4,0:0|0:3,0:0:0:0:
297,112,77027,2,0,P|242:37|185:26,1,150,6|0,0:3|0:0,0:0:0:0:
173,15,77230,6,0,L|137:146,1,119.999996337891,8|8,1:2|1:2,0:0:0:0:
294,358,77427,2,0,L|258:227,1,119.999996337891,8|8,1:2|1:2,0:0:0:0:
109,82,77624,2,0,L|108:217,1,119.999996337891,8|8,1:2|1:2,0:0:0:0:
317,374,77822,6,0,P|340:279|431:265,1,165.000005035401,6|0,0:3|0:0,0:0:0:0:
394,286,78024,2,0,P|358:362|314:368,1,110.000003356934,10|0,0:0|0:0,0:0:0:0:
344,136,78227,2,0,P|438:109|496:181,1,179.999994506836,4|0,0:3|0:0,0:0:0:0:
467,164,78430,2,0,P|384:171|356:136,1,119.999996337891,10|0,0:0|0:0,0:0:0:0:
143,56,78632,6,0,P|166:151|257:165,1,194.999991073609,4|0,0:3|0:0,0:0:0:0:
236,143,78835,2,0,P|200:67|156:61,1,129.999994049073,10|0,0:0|0:0,0:0:0:0:
29,289,79038,2,0,P|133:320|191:248,1,209.999993591309,4|0,0:3|0:0,0:0:0:0:
170,249,79240,2,0,P|77:242|45:281,1,139.999995727539,10|0,0:0|0:0,0:0:0:0:
318,47,79443,6,0,P|425:35|487:122,1,225.000008583069,4|0,0:3|0:0,0:0:0:0:
501,141,79646,2,0,P|412:185|383:116,1,150.000005722046,10|0,0:2|0:0,0:0:0:0:
211,104,79849,2,0,P|279:121|286:191,1,150.000005722046,4|4,0:3|0:3,0:0:0:0:
323,371,80051,2,0,P|304:303|362:263,2,150.000005722046,10|0|6,0:0|0:0|0:3,0:0:0:0:
451,118,81064,6,0,P|476:134|469:240,2,100,12|0|0,0:1|0:0|0:0,0:0:0:0:
327,34,81368,2,0,P|374:18|419:36,2,100,8|0|0,0:0|0:0|0:0,0:0:0:0:
194,82,81672,2,0,P|204:34|242:4,1,100,8|0,0:0|0:0,0:0:0:0:
441,274,81874,2,0,P|331:204|286:326,1,300,8|8,0:0|0:0,0:0:0:0:
210,376,82280,2,0,P|173:346|168:297,1,100,2|2,0:0|0:0,0:0:0:0:
146,157,82482,2,0,P|108:188|103:236,1,100,8|0,0:0|0:0,0:0:0:0:
194,82,82687,6,0,P|243:81|282:112,2,100,12|0|0,0:0|0:0|3:3,0:0:0:0:
369,88,82995,2,0,P|394:129|387:178,2,100,8|0|0,0:0|0:0|3:0,0:0:0:0:
441,251,83285,2,0,P|418:295|372:312,2,100,8|0|0,0:0|0:0|3:0,0:0:0:0:
441,251,83693,6,0,L|305:280,1,129.999994049073,10|0,1:2|1:0,0:0:0:0:
139,146,83911,2,0,L|267:171,1,119.999996337891,10|0,1:2|1:0,0:0:0:0:
407,41,84122,2,0,L|288:66,1,110.000003356934,0|0,1:2|1:0,0:0:0:0:
110,153,84325,6,0,P|76:32|201:52,1,300,12|8,0:1|0:0,0:0:0:0:
287,77,84730,2,0,P|300:30|343:7,1,100
427,142,84933,2,0,P|382:162|335:152,1,100,8|0,0:0|0:0,0:0:0:0:
156,226,85135,6,0,P|122:347|247:327,1,300,10|10,0:0|0:0,0:0:0:0:
322,377,85537,2,0,P|332:296|263:255,1,100,2|0,0:0|0:0,0:0:0:0:
355,152,85739,2,0,P|391:185|399:233,1,100,10|2,0:0|0:0,0:0:0:0:
265,140,85940,6,0,P|209:135|184:47,2,100,12|0|0,0:2|0:0|0:0,0:0:0:0:
93,252,86244,2,0,P|140:239|166:197,2,100,8|0|0,0:0|0:0|0:0,0:0:0:0:
75,70,86548,2,0,P|98:113|86:161,1,100,8|2,0:0|0:0,0:0:0:0:
337,309,86750,6,0,P|281:314|256:402,2,100,8|0|0,0:0|0:0|0:0,0:0:0:0:
165,197,87050,2,0,P|212:210|238:252,2,100,8|0|0,0:0|0:0|0:0,0:0:0:0:
147,378,87350,2,0,P|170:334|157:287,1,100,8|2,0:0|0:0,0:0:0:0:
324,120,87550,6,0,P|285:90|236:94,2,100,12|0|0,0:1|0:0|0:0,0:0:0:0:
158,50,87858,2,0,P|114:70|92:114,2,100,8|0|0,0:0|0:0|0:0,0:0:0:0:
2,124,88166,2,0,P|-3:173|24:214,1,100,8|0,0:0|0:0,0:0:0:0:
147,378,88371,2,0,P|190:254|301:324,1,300,8|8,0:0|0:0,0:0:0:0:
375,359,88776,2,0,P|418:349|449:293,1,100,2|2,0:0|0:0,0:0:0:0:
424,129,88979,2,0,P|389:94|341:92,1,100,8|0,0:0|0:0,0:0:0:0:
376,259,89181,6,0,P|376:210|343:174,2,100,12|0|0,0:0|0:0|3:0,0:0:0:0:
273,230,89477,2,0,P|231:204|183:215,2,100,8|0|0,0:0|0:0|3:0,0:0:0:0:
189,301,89773,2,0,P|146:324|132:371,2,100,8|0|8,0:0|0:0|3:3,0:0:0:0:
189,301,90178,6,0,L|53:272,1,129.999994049073,8|8,1:0|1:0,0:0:0:0:
274,213,90386,2,0,L|402:188,1,119.999996337891,0|8,0:0|1:0,0:0:0:0:
185,122,90595,2,0,L|66:97,1,110.000003356934,8|0,0:0|0:0,0:0:0:0:
317,15,90803,6,4,P|284:137|409:116,1,300,12|8,0:1|0:0,0:1:0:0:
430,39,91208,2,0,P|474:62|487:109,1,100
450,315,91411,2,0,P|406:292|393:245,1,100,8|0,0:0|0:0,1:0:0:0:
266,87,91613,6,0,P|300:208|175:188,1,300,12|8,0:2|0:0,0:0:0:0:
91,210,92026,2,0,P|109:130|187:115,1,100
314,295,92233,2,2,P|295:374|217:389,1,100,8|0,0:0|0:0,0:0:0:0:
245,158,92440,6,0,P|350:90|368:215,2,300,12|8|8,0:1|0:0|0:0,0:1:0:0:
8,0,93260,6,0,P|82:45|34:108,1,150,4|0,0:0|0:0,0:0:0:0:
54,104,93462,6,0,L|198:88,1,129.999994049073,8|8,1:2|1:2,0:0:0:0:
469,34,93665,2,0,L|325:18,1,129.999994049073,8|8,1:2|1:2,0:0:0:0:
117,119,93868,2,0,L|260:140,1,119.999996337891,8|8,1:2|1:2,0:0:0:0:
403,46,94070,2,0,L|259:67,1,119.999996337891,0|0,3:0|3:0,0:0:0:0:
16,252,94264,6,0,B|242:143|209:364|475:193,1,450.000017166138,12|0,0:0|3:0,0:0:0:0:
40,47,94654,6,0,B|266:156|233:-65|499:106,1,480,12|0,0:0|3:0,0:0:0:0:
6,281,95058,6,0,B|251:162|215:402|504:216,1,510.000009727478,12|0,0:0|3:0,0:0:0:0:
13,18,95464,6,0,B|269:141|232:-109|556:17|550:159|301:296|234:112,1,719.999978027344,12|10,0:0|0:0,0:0:0:0:
88,138,95970,6,0,P|193:261|111:338,1,259.999988098145,0|2,0:0|3:2,0:0:0:0:
42,357,96274,2,0,P|62:253|131:254,1,129.999994049073,8|0,0:0|0:0,0:0:0:0:
268,303,96477,6,0,P|378:342|445:223,1,239.999992675781,2|10,3:2|0:0,0:0:0:0:
365,91,96781,2,0,P|393:189|291:180,1,239.999992675781
100,34,97085,2,0,P|120:133|206:78,1,239.999992675781,10|0,0:0|3:0,0:0:0:0:
206,76,97491,6,0,P|64:135|182:370,1,450.000017166138,12|0,0:0|3:0,0:0:0:0:
288,68,97896,6,0,P|135:47|74:334,1,480,12|0,0:0|3:0,0:0:0:0:
353,112,98301,6,0,P|231:18|2:229,1,510.000009727478,12|0,0:0|3:0,0:0:0:0:
419,175,98707,6,0,B|412:70|279:-90|-17:-76|-87:64|56:228|138:182|216:103,1,727,12|10,0:0|0:0,0:0:0:0:
345,246,99203,6,0,P|309:193|247:186,2,129.999994049073,0|2|0,0:0|3:2|0:0,0:0:0:0:
213,384,99503,2,0,P|187:326|215:269,1,129.999994049073,10|0,3:2|0:0,0:0:0:0:
104,86,99703,6,0,P|53:175|154:196,1,239.999992675781,2|10,3:2|0:0,0:0:0:0:
256,54,100009,2,0,P|197:12|119:36,2,119.999996337891,0|2|0,0:0|3:2|0:0,0:0:0:0:
346,184,100315,2,0,P|366:85|452:140,1,239.999992675781,10|0,0:0|3:0,0:0:0:0:
452,141,100723,6,0,B|173:178|393:332|95:385,1,450.000017166138,12|0,0:0|3:0,0:0:0:0:
14,85,101145,6,0,B|318:125|78:293|403:351,1,474,12|0,0:0|3:0,0:0:0:0:
464,105,101558,6,0,B|150:146|397:319|62:379,1,510.000009727478,12|0,0:0|3:0,0:0:0:0:
9,44,101964,6,0,B|338:87|78:269|379:369|445:380|482:361|557:149|344:208,2,719.999978027344,12|10|8,0:0|0:0|0:0,0:0:0:0:
9,44,102987,6,0,P|76:45|132:11,2,119.999996337891,0|0|8,3:0|0:0|0:0,0:0:0:0:
65,143,103287,2,0,P|169:175|142:308,1,239.999992675781,0|0,3:0|3:0,0:0:0:0:
79,336,103587,2,0,P|51:285|106:239,1,119.999996337891,10|0,0:0|0:0,0:0:0:0:
259,147,103787,6,0,P|352:240|445:179,2,239.999992675781,4|8|0,0:0|0:0|0:0,0:0:0:0:
388,44,104290,2,0,P|345:83|355:140,2,119.999996337891,0|8|0,3:0|0:0|0:0,0:0:0:0:
252,1,104592,6,0,P|226:106|121:81,2,239.999992675781,0|8|0,3:0|0:0|0:0,0:0:0:0:
56,152,105095,2,0,P|24:102|40:46,2,119.999996337891,0|8|0,3:0|0:0|0:0,0:0:0:0:
33,335,105397,6,0,P|68:233|170:267,2,239.999992675781,0|8|0,3:0|0:0|0:0,0:0:0:0:
261,235,105881,2,0,P|274:291|237:335,2,119.999996337891,0|8|0,3:0|0:0|0:0,0:0:0:0:
384,49,106209,6,0,P|310:96|345:169,1,179.999994506836,4|0,0:0|0:0,0:0:0:0:
362,174,106411,6,0,L|500:148,1,129.999994049073,8|8,1:2|1:2,0:0:0:0:
251,32,106614,2,0,L|128:12,1,119.999996337891,8|8,1:2|1:2,0:0:0:0:
0,203,106817,2,0,L|138:177,1,110.000003356934,8|8,1:2|1:2,0:0:0:0:
267,291,107019,6,0,P|160:296|26:353,1,239.999992675781,4|10,0:2|0:0,0:0:0:0:
275,91,107744,2,2,P|377:170|430:187,1,179.999994506836,8|4,0:0|0:3,1:2:0:0:
424,185,108232,6,0,P|457:140|355:-1,1,240,10|0,0:0|0:0,0:0:0:0:
287,0,108632,6,0,P|161:55|51:58,1,239.999992675781,6|10,0:3|0:0,0:0:0:0:
306,187,109366,2,2,P|397:283|406:352,1,179.999994506836,8|4,0:0|0:3,1:2:0:0:
406,325,109856,6,0,P|307:254|182:269,1,240,10|0,0:0|0:0,0:0:0:0:
109,346,110262,6,0,P|46:283|59:137,1,239.999992675781,6|10,0:3|0:0,0:0:0:0:
425,9,110996,2,0,P|457:50|463:125,1,119.999996337891,8|0,0:0|0:0,1:0:0:0:
273,201,111282,2,0,P|343:167|376:95,1,160,4|10,0:3|0:0,0:0:0:0:
117,15,111582,2,0,P|215:27|282:98,1,200,4|0,0:3|0:0,0:0:0:0:
404,241,111882,6,0,P|338:277|156:267,1,240,6|4,0:3|0:3,0:0:0:0:
87,293,112287,2,0,P|46:244|112:184,1,160,10|0,1:2|1:2,0:0:0:0:
260,40,112591,6,0,P|179:119|333:90,1,400,0|4,1:3|0:3,0:0:0:0:
462,7,113117,6,0,L|440:152,1,119.999996337891,10|0,0:0|0:0,0:0:0:0:
319,305,113330,2,0,L|297:160,1,119.999996337891,8|8,1:2|1:2,0:0:0:0:
147,4,113519,6,0,P|74:83|20:218,1,239.999992675781,4|10,0:0|0:0,0:0:0:0:
284,379,114238,2,2,P|201:345|135:285,1,179.999994506836,8|4,0:0|0:3,1:2:0:0:
134,284,114744,6,0,P|141:228|314:200,1,237,10|0,0:0|0:0,0:0:0:0:
391,203,115142,6,0,P|340:75|265:-4,1,239.999992675781,6|10,0:3|0:0,0:0:0:0:
228,320,115856,2,2,P|360:323|415:365,1,179.999994506836,8|4,0:0|0:3,1:2:0:0:
396,347,116346,6,0,P|331:249|194:249,1,240,10|0,0:0|0:0,0:0:0:0:
130,271,116752,6,0,P|67:208|80:62,1,239.999992675781,6|10,0:3|0:0,0:0:0:0:
453,300,117461,2,0,P|485:259|491:184,1,119.999996337891,8|0,0:0|0:0,0:0:0:0:
301,107,117765,2,0,P|371:141|404:212,1,160,4|10,0:3|0:0,0:0:0:0:
145,293,118071,2,0,P|242:281|309:210,1,200,4|0,0:3|0:0,0:0:0:0:
432,68,118377,6,0,P|366:32|184:42,1,240,6|4,0:3|0:3,0:0:0:0:
115,16,118777,2,0,P|74:65|140:125,1,160,8|0,1:2|1:0,0:0:0:0:
54,303,119077,6,0,P|110:212|164:264,1,195,0|0,1:0|0:0,0:0:0:0:
299,367,119398,6,0,L|277:222,1,119.999996337891,8|8,1:2|1:2,0:0:0:0:
467,52,119601,2,0,L|445:197,1,119.999996337891,8|8,1:0|1:0,0:0:0:0:
257,297,119792,2,0,L|270:177,1,119.999996337891,8|8,1:0|1:0,0:0:0:0:
411,0,119983,6,0,P|420:89|335:116,1,194.999991073609,4|0,0:1|0:0,0:0:0:0:
357,104,120188,2,0,P|306:88|277:17,1,129.999994049073,8|0,0:0|0:0,0:0:0:0:
78,235,120393,2,0,P|116:198|193:209,1,129.999994049073,0|0,0:0|3:0,0:0:0:0:
177,0,120599,2,0,P|189:51|141:112,1,129.999994049073,8|0,0:0|0:0,0:0:0:0:
335,330,120804,2,0,P|289:302|279:225,1,129.999994049073,2|0,3:2|0:0,0:0:0:0:
452,150,121006,6,0,P|381:201|368:115,1,209.999993591309,8|0,0:0|0:0,0:0:0:0:
441,60,121209,2,0,P|521:96|452:150,1,209.999993591309,0|0,3:0|0:0,0:0:0:0:
369,115,121412,2,0,P|360:28|442:61,1,209.999993591309,10|0,0:0|0:0,0:0:0:0:
452,150,121614,6,0,P|404:207|269:173,1,194.999991073609,0|0,3:0|0:0,0:0:0:0:
288,221,121817,2,0,P|232:253|220:315,1,129.999994049073,8|0,0:0|0:0,0:0:0:0:
64,90,122020,2,0,P|126:100|160:153,1,129.999994049073,0|0,0:0|3:0,0:0:0:0:
328,20,122222,2,0,P|270:46|252:106,1,129.999994049073,8|0,0:0|0:0,0:0:0:0:
423,63,122425,2,0,P|429:125|386:172,1,129.999994049073,2|0,3:2|0:0,0:0:0:0:
304,343,122626,6,0,P|383:307|315:252,1,209.999993591309,8|0,0:0|0:0,0:0:0:0:
231,288,122827,2,0,P|222:375|303:342,1,209.999993591309,0|0,3:0|0:0,0:0:0:0:
314,253,123029,2,0,P|242:202|231:288,1,209.999993591309,10|0,0:0|0:0,0:0:0:0:
303,342,123230,6,0,P|410:341|453:238,1,194.999991073609,0|0,3:0|0:0,0:0:0:0:
473,280,123435,2,0,P|480:227|426:169,1,129.999994049073,10|0,0:0|0:0,0:0:0:0:
403,12,123640,2,0,P|402:75|355:117,1,129.999994049073,0|0,3:0|0:0,0:0:0:0:
195,36,123846,2,0,P|211:97|267:129,1,129.999994049073,10|0,0:0|0:0,0:0:0:0:
231,288,124051,6,0,P|178:190|106:290,1,279.999991455078,2|8,3:2|0:0,0:0:0:0:
324,305,124360,2,0,P|430:336|414:213,1,279.999991455078,2|2,0:2|3:2,0:0:0:0:
320,41,124668,2,0,P|426:9|396:128,1,279.999991455078,8|0,0:2|3:0,0:0:0:0:
400,126,125074,6,0,P|348:124|308:206,1,129.999994049073,10|0,0:0|0:0,0:0:0:0:
239,361,125275,2,0,P|267:305|237:250,1,129.999994049073,0|0,3:0|0:0,0:0:0:0:
119,108,125477,2,0,P|152:160|215:161,1,129.999994049073,10|0,0:0|0:0,0:0:0:0:
463,184,125678,6,0,P|459:318|364:252,1,279.999991455078,4|8,0:1|0:0,0:0:0:0:
237,64,125980,2,0,P|335:15|291:131,1,300.000011444092,0|0,3:0|3:0,0:0:0:0:
213,362,126282,2,0,P|168:325|242:271,1,160,8|8,0:0|0:0,0:0:0:0:
474,327,126494,6,0,B|268:379|356:225|89:310,2,359.999989013672,4|8|0,0:1|0:0|0:0,0:0:0:0:
458,173,126997,2,0,P|428:233|361:244,1,129.999994049073,0|8,3:0|0:0,0:0:0:0:
348,43,127198,2,0,P|385:98|361:161,1,129.999994049073,0|2,0:0|3:2,0:0:0:0:
35,274,127500,6,0,P|4:192|91:201,1,209.999993591309,8|0,0:0|0:0,0:0:0:0:
125,286,127702,2,0,P|69:353|35:273,1,209.999993591309,0|0,3:0|0:0,0:0:0:0:
91,203,127903,2,0,P|177:217|124:286,1,209.999993591309,10|0,0:0|0:0,0:0:0:0:
35,273,128104,6,0,P|-2:202|81:103,1,194.999991073609,0|0,3:0|0:0,0:0:0:0:
35,99,128304,2,0,P|80:72|155:93,1,129.999994049073,8|0,0:0|0:0,0:0:0:0:
391,27,128504,2,0,P|436:52|456:127,2,129.999994049073,0|0|8,0:0|3:0|0:0,0:0:0:0:
227,146,128804,2,0,P|279:146|333:91,1,129.999994049073,0|2,0:0|3:2,0:0:0:0:
56,222,129106,6,0,P|138:191|129:278,1,209.999993591309,8|0,0:0|0:0,0:0:0:0:
44,312,129309,2,0,P|-22:256|57:222,1,209.999993591309,0|0,3:0|0:0,0:0:0:0:
127,278,129512,2,0,P|113:364|44:311,1,209.999993591309,10|0,0:0|0:0,0:0:0:0:
57,222,129714,6,0,P|128:185|227:268,1,194.999991073609,0|0,3:0|0:0,0:0:0:0:
235,229,129914,2,0,P|261:296|217:362,1,129.999994049073,10|0,0:0|0:0,0:0:0:0:
303,158,130114,2,0,P|368:186|384:264,1,129.999994049073,2|0,3:2|0:0,0:0:0:0:
286,64,130314,2,0,P|353:38|419:82,1,129.999994049073,10|2,0:0|3:2,0:0:0:0:
191,52,130514,6,0,P|95:82|42:-15,1,194.999991073609,2|0,3:2|0:0,0:0:0:0:
64,22,130720,2,0,P|96:64|47:141,1,129.999994049073,10|0,0:2|0:0,0:0:0:0:
235,229,130927,2,0,P|331:259|384:162,1,194.999991073609,0|0,3:0|0:0,0:0:0:0:
362,199,131134,2,0,P|330:241|379:318,1,129.999994049073,8|0,0:0|0:0,0:0:0:0:
512,98,131341,6,0,P|445:20|360:66,1,194.999991073609,0|0,3:0|0:0,0:0:0:0:
383,67,131543,2,0,P|430:110|494:99,1,129.999994049073,8|0,0:0|0:0,0:0:0:0:
284,115,131746,2,0,P|303:175|364:198,1,129.999994049073,0|0,3:0|0:0,0:0:0:0:
177,123,131949,2,0,P|163:185|204:235,1,129.999994049073,8|0,0:0|0:0,0:0:0:0:
16,384,132151,6,0,P|90:319|-7:238,1,194.999991073609,4|0,0:1|0:0,0:0:0:0:
38,246,132355,6,0,L|162:318,1,139.999995727539,8|8,1:0|1:0,0:0:0:0:
118,97,132559,2,0,L|189:221,1,139.999995727539,0|0,1:0|1:0,0:0:0:0:
255,0,132763,2,0,L|254:143,1,139.999995727539,8|8,1:0|1:0,0:0:0:0:
372,332,132967,6,0,P|395:237|491:222,1,194.999991073609,6|0,3:0|0:0,0:0:0:0:
470,241,133172,2,0,P|434:317|390:323,1,129.999994049073,10|0,0:0|0:0,0:0:0:0:
344,84,133377,2,0,P|441:55|503:133,1,209.999993591309,4|0,0:3|0:0,0:0:0:0:
473,127,133583,2,0,P|389:133|360:94,1,139.999995727539,10|0,0:0|0:0,0:0:0:0:
111,27,133788,6,0,P|134:122|253:121,1,209.999993591309,4|0,0:3|0:0,0:0:0:0:
228,109,133994,2,0,P|192:33|123:30,1,150.000005722046,10|0,0:0|0:0,0:0:0:0:
6,338,134198,2,0,P|114:341|159:228,1,240,4|0,0:3|0:0,0:0:0:0:
142,240,134402,6,0,B|233:292|348:276|325:142|487:156|522:258|449:346|360:276,1,455,10|6,0:0|0:3,0:0:0:0:
256,192,134897,12,4,137679,0:0:0:0:
