osu file format v14

[General]
AudioFilename: audio.mp3
AudioLeadIn: 0
PreviewTime: 51992
Countdown: 0
SampleSet: Soft
StackLeniency: 0.3
Mode: 0
LetterboxInBreaks: 0
WidescreenStoryboard: 0

[Editor]
DistanceSpacing: 1.2
BeatDivisor: 4
GridSize: 16
TimelineZoom: 4.700003

[Metadata]
Title:DVP
TitleUnicode:DVP
Artist:PUP
ArtistUnicode:PUP
Creator:Hobbes2
Version:Hawaiian Red Fruit Punch
Source:osu!
Tags:fa featured artist the dream is over english indie punk rock fieryrage lasse milan- maestrosplinter mir
BeatmapID:2269122
BeatmapSetID:756815

[Difficulty]
HPDrainRate:5
CircleSize:3.5
OverallDifficulty:9
ApproachRate:9.7
SliderMultiplier:1.6
SliderTickRate:1

[Events]
//Background and Video events
0,0,"BG BG.jpg",0,0
//Break Periods
//Storyboard Layer 0 (Background)
//Storyboard Layer 1 (Fail)
//Storyboard Layer 2 (Pass)
//Storyboard Layer 3 (Foreground)
//Storyboard Layer 4 (Overlay)
//Storyboard Sound Samples

[TimingPoints]
0,202.702702702703,4,2,10,80,1,0
0,-83.3333333333333,4,2,1,80,0,0
1013,196.078431372549,4,2,10,80,1,0
1013,-83.3333333333333,4,2,1,80,0,0
1601,204.081632653061,4,2,10,80,1,0
1601,-83.3333333333333,4,2,1,80,0,0
3233,205.479452054795,4,2,10,80,1,0
3233,-83.3333333333333,4,2,1,80,0,0
4465,200,4,2,10,80,1,0
4465,-83.3333333333333,4,2,1,80,0,0
4865,202.702702702703,4,2,10,80,1,0
4865,-83.3333333333333,4,2,1,80,0,0
11351,198.675496688742,4,2,10,80,1,0
11351,-83.3333333333333,4,2,1,80,0,0
12145,200,4,2,1,80,1,0
12945,204.081632653061,4,2,10,80,1,0
13149,-100,4,2,1,40,0,0
13560,-100,4,2,1,50,0,0
13761,-83.3333333333333,4,2,2,60,0,0
13965,201.342281879195,4,2,10,80,1,0
13965,-83.3333333333333,4,2,2,60,0,0
14166,-83.3333333333333,4,2,2,70,0,0
14569,201.342281879195,4,2,10,80,1,0
14569,-71.4285714285714,4,2,3,80,0,0
15374,205.479452054795,4,2,10,80,1,0
15374,-62.5,4,2,1,80,0,0
16195,202.702702702703,4,2,10,80,1,0
17816,206.896551724138,4,2,10,80,1,0
18643,202.702702702703,4,2,10,80,1,0
21278,197.368421052632,4,2,10,80,1,0
21870,-71.4285714285714,4,2,10,80,0,1
22462,202.702702702703,4,2,10,80,1,0
22462,-71.4285714285714,4,2,10,80,0,1
22664,204.081632653061,4,2,10,80,1,0
24296,222.222222222222,4,2,10,80,1,0
24740,198.675496688742,4,2,10,80,1,0
25336,202.702702702703,4,2,10,80,1,0
25944,202.702702702703,4,2,10,80,1,0
25944,-83.3333333333333,4,2,10,80,0,0
26067,-83.3333333333333,4,2,10,5,0,0
26146,-83.3333333333333,4,2,10,80,0,0
26219,-83.3333333333333,4,2,10,5,0,0
26349,-83.3333333333333,4,2,10,80,0,0
26473,-83.3333333333333,4,2,10,5,0,0
26552,-83.3333333333333,4,2,10,80,0,0
26625,-83.3333333333333,4,2,10,5,0,0
26754,200,4,2,10,80,1,0
26754,-83.3333333333333,4,2,10,80,0,0
26878,-83.3333333333333,4,2,10,5,0,0
26954,-83.3333333333333,4,2,10,80,0,0
27030,-83.3333333333333,4,2,10,5,0,0
27154,-83.3333333333333,4,2,10,80,0,0
27283,-83.3333333333333,4,2,10,80,0,0
27354,-83.3333333333333,4,2,10,80,0,0
27436,-83.3333333333333,4,2,10,5,0,0
27554,-83.3333333333333,4,2,10,80,0,0
28954,222.222222222222,4,2,10,80,1,0
29176,202.702702702703,4,2,10,80,1,0
29176,-125,4,2,11,60,0,0
31815,-125,4,2,11,60,0,0
32216,192.307692307692,4,2,10,80,1,0
32216,-125,4,2,11,60,0,0
32408,214.285714285714,4,2,10,80,1,0
32408,-125,4,2,11,60,0,0
32622,202.702702702703,4,2,10,80,1,0
32622,-125,4,2,11,60,0,0
33027,205.479452054795,4,2,10,80,1,0
33027,-125,4,2,11,60,0,0
33643,201.342281879195,4,2,10,80,1,0
33643,-125,4,2,11,60,0,0
34045,201.342281879195,4,2,10,80,1,0
34045,-125,4,2,11,60,0,0
35253,197.368421052632,4,2,10,80,1,0
35253,-125,4,2,11,60,0,0
35647,202.702702702703,4,2,10,80,1,0
35647,-125,4,2,11,60,0,0
36457,208.333333333333,4,2,10,80,1,0
36457,-125,4,2,11,60,0,0
37082,191.082802547771,4,2,10,80,1,0
37082,-125,4,2,11,60,0,0
37273,208.333333333333,4,2,10,80,1,0
37273,-125,4,2,11,60,0,0
37689,205.831903945111,4,2,10,80,1,0
37894,-125,4,2,11,60,0,0
38100,202.702702702703,4,2,10,80,1,0
38100,-125,4,2,11,60,0,0
38910,201.342281879195,4,2,10,80,1,0
38910,-125,4,2,11,60,0,0
40520,202.702702702703,4,2,10,80,1,0
40520,-125,4,2,11,60,0,0
41328,-125,4,2,10,60,0,0
41533,194.805194805195,4,2,10,80,1,0
42117,229.007633587786,4,2,10,80,1,0
42117,-71.4285714285714,4,2,10,80,0,0
42284,-71.4285714285714,4,2,10,5,0,0
42346,202.702702702703,4,2,10,80,1,0
42346,-71.4285714285714,4,2,10,80,0,0
42692,-71.4285714285714,4,2,10,5,0,0
42751,-71.4285714285714,4,2,10,80,0,0
43100,-71.4285714285714,4,2,10,5,0,0
43156,-71.4285714285714,4,2,10,80,0,0
43508,-71.4285714285714,4,2,10,5,0,0
43562,-71.4285714285714,4,2,10,80,0,0
43916,-71.4285714285714,4,2,10,5,0,0
43967,200,4,2,10,80,1,0
43967,-62.5,4,2,10,80,0,1
44367,212.765957446809,4,2,10,80,1,0
44367,-62.5,4,2,10,80,0,1
44579,202.702702702703,4,2,10,80,1,0
44579,-55.5555555555556,4,2,10,80,0,1
44783,-55.5555555555556,4,2,2,80,0,1
45389,206.896551724138,4,2,10,80,1,0
46009,194.805194805195,4,2,10,80,1,0
46203,202.702702702703,4,2,10,80,1,0
47824,205.479452054795,4,2,10,80,1,0
49467,201.342281879195,4,2,10,80,1,0
49664,-100,4,2,1,80,0,0
50272,205.479452054795,4,2,10,80,1,0
50272,-200,4,2,12,80,0,0
51093,-83.3333333333333,4,2,2,80,0,0
51299,197.368421052632,4,2,10,80,1,0
51299,-83.3333333333333,4,2,2,80,0,0
51891,202.702702702703,4,2,10,80,1,0
52093,-100,4,2,10,80,0,0
52904,200,4,2,10,80,1,0
53504,202.702702702703,4,2,10,80,1,0
55125,206.896551724138,4,2,10,80,1,0
55331,-62.5,4,2,10,80,0,1
55952,202.702702702703,4,2,10,80,1,0
55952,-62.5,4,2,10,80,0,1
56762,-55.5555555555556,4,2,2,80,0,1
57573,-41.6666666666667,4,2,1,80,0,1
57772,-41.6666666666667,4,2,10,80,0,1
57979,-41.6666666666667,4,2,1,80,0,1
58177,-41.6666666666667,4,2,10,80,0,1
58384,-83.3333333333333,4,2,10,80,0,0
59803,212.765957446809,4,2,10,80,1,0
59803,-83.3333333333333,4,2,10,80,0,0
60015,201.342281879195,4,2,10,80,1,0
60015,-83.3333333333333,4,2,10,80,0,0
61625,202.702702702703,4,2,10,80,1,0
61625,-83.3333333333333,4,1,10,80,0,0
61772,-83.3333333333333,4,2,10,5,0,0
61827,-83.3333333333333,4,2,10,80,0,0
61974,-83.3333333333333,4,2,10,5,0,0
62030,-83.3333333333333,4,2,10,80,0,0
62177,-83.3333333333333,4,2,10,5,0,0
62233,-83.3333333333333,4,2,10,80,0,0
62379,-83.3333333333333,4,2,10,5,0,0
62435,201.342281879195,4,2,10,80,1,0
62435,-83.3333333333333,4,2,10,80,0,0
62582,-83.3333333333333,4,2,10,5,0,0
62636,-83.3333333333333,4,2,10,60,0,0
62784,-83.3333333333333,4,2,10,5,0,0
62837,-83.3333333333333,4,2,10,80,0,0
62987,-83.3333333333333,4,2,10,5,0,0
63039,-83.3333333333333,4,2,10,80,0,0
63189,-83.3333333333333,4,2,10,5,0,0
63240,-83.3333333333333,4,2,10,80,0,0
64649,220.588235294118,4,2,10,80,1,0
64869,202.702702702703,4,2,10,80,1,0
64869,-125,4,2,10,60,0,0
65062,-125,4,2,12,60,0,0
65679,200,4,2,10,80,1,0
65679,-125,4,2,10,60,0,0
66479,204.081632653061,4,2,10,80,1,0
66479,-125,4,2,10,60,0,0
67499,202.702702702703,4,2,10,80,1,0
67499,-125,4,2,10,60,0,0
68107,202.702702702703,4,2,10,80,1,0
68107,-125,4,2,10,60,0,0
69728,201.342281879195,4,2,10,80,1,0
69728,-125,4,2,10,60,0,0
71338,204.081632653061,4,2,10,80,1,0
71338,-125,4,2,10,60,0,0
72970,206.896551724138,4,2,10,80,1,0
72970,-125,4,2,10,60,0,0
73383,200,4,2,10,60,1,0
73583,-125,4,2,10,60,0,0
73783,203.735144312394,4,2,10,60,1,0
73783,-125,4,2,10,60,0,0
74190,202.702702702703,4,2,10,80,1,0
74190,-125,4,2,10,60,0,0
74595,202.702702702703,4,2,10,80,1,0
74595,-125,4,2,10,60,0,0
77010,-125,4,2,10,60,0,0
77230,197.368421052632,4,2,10,80,1,0
77230,-125,4,2,10,80,0,0
77822,202.702702702703,4,2,10,80,1,0
77822,-71.4285714285714,4,2,10,80,0,0
77972,-71.4285714285714,4,2,10,5,0,0
78024,-71.4285714285714,4,2,10,80,0,0
78377,-71.4285714285714,4,2,10,5,0,0
78430,-71.4285714285714,4,2,10,80,0,0
78782,-71.4285714285714,4,2,10,5,0,0
78835,-71.4285714285714,4,2,10,80,0,0
79187,-71.4285714285714,4,2,10,5,0,0
79240,-71.4285714285714,4,2,10,80,0,0
79592,-71.4285714285714,4,2,10,5,0,0
79646,-62.5,4,2,10,80,0,1
80051,208.333333333333,4,2,10,80,1,0
80051,-62.5,4,2,10,80,0,1
80259,-55.5555555555556,4,2,12,80,0,1
80571,-55.5555555555556,4,2,2,80,0,1
80780,189.873417721519,4,2,10,80,1,0
80780,-55.5555555555556,4,2,2,80,0,1
81064,202.702702702703,4,2,10,80,1,0
81064,-83.3333333333333,4,2,1,80,0,0
82482,205.479452054795,4,2,10,80,1,0
82482,-83.3333333333333,4,2,1,80,0,0
82694,-83.3333333333333,4,2,1,80,0,0
82995,193.548387096774,4,2,10,80,1,0
82995,-83.3333333333333,4,2,1,80,0,0
83285,204.081632653061,4,2,10,80,1,0
83285,-83.3333333333333,4,2,1,80,0,0
83693,218.978102189781,4,2,10,80,1,0
83693,-83.3333333333333,4,2,1,80,0,0
84021,202.702702702703,4,2,10,80,1,0
84021,-83.3333333333333,4,2,1,80,0,0
84325,202.702702702703,4,2,10,80,1,0
84325,-83.3333333333333,4,2,1,80,0,0
85135,201.342281879195,4,2,10,80,1,0
85135,-83.3333333333333,4,2,1,80,0,0
85940,202.702702702703,4,2,10,80,1,0
85940,-83.3333333333333,4,2,1,80,0,0
86750,200,4,2,10,80,1,0
86750,-83.3333333333333,4,2,1,80,0,0
87550,205.479452054795,4,2,10,80,1,0
87550,-83.3333333333333,4,2,1,80,0,0
88371,202.702702702703,4,2,10,80,1,0
88371,-83.3333333333333,4,2,1,80,0,0
89181,197.368421052632,4,2,10,80,1,0
89181,-83.3333333333333,4,2,1,80,0,0
89970,208.333333333333,4,2,10,80,1,0
89970,-83.3333333333333,4,2,1,80,0,0
90803,202.702702702703,4,2,10,80,1,0
90803,-83.3333333333333,4,2,1,80,0,0
91613,206.896551724138,4,2,10,80,1,0
91613,-83.3333333333333,4,2,1,80,0,0
92440,200,4,2,10,80,1,0
92440,-83.3333333333333,4,2,1,80,0,0
93040,220.588235294118,4,2,10,80,1,0
93040,-83.3333333333333,4,2,1,80,0,0
93260,202.702702702703,4,2,10,80,1,0
93260,-62.5,4,2,1,80,0,0
93665,-62.5,4,2,2,80,0,0
93870,-62.5,4,2,3,80,0,0
94070,194.805194805195,4,2,10,80,1,0
94070,-71.4285714285714,4,2,5,80,0,0
94654,202.702702702703,4,2,10,80,1,0
94654,-71.4285714285714,4,2,5,80,0,0
94856,202.702702702703,4,2,10,80,1,0
94856,-71.4285714285714,4,2,5,80,0,0
95680,-71.4285714285714,4,2,5,90,0,0
95869,-83.3333333333333,4,2,5,80,0,0
97288,-71.4285714285714,4,2,5,80,0,0
98707,196.078431372549,4,2,10,80,1,0
98707,-71.4285714285714,4,2,5,90,0,0
98903,200,4,2,10,80,1,0
98903,-71.4285714285714,4,2,5,90,0,0
99103,-83.3333333333333,4,2,5,80,0,0
99703,204.081632653061,4,2,10,80,1,0
99703,-83.3333333333333,4,2,5,80,0,0
100519,-71.4285714285714,4,2,5,80,0,0
100723,211.267605633803,4,2,10,80,1,0
100723,-71.4285714285714,4,2,5,80,0,0
101356,202.702702702703,4,2,10,80,1,0
101356,-71.4285714285714,4,2,5,80,0,0
101964,204.081632653061,4,2,10,80,1,0
101964,-71.4285714285714,4,2,10,80,0,0
102166,-83.3333333333333,4,2,5,80,0,0
102780,207.612456747405,4,2,10,80,1,0
102780,-83.3333333333333,4,2,10,80,0,0
102987,200,4,2,10,80,1,0
102987,-83.3333333333333,4,2,5,80,0,0
103787,201.342281879195,4,2,10,80,1,0
103787,-83.3333333333333,4,2,1,80,0,0
103882,-83.3333333333333,4,2,5,80,0,0
105397,200,4,2,10,80,1,0
105397,-83.3333333333333,4,2,5,80,0,0
105797,168.539325842697,4,2,5,80,1,0
105881,218.978102189781,4,2,5,80,1,0
105990,-83.3333333333333,4,2,5,80,0,0
106209,202.702702702703,4,2,5,80,1,0
106209,-83.3333333333333,4,2,1,80,0,0
107019,-83.3333333333333,4,2,7,80,0,0
107425,212.765957446809,4,2,10,80,1,0
107744,192.307692307692,4,2,10,80,1,0
108032,200,4,2,10,80,1,0
108632,209.79020979021,4,2,10,80,1,0
109366,192.307692307692,4,2,10,80,1,0
109654,202.702702702703,4,2,10,80,1,0
110262,209.79020979021,4,2,10,80,1,0
110996,191.082802547771,4,2,10,80,1,0
111282,200,4,2,10,80,1,0
111882,202.702702702703,4,2,10,80,1,0
112692,212.765957446809,4,2,10,80,1,0
113330,189.873417721519,4,2,10,80,1,0
113519,205.479452054795,4,2,10,80,1,0
114238,202.702702702703,4,2,10,80,1,0
114846,197.368421052632,4,2,10,80,1,0
115142,204.081632653061,4,2,10,80,1,0
115856,192.307692307692,4,2,10,80,1,0
116144,202.702702702703,4,2,10,80,1,0
116752,202.702702702703,4,2,10,80,1,0
117765,204.081632653061,4,2,10,80,1,0
118377,200,4,2,10,80,1,0
119077,238.095238095238,4,2,10,80,1,0
119196,202.702702702703,4,2,10,80,1,0
119591,-100,4,2,1,80,0,0
119601,191.082802547771,4,2,10,80,1,0
119983,205.479452054795,4,2,10,80,1,0
119983,-83.3333333333333,4,2,4,90,0,0
120804,202.702702702703,4,2,10,80,1,0
120804,-83.3333333333333,4,2,4,90,0,0
122425,201.342281879195,4,2,10,80,1,0
122425,-83.3333333333333,4,2,4,90,0,0
123230,205.479452054795,4,2,10,80,1,0
123230,-83.3333333333333,4,2,4,90,0,0
124873,201.342281879195,4,2,10,80,1,0
124873,-83.3333333333333,4,2,4,90,0,0
126282,212.765957446809,4,2,10,80,1,0
126282,-83.3333333333333,4,2,4,90,0,0
126494,201.342281879195,4,2,10,80,1,0
126494,-83.3333333333333,4,2,4,90,0,0
128104,200,4,2,10,80,1,0
128104,-83.3333333333333,4,2,4,90,0,0
128904,202.702702702703,4,2,10,80,1,0
128904,-83.3333333333333,4,2,4,90,0,0
129714,200,4,2,10,80,1,0
129714,-83.3333333333333,4,2,4,90,0,0
130514,206.896551724138,4,2,10,80,1,0
130514,-83.3333333333333,4,2,4,90,0,0
131341,202.702702702703,4,2,10,80,1,0
131341,-83.3333333333333,4,2,4,90,0,0
131543,-62.5,4,2,4,100,0,1
132151,204.081632653061,4,2,10,80,1,1
132151,-55.5555555555556,4,2,1,90,0,1
132967,205.479452054795,4,2,10,80,1,0
132967,-62.5,4,2,10,100,0,0
133114,-62.5,4,2,10,5,0,0
133172,-62.5,4,2,10,100,0,0
133519,-62.5,4,2,10,5,0,0
133583,-62.5,4,2,10,100,0,0
133925,-62.5,4,2,10,5,0,0
133994,204.081632653061,4,2,10,80,1,0
133994,-62.5,4,2,10,100,0,0
134331,-62.5,4,2,10,5,0,0
134402,241.935483870968,4,2,10,80,1,0
134402,-62.5,4,2,10,100,0,0
134643,254.237288135593,4,2,10,80,1,0
134897,270.27027027027,4,2,10,80,1,0
135032,348.837209302326,4,2,10,80,1,0
135729,361.44578313253,4,2,10,80,1,0
135909,405.405405405405,4,2,10,80,1,0
136719,384.615384615385,4,2,10,80,1,0
137103,576.923076923077,4,2,10,80,1,0
137679,656.994251300301,4,2,10,80,1,0

[Colours]
Combo1 : 255,255,0
Combo2 : 193,193,255
Combo3 : 255,153,153
Combo4 : 113,113,255
Combo5 : 0,128,128
Combo6 : 238,0,0

[HitObjects]
19,47,0,6,0,P|116:6|205:49,1,191.999994140625,12|0,0:1|0:0,0:0:0:0:
123,292,304,2,0,P|83:208|112:120,1,191.999994140625,8|0,0:0|0:0,2:0:0:0:
285,227,608,2,0,P|238:222|197:198,1,95.9999970703126,8|0,0:0|0:0,0:0:0:0:
191,36,810,2,0,P|238:41|279:65,1,95.9999970703126,8|0,0:2|0:0,2:0:0:0:
360,147,1013,5,2,0:0:0:0:
197,198,1111,1,8,0:0:0:0:
377,154,1209,1,2,0:0:0:0:
285,273,1307,2,0,L|274:388,2,95.9999970703126,2|8|0,0:0|0:0|0:2,2:0:0:0:
146,18,1601,6,0,B|182:68|182:68|196:197,1,191.999994140625,12|0,1:2|0:0,0:0:0:0:
30,384,1907,2,0,B|44:255|44:255|81:205,1,191.999994140625,8|0,0:0|0:0,0:0:0:0:
374,252,2213,2,0,P|332:274|285:273,1,95.9999970703126,8|0,0:0|0:0,2:0:0:0:
80,205,2417,2,0,P|121:182|169:184,1,95.9999970703126,8|0,0:0|0:0,1:0:0:0:
214,365,2621,5,2,0:0:0:0:
30,384,2723,1,8,0:0:0:0:
215,345,2825,1,2,0:0:0:0:
80,204,2927,2,0,L|89:300,2,95.9999970703126,2|8|0,0:0|0:0|0:0,0:0:0:0:
304,32,3233,38,0,P|220:74|188:162,1,191.999994140625,12|0,1:0|0:0,0:0:0:0:
414,297,3541,2,0,P|419:204|359:133,1,191.999994140625,8|0,0:0|0:0,0:0:0:0:
129,259,3849,2,0,P|161:293|206:310,1,95.9999970703126,8|0,0:0|0:0,0:0:0:0:
304,32,4054,6,0,L|208:23,1,95.9999970703126,10|0,0:0|0:0,0:0:0:0:
109,82,4260,1,2,0:0:0:0:
109,82,4363,1,10,0:0:0:0:
224,250,4465,6,0,L|128:258,1,95.9999970703126,2|0,0:0|0:0,0:0:0:0:
29,200,4665,1,10,0:0:0:0:
29,200,4765,1,2,0:0:0:0:
233,353,4865,6,0,L|217:161,1,191.999994140625,12|0,1:2|0:0,0:0:0:0:
344,0,5169,2,0,L|329:190,1,191.999994140625,8|0,0:0|0:0,0:0:0:0:
233,353,5473,1,8,0:0:0:0:
336,305,5574,1,2,0:0:0:0:
226,238,5675,2,0,P|148:235|105:258,1,95.9999970703126,8|0,0:0|0:0,0:0:0:0:
6,279,5878,37,8,1:2:0:0:
10,164,5979,1,8,1:2:0:0:
132,240,6081,5,8,1:2:0:0:
103,89,6182,1,8,1:2:0:0:
81,328,6283,5,8,1:2:0:0:
171,155,6385,1,8,1:2:0:0:
336,305,6486,6,0,P|421:282|391:184,1,191.999994140625,12|0,1:0|0:0,0:0:0:0:
290,6,6790,2,0,P|272:100|293:194,1,191.999994140625,8|0,0:0|0:0,0:0:0:0:
484,67,7094,2,0,P|436:70|390:81,1,95.9999970703126,8|0,0:0|0:0,0:0:0:0:
198,180,7297,2,0,P|244:190|292:193,1,95.9999970703126,8|0,0:0|0:0,0:0:0:0:
133,84,7500,37,2,0:0:0:0:
105,248,7601,1,8,0:0:0:0:
43,149,7702,1,2,0:0:0:0:
106,268,7804,2,0,L|201:277,2,95.9999970703126,2|8|0,0:0|0:0|0:0,0:0:0:0:
450,358,8108,6,0,P|356:341|267:372,1,191.999994140625,12|0,1:2|0:0,0:0:0:0:
423,238,8412,2,0,P|441:149|356:190,1,191.999994140625,8|0,0:0|0:0,0:0:0:0:
450,358,8716,2,0,P|446:289|436:255,1,95.9999970703126,8|0,0:0|0:0,0:0:0:0:
267,97,8919,6,0,P|256:143|255:191,1,95.9999970703126,8|0,0:0|0:0,0:0:0:0:
322,285,9121,1,2,0:0:0:0:
239,205,9223,2,0,B|182:194|182:194|54:234,1,191.999994140625,8|0,0:0|0:0,0:0:0:0:
333,379,9527,2,0,P|332:331|322:285,1,95.9999970703126,10|0,0:0|0:0,0:0:0:0:
161,28,9729,6,0,P|230:84|304:34,1,191.999994140625,12|0,1:1|0:0,0:0:0:0:
79,126,10033,2,0,B|68:183|68:183|108:310,1,191.999994140625,8|0,0:0|0:0,0:0:0:0:
216,352,10337,2,0,P|273:364|318:345,1,95.9999970703126,8|0,0:0|0:0,0:0:0:0:
440,77,10540,38,0,L|449:173,1,95.9999970703126,10|0,0:0|0:0,0:0:0:0:
391,272,10743,1,2,0:0:0:0:
391,272,10844,1,10,0:0:0:0:
255,156,10946,6,0,L|246:251,1,95.9999970703126,2|0,0:0|0:0,0:0:0:0:
307,352,11148,1,10,0:0:0:0:
307,352,11250,1,2,0:0:0:0:
468,355,11351,6,0,B|431:323|431:278|431:278|440:174,1,191.999994140625,12|0,2:2|0:0,0:0:0:0:
293,42,11649,2,0,P|333:117|256:156,1,191.999994140625,8|0,0:0|0:0,0:0:0:0:
70,94,11947,1,8,0:0:0:0:
182,66,12046,1,2,0:0:0:0:
144,184,12145,6,0,L|124:380,1,160,8|0,0:0|0:0,0:0:0:0:
293,42,12445,2,0,L|312:238,1,160,8|0,0:0|0:0,0:0:0:0:
79,16,12745,2,0,P|81:55|69:93,1,80,8|0,0:0|0:0,0:0:0:0:
48,336,12945,38,0,L|127:342,1,80,8|0,0:0|0:0,0:0:0:0:
299,259,13149,2,0,L|220:266,1,80,0|0,1:0|0:0,0:0:0:0:
38,216,13353,2,0,L|118:223,1,80,0|0,1:0|0:0,0:0:0:0:
289,139,13557,2,0,L|210:146,1,80,0|0,1:0|0:0,0:0:0:0:
105,318,13761,6,0,P|116:275|117:222,1,95.9999970703126,8|0,1:2|0:0,0:0:0:0:
284,43,13965,2,0,P|281:90|289:138,1,95.9999970703126,8|0,1:2|0:0,0:0:0:0:
223,353,14166,2,0,P|235:306|235:257,1,95.9999970703126,8|0,1:2|0:0,0:0:0:0:
402,78,14367,2,0,P|399:125|407:173,1,95.9999970703126,8|0,1:2|0:0,0:0:0:0:
63,78,14569,6,0,P|117:81|160:47,1,111.999996582031,8|0,1:2|0:0,0:0:0:0:
437,295,14770,2,0,P|382:291|339:325,1,111.999996582031,8|0,1:2|0:0,0:0:0:0:
129,376,14971,2,0,P|132:321|98:278,1,111.999996582031,8|0,1:2|0:0,0:0:0:0:
345,2,15173,2,0,P|341:56|375:99,1,111.999996582031,8|0,1:2|0:0,0:0:0:0:
440,341,15374,22,0,P|481:324|441:329,1,128,4|0,1:2|0:0,0:0:0:0:
342,369,15579,21,8,1:2:0:0:
359,218,15682,1,8,1:2:0:0:
251,311,15784,5,8,1:2:0:0:
247,181,15887,1,8,1:2:0:0:
123,349,15990,5,8,1:2:0:0:
136,221,16093,1,8,1:2:0:0:
23,101,16195,6,0,P|66:114|117:112,1,80,6|0,0:3|0:0,0:0:0:0:
324,31,16397,2,0,P|249:10|172:30,1,160,10|0,0:0|0:0,0:0:0:0:
89,226,16701,1,4,0:3:0:0:
100,114,16803,2,0,L|93:194,1,80,10|0,0:0|0:0,0:0:0:0:
186,362,17005,2,0,L|179:283,1,80,4|0,0:3|0:0,0:0:0:0:
283,105,17208,1,10,0:0:0:0:
283,105,17309,2,0,B|313:158|313:158|288:254,1,160,4|4,0:3|0:3,0:0:0:0:
179,282,17613,1,10,0:0:0:0:
367,29,17816,38,0,P|432:54|436:158,2,160,4|10|0,0:3|0:0|0:0,0:0:0:0:
166,124,18333,1,4,0:3:0:0:
272,90,18436,2,0,P|233:96|195:108,1,80,10|0,0:0|0:0,0:0:0:0:
42,2,18643,6,0,P|81:8|120:21,1,80,4|0,0:3|0:0,0:0:0:0:
88,255,18845,2,0,P|127:249|166:236,1,80,10|0,0:0|0:0,0:0:0:0:
372,41,19048,1,4,0:3:0:0:
372,41,19149,1,4,0:3:0:0:
272,90,19251,2,0,L|281:178,1,80,10|0,0:0|0:0,0:0:0:0:
374,330,19453,5,4,0:3:0:0:
374,330,19656,2,0,P|369:290|354:254,1,80,10|0,0:0|0:0,0:0:0:0:
112,215,19859,2,0,P|149:230|189:236,1,80,4|0,0:3|0:3,0:0:0:0:
342,45,20061,1,10,0:0:0:0:
342,45,20264,6,0,B|294:22|294:22|189:43,1,160,4|10,0:3|0:0,0:0:0:0:
178,225,20568,2,0,P|170:186|154:150,1,80,4|0,0:3|0:0,0:0:0:0:
49,58,20771,1,4,0:3:0:0:
38,170,20872,2,0,L|45:90,1,80,10|0,0:0|0:0,0:0:0:0:
70,276,21075,37,4,0:3:0:0:
70,276,21278,2,0,P|178:275|202:333,1,160,10|0,0:0|0:0,0:0:0:0:
307,270,21574,1,4,0:3:0:0:
310,382,21672,2,0,P|303:342|303:303,1,80,10|0,0:0|0:0,0:0:0:0:
369,27,21870,54,0,B|310:51|310:51|280:113,1,111.999996582031,12|0,1:1|0:0,0:0:0:0:
198,309,22067,1,8,1:2:0:0:
448,383,22166,6,0,B|456:319|456:319|417:263,1,111.999996582031,4|0,0:3|0:0,0:0:0:0:
288,95,22363,1,4,0:3:0:0:
99,275,22462,70,0,B|149:313|149:313|218:308,1,111.999996582031,8|0,1:2|0:0,0:0:0:0:
512,159,22664,1,6,0:3:0:0:
512,159,22868,22,0,P|436:181|360:161,1,160,10|0,0:0|0:0,0:0:0:0:
192,87,23174,1,4,0:3:0:0:
203,199,23276,2,0,L|196:119,1,80,10|0,0:0|0:0,0:0:0:0:
269,362,23480,6,0,L|276:282,1,80,4|0,0:3|0:0,0:0:0:0:
4,265,23684,2,0,P|71:295|111:234,1,160,10|0,0:0|0:0,0:0:0:0:
19,32,23990,1,4,0:3:0:0:
81,125,24092,2,0,P|38:50|14:35,1,80,10|0,0:0|0:0,0:0:0:0:
342,106,24296,6,0,B|252:69|252:69|193:87,2,160,4|10|0,0:3|0:0|0:0,0:0:0:0:
478,268,24839,1,4,0:3:0:0:
437,166,24938,2,0,P|441:205|456:242,1,80,10|0,0:0|0:0,0:0:0:0:
334,363,25137,6,0,P|349:326|354:287,1,80,4|0,0:3|0:0,0:0:0:0:
342,106,25336,2,0,P|302:111|265:127,1,80,10|0,0:0|0:0,0:0:0:0:
145,354,25538,1,4,0:3:0:0:
145,354,25640,1,4,0:3:0:0:
241,293,25741,2,0,P|216:261|184:237,1,80,10|0,0:0|0:0,0:0:0:0:
78,14,25944,38,0,P|163:7|239:20,1,143.999995605469,6|0,0:3|0:0,0:0:0:0:
271,30,26146,2,0,L|265:130,1,95.9999970703126,10|0,0:0|0:0,0:0:0:0:
70,23,26349,6,0,P|155:16|231:29,1,143.999995605469,4|0,0:3|0:0,0:0:0:0:
255,46,26552,2,0,L|249:146,1,95.9999970703126,10|0,0:0|0:0,0:0:0:0:
62,31,26754,6,0,P|147:24|223:37,1,143.999995605469,4|0,0:3|0:0,0:0:0:0:
247,54,26954,2,0,L|241:154,1,95.9999970703126,10|0,0:0|0:0,0:0:0:0:
54,39,27154,6,0,P|139:32|215:45,1,143.999995605469,4|0,0:3|0:0,0:0:0:0:
239,62,27354,2,0,L|233:162,1,95.9999970703126,10|0,0:0|0:0,0:0:0:0:
352,331,27554,38,0,P|353:284|341:238,1,95.9999970703126,4|0,0:3|0:0,0:0:0:0:
113,272,27754,2,0,P|160:273|207:261,1,95.9999970703126,10|0,0:0|0:0,0:0:0:0:
410,92,27954,2,0,P|362:90|316:103,1,95.9999970703126,4|0,0:3|0:0,0:0:0:0:
172,32,28154,2,0,P|170:80|183:126,1,95.9999970703126,10|0,0:2|0:0,0:0:0:0:
352,331,28354,5,2,0:3:0:0:
352,331,28554,5,8,1:2:0:0:
396,217,28654,1,8,1:2:0:0:
437,355,28754,5,8,1:2:0:0:
310,241,28854,1,8,1:2:0:0:
481,193,28954,37,8,1:2:0:0:
352,331,29065,1,8,1:2:0:0:
211,205,29176,5,2,0:0:0:0:
211,205,29378,2,0,P|187:122|137:90,1,128,10|0,0:0|0:3,0:0:0:0:
67,84,29682,1,4,0:3:0:0:
8,151,29784,2,0,P|34:133|53:108,1,64,10|0,0:0|0:0,0:0:0:0:
156,97,29986,1,4,0:3:0:0:
156,97,30189,6,0,L|145:198,1,64,10|0,0:0|0:3,0:0:0:0:
251,2,30392,1,4,0:3:0:0:
298,79,30493,2,0,L|309:180,1,64,4|10,0:3|0:0,0:0:0:0:
305,143,30797,1,4,0:3:0:0:
305,143,31000,6,0,L|293:301,1,128,10|0,0:0|0:0,0:0:0:0:
419,254,31304,1,4,0:3:0:0:
507,263,31405,2,0,P|479:247|447:246,1,64,10|0,0:0|0:0,0:0:0:0:
366,326,31608,1,4,0:3:0:0:
366,326,31811,38,0,L|302:317,1,64,10|0,0:0|0:0,0:0:0:0:
192,168,32013,1,4,0:3:0:0:
149,247,32115,2,0,L|64:259,1,64,4|10,0:3|0:0,0:0:0:0:
85,255,32408,1,4,0:3:0:0:
85,255,32622,6,0,P|80:208|72:176,1,64,10|0,0:0|0:0,0:0:0:0:
152,72,32824,2,0,P|146:104|144:136,1,64,4|4,0:3|0:3,0:0:0:0:
220,196,33027,1,10,0:0:0:0:
220,196,33129,1,4,0:3:0:0:
341,127,33232,6,0,P|309:123|277:127,1,64,4|0,0:3|0:0,0:0:0:0:
388,320,33437,2,0,L|402:193,1,128,10|0,0:0|0:0,0:0:0:0:
375,44,33743,1,4,0:3:0:0:
341,127,33844,2,0,P|354:69|365:52,1,64,10|4,0:0|0:3,0:0:0:0:
487,165,34045,1,4,0:3:0:0:
487,165,34246,6,0,P|490:220|503:248,1,64,10|0,0:0|0:0,0:0:0:0:
419,349,34447,2,0,P|426:318|425:287,1,64,4|4,0:3|0:3,0:0:0:0:
365,220,34649,1,10,0:0:0:0:
365,220,34749,1,4,0:3:0:0:
248,244,34850,38,0,P|308:247|333:303,2,128,4|10|0,0:3|0:0|0:0,0:0:0:0:
108,278,35351,1,4,0:3:0:0:
190,314,35450,2,0,L|126:309,1,64,10|0,0:0|0:0,0:0:0:0:
46,213,35647,1,4,0:3:0:0:
46,213,35849,6,0,B|34:177|34:177|56:78,1,128,10|0,0:0|0:0,0:0:0:0:
199,0,36153,1,4,0:3:0:0:
114,21,36255,2,0,P|142:7|173:0,1,64,10|0,0:0|0:0,0:0:0:0:
262,62,36457,1,4,0:3:0:0:
262,62,36665,6,0,L|338:52,1,64,10|0,0:0|0:0,0:0:0:0:
155,157,36873,1,4,0:3:0:0:
220,220,36977,2,0,L|296:230,1,64,4|10,0:3|0:0,0:0:0:0:
284,229,37273,1,4,0:3:0:0:
284,229,37481,6,0,L|295:360,1,128,10|0,0:0|0:0,0:0:0:0:
200,208,37791,1,4,0:3:0:0:
112,193,37894,2,0,P|175:198|192:204,1,64,10|0,0:0|0:0,0:0:0:0:
285,230,38100,1,4,0:3:0:0:
285,230,38302,38,0,P|282:198|289:167,1,64,10|0,0:0|0:0,0:0:0:0:
392,15,38505,1,4,0:3:0:0:
465,69,38606,2,0,P|470:129|448:176,1,64,4|10,0:3|0:0,0:0:0:0:
470,132,38910,1,4,0:3:0:0:
470,132,39111,6,0,P|437:65|376:44,1,128,10|0,0:0|0:0,0:0:0:0:
219,87,39413,1,4,0:3:0:0:
300,48,39514,2,0,P|269:55|241:71,1,64,10|0,0:0|0:0,0:0:0:0:
289,271,39715,2,0,B|307:232|307:232|279:152,2,128,4|10|0,0:3|0:0|0:3,0:0:0:0:
346,200,40218,1,4,0:3:0:0:
432,225,40319,2,0,P|388:207|349:205,1,64,10|0,0:0|0:0,0:0:0:0:
206,228,40520,5,4,0:3:0:0:
206,228,40621,1,4,0:3:0:0:
138,348,40722,2,0,P|139:316|136:285,1,64,10|0,0:0|0:0,0:0:0:0:
273,107,40925,2,0,P|271:138|275:170,1,64,4|4,0:3|0:3,0:0:0:0:
206,228,41128,1,10,0:0:0:0:
206,228,41229,1,4,0:3:0:0:
89,141,41330,6,0,L|153:147,1,64,2|0,0:0|0:0,0:0:0:0:
275,170,41533,37,8,1:2:0:0:
170,245,41630,1,8,1:2:0:0:
296,260,41727,5,8,1:2:0:0:
242,378,41825,1,8,1:2:0:0:
364,197,41922,5,8,1:2:0:0:
354,349,42020,1,8,1:2:0:0:
442,154,42117,6,0,L|274:169,1,167.999994873047,6|0,0:3|0:0,0:0:0:0:
209,222,42346,2,0,P|207:277|235:324,1,111.999996582031,10|0,0:0|0:0,0:0:0:0:
450,146,42548,38,0,L|282:161,1,167.999994873047,4|0,0:3|0:0,0:0:0:0:
217,214,42751,2,0,P|215:269|243:316,1,111.999996582031,10|0,0:0|0:0,0:0:0:0:
458,138,42954,6,0,L|290:153,1,167.999994873047,4|0,0:3|0:0,0:0:0:0:
225,206,43156,2,0,P|223:261|251:308,1,111.999996582031,10|0,0:0|0:0,0:0:0:0:
466,130,43359,6,0,L|298:145,1,167.999994873047,4|0,0:3|0:0,0:0:0:0:
233,198,43562,2,0,P|231:253|259:300,1,111.999996582031,10|0,0:0|0:0,0:0:0:0:
474,122,43764,2,0,L|306:137,1,167.999994873047,4|0,0:3|0:0,0:0:0:0:
241,190,43967,22,0,B|304:170|304:170|388:212,1,128,10|0,0:0|0:0,0:0:0:0:
92,117,44167,2,0,B|43:72|43:72|36:-11,1,128,4|0,0:3|0:0,0:0:0:0:
104,283,44367,2,0,B|93:350|93:350|32:390,1,128,10|0,0:0|0:0,0:0:0:0:
306,137,44579,6,0,L|409:31,1,143.999995605469,2|0,0:3|0:0,0:0:0:0:
389,332,44781,1,8,0:3:0:0:
188,149,44883,1,4,0:3:0:0:
398,204,44984,69,8,1:2:0:0:
261,352,45085,1,8,1:2:0:0:
114,217,45187,1,8,1:2:0:0:
281,99,45288,1,8,1:2:0:0:
140,351,45389,22,0,P|101:354|63:344,1,80,6|0,0:3|0:0,0:0:0:0:
8,264,45595,2,0,L|20:104,1,160,10|0,0:0|0:0,0:0:0:0:
119,70,45906,1,4,0:3:0:0:
133,172,46009,2,0,L|123:86,1,80,10|0,0:0|0:0,0:0:0:0:
236,0,46203,6,0,L|228:78,1,80,4|0,0:3|0:0,0:0:0:0:
352,189,46405,2,0,P|313:187|278:169,1,80,10|0,0:0|0:0,0:0:0:0:
404,99,46608,2,0,P|425:65|459:44,1,80,4|4,0:3|0:3,0:0:0:0:
456,188,46811,2,0,P|473:223|475:263,1,80,10|0,0:0|0:0,0:0:0:0:
279,352,47013,1,4,0:3:0:0:
279,352,47216,6,0,B|240:317|240:317|135:341,1,160,10|0,0:0|0:0,0:0:0:0:
223,221,47520,1,4,0:3:0:0:
173,129,47621,2,0,P|211:190|217:224,1,80,10|0,0:0|0:0,0:0:0:0:
135,341,47824,6,0,L|55:334,1,80,4|0,0:3|0:0,0:0:0:0:
223,221,48029,2,0,L|302:214,1,80,10|0,0:0|0:0,0:0:0:0:
96,246,48234,1,4,0:3:0:0:
96,246,48337,1,4,0:3:0:0:
27,178,48440,2,0,P|22:113|32:84,1,80,10|0,0:0|0:0,0:0:0:0:
172,9,48645,1,4,0:3:0:0:
172,9,48851,38,0,L|332:20,1,160,10|0,0:0|0:0,0:0:0:0:
419,178,49159,1,4,0:3:0:0:
411,74,49262,2,0,P|426:110|432:150,1,80,10|0,0:0|0:0,0:0:0:0:
347,242,49467,6,0,L|253:235,1,80,10|0,0:0|0:0,0:0:0:0:
188,179,49668,5,8,0:3:0:0:
188,179,49769,1,8,0:3:0:0:
125,250,49869,5,4,0:3:0:0:
125,250,49970,1,4,0:3:0:0:
78,166,50071,37,4,0:3:0:0:
78,166,50171,1,4,0:3:0:0:
57,318,50272,6,0,B|111:282|111:282|336:320,1,280,6|0,0:3|0:0,0:0:0:0:
399,343,51093,5,4,0:3:0:0:
425,325,51162,1,4,0:3:0:0:
451,307,51230,1,4,0:3:0:0:
477,289,51299,1,4,1:3:0:0:
466,183,51397,1,4,0:3:0:0:
374,236,51496,1,4,0:3:0:0:
462,149,51595,5,8,1:2:0:0:
303,188,51693,1,8,1:2:0:0:
497,266,51792,1,8,1:2:0:0:
268,315,51891,38,0,P|221:309|181:280,1,80,6|0,0:0|0:0,0:0:0:0:
149,32,52093,2,0,L|143:192,2,160,10|0|10,0:0|0:3|0:0,0:0:0:0:
38,353,52701,6,0,P|35:314|24:275,1,80,4|0,0:3|0:0,0:0:0:0:
50,166,52904,1,10,0:0:0:0:
50,166,53004,2,0,P|52:126|63:87,1,80,4|0,0:3|0:0,0:0:0:0:
275,49,53204,1,4,0:3:0:0:
164,38,53304,2,0,L|243:45,1,80,10|0,0:0|0:0,0:0:0:0:
445,168,53504,6,0,B|399:179|399:179|292:146,2,160,4|10|0,0:3|0:0|0:0,0:0:0:0:
304,251,54010,1,4,0:3:0:0:
288,361,54112,2,0,P|293:289|305:257,1,80,10|0,0:0|0:0,0:0:0:0:
453,89,54314,6,0,L|444:168,1,80,4|0,0:3|0:0,0:0:0:0:
283,66,54517,2,0,L|291:145,1,80,10|0,0:0|0:3,0:0:0:0:
498,239,54720,1,4,0:3:0:0:
498,239,54821,1,4,0:3:0:0:
445,81,54922,2,0,L|436:160,1,80,10|0,0:0|0:0,0:0:0:0:
288,361,55125,1,4,0:1:0:0:
288,361,55331,6,0,B|251:369|251:369|165:339,1,128,12|0,0:0|0:0,0:1:0:0:
394,44,55538,2,0,B|419:72|419:72|436:160,1,128,4|4,0:3|0:3,0:0:0:0:
67,111,55745,2,0,B|78:74|78:74|146:15,1,128,10|0,0:2|0:3,0:0:0:0:
495,303,55952,6,0,L|389:390,1,128,4|4,0:3|0:3,0:0:0:0:
6,81,56154,2,0,L|104:0,1,128,10|0,0:0|0:0,0:0:0:0:
429,0,56357,2,0,L|510:98,1,128,4|4,0:3|0:3,0:0:0:0:
81,384,56560,2,0,L|-6:278,1,128,8|0,0:0|0:0,0:0:0:0:
438,168,56762,70,0,P|502:295|407:384,1,287.999991210938,12|0,0:0|0:0,0:0:0:0:
50,215,57066,2,0,P|-13:88|81:-1,1,287.999991210938,12|0,0:0|0:0,0:0:0:0:
411,383,57370,2,0,L|245:371,1,143.999995605469,12|0,0:0|0:0,0:0:0:0:
435,16,57573,6,0,B|474:83|474:83|407:401,1,383.99998828125,12|4,0:0|0:3,0:0:0:0:
36,0,57979,2,0,B|-3:67|-3:67|63:384,1,383.99998828125,12|4,0:0|0:3,0:0:0:0:
403,44,58384,6,0,P|321:48|276:69,1,95.9999970703126,6|0,0:3|0:0,0:0:0:0:
205,319,58587,2,0,L|222:128,1,191.999994140625,12|0,0:0|0:0,0:0:0:0:
439,266,58891,1,4,0:3:0:0:
315,285,58992,2,0,P|358:263|405:261,1,95.9999970703126,10|0,0:0|0:0,0:0:0:0:
328,90,59195,5,4,0:3:0:0:
328,90,59296,1,4,0:3:0:0:
222,128,59397,2,0,B|267:157|267:157|422:120,1,191.999994140625,10|0,0:0|0:0,0:0:0:0:
502,315,59702,1,4,0:3:0:0:
496,191,59803,2,0,L|502:292,1,95.9999970703126,10|0,0:0|0:0,0:0:0:0:
407,29,60015,6,0,L|401:124,1,95.9999970703126,4|0,0:3|0:0,0:0:0:0:
254,330,60216,2,0,P|232:241|297:177,1,191.999994140625,10|0,0:0|0:0,0:0:0:0:
117,263,60518,1,4,0:3:0:0:
155,146,60619,2,0,P|131:186|117:241,1,95.9999970703126,10|0,0:0|0:0,0:0:0:0:
350,338,60820,6,0,L|227:329,1,95.9999970703126,4|0,0:3|0:0,0:0:0:0:
60,153,61021,2,0,L|155:145,1,95.9999970703126,10|0,0:0|0:0,0:0:0:0:
386,186,61223,1,4,0:3:0:0:
386,186,61323,1,4,0:3:0:0:
280,139,61424,2,0,P|270:185|281:232,1,95.9999970703126,10|0,0:0|0:0,0:0:0:0:
14,307,61625,38,0,P|83:291|146:324,1,143.999995605469,4|0,0:1|0:0,0:0:0:0:
165,369,61827,2,0,L|173:274,1,95.9999970703126,10|0,0:0|0:0,0:0:0:0:
22,299,62030,6,0,P|90:283|153:315,1,143.999995605469,4|0,0:3|0:0,0:0:0:0:
173,361,62233,2,0,L|180:265,1,95.9999970703126,10|0,0:0|0:0,0:0:0:0:
30,291,62435,6,0,P|98:275|161:307,1,143.999995605469,4|0,0:3|0:0,0:0:0:0:
181,353,62636,2,0,L|188:257,1,95.9999970703126,10|0,0:0|0:0,0:0:0:0:
38,283,62837,6,0,P|106:267|169:299,1,143.999995605469,4|0,0:3|0:0,0:0:0:0:
189,345,63039,2,0,L|196:249,1,95.9999970703126,10|0,0:0|0:0,0:0:0:0:
288,17,63240,38,0,P|282:64|290:111,1,95.9999970703126,4|0,0:3|0:0,0:0:0:0:
459,217,63441,2,0,P|435:176|401:143,1,95.9999970703126,10|0,0:0|0:0,0:0:0:0:
91,124,63643,2,0,P|134:143|181:150,1,95.9999970703126,4|0,0:3|0:0,0:0:0:0:
488,0,63844,2,0,P|441:10|399:33,1,95.9999970703126,10|0,0:0|0:0,0:0:0:0:
261,301,64045,6,0,P|294:266|315:223,1,95.9999970703126,6|0,0:3|0:0,0:0:0:0:
288,17,64247,69,8,1:2:0:0:
211,136,64347,1,8,1:2:0:0:
361,138,64448,5,8,1:2:0:0:
174,49,64549,1,8,1:2:0:0:
383,48,64649,5,8,1:2:0:0:
198,146,64759,1,8,1:2:0:0:
261,301,64869,5,2,0:2:0:0:
261,301,65071,2,0,P|355:284|400:308,1,128,10|0,0:0|0:0,0:0:0:0:
463,256,65375,1,4,0:3:0:0:
487,169,65477,2,0,P|475:229|461:258,1,64,10|0,0:0|0:0,0:0:0:0:
382,295,65679,1,4,0:3:0:0:
382,295,65879,38,0,L|367:375,1,64,10|0,0:2|0:0,0:0:0:0:
313,131,66079,1,4,0:3:0:0:
240,182,66179,2,0,L|255:262,1,64,4|10,0:3|0:0,0:0:0:0:
252,245,66479,1,4,0:3:0:0:
252,245,66683,6,0,P|164:233|104:271,1,128,10|0,0:0|0:0,0:0:0:0:
82,380,66989,1,4,0:3:0:0:
54,296,67091,2,0,L|60:359,1,64,10|0,0:0|0:0,0:0:0:0:
130,247,67295,1,4,0:3:0:0:
130,247,67499,6,0,P|136:215|146:185,1,64,10|0,0:0|0:0,0:0:0:0:
27,34,67701,1,4,0:3:0:0:
113,14,67803,2,0,P|123:44|130:76,1,64,4|10,0:3|0:0,0:0:0:0:
130,76,68107,5,4,0:3:0:0:
130,76,68309,2,0,P|193:71|222:87,1,64,10|0,0:0|0:0,0:0:0:0:
265,18,68512,2,0,P|328:23|357:7,1,64,4|4,0:3|0:3,0:0:0:0:
405,76,68715,1,10,0:0:0:0:
405,76,68816,1,4,0:3:0:0:
320,240,68917,38,0,B|305:151|305:151|325:119,2,128,4|10|4,0:3|0:0|0:3,0:0:0:0:
252,298,69424,1,4,0:3:0:0:
164,279,69525,2,0,P|213:300|241:301,1,64,10|4,0:0|0:3,0:0:0:0:
320,240,69728,1,4,0:3:0:0:
320,240,69929,6,0,P|300:170|245:126,1,128,10|0,0:0|0:0,0:0:0:0:
80,132,70231,1,4,0:3:0:0:
170,126,70332,2,0,L|106:129,1,64,10|0,0:0|0:0,0:0:0:0:
50,338,70533,6,0,L|38:211,2,128,4|10|0,0:3|0:0|0:0,0:0:0:0:
80,132,71036,1,4,0:3:0:0:
37,53,71137,2,0,P|70:110|78:130,1,64,10|0,0:0|0:0,0:0:0:0:
169,226,71338,1,4,0:3:0:0:
169,226,71542,6,0,B|215:201|215:201|286:226,1,128,10|0,0:0|0:0,0:0:0:0:
325,307,71848,1,4,0:3:0:0:
356,384,71950,2,0,P|325:332|322:299,1,64,10|0,0:0|0:0,0:0:0:0:
361,175,72154,1,4,0:3:0:0:
361,175,72358,38,0,P|357:132|347:104,1,64,10|0,0:0|0:0,0:0:0:0:
504,199,72562,1,4,0:3:0:0:
470,116,72664,2,0,P|474:73|484:45,1,64,4|10,0:3|0:0,0:0:0:0:
480,53,72970,1,4,0:3:0:0:
480,53,73176,6,0,P|405:76|370:45,1,128,10|0,0:0|0:0,0:0:0:0:
320,188,73483,1,4,0:3:0:0:
298,101,73583,2,0,P|311:130|316:161,1,64,10|0,0:0|0:0,0:0:0:0:
220,316,73783,1,4,0:3:0:0:
220,316,73986,6,0,P|210:286|196:258,1,64,10|0,0:0|0:0,0:0:0:0:
44,307,74190,1,4,0:3:0:0:
17,221,74291,2,0,P|27:191|42:163,1,64,4|10,0:3|0:0,0:0:0:0:
42,163,74595,1,4,0:3:0:0:
42,163,74797,6,0,P|50:112|49:72,1,64,10|0,0:0|0:0,0:0:0:0:
128,13,75000,2,0,P|130:45|137:77,1,64,4|4,0:3|0:3,0:0:0:0:
270,192,75203,1,10,0:0:0:0:
270,192,75304,1,4,0:3:0:0:
244,106,75405,2,0,P|215:119|195:144,1,64,4|0,0:3|0:0,0:0:0:0:
288,318,75608,37,10,0:0:0:0:
288,318,75709,2,0,L|267:174,1,128,4|4,0:3|0:3,0:0:0:0:
323,64,76013,2,0,P|332:95|331:126,1,64,10|0,0:0|0:0,0:0:0:0:
195,144,76216,1,4,0:3:0:0:
195,144,76419,6,0,P|129:136|107:120,1,64,10|0,0:0|0:0,0:0:0:0:
28,223,76622,2,0,P|59:214|91:217,1,64,4|4,0:3|0:3,0:0:0:0:
278,347,76824,1,8,0:0:0:0:
278,347,76926,1,4,0:3:0:0:
193,302,77027,2,0,P|161:300|130:296,1,64,6|0,0:3|0:0,0:0:0:0:
77,192,77230,5,8,1:2:0:0:
244,113,77328,1,8,1:2:0:0:
63,79,77427,5,8,1:2:0:0:
179,265,77526,1,8,1:2:0:0:
170,35,77624,37,8,1:2:0:0:
70,207,77723,1,8,1:2:0:0:
317,270,77822,6,0,P|398:263|444:197,1,167.999994873047,6|0,0:3|0:0,0:0:0:0:
441,111,78024,2,0,P|395:69|317:69,1,111.999996582031,10|0,0:0|0:0,0:0:0:0:
310,264,78227,6,0,P|391:265|443:202,1,167.999994873047,4|0,0:3|0:0,0:0:0:0:
448,116,78430,2,0,P|405:70|328:63,1,111.999996582031,10|0,0:0|0:0,0:0:0:0:
304,257,78632,6,0,P|384:265|442:207,1,167.999994873047,4|0,0:3|0:0,0:0:0:0:
454,123,78835,2,0,P|415:73|339:60,1,111.999996582031,10|0,0:0|0:0,0:0:0:0:
298,251,79038,38,0,P|377:266|440:213,1,167.999994873047,4|0,0:3|0:0,0:0:0:0:
460,129,79240,2,0,P|426:76|351:56,1,111.999996582031,10|0,0:0|0:0,0:0:0:0:
293,243,79443,6,0,P|371:265|437:218,1,167.999994873047,4|0,0:3|0:0,0:0:0:0:
465,137,79646,38,0,B|467:204|467:204|537:286,1,128,10|0,0:2|0:0,0:0:0:0:
47,137,79849,2,0,B|44:204|44:204|-26:286,1,128,4|4,0:3|0:3,0:0:0:0:
257,353,80051,2,0,L|257:225,1,128,10|0,0:0|0:0,0:0:0:0:
512,0,80259,6,0,L|399:109,1,143.999995605469,6|4,0:3|0:3,0:0:0:0:
132,280,80467,1,4,0:3:0:0:
512,384,80571,70,2,L|403:271,1,143.999995605469,0|0,3:0|2:0,2:2:0:0:
139,16,80780,2,2,B|-5:26|-5:26|84:140,1,287.999991210938,0|0,3:0|2:0,2:2:0:0:
335,370,81064,22,0,B|374:321|374:321|336:192,1,191.999994140625,12|0,0:1|0:0,0:0:0:0:
82,278,81368,2,0,B|131:317|131:317|257:286,1,191.999994140625,8|0,0:0|0:0,0:0:0:0:
149,109,81672,2,0,P|144:156|165:199,1,95.9999970703126,8|0,0:0|0:0,0:0:0:0:
423,227,81874,2,0,P|384:199|337:196,1,95.9999970703126,8|0,0:0|0:0,0:0:0:0:
257,286,82077,5,2,0:0:0:0:
432,364,82178,1,8,0:0:0:0:
246,302,82280,1,2,0:0:0:0:
337,196,82381,2,0,L|326:81,2,95.9999970703126,2|8|0,0:0|0:0|0:0,0:0:0:0:
466,5,82687,6,0,P|499:105|448:190,1,191.999994140625,12|0,0:0|3:3,0:0:0:0:
213,85,82995,2,0,P|301:54|387:92,1,191.999994140625,8|0,0:0|3:0,0:0:0:0:
264,254,83285,2,0,P|274:207|301:168,1,95.9999970703126,8|0,0:0|0:0,0:0:0:0:
462,177,83489,2,0,P|453:223|426:262,1,95.9999970703126,0|0,3:0|3:0,0:0:0:0:
337,335,83693,5,10,1:2:0:0:
301,168,83802,1,0,1:0:0:0:
240,362,83911,37,10,1:2:0:0:
264,254,84021,1,0,1:0:0:0:
167,301,84122,5,0,1:2:0:0:
167,301,84223,1,0,1:0:0:0:
154,181,84325,6,0,P|177:266|275:236,1,191.999994140625,12|0,0:1|0:0,0:0:0:0:
453,135,84629,2,0,P|359:117|265:138,1,191.999994140625,8|0,0:0|0:0,0:0:0:0:
392,329,84933,2,0,P|389:281|378:235,1,95.9999970703126,8|0,0:0|0:0,0:0:0:0:
272,41,85135,6,0,L|266:137,1,95.9999970703126,10|0,0:0|0:0,0:0:0:0:
195,203,85336,1,2,0:0:0:0:
195,203,85437,1,10,0:0:0:0:
30,82,85537,38,0,L|37:178,1,95.9999970703126,2|0,0:0|0:0,0:0:0:0:
108,243,85739,1,10,0:0:0:0:
108,243,85839,1,2,0:0:0:0:
185,94,85940,6,0,P|279:111|368:80,1,191.999994140625,12|0,0:2|0:0,0:0:0:0:
212,214,86244,2,0,P|194:303|279:262,1,191.999994140625,8|0,0:0|0:0,0:0:0:0:
185,94,86548,1,8,0:0:0:0:
72,116,86649,1,2,0:0:0:0:
31,228,86750,6,0,P|33:133|2:43,1,191.999994140625,8|0,0:0|0:0,0:0:0:0:
296,21,87050,2,0,B|174:62|174:62|117:36,1,191.999994140625,8|0,0:0|0:0,0:0:0:0:
300,231,87350,2,0,P|309:183|307:136,1,95.9999970703126,8|2,0:0|0:0,0:0:0:0:
31,131,87550,6,0,P|73:215|161:247,1,191.999994140625,12|0,0:1|0:0,0:0:0:0:
296,21,87858,2,0,P|202:15|131:76,1,191.999994140625,8|0,0:0|0:0,0:0:0:0:
258,306,88166,2,0,P|292:274|309:229,1,95.9999970703126,8|0,0:0|0:0,0:0:0:0:
31,131,88371,38,0,L|22:227,1,95.9999970703126,8|0,0:0|0:0,0:0:0:0:
130,370,88573,1,2,0:0:0:0:
175,204,88675,1,8,0:0:0:0:
110,368,88776,1,2,0:0:0:0:
258,306,88877,2,0,L|354:297,2,95.9999970703126,2|8|0,0:0|0:0|0:0,0:0:0:0:
494,68,89181,6,0,L|302:53,1,191.999994140625,12|0,0:0|3:0,0:0:0:0:
32,152,89477,2,0,L|224:138,1,191.999994140625,8|0,0:0|3:0,0:0:0:0:
390,225,89773,2,0,P|344:236|298:226,1,95.9999970703126,8|0,0:0|0:0,0:0:0:0:
302,53,89970,5,8,3:3:0:0:
224,138,90074,1,8,3:3:0:0:
398,30,90178,1,8,1:0:0:0:
298,226,90282,1,8,1:0:0:0:
496,20,90490,5,8,1:0:0:0:
385,305,90595,1,8,0:0:0:0:
20,139,90803,38,4,L|211:124,1,191.999994140625,12|0,0:1|0:0,0:1:0:0:
481,223,91107,2,0,L|289:208,1,191.999994140625,8|0,0:0|0:0,0:0:0:0:
203,29,91411,2,0,L|211:124,1,95.9999970703126,8|0,0:0|0:0,1:0:0:0:
297,380,91613,6,0,P|329:292|288:208,1,191.999994140625,12|0,0:2|0:0,0:0:0:0:
20,139,91923,2,0,P|79:211|172:217,1,191.999994140625,8|0,0:0|0:0,0:0:0:0:
366,18,92233,2,2,P|319:15|275:34,1,95.9999970703126,8|0,0:0|0:0,0:0:0:0:
481,223,92440,6,0,P|451:132|406:205,1,191.999994140625,12|0,0:1|0:0,0:1:0:0:
28,339,92740,2,0,P|119:309|46:264,1,191.999994140625,8|0,0:0|0:0,0:0:0:0:
224,0,93040,2,0,P|186:24|199:66,1,95.9999970703126,8|0,0:0|0:0,0:0:0:0:
369,321,93260,6,0,P|413:318|369:309,1,128,4|0,0:0|0:0,0:0:0:0:
276,346,93462,37,8,1:2:0:0:
477,238,93564,1,8,1:2:0:0:
227,238,93665,5,8,1:2:0:0:
353,206,93766,1,8,1:2:0:0:
263,133,93868,5,8,1:2:0:0:
415,138,93969,1,8,1:2:0:0:
240,39,94070,5,0,3:0:0:0:
240,39,94167,1,0,3:0:0:0:
142,199,94264,2,0,L|154:87,1,111.999996582031,12|0,0:0|0:0,0:0:0:0:
331,83,94459,37,0,3:0:0:0:
331,83,94557,1,0,3:0:0:0:
287,288,94654,2,0,L|275:177,1,111.999996582031,12|0,0:0|0:0,0:0:0:0:
237,26,94856,5,0,3:0:0:0:
237,26,94957,1,0,3:0:0:0:
442,70,95058,2,0,L|330:82,1,111.999996582031,12|0,0:0|0:0,0:0:0:0:
198,243,95261,5,0,3:0:0:0:
198,243,95362,1,0,3:0:0:0:
403,200,95464,2,0,L|291:187,1,111.999996582031,12|0,0:0|0:0,0:0:0:0:
54,46,95666,1,4,3:3:0:0:
54,46,95869,6,0,P|27:164|72:261,1,191.999994140625,10|0,0:0|0:2,0:0:0:0:
137,302,96173,1,2,3:2:0:0:
248,356,96274,2,0,P|214:324|169:306,1,95.9999970703126,8|0,0:0|0:0,0:0:0:0:
243,113,96477,38,0,L|233:209,1,95.9999970703126,2|0,3:2|0:0,0:0:0:0:
357,322,96680,2,0,L|347:227,1,95.9999970703126,10|0,0:0|0:0,0:0:0:0:
373,16,96883,2,0,L|363:112,1,95.9999970703126,2|0,3:2|0:0,0:0:0:0:
488,226,97085,2,0,L|477:130,1,95.9999970703126,10|0,0:0|0:0,0:0:0:0:
258,34,97288,5,0,3:0:0:0:
258,34,97389,1,0,3:0:0:0:
53,78,97491,2,0,L|165:90,1,111.999996582031,12|0,0:0|0:0,0:0:0:0:
297,251,97693,5,0,3:0:0:0:
297,251,97795,1,0,3:0:0:0:
92,207,97896,2,0,L|203:195,1,111.999996582031,12|0,0:0|0:0,0:0:0:0:
354,157,98099,5,0,3:0:0:0:
354,157,98200,1,0,3:0:0:0:
310,362,98301,2,0,L|298:250,1,111.999996582031,12|0,0:0|0:0,0:0:0:0:
137,118,98504,37,0,3:0:0:0:
137,118,98606,1,0,3:0:0:0:
180,323,98707,2,0,L|193:211,1,111.999996582031,12|0,0:0|0:0,0:0:0:0:
367,20,98903,5,4,3:3:0:0:
367,20,99103,6,0,P|399:64|399:109,1,95.9999970703126,10|0,0:0|0:0,0:0:0:0:
232,201,99303,2,0,P|248:157|288:131,1,95.9999970703126,2|0,3:2|0:0,0:0:0:0:
458,228,99503,2,0,P|403:234|364:211,1,95.9999970703126,10|0,3:2|0:0,0:0:0:0:
221,10,99703,6,0,L|125:0,1,95.9999970703126,2|0,3:2|0:0,0:0:0:0:
13,125,99907,2,0,L|108:114,1,95.9999970703126,10|0,0:0|0:0,0:0:0:0:
318,141,100111,2,0,L|222:130,1,95.9999970703126,2|0,3:2|0:0,0:0:0:0:
109,255,100315,2,0,L|204:244,1,95.9999970703126,10|0,0:0|0:0,0:0:0:0:
377,317,100519,37,0,3:0:0:0:
377,317,100621,1,0,3:0:0:0:
462,129,100723,2,0,L|456:240,1,111.999996582031,12|0,0:0|0:3,0:0:0:0:
189,232,100934,5,0,3:0:0:0:
189,232,101039,1,0,3:0:0:0:
377,317,101145,2,0,L|265:311,1,111.999996582031,12|0,0:0|0:0,0:0:0:0:
274,44,101356,5,0,3:0:0:0:
274,44,101457,1,0,3:0:0:0:
189,232,101558,2,0,L|194:120,1,111.999996582031,12|0,0:0|0:0,0:0:0:0:
462,129,101761,5,0,3:0:0:0:
462,129,101862,1,0,3:0:0:0:
274,44,101964,2,0,L|385:49,1,111.999996582031,12|0,0:0|0:0,0:0:0:0:
377,317,102168,37,4,0:3:0:0:
377,317,102372,2,0,P|290:281|192:329,1,191.999994140625,10|0,0:0|0:0,0:0:0:0:
112,245,102678,1,2,3:2:0:0:
120,119,102780,2,0,P|128:174|116:222,1,95.9999970703126,8|0,0:0|0:0,0:0:0:0:
0,384,102987,6,0,P|36:353|81:337,1,95.9999970703126,0|0,3:0|0:0,0:0:0:0:
203,315,103187,1,8,0:0:0:0:
112,245,103287,2,0,P|67:228|30:197,1,95.9999970703126,0|2,3:0|0:0,0:0:0:0:
29,82,103487,1,0,3:0:0:0:
127,4,103587,2,0,P|80:20|44:51,1,95.9999970703126,10|0,0:0|0:0,0:0:0:0:
303,262,103787,6,0,L|309:166,1,95.9999970703126,4|0,0:0|0:0,0:0:0:0:
438,3,103988,2,0,P|411:93|448:179,1,191.999994140625,8|0,0:0|0:0,0:0:0:0:
303,262,104290,1,0,3:0:0:0:
423,293,104391,2,0,P|376:295|331:279,1,95.9999970703126,8|0,0:0|0:0,0:0:0:0:
134,362,104592,6,0,P|181:365|227:350,1,95.9999970703126,0|0,3:0|0:0,0:0:0:0:
68,85,104793,2,0,B|99:140|99:140|73:267,1,191.999994140625,8|0,0:0|0:0,0:0:0:0:
209,201,105095,1,0,3:0:0:0:
195,77,105196,2,0,P|218:142|212:179,1,95.9999970703126,8|0,0:0|0:0,0:0:0:0:
499,14,105397,38,0,L|403:7,1,95.9999970703126,0|0,3:0|0:0,0:0:0:0:
335,257,105597,2,0,P|419:221|425:130,1,191.999994140625,8|0,0:0|0:0,0:0:0:0:
206,142,105881,1,0,3:0:0:0:
318,83,105990,2,0,P|270:84|228:106,1,95.9999970703126,8|0,0:0|0:0,0:0:0:0:
46,329,106209,6,0,P|69:287|71:240,1,95.9999970703126,4|0,0:0|0:0,0:0:0:0:
20,98,106411,5,8,1:2:0:0:
170,240,106513,1,8,1:2:0:0:
196,26,106614,5,8,1:2:0:0:
71,240,106715,1,8,1:2:0:0:
269,181,106817,37,8,1:2:0:0:
97,20,106918,1,8,1:2:0:0:
170,240,107019,6,0,P|256:312|367:201,1,287.999991210938,4|0,0:2|0:0,0:0:0:0:
338,68,107425,2,0,P|325:145|367:211,1,160,10|0,0:0|0:0,0:0:0:0:
477,115,107744,2,2,P|403:142|367:211,1,160,8|0,0:0|0:0,1:2:0:0:
417,294,108032,5,4,0:3:0:0:
417,294,108232,1,10,0:0:0:0:
477,115,108332,1,4,0:3:0:0:
477,115,108632,6,0,B|413:76|413:76|233:138,1,240,6|0,0:3|0:0,0:0:0:0:
254,280,109051,2,0,P|279:206|257:130,1,160,10|0,0:0|0:0,0:0:0:0:
125,203,109366,2,2,P|202:187|256:130,1,160,8|0,0:0|0:0,1:2:0:0:
217,41,109654,37,4,0:3:0:0:
217,41,109856,1,10,0:0:0:0:
254,280,109958,1,4,0:3:0:0:
254,280,110262,6,0,B|169:272|117:334|117:334|123:274|74:226,1,240,6|0,0:3|0:0,0:0:0:0:
87,92,110681,2,0,L|95:251,1,160,10|0,0:0|0:0,0:0:0:0:
232,74,110996,2,0,P|156:56|87:92,1,160,8|0,0:0|0:0,1:0:0:0:
90,188,111282,1,4,0:3:0:0:
90,188,111482,5,10,0:0:0:0:
232,74,111582,1,4,0:3:0:0:
232,74,111882,6,0,L|218:329,1,240,6|4,0:3|0:3,0:0:0:0:
383,187,112287,1,10,1:2:0:0:
383,187,112490,1,0,1:2:0:0:
436,108,112591,1,0,1:3:0:0:
432,281,112692,38,0,P|375:228|230:295,1,240,2|4,1:2|0:3,0:0:0:0:
212,370,113117,1,10,0:0:0:0:
212,370,113330,1,8,1:2:0:0:
215,169,113424,1,8,1:2:0:0:
83,253,113519,6,0,B|59:186|59:186|112:23,1,240,4|0,0:0|0:0,0:0:0:0:
262,30,113929,2,0,P|187:6|110:24,1,160,10|0,0:0|0:0,0:0:0:0:
415,24,114238,2,2,P|339:48|262:30,1,160,8|0,0:0|0:0,1:2:0:0:
207,109,114542,5,4,0:3:0:0:
207,109,114744,1,10,0:0:0:0:
415,24,114846,1,4,0:3:0:0:
415,24,115142,6,0,B|366:173|459:99|404:285,1,240,6|0,0:3|0:0,0:0:0:0:
289,319,115550,2,0,P|366:319|411:257,1,160,10|0,0:0|0:0,0:0:0:0:
166,380,115856,2,2,P|211:318|289:319,1,160,8|0,0:0|0:0,1:2:0:0:
365,378,116144,37,4,0:3:0:0:
365,378,116346,1,10,0:0:0:0:
411,140,116448,1,4,0:3:0:0:
411,140,116752,6,0,P|342:175|195:100,1,240,6|0,0:3|0:0,0:0:0:0:
114,234,117157,2,0,P|177:187|202:113,1,160,10|0,0:0|0:0,0:0:0:0:
323,25,117461,2,0,P|275:88|201:113,1,160,8|0,0:0|0:0,0:0:0:0:
113,72,117765,5,4,0:3:0:0:
113,72,117969,1,10,0:0:0:0:
323,25,118071,1,4,0:3:0:0:
323,25,118377,6,0,L|310:280,1,240,6|4,0:3|0:3,0:0:0:0:
40,178,118777,1,8,1:2:0:0:
40,178,118977,1,0,1:0:0:0:
65,270,119077,1,0,1:0:0:0:
153,319,119196,38,0,P|218:320|259:311,1,80,2|0,0:0|0:0,0:0:0:0:
384,245,119398,5,8,1:2:0:0:
336,369,119500,1,8,1:2:0:0:
228,148,119601,5,8,1:0:0:0:
232,317,119696,1,8,1:0:0:0:
369,124,119792,5,8,1:0:0:0:
322,383,119887,1,8,1:0:0:0:
89,307,119983,38,0,P|78:260|88:213,1,95.9999970703126,4|0,0:1|0:0,0:0:0:0:
177,140,120188,2,0,L|368:123,1,191.999994140625,8|0,0:0|0:0,0:0:0:0:
455,201,120496,1,0,3:0:0:0:
469,324,120599,2,0,P|478:277|467:230,1,95.9999970703126,8|0,0:0|0:0,0:0:0:0:
367,30,120804,2,0,P|357:76|368:123,1,95.9999970703126,2|0,3:2|0:0,0:0:0:0:
455,201,121006,5,8,0:0:0:0:
286,237,121108,1,2,0:0:0:0:
367,122,121209,1,0,3:0:0:0:
379,284,121310,2,0,L|370:379,1,95.9999970703126,0|10,3:0|0:0,0:0:0:0:
370,379,121614,6,0,P|320:351|250:353,1,95.9999970703126,0|0,3:0|0:0,0:0:0:0:
131,366,121817,2,0,P|177:285|145:197,1,191.999994140625,8|0,0:0|0:0,0:0:0:0:
286,40,122121,1,0,3:0:0:0:
255,161,122222,2,0,P|250:114|261:68,1,95.9999970703126,8|0,0:0|0:0,0:0:0:0:
450,243,122425,2,0,L|355:236,1,95.9999970703126,2|0,3:2|0:0,0:0:0:0:
145,197,122626,5,8,0:0:0:0:
279,313,122727,1,2,0:0:0:0:
129,210,122827,1,0,3:0:0:0:
263,66,122928,2,0,L|256:162,1,95.9999970703126,0|10,3:0|0:0,0:0:0:0:
256,161,123230,1,0,3:0:0:0:
256,161,123435,38,0,P|286:188|300:280,1,95.9999970703126,10|0,0:0|0:0,0:0:0:0:
96,124,123640,2,0,P|107:77|139:42,1,95.9999970703126,0|0,3:0|0:0,0:0:0:0:
144,282,123846,2,0,P|105:294|18:260,1,95.9999970703126,10|0,0:0|0:0,0:0:0:0:
264,49,124051,6,0,B|402:69|402:69|431:117,1,191.999994140625,2|8,3:2|0:0,0:0:0:0:
340,288,124360,2,0,L|331:193,1,95.9999970703126,2|0,0:2|0:0,0:0:0:0:
449,249,124565,1,2,3:2:0:0:
341,307,124668,2,0,P|259:320|230:292,1,95.9999970703126,8|8,0:2|0:2,0:0:0:0:
92,94,124873,1,0,3:0:0:0:
92,94,125074,6,0,L|84:189,1,95.9999970703126,10|0,0:0|0:0,0:0:0:0:
258,74,125275,2,0,L|258:169,1,95.9999970703126,0|0,3:0|0:0,0:0:0:0:
421,40,125477,2,0,L|430:135,1,95.9999970703126,10|0,0:0|0:0,0:0:0:0:
304,346,125678,6,0,P|343:263|434:250,1,191.999994140625,4|8,0:1|0:0,0:0:0:0:
208,281,125980,2,0,P|121:285|92:269,1,95.9999970703126,0|0,3:0|0:0,0:0:0:0:
31,69,126181,1,0,3:0:0:0:
40,193,126282,2,0,L|34:98,1,95.9999970703126,8|8,0:0|0:0,0:0:0:0:
201,376,126494,38,0,L|208:281,1,95.9999970703126,4|0,0:1|0:0,0:0:0:0:
288,45,126695,2,0,B|329:167|329:167|311:228,1,191.999994140625,8|0,0:0|0:0,0:0:0:0:
407,62,126997,1,0,3:0:0:0:
512,129,127098,2,0,P|475:98|431:79,1,95.9999970703126,8|0,0:0|0:0,0:0:0:0:
230,277,127299,2,0,P|273:257|310:227,1,95.9999970703126,2|0,3:2|0:0,0:0:0:0:
288,45,127500,5,8,0:0:0:0:
131,144,127601,1,2,0:0:0:0:
295,27,127702,1,0,3:0:0:0:
163,40,127802,2,0,L|67:31,1,95.9999970703126,0|10,3:0|0:0,0:0:0:0:
67,31,128104,6,0,P|78:77|66:122,1,95.9999970703126,0|0,3:0|0:0,0:0:0:0:
63,376,128304,2,0,P|47:286|117:226,1,191.999994140625,8|0,0:0|0:0,0:0:0:0:
350,239,128604,1,0,3:0:0:0:
227,259,128704,2,0,P|273:270|318:258,1,95.9999970703126,8|0,0:0|0:0,0:0:0:0:
379,44,128904,2,0,P|332:32|287:44,1,95.9999970703126,2|0,3:2|0:0,0:0:0:0:
350,239,129106,5,8,0:0:0:0:
467,123,129208,1,2,0:0:0:0:
306,146,129309,1,0,3:0:0:0:
511,216,129410,2,0,L|501:311,1,95.9999970703126,0|10,3:0|0:0,0:0:0:0:
501,311,129714,1,0,3:0:0:0:
501,311,129914,38,0,P|455:323|409:311,1,95.9999970703126,10|0,0:0|0:0,0:0:0:0:
214,145,130114,2,0,P|259:133|305:145,1,95.9999970703126,2|0,3:2|0:0,0:0:0:0:
149,284,130314,1,10,0:0:0:0:
149,284,130414,1,2,3:2:0:0:
111,84,130514,6,0,L|103:180,1,95.9999970703126,2|0,3:2|0:0,0:0:0:0:
357,347,130720,2,0,L|349:252,1,95.9999970703126,10|0,0:2|0:0,0:0:0:0:
471,28,130927,2,0,P|439:115|491:191,1,191.999994140625,0|8,3:0|0:0,0:0:0:0:
491,191,131341,1,0,3:0:0:0:
491,191,131543,38,0,B|518:255|518:255|500:310,1,128,8|0,0:0|0:0,0:0:0:0:
225,115,131746,2,0,B|266:59|266:59|324:47,1,128,0|0,3:0|0:0,0:0:0:0:
293,384,131949,2,0,B|224:375|224:375|184:331,1,128,8|0,0:0|0:0,0:0:0:0:
502,1,132151,6,0,L|410:131,1,143.999995605469,4|0,0:1|0:0,0:0:0:0:
142,212,132355,1,8,1:0:0:0:
323,47,132457,69,8,1:0:0:0:
379,305,132559,1,0,1:0:0:0:
114,233,132661,1,0,1:0:0:0:
293,129,132763,5,8,1:0:0:0:
170,339,132865,1,8,1:0:0:0:
242,43,132967,6,0,P|334:25|422:62,1,192,6|0,3:0|0:0,0:0:0:0:
478,138,133172,2,0,L|465:265,1,128,10|0,0:0|0:0,0:0:0:0:
250,35,133377,6,0,P|342:16|430:53,1,192,4|0,0:3|0:0,0:0:0:0:
486,130,133583,2,0,L|473:257,1,128,10|0,0:0|0:0,0:0:0:0:
258,27,133788,6,0,P|350:8|438:45,1,192,4|0,0:3|0:0,0:0:0:0:
494,122,133994,2,0,L|481:249,1,128,10|0,0:0|0:0,0:0:0:0:
266,19,134198,6,0,P|358:0|446:37,1,192,4|0,0:3|0:0,0:0:0:0:
502,114,134402,2,0,L|489:241,1,128,10|0,0:0|0:0,0:0:0:0:
20,332,134643,5,6,0:3:0:0:
256,192,134897,12,4,137679,0:0:0:0:
