osu file format v14

[General]
AudioFilename: audio.mp3
AudioLeadIn: 0
PreviewTime: 79053
Countdown: 0
SampleSet: Soft
StackLeniency: 0.5
Mode: 0
LetterboxInBreaks: 0
WidescreenStoryboard: 1

[Editor]
Bookmarks: 53893,53937,53980,90319,131466
DistanceSpacing: 1
BeatDivisor: 8
GridSize: 32
TimelineZoom: 1.1

[Metadata]
Title:Closure
TitleUnicode:Closure
Artist:PUP
ArtistUnicode:PUP
Creator:spoes
Version:Sylvarus' Insane
Source:
Tags:sylvarus english punk rock morbid stuff featured artist fa male vocals pathetic use of potential
BeatmapID:2463614
BeatmapSetID:1175467

[Difficulty]
HPDrainRate:5
CircleSize:3.4
OverallDifficulty:8
ApproachRate:9
SliderMultiplier:1.4
SliderTickRate:1

[Events]
//Background and Video events
0,0,"closureee.jpg",0,0
//Break Periods
2,11666,15924
2,33992,41564
//Storyboard Layer 0 (Background)
//Storyboard Layer 1 (Fail)
//Storyboard Layer 2 (Pass)
//Storyboard Layer 3 (Foreground)
//Storyboard Layer 4 (Overlay)
//Storyboard Sound Samples

[TimingPoints]
-4584,348.837209302326,4,2,0,70,1,0
299,-100,4,2,1,80,0,0
822,-66.6666666666667,4,2,1,80,0,0
3002,-66.6666666666667,4,2,1,70,0,0
3090,-66.6666666666667,4,2,1,80,0,0
3441,348.837209302326,4,2,1,80,1,0
3441,-66.6666666666667,4,2,1,80,0,0
5446,-66.6666666666667,4,2,1,70,0,0
5534,-66.6666666666667,4,2,1,80,0,0
6842,-66.6666666666667,4,2,1,70,0,0
6929,-66.6666666666667,4,2,1,80,0,0
8236,-66.6666666666667,4,2,1,70,0,0
8324,-66.6666666666667,4,2,1,80,0,0
8676,348.837209302326,4,2,1,80,1,0
8676,-66.6666666666667,4,2,1,80,0,0
11466,-66.6666666666667,4,2,1,50,0,0
16524,-100,4,2,1,50,0,0
17048,-100,4,2,1,60,0,0
22541,-100,4,2,1,70,0,0
22629,-62.5,4,2,1,75,0,0
23676,-76.9230769230769,4,2,1,75,0,0
25332,-76.9230769230769,4,2,1,5,0,0
25420,-62.5,4,2,1,75,0,0
26466,-76.9230769230769,4,2,1,75,0,0
27076,-76.9230769230769,4,2,1,70,0,0
27164,-76.9230769230769,4,2,1,75,0,0
28210,-62.5,4,2,1,75,0,0
28471,-62.5,4,2,1,70,0,0
28559,-62.5,4,2,1,75,0,0
28820,-62.5,4,2,1,70,0,0
28908,-62.5,4,2,1,75,0,0
29257,-76.9230769230769,4,2,1,75,0,0
31001,-66.6666666666667,4,2,1,75,0,0
33792,-66.6666666666667,4,2,1,50,0,0
36582,-66.6666666666667,4,2,1,70,0,0
45652,-66.6666666666667,4,2,1,80,0,0
46176,-66.6666666666667,4,2,1,80,0,0
48355,-66.6666666666667,4,2,1,70,0,0
48443,-66.6666666666667,4,2,1,80,0,0
48792,348.837209302326,4,2,1,80,1,0
48792,-66.6666666666667,4,2,1,80,0,0
50797,-66.6666666666667,4,2,1,70,0,0
50885,-66.6666666666667,4,2,1,80,0,0
52193,-66.6666666666667,4,2,1,70,0,0
52280,-66.6666666666667,4,2,1,80,0,0
53587,-66.6666666666667,4,2,1,70,0,0
53675,-66.6666666666667,4,2,1,80,0,0
54024,348.837209302326,4,2,1,80,1,0
54721,-66.6666666666667,4,2,1,80,0,0
56814,-66.6666666666667,4,2,1,60,0,0
57337,-100,4,2,1,70,0,0
57512,-100,4,2,1,60,0,0
67889,-100,4,2,1,70,0,0
67977,-62.5,4,2,1,90,0,0
70593,-62.5,4,2,1,70,0,0
70768,-62.5,4,2,1,90,0,0
75128,-62.5,4,2,1,70,0,0
75303,-62.5,4,2,1,90,0,0
75477,-62.5,4,2,1,70,0,0
75651,-62.5,4,2,1,90,0,0
79140,-111.111111111111,4,2,1,70,0,0
87512,-90.9090909090909,4,2,1,70,0,0
87861,-76.9230769230769,4,2,1,70,0,0
88210,-66.6666666666667,4,2,1,70,0,0
88558,-58.8235294117647,4,2,1,70,0,0
90319,348.837209302326,4,2,1,80,1,0
90319,-58.8235294117647,4,2,1,60,0,0
91016,-166.666666666667,4,2,1,60,0,0
91627,-166.666666666667,4,2,1,5,0,0
91714,-166.666666666667,4,2,1,60,0,0
92673,-166.666666666667,4,2,1,60,0,0
92760,-166.666666666667,4,2,1,60,0,0
93021,-166.666666666667,4,2,1,60,0,0
93109,-166.666666666667,4,2,1,60,0,0
94853,-100,4,2,1,60,0,0
95900,-166.666666666667,4,2,1,60,0,0
97905,-166.666666666667,4,2,1,60,0,0
97993,-166.666666666667,4,2,1,60,0,0
98254,-166.666666666667,4,2,1,60,0,0
98342,-166.666666666667,4,2,1,60,0,0
98603,-166.666666666667,4,2,1,60,0,0
98691,-166.666666666667,4,2,1,60,0,0
101481,-166.666666666667,4,2,1,60,0,0
102091,-166.666666666667,4,2,1,70,0,0
102179,-166.666666666667,4,2,1,60,0,0
102789,-166.666666666667,4,2,1,5,0,0
102877,-166.666666666667,4,2,1,60,0,0
103487,-166.666666666667,4,2,1,70,0,0
103574,-166.666666666667,4,2,1,60,0,0
103835,-166.666666666667,4,2,1,70,0,0
103923,-166.666666666667,4,2,1,60,0,0
104184,-166.666666666667,4,2,1,70,0,0
104272,-111.111111111111,4,2,1,60,0,0
106016,-100,4,2,1,60,0,0
107063,-111.111111111111,4,2,1,60,0,0
108632,-111.111111111111,4,2,1,70,0,0
108807,-111.111111111111,4,2,1,60,0,0
109068,-111.111111111111,4,2,1,5,0,0
109156,-90.9090909090909,4,2,1,60,0,0
109417,-90.9090909090909,4,2,1,5,0,0
109505,-76.9230769230769,4,2,1,60,0,0
109766,-76.9230769230769,4,2,1,5,0,0
109853,-76.9230769230769,4,2,1,60,0,0
110551,-100,4,2,1,60,0,0
112644,-100,4,2,1,40,0,0
114039,-200,4,2,1,40,0,0
114214,-200,4,2,1,70,0,0
114388,-200,4,2,1,40,0,0
114562,-200,4,2,1,70,0,0
114737,-200,4,2,1,40,0,0
115260,-200,4,2,1,70,0,0
115435,-200,4,2,1,40,0,0
116307,-200,4,2,1,70,0,0
116481,-200,4,2,1,40,0,0
117513,348.837209302326,4,2,1,40,1,0
117513,-200,4,2,1,40,0,0
119780,-200,4,2,1,70,0,0
119954,-200,4,2,1,40,0,0
121175,-200,4,2,1,70,0,0
121350,-200,4,2,1,40,0,0
122397,348.837209302326,4,2,1,40,1,0
122397,-200,4,2,1,40,0,0
124664,-200,4,2,1,70,0,0
124838,-200,4,2,1,40,0,0
125099,-200,4,2,1,70,0,0
125187,-200,4,2,1,40,0,0
126059,-200,4,2,1,70,0,0
126234,-200,4,2,1,40,0,0
127192,-200,4,2,1,70,0,0
127280,-200,4,2,1,40,0,0
127978,-200,4,2,1,50,0,0
128327,-125,4,2,1,50,0,0
128850,-125,4,2,1,70,0,0
129024,-125,4,2,1,50,0,0
130332,-125,4,2,1,70,0,0
130420,-125,4,2,1,50,0,0
131640,-125,4,2,1,70,0,0
131815,-125,4,2,1,50,0,0
132862,348.837209302326,4,2,1,50,1,0
133123,-100,4,2,1,70,0,0
133210,-125,4,2,1,50,0,0
133384,-125,4,2,1,70,0,0
133559,-125,4,2,1,50,0,0
133820,-125,4,2,1,70,0,0
133907,-125,4,2,1,50,0,0
134431,-125,4,2,1,70,0,0
134606,-125,4,2,1,50,0,0
135129,-125,4,2,1,70,0,0
135303,-125,4,2,1,50,0,0
137745,348.837209302326,4,2,1,50,1,0
138006,-100,4,2,1,70,0,0
138093,-125,4,2,1,50,0,0
138267,-125,4,2,1,70,0,0
138442,-125,4,2,1,50,0,0
138703,-125,4,2,1,70,0,0
138790,-125,4,2,1,50,0,0
142629,348.837209302326,4,2,1,60,1,0
142803,-100,4,2,1,70,0,0
142977,-111.111111111111,4,2,1,60,0,0
143587,-111.111111111111,4,2,1,70,0,0
143675,-111.111111111111,4,2,1,60,0,0
143849,-111.111111111111,4,2,1,70,0,0
144024,-100,4,2,1,60,0,0
144285,-100,4,2,1,70,0,0
144373,-100,4,2,1,60,0,0
144983,-100,4,2,1,70,0,0
145070,-100,4,2,1,60,0,0
145419,-76.9230769230769,4,2,1,60,0,0
148558,-76.9230769230769,4,2,1,70,0,0
149605,-76.9230769230769,4,2,1,60,0,0
150303,-125,4,2,1,60,0,0
150913,-125,4,2,1,5,0,0
151001,-125,4,2,1,60,0,0
151960,-125,4,2,1,60,0,0
152047,-125,4,2,1,60,0,0
152308,-125,4,2,1,60,0,0
152396,-125,4,2,1,60,0,0
154140,-83.3333333333333,4,2,1,60,0,0
155187,-125,4,2,1,60,0,0
155797,-125,4,2,1,60,0,0
155884,-125,4,2,1,60,0,0
156320,-125,4,2,1,60,0,0
156408,-125,4,2,1,60,0,0
156756,-125,4,2,1,60,0,0
156931,-125,4,2,1,60,0,0
157192,-125,4,2,1,60,0,0
157280,-125,4,2,1,60,0,0
157541,-125,4,2,1,60,0,0
157629,-125,4,2,1,60,0,0
157890,-125,4,2,1,60,0,0
157977,-125,4,2,1,60,0,0
160768,-125,4,2,1,65,0,0
161117,-83.3333333333333,4,2,1,65,0,0
161466,-125,4,2,1,65,0,0
162338,-83.3333333333333,4,2,1,70,0,0
162512,-83.3333333333333,4,2,1,65,0,0
162773,-83.3333333333333,4,2,1,70,0,0
162861,-83.3333333333333,4,2,1,65,0,0
163122,-83.3333333333333,4,2,1,70,0,0
163210,-83.3333333333333,4,2,1,65,0,0
163471,-83.3333333333333,4,2,1,70,0,0
163559,-83.3333333333333,4,2,1,65,0,0
166349,-125,4,2,1,65,0,0
166960,-125,4,2,1,5,0,0
167047,-125,4,2,1,65,0,0
168355,-125,4,2,1,5,0,0
168442,-100,4,2,1,65,0,0
168704,-100,4,2,1,5,0,0
168791,-76.9230769230769,4,2,1,65,0,0
169053,-76.9230769230769,4,2,1,5,0,0
169140,-66.6666666666667,4,2,1,65,0,0
170361,-66.6666666666667,4,2,1,80,0,0
170535,-66.6666666666667,4,2,1,90,0,0
170884,-62.5,4,2,1,90,0,0
171233,-58.8235294117647,4,2,1,90,0,0
171582,-55.5555555555556,4,2,1,90,0,0
173239,-55.5555555555556,4,2,1,5,0,0

[Colours]
Combo1 : 168,123,123
Combo2 : 126,136,222
Combo3 : 191,134,238
Combo4 : 247,162,125

[HitObjects]
120,62,299,5,8,0:0:0:0:
191,96,474,1,8,0:0:0:0:
264,126,648,1,8,0:0:0:0:
257,138,822,6,0,P|326:133|422:260,1,210.000008010865,14|0,0:0|3:0,0:0:0:0:
292,338,1346,2,0,P|285:283|307:236,1,105.000004005432,10|0,0:0|3:0,0:0:0:0:
449,122,1695,2,0,L|439:226,1,105.000004005432,10|0,0:2|3:0,0:0:0:0:
427,371,2043,1,10,0:2:0:0:
276,344,2218,6,0,B|317:322|317:322|499:338,1,210.000008010865,6|0,3:2|3:0,0:0:0:0:
155,316,2741,1,10,0:0:0:0:
155,316,3090,1,10,0:0:0:0:
96,256,3264,1,10,0:0:0:0:
10,277,3441,6,0,P|45:226|39:156,1,105.000004005432,10|0,0:0|3:0,0:0:0:0:
0,24,3789,2,0,P|26:79|90:109,1,105.000004005432,10|0,0:0|3:0,0:0:0:0:
227,139,4138,2,0,P|165:134|107:174,1,105.000004005432,10|0,0:0|3:0,0:0:0:0:
266,226,4487,1,10,0:0:0:0:
300,310,4661,6,0,B|312:217|312:217|305:218|305:218|317:109,1,210.000008010865,6|0,3:2|3:0,0:0:0:0:
328,1,5185,1,10,0:0:0:0:
328,1,5534,1,10,0:3:0:0:
483,43,5708,1,4,0:3:0:0:
382,119,5882,1,10,0:3:0:0:
448,165,6057,1,6,0:3:0:0:
403,250,6231,6,0,P|454:244|503:275,1,105.000004005432,14|0,0:0|0:0,0:0:0:0:
407,376,6580,2,0,P|355:381|307:351,1,105.000004005432,10|0,0:0|3:0,0:0:0:0:
219,241,6929,2,0,L|228:136,1,105.000004005432,10|0,0:2|3:0,0:0:0:0:
326,198,7277,1,10,0:2:0:0:
140,304,7452,6,0,B|118:262|118:262|134:80,1,210.000008010865,6|0,3:2|3:0,0:0:0:0:
111,384,7975,1,10,0:0:0:0:
111,384,8324,1,10,0:0:0:0:
13,345,8499,1,10,0:0:0:0:
0,240,8676,6,0,P|60:258|120:226,1,105.000004005432,14|2,0:0|3:0,0:0:0:0:
172,150,9024,2,0,P|232:132|292:164,1,105.000004005432,10|2,0:0|3:0,0:0:0:0:
215,328,9373,2,0,L|225:205,1,105.000004005432,10|0,0:0|3:0,0:0:0:0:
408,148,9722,1,10,0:0:0:0:
345,225,9896,1,4,3:2:0:0:
381,309,10071,6,0,B|368:195|368:195|373:191|373:191|364:103,1,210.000008010865,10|10,0:0|0:0,0:0:0:0:
356,13,10594,1,0,3:0:0:0:
265,142,10769,5,10,0:3:0:0:
204,0,10943,1,4,0:3:0:0:
93,87,11117,1,10,0:3:0:0:
39,28,11292,1,6,0:3:0:0:
30,33,11466,5,4,0:0:0:0:
30,33,16524,5,0,3:0:0:0:
176,85,16699,1,8,0:0:0:0:
97,97,16873,1,2,0:3:0:0:
97,97,16960,1,2,0:0:0:0:
97,97,17048,6,0,P|168:59|155:-9,1,140,4|8,3:2|0:0,0:0:0:0:
342,24,17571,2,0,P|306:24|261:58,2,70,10|6|4,0:3|0:3|0:3,0:0:0:0:
440,106,18094,1,10,0:0:0:0:
356,176,18269,2,0,L|327:98,1,70,6|8,0:3|0:3,0:0:0:0:
489,20,18617,2,0,L|442:152,1,140,6|4,0:3|0:3,0:0:0:0:
442,152,19053,1,4,0:3:0:0:
442,152,19141,1,4,0:3:0:0:
472,240,19315,1,4,0:3:0:0:
496,327,19489,2,0,L|426:320,1,70,8|4,0:0|0:3,0:0:0:0:
310,254,19838,6,0,P|341:312|302:365,1,140,10|8,0:3|0:0,0:0:0:0:
202,247,20362,2,0,P|205:211|243:169,2,70,6|10|4,0:3|0:3|0:3,0:0:0:0:
124,331,20885,1,10,0:0:0:0:
54,247,21059,2,0,L|131:218,1,70,6|8,0:3|0:3,0:0:0:0:
210,380,21408,2,0,L|78:332,1,140,6|4,0:3|0:3,0:0:0:0:
1,163,21931,5,10,0:3:0:0:
119,223,22106,1,10,0:0:0:0:
214,174,22280,1,10,0:0:0:0:
198,252,22455,1,2,0:0:0:0:
201,266,22629,6,0,P|207:190|78:138,2,224,6|8|2,3:2|0:0|0:0,0:0:0:0:
349,221,23501,1,2,3:2:0:0:
330,235,23676,2,0,L|321:135,1,90.9999958343508,10|0,0:0|3:2,0:0:0:0:
279,2,24024,2,0,B|271:41|295:58|319:60|319:60|441:71,1,181.999991668702,2|8,3:2|0:0,0:0:0:0:
506,170,24548,1,2,0:0:0:0:
491,154,24722,2,0,L|382:144,1,90.9999958343508,2|0,0:0|3:2,0:0:0:0:
245,171,25071,2,0,P|202:147|101:182,1,136.499993751526,10|0,0:0|0:0,0:0:0:0:
108,175,25420,6,0,P|16:126|45:14,2,224,2|8|2,3:2|0:0|0:0,0:0:0:0:
195,109,26292,1,0,3:2:0:0:
179,233,26466,2,0,L|269:240,1,90.9999958343508,10|2,0:0|3:2,0:0:0:0:
423,285,26815,2,0,B|321:279|363:355|230:341,1,181.999991668702,2|10,3:2|0:0,0:0:0:0:
89,351,27338,1,2,0:0:0:0:
77,337,27513,2,0,P|124:320|168:316,1,90.9999958343508,2|0,0:0|3:2,0:0:0:0:
269,240,27862,1,10,0:0:0:0:
325,327,28036,1,0,3:2:0:0:
319,339,28210,6,0,P|313:263|442:211,2,224,6|8|2,3:2|0:0|0:0,0:0:0:0:
435,378,29082,1,0,3:2:0:0:
501,311,29257,2,0,L|508:221,1,90.9999958343508,8|0,0:0|3:2,0:0:0:0:
436,5,29606,6,0,P|438:55|448:105,1,90.9999958343508,2|2,3:3|0:3,0:0:0:0:
289,161,29955,2,0,P|296:116|298:70,1,90.9999958343508,10|2,0:0|0:3,0:0:0:0:
109,12,30303,2,0,P|111:62|121:112,1,90.9999958343508,2|0,0:3|3:2,0:0:0:0:
2,247,30652,1,8,0:0:0:0:
159,228,30827,1,0,3:2:0:0:
159,228,30914,1,0,3:2:0:0:
159,228,31001,6,0,L|257:318,1,105.000004005432,12|0,0:0|3:2,0:0:0:0:
412,295,31350,2,0,L|314:385,1,105.000004005432,8|0,0:0|3:2,0:0:0:0:
163,384,31699,1,8,0:0:0:0:
95,294,31873,1,0,3:2:0:0:
23,371,32048,2,0,L|12:255,1,105.000004005432,8|0,0:0|3:2,0:0:0:0:
0,85,32396,5,8,0:0:0:0:
103,170,32571,1,0,3:2:0:0:
94,151,32745,2,0,P|145:116|194:107,1,105.000004005432,8|0,0:0|3:2,0:0:0:0:
403,126,33094,5,10,0:3:0:0:
268,21,33269,1,4,0:3:0:0:
399,0,33443,1,6,0:3:0:0:
345,63,33617,1,6,0:3:0:0:
340,53,33792,5,4,0:0:0:0:
256,192,42164,12,0,44955,0:0:0:0:
340,53,45652,5,8,0:0:0:0:
278,113,45827,1,8,0:0:0:0:
216,173,46001,1,8,0:0:0:0:
224,186,46176,6,0,P|158:167|56:256,1,210.000008010865,14|0,0:0|3:0,0:0:0:0:
208,361,46699,2,0,P|251:327|262:278,1,105.000004005432,10|0,0:0|3:0,0:0:0:0:
43,243,47048,2,0,L|52:347,1,105.000004005432,10|0,0:2|3:0,0:0:0:0:
187,373,47396,1,10,0:0:0:0:
331,206,47571,6,0,B|290:184|290:184|108:200,1,210.000008010865,6|0,3:2|3:0,0:0:0:0:
422,181,48094,1,10,0:0:0:0:
422,181,48443,1,10,0:0:0:0:
364,107,48617,1,10,0:0:0:0:
346,13,48792,6,0,P|348:65|304:122,1,105.000004005432,10|0,0:0|3:0,0:0:0:0:
275,219,49140,2,0,P|228:194|201:128,1,105.000004005432,10|0,0:0|3:0,0:0:0:0:
133,61,49489,2,0,P|177:33|248:41,1,105.000004005432,10|0,0:0|3:0,0:0:0:0:
101,154,49838,1,10,0:0:0:0:
31,43,50012,6,0,B|19:152|19:152|26:151|26:151|13:243,1,210.000008010865,6|0,3:2|3:0,0:0:0:0:
0,360,50536,1,10,0:0:0:0:
0,360,50885,1,10,0:3:0:0:
107,262,51059,1,4,0:3:0:0:
168,343,51233,1,10,0:3:0:0:
215,278,51408,1,6,0:3:0:0:
295,369,51582,6,0,P|265:307|277:256,1,105.000004005432,14|0,0:0|0:0,0:0:0:0:
459,230,51931,2,0,P|489:292|477:343,1,105.000004005432,10|0,0:0|3:0,0:0:0:0:
290,162,52280,2,0,L|394:152,1,105.000004005432,10|0,0:2|3:0,0:0:0:0:
374,298,52628,1,10,0:2:0:0:
187,203,52803,6,0,B|165:161|165:161|180:-20,1,210.000008010865,6|0,3:2|3:0,0:0:0:0:
150,289,53326,1,10,0:0:0:0:
150,289,53675,1,10,0:0:0:0:
249,294,53850,1,10,0:0:0:0:
313,372,54024,5,14,0:0:0:0:
423,273,54198,1,2,3:0:0:0:
406,362,54373,1,10,0:0:0:0:
355,199,54547,1,2,3:0:0:0:
485,136,54722,6,0,P|498:78|483:18,1,105.000004005432,10|0,0:0|3:0,0:0:0:0:
263,0,55071,1,10,0:0:0:0:
311,113,55245,1,4,3:2:0:0:
407,75,55419,6,0,B|298:63|298:63|299:70|299:70|206:57,1,210.000008010865,10|10,0:0|0:0,0:0:0:0:
90,44,55943,1,0,3:0:0:0:
0,136,56117,5,10,0:3:0:0:
153,117,56292,1,4,0:3:0:0:
133,257,56466,1,10,0:3:0:0:
218,241,56640,1,6,0:3:0:0:
209,230,56815,5,4,0:0:0:0:
4,359,57164,1,8,0:0:0:0:
56,246,57338,2,0,P|55:202|69:161,2,70,0|2|6,0:0|0:3|0:3,0:0:0:0:
109,331,57861,1,10,0:0:0:0:
122,318,58036,2,0,L|293:307,1,140,10|4,0:3|0:3,0:0:0:0:
335,360,58559,1,8,0:0:0:0:
245,213,58733,1,4,0:3:0:0:
245,213,58821,1,4,0:3:0:0:
245,213,58908,5,10,0:3:0:0:
340,156,59082,1,4,0:3:0:0:
398,225,59257,1,10,0:0:0:0:
475,187,59431,1,6,0:3:0:0:
512,277,59605,6,0,P|493:206|512:137,1,140,4|10,0:3|0:0,0:0:0:0:
390,0,60129,2,0,P|388:48|375:82,2,70,10|6|4,0:3|0:3|0:3,0:0:0:0:
274,2,60652,1,10,0:0:0:0:
283,15,60826,1,4,0:3:0:0:
321,124,61001,2,0,B|255:103|255:103|189:130,1,140,10|8,0:3|0:0,0:0:0:0:
75,262,61524,1,4,0:3:0:0:
75,262,61611,1,4,0:3:0:0:
75,262,61698,5,10,0:3:0:0:
1,160,61873,1,4,0:3:0:0:
92,86,62047,1,10,0:0:0:0:
8,0,62222,1,10,0:3:0:0:
100,170,62396,6,0,B|185:175|155:231|236:240,1,140,4|8,0:3|0:0,0:0:0:0:
418,125,63094,2,0,L|337:95,1,70,10|4,0:3|0:3,0:0:0:0:
266,110,63443,1,10,0:0:0:0:
308,222,63617,2,0,L|388:192,1,70,6|8,0:3|0:3,0:0:0:0:
512,342,63966,2,0,L|353:284,1,140,6|4,0:3|0:3,0:0:0:0:
380,294,64402,1,4,0:3:0:0:
380,294,64489,5,10,0:3:0:0:
287,368,64664,1,4,0:3:0:0:
212,314,64838,1,10,0:0:0:0:
160,367,65012,1,10,0:3:0:0:
107,269,65187,6,0,P|53:219|-20:225,1,140,4|8,0:3|0:0,0:0:0:0:
0,355,65710,1,6,0:3:0:0:
10,342,65885,2,0,L|110:350,1,70,10|6,0:3|0:3,0:0:0:0:
191,257,66233,2,0,L|90:265,1,70,10|4,0:0|0:3,0:0:0:0:
57,101,66582,5,10,0:3:0:0:
182,173,66757,2,0,L|353:187,1,140,6|6,0:3|0:3,0:0:0:0:
483,278,67280,5,8,0:3:0:0:
423,160,67454,1,10,0:0:0:0:
472,65,67629,1,10,0:0:0:0:
394,81,67803,1,6,0:3:0:0:
380,78,67978,6,0,P|456:72|508:201,2,224,14|10|10,0:0|0:0|0:0,0:0:0:0:
320,285,68850,1,8,0:0:0:0:
320,285,69024,1,10,0:0:0:0:
208,58,69373,6,0,B|255:10|255:10|271:187,2,224,10|8|8,0:0|0:0|0:0,0:0:0:0:
70,185,70245,1,8,0:0:0:0:
161,181,70419,1,8,0:0:0:0:
161,260,70594,1,2,0:0:0:0:
155,272,70768,6,0,P|215:241|362:316,2,224,10|8|10,0:0|0:0|0:0,0:0:0:0:
367,173,71640,1,10,0:0:0:0:
367,173,71815,1,10,0:0:0:0:
0,12,72164,6,0,L|155:25,1,112,8|0,0:0|0:0,0:0:0:0:
171,126,72512,2,0,L|59:116,1,112,10|0,0:0|0:0,0:0:0:0:
213,18,72861,5,14,0:0:0:0:
290,137,73036,1,0,3:0:0:0:
179,253,73210,1,10,0:0:0:0:
221,186,73385,1,2,3:2:0:0:
293,335,73559,6,0,B|360:380|407:352|407:352|482:277,2,224,14|8|8,0:0|0:0|0:0,0:0:0:0:
94,233,74431,1,10,0:0:0:0:
94,233,74605,1,10,0:0:0:0:
290,137,74954,6,0,B|338:92|338:92|156:72,2,224,10|10|10,0:0|0:0|0:0,0:0:0:0:
168,263,75826,1,10,0:0:0:0:
255,218,76001,1,10,0:0:0:0:
325,267,76175,1,2,0:0:0:0:
338,275,76350,6,0,P|337:210|470:92,2,224,10|8|8,0:0|0:0|0:0,0:0:0:0:
511,368,77222,1,8,0:0:0:0:
511,368,77396,1,8,0:0:0:0:
304,29,77745,6,0,L|192:39,1,112,10|0,0:0|0:0,0:0:0:0:
138,142,78094,2,0,L|249:131,1,112,8|0,0:0|0:0,0:0:0:0:
505,151,78443,5,10,0:0:0:0:
395,7,78617,1,0,3:0:0:0:
340,156,78792,1,10,0:0:0:0:
497,56,78966,1,2,3:0:0:0:
438,236,79140,6,0,P|446:296|442:370,2,125.999996154785,4|0|0,3:2|3:0|3:0,0:0:0:0:
321,234,80012,1,10,0:3:0:0:
303,238,80100,1,4,0:3:0:0:
282,242,80187,1,6,0:3:0:0:
335,372,80361,1,4,0:3:0:0:
356,376,80448,1,4,0:3:0:0:
376,379,80536,1,6,3:2:0:0:
494,288,80710,2,0,L|367:299,1,125.999996154785,2|2,0:0|0:0,0:0:0:0:
246,370,81233,2,0,L|158:362,1,62.9999980773926,2|8,3:2|0:3,0:0:0:0:
164,360,81495,1,4,0:3:0:0:
147,358,81582,1,6,0:3:0:0:
95,232,81757,1,4,0:3:0:0:
107,249,81844,1,4,0:3:0:0:
120,265,81931,6,0,P|112:205|116:131,2,125.999996154785,6|2|0,3:2|3:2|3:2,0:0:0:0:
10,364,82803,1,10,0:3:0:0:
15,348,82890,1,4,0:3:0:0:
21,331,82978,1,6,0:3:0:0:
120,265,83152,1,6,0:3:0:0:
107,249,83239,1,4,0:3:0:0:
98,233,83326,2,0,L|101:148,1,62.9999980773926,6|0,3:2|0:0,0:0:0:0:
0,75,83675,2,0,L|9:160,1,62.9999980773926,2|2,3:2|0:0,0:0:0:0:
117,32,84024,1,2,3:2:0:0:
199,63,84198,1,10,0:3:0:0:
222,57,84286,1,4,0:3:0:0:
248,52,84373,1,4,0:3:0:0:
289,73,84460,1,4,0:3:0:0:
322,105,84547,1,4,0:3:0:0:
297,113,84635,1,4,0:3:0:0:
276,124,84722,5,6,3:2:0:0:
141,176,85071,1,2,3:3:0:0:
159,178,85158,1,0,3:0:0:0:
176,183,85245,1,2,3:3:0:0:
192,186,85332,1,0,3:0:0:0:
208,189,85419,1,2,3:3:0:0:
343,185,85594,1,6,0:3:0:0:
287,337,85768,2,0,L|294:250,1,62.9999980773926,6|4,0:3|0:3,0:0:0:0:
312,267,86030,1,4,0:3:0:0:
332,261,86117,2,0,L|415:268,1,62.9999980773926,6|2,3:2|0:0,0:0:0:0:
512,141,86466,1,2,3:2:0:0:
468,244,86640,1,2,3:2:0:0:
345,129,86815,1,2,3:0:0:0:
480,61,86989,1,6,0:3:0:0:
488,45,87076,1,4,0:3:0:0:
492,28,87164,1,4,0:3:0:0:
341,0,87338,1,6,0:3:0:0:
263,138,87512,6,0,L|154:120,1,77.0000023498536,4|0,3:2|0:0,0:0:0:0:
23,257,87861,2,0,L|119:221,1,90.9999958343508,10|0,0:2|0:0,0:0:0:0:
71,86,88210,2,0,L|0:10,1,105.000004005432,2|0,3:3|0:0,0:0:0:0:
301,0,88559,2,0,L|280:172,1,119.000002269745,10|0,0:2|3:0,0:0:0:0:
253,306,88908,1,2,3:3:0:0:
402,114,89082,5,2,3:2:0:0:
196,228,89257,2,0,L|321:196,1,119.000002269745,10|0,0:2|3:0,0:0:0:0:
506,149,89605,1,14,3:3:0:0:
0,264,90303,5,4,3:2:0:0:
506,149,91016,6,0,P|472:103|518:29,1,146.999995513916,12|0,0:2|0:0,0:0:0:0:
510,31,91714,1,2,0:3:0:0:
340,0,92063,1,0,3:0:0:0:
282,109,92412,2,0,P|276:71|257:17,1,83.9999974365235,8|0,0:0|3:0,0:0:0:0:
167,149,93109,2,0,B|228:145|219:197|280:194,1,125.999996154785,4|0,3:2|3:0,0:0:0:0:
362,256,93807,2,0,P|357:217|388:128,1,125.999996154785,8|0,0:0|3:0,0:0:0:0:
464,115,94505,5,8,0:0:0:0:
512,291,94679,1,10,0:0:0:0:
454,220,94853,2,0,L|396:180,1,70,10|4,0:3|0:3,0:0:0:0:
266,296,95202,2,0,L|323:256,1,70,8|8,0:0|0:3,0:0:0:0:
327,94,95551,1,6,0:3:0:0:
269,168,95725,1,4,0:3:0:0:
180,75,95900,6,0,P|121:34|25:29,2,167.999994873047,4|12|2,3:2|0:2|0:3,0:0:0:0:
17,205,97644,1,0,3:0:0:0:
166,229,97993,2,0,P|127:238|87:268,1,83.9999974365235,8|0,0:0|3:0,0:0:0:0:
0,361,98691,2,0,L|134:371,1,125.999996154785,4|0,3:2|3:0,0:0:0:0:
200,320,99388,2,0,P|221:351|316:357,1,125.999996154785,8|0,0:0|3:0,0:0:0:0:
367,298,100086,5,8,0:0:0:0:
324,174,100260,1,8,0:0:0:0:
463,187,100435,1,8,0:3:0:0:
386,221,100609,1,4,0:3:0:0:
412,105,100784,1,8,0:0:0:0:
396,132,100958,1,8,0:3:0:0:
263,37,101132,1,4,0:3:0:0:
320,93,101307,1,8,0:3:0:0:
450,15,101481,5,4,3:2:0:0:
21,70,102179,6,0,B|120:58|120:58|135:116,1,146.999995513916,12|0,0:2|0:0,0:0:0:0:
131,103,102877,1,2,0:3:0:0:
215,235,103225,1,2,3:2:0:0:
114,287,103574,2,0,P|118:245|116:203,1,83.9999974365235,10|2,0:0|3:2,0:0:0:0:
275,138,104272,6,0,L|239:12,1,125.999996154785,6|2,3:2|0:0,0:0:0:0:
371,7,104795,1,2,3:2:0:0:
359,18,104970,2,0,L|348:89,2,62.9999980773926,10|2|2,0:0|0:0|0:3,0:0:0:0:
491,113,105493,1,0,3:2:0:0:
442,42,105667,5,12,0:0:0:0:
353,155,105842,1,2,3:2:0:0:
428,257,106016,2,0,L|437:160,1,70,2|2,3:2|3:2,0:0:0:0:
265,139,106365,2,0,L|274:236,1,70,10|2,0:2|3:2,0:0:0:0:
81,280,106714,1,10,0:2:0:0:
134,144,106888,1,10,0:2:0:0:
17,31,107063,6,0,P|74:21|133:56,1,125.999996154785,4|0,3:2|0:0,0:0:0:0:
258,19,107586,1,0,3:0:0:0:
226,212,107760,2,0,P|199:155|205:88,1,125.999996154785,12|0,0:2|0:0,0:0:0:0:
270,11,108284,1,2,3:2:0:0:
367,101,108458,1,8,0:0:0:0:
26,326,108807,6,0,L|125:316,1,94.499997116089,0|0,3:0|0:0,0:0:0:0:
125,280,109156,2,0,L|249:294,1,115.50000352478,10|0,0:0|0:0,0:0:0:0:
207,338,109505,2,0,L|345:322,1,136.499993751526,2|0,3:0|0:0,0:0:0:0:
441,375,109853,6,0,B|511:329|548:232|499:206|428:189|414:279,1,272.999987503052,4|0,3:2|3:0,0:0:0:0:
251,152,110551,2,0,L|262:291,1,140,8|2,0:0|0:3,0:0:0:0:
188,380,111074,1,0,3:0:0:0:
137,265,111249,6,0,P|79:245|-10:279,1,140,8|0,0:0|0:0,0:0:0:0:
81,346,111772,1,0,3:0:0:0:
159,261,111946,5,8,0:0:0:0:
117,168,112121,1,8,0:3:0:0:
154,94,112295,1,4,0:3:0:0:
135,59,112470,1,4,0:3:0:0:
144,46,112644,5,4,0:0:0:0:
8,21,113342,1,8,0:0:0:0:
144,46,114039,2,0,L|226:59,1,70,0|0,3:0|3:0,0:0:0:0:
324,74,114737,1,8,0:0:0:0:
485,235,115435,6,0,L|491:199,1,35,4|2,0:2|0:0,0:0:0:0:
406,153,115784,2,0,L|413:202,1,35,2|2,0:3|3:2,0:0:0:0:
337,235,116132,2,0,P|292:225|270:204,1,70,10|2,0:2|3:2,0:0:0:0:
125,278,116830,5,10,0:0:0:0:
157,267,117005,1,2,0:3:0:0:
175,283,117179,1,2,0:3:0:0:
185,277,117353,1,2,0:3:0:0:
192,278,117513,6,0,L|188:207,2,70,4|2|8,0:0|0:3|0:0,0:0:0:0:
351,354,118908,2,0,L|316:350,1,35,0|8,3:0|0:0,0:0:0:0:
239,341,119257,1,0,3:0:0:0:
220,357,119431,1,0,3:0:0:0:
212,381,119606,2,0,P|187:354|149:344,1,70,8|2,0:0|3:3,0:0:0:0:
0,291,120303,6,0,L|47:285,1,35,0|2,3:2|0:0,0:0:0:0:
64,370,120652,2,0,L|17:364,1,35,2|2,0:3|3:2,0:0:0:0:
116,302,121001,2,0,L|112:218,1,70,10|2,0:2|3:2,0:0:0:0:
76,42,121699,5,10,0:0:0:0:
55,90,121873,1,2,0:3:0:0:
76,121,122047,1,2,0:3:0:0:
63,141,122222,1,2,0:3:0:0:
69,154,122397,6,0,L|-11:145,2,70,4|2|8,0:0|0:3|0:0,0:0:0:0:
218,69,123792,2,0,P|197:87|188:106,1,35,0|8,3:0|0:0,0:0:0:0:
182,170,124141,1,0,3:0:0:0:
205,182,124315,1,0,3:0:0:0:
215,206,124490,2,0,L|288:198,1,70,8|2,0:0|0:3,0:0:0:0:
415,240,125187,6,0,L|408:197,1,35,0|8,3:2|0:0,0:0:0:0:
495,160,125536,2,0,L|488:203,1,35,2|2,0:3|3:2,0:0:0:0:
395,127,125885,2,0,L|383:44,1,70,10|2,0:2|3:2,0:0:0:0:
507,19,126583,5,10,0:0:0:0:
507,19,126757,1,8,0:2:0:0:
507,19,126931,1,8,0:2:0:0:
507,19,127106,1,2,0:0:0:0:
399,15,127280,5,10,0:0:0:0:
332,79,127455,1,8,0:3:0:0:
261,47,127629,1,6,0:3:0:0:
230,76,127803,1,6,0:3:0:0:
208,71,127978,5,4,3:2:0:0:
11,13,128327,2,0,L|23:75,1,56,2|0,0:0|0:0,0:0:0:0:
102,149,128676,2,0,L|126:19,1,112,10|2,0:0|0:0,0:0:0:0:
19,235,129373,6,0,P|67:226|125:255,1,112,10|2,0:0|3:2,0:0:0:0:
178,371,129897,2,0,P|188:328|230:267,1,112,2|0,0:0|0:0,0:0:0:0:
340,229,130420,2,0,P|294:217|268:200,1,56,2|0,0:3|3:2,0:0:0:0:
237,90,130769,5,8,0:0:0:0:
234,108,130943,1,8,0:0:0:0:
172,176,131117,1,2,0:3:0:0:
167,160,131292,1,0,3:2:0:0:
259,247,131466,1,8,0:0:0:0:
15,287,131815,1,2,3:2:0:0:
231,378,132164,5,8,0:0:0:0:
192,309,132338,1,0,3:0:0:0:
130,354,132513,1,2,0:3:0:0:
114,328,132687,1,0,3:0:0:0:
98,338,132862,5,8,0:0:0:0:
0,114,133210,2,0,L|75:97,1,56,2|0,3:2|0:0,0:0:0:0:
185,222,133559,2,0,L|75:197,1,112,10|2,0:0|0:3,0:0:0:0:
255,65,134257,2,0,P|276:108|264:185,1,112,10|2,0:0|3:2,0:0:0:0:
359,239,134780,2,0,P|349:192|381:120,1,112,2|0,0:0|0:0,0:0:0:0:
361,43,135303,2,0,P|399:48|422:44,1,56,2|2,0:3|3:2,0:0:0:0:
511,110,135652,5,8,0:0:0:0:
494,106,135827,1,8,0:0:0:0:
436,186,136001,1,2,0:3:0:0:
454,182,136175,1,0,3:2:0:0:
511,261,136350,1,8,0:0:0:0:
370,132,136699,1,2,3:2:0:0:
359,305,137048,5,8,0:0:0:0:
374,269,137222,1,0,3:0:0:0:
285,179,137396,1,2,0:3:0:0:
295,197,137571,2,0,P|297:237|245:295,1,112,2|0,3:2|0:0,0:0:0:0:
114,252,138093,2,0,L|190:236,1,56,2|0,3:2|0:0,0:0:0:0:
210,377,138442,2,0,L|155:365,1,56,8|0,0:0|0:0,0:0:0:0:
37,248,138791,2,0,L|113:232,1,56,2|0,3:2|3:0,0:0:0:0:
238,137,139140,5,10,0:2:0:0:
146,167,139314,2,0,P|151:103|128:51,1,112,2|0,0:0|0:0,0:0:0:0:
57,24,139838,2,0,L|-17:34,1,56,10|0,0:0|0:0,0:0:0:0:
60,126,140186,2,0,L|134:136,1,56,2|0,0:3|3:0,0:0:0:0:
252,226,140535,5,8,0:0:0:0:
260,211,140710,1,8,0:0:0:0:
220,103,140884,1,2,0:3:0:0:
211,121,141058,1,0,3:2:0:0:
314,60,141233,1,8,0:0:0:0:
512,156,141582,1,0,3:0:0:0:
472,4,141931,5,8,0:0:0:0:
403,43,142105,1,8,0:0:0:0:
448,105,142279,1,2,0:3:0:0:
422,121,142454,1,0,3:0:0:0:
441,198,142628,5,12,0:0:0:0:
346,246,142803,1,2,0:0:0:0:
356,232,142977,2,0,P|401:230|437:246,1,62.9999980773926,2|0,3:3|0:0,0:0:0:0:
262,317,143326,2,0,P|237:279|233:239,1,62.9999980773926,10|0,0:0|0:0,0:0:0:0:
382,333,143675,2,0,P|361:372|329:395,1,62.9999980773926,2|0,3:3|0:0,0:0:0:0:
131,342,144024,6,0,L|145:184,1,140,10|2,0:0|3:3,0:0:0:0:
63,53,144547,2,0,L|193:144,1,140,2|0,0:0|0:0,0:0:0:0:
325,143,145070,2,0,L|272:205,1,70,2|0,3:3|0:0,0:0:0:0:
39,374,145419,6,0,L|221:323,1,181.999991668702,10|2,0:0|3:3,0:0:0:0:
512,187,146117,2,0,L|330:136,1,181.999991668702,10|2,0:0|3:3,0:0:0:0:
11,0,146815,5,8,3:3:0:0:
20,22,146902,1,8,3:3:0:0:
60,56,146989,1,8,3:3:0:0:
47,74,147076,1,8,3:3:0:0:
11,95,147163,1,4,3:3:0:0:
16,110,147251,1,4,3:3:0:0:
31,123,147338,1,4,3:3:0:0:
25,135,147425,1,4,3:3:0:0:
28,147,147512,5,14,3:3:0:0:
28,147,149605,5,4,3:2:0:0:
486,378,150303,6,0,P|459:326|508:190,1,196,12|0,0:2|0:0,0:0:0:0:
495,200,151001,1,2,0:3:0:0:
472,74,151349,1,0,3:0:0:0:
306,109,151698,2,0,P|305:62|286:-7,1,112,8|0,0:0|3:0,0:0:0:0:
26,62,152396,2,0,B|43:37|66:37|77:46|77:46|158:121,1,168,4|0,3:2|3:0,0:0:0:0:
292,86,153094,2,0,P|273:130|277:219,1,112,8|0,0:0|0:0,0:0:0:0:
324,285,153617,1,0,3:0:0:0:
467,215,153791,5,8,0:0:0:0:
400,360,153966,1,10,0:0:0:0:
301,285,154140,2,0,L|185:298,1,83.9999974365235,10|4,0:3|0:3,0:0:0:0:
140,148,154489,2,0,L|256:161,1,83.9999974365235,10|8,0:0|0:3,0:0:0:0:
400,126,154838,1,6,0:3:0:0:
350,33,155012,1,4,0:3:0:0:
199,60,155187,6,0,B|64:28|64:28|-2:92,1,224,4|12,3:2|0:2,0:0:0:0:
53,278,156408,1,8,0:2:0:0:
72,260,156582,1,2,0:3:0:0:
230,325,156931,1,0,3:0:0:0:
302,196,157280,2,0,P|262:177|223:109,1,112,8|0,0:0|3:0,0:0:0:0:
396,25,157977,2,0,L|381:191,1,168,4|0,3:2|3:0,0:0:0:0:
485,250,158675,2,0,P|468:200|467:129,1,112,8|2,0:0|0:3,0:0:0:0:
499,47,159198,1,0,3:0:0:0:
241,23,159373,5,8,0:0:0:0:
380,90,159547,1,8,0:0:0:0:
218,149,159722,1,8,0:3:0:0:
293,108,159896,1,4,0:3:0:0:
343,224,160070,1,8,0:0:0:0:
298,188,160245,1,8,0:3:0:0:
232,358,160419,1,4,0:3:0:0:
271,265,160594,1,8,0:3:0:0:
512,367,160768,5,4,3:2:0:0:
394,305,160942,1,2,0:2:0:0:
403,325,161117,2,0,L|290:334,1,83.9999974365235,2|0,0:0|0:2,0:0:0:0:
108,259,161466,6,0,B|154:227|154:227|140:354,1,168,12|2,0:2|0:2,0:0:0:0:
26,384,162163,1,2,0:0:0:0:
39,369,162338,2,0,P|34:293|2:189,1,167.999994873047,2|0,0:0|0:0,0:0:0:0:
88,98,162861,2,0,L|-11:116,1,83.9999974365235,10|0,0:0|0:0,0:0:0:0:
159,19,163210,2,0,L|241:34,1,83.9999974365235,2|0,3:2|0:0,0:0:0:0:
463,218,163559,6,0,P|457:167|466:115,1,83.9999974365235,6|0,3:2|0:0,0:0:0:0:
503,27,163908,1,2,0:0:0:0:
362,1,164082,1,2,3:2:0:0:
375,134,164256,1,10,0:0:0:0:
318,71,164431,2,0,P|278:62|189:157,1,167.999994873047,2|0,0:0|3:2,0:0:0:0:
251,265,164954,5,12,0:0:0:0:
66,218,165129,1,2,3:2:0:0:
134,356,165303,1,2,3:2:0:0:
137,329,165390,1,8,0:3:0:0:
141,304,165477,1,4,0:3:0:0:
329,195,165652,2,0,L|339:292,1,83.9999974365235,10|2,0:2|3:2,0:0:0:0:
503,367,166001,2,0,L|513:270,1,83.9999974365235,0|10,0:0|0:2,0:0:0:0:
512,79,166349,6,0,P|461:35|324:29,1,196,4|0,3:2|0:0,0:0:0:0:
198,47,167047,2,0,P|235:51|292:113,1,112,12|0,0:2|0:0,0:0:0:0:
288,224,167570,1,0,3:0:0:0:
204,136,167745,1,8,0:0:0:0:
31,369,168094,6,0,L|24:269,1,84,0|0,3:0|0:0,0:0:0:0:
74,272,168442,2,0,L|82:157,1,105,10|0,0:0|0:0,0:0:0:0:
27,192,168791,2,0,L|12:50,1,136.499993751526,2|0,3:0|0:0,0:0:0:0:
129,0,169140,6,0,B|227:-1|301:101|283:169|183:183|158:132,1,315.000012016297,4|0,3:2|3:0,0:0:0:0:
317,18,169838,2,0,B|429:17|369:123|522:109,1,210.000008010865,8|2,0:0|0:3,0:0:0:0:
488,13,170361,1,2,0:3:0:0:
439,223,170535,6,0,L|337:135,1,105.000004005432,12|0,0:0|3:3,0:0:0:0:
135,238,170884,2,0,L|273:259,1,112,8|0,0:0|3:2,0:0:0:0:
227,36,171233,2,0,L|160:163,1,119.000002269745,8|0,0:0|3:3,0:0:0:0:
374,384,171582,2,0,L|355:238,1,125.999996154785,8|0,0:0|3:3,0:0:0:0:
302,83,171931,5,8,0:0:0:0:
98,98,172105,1,0,3:2:0:0:
318,106,172280,1,8,0:0:0:0:
113,116,172454,1,0,3:2:0:0:
231,280,172629,5,10,0:0:0:0:
209,154,172803,1,8,0:0:0:0:
187,29,172977,1,10,0:0:0:0:
200,40,173152,5,14,0:0:0:0:
256,192,173239,12,0,181349,0:0:0:0:
