osu file format v14

[General]
AudioFilename: audio.mp3
AudioLeadIn: 0
PreviewTime: 79053
Countdown: 0
SampleSet: Soft
StackLeniency: 0.5
Mode: 0
LetterboxInBreaks: 0
WidescreenStoryboard: 1

[Editor]
Bookmarks: 90319,131466
DistanceSpacing: 1
BeatDivisor: 8
GridSize: 32
TimelineZoom: 1.9

[Metadata]
Title:Closure
TitleUnicode:Closure
Artist:PUP
ArtistUnicode:PUP
Creator:spoes
Version:Resolute
Source:
Tags:sylvarus english punk rock morbid stuff featured artist fa male vocals pathetic use of potential
BeatmapID:2451713
BeatmapSetID:1175467

[Difficulty]
HPDrainRate:6
CircleSize:4.4
OverallDifficulty:8.4
ApproachRate:9.2
SliderMultiplier:1.7
SliderTickRate:1

[Events]
//Background and Video events
0,0,"closureee.jpg",0,0
//Break Periods
2,11666,15954
2,36782,41594
//Storyboard Layer 0 (Background)
//Storyboard Layer 1 (Fail)
//Storyboard Layer 2 (Pass)
//Storyboard Layer 3 (Foreground)
//Storyboard Layer 4 (Overlay)
//Storyboard Sound Samples

[TimingPoints]
-4584,348.837209302326,4,2,0,70,1,0
299,-100,4,2,1,80,0,0
822,-71.4285714285714,4,2,1,80,0,0
3002,-71.4285714285714,4,2,1,5,0,0
3090,-71.4285714285714,4,2,1,80,0,0
3441,348.837209302326,4,2,1,80,1,0
3441,-71.4285714285714,4,2,1,80,0,0
5446,-71.4285714285714,4,2,1,5,0,0
5534,-71.4285714285714,4,2,1,80,0,0
6929,-71.4285714285714,4,2,1,80,0,0
8236,-71.4285714285714,4,2,1,5,0,0
8324,-71.4285714285714,4,2,1,80,0,0
8676,348.837209302326,4,2,1,80,1,0
8676,-71.4285714285714,4,2,1,80,0,0
16524,-125,4,2,1,50,0,0
17048,-100,4,2,1,60,0,0
22541,-100,4,2,1,5,0,0
22629,-83.3333333333333,4,2,1,75,0,0
27076,-83.3333333333333,4,2,1,5,0,0
27164,-83.3333333333333,4,2,1,75,0,0
28471,-83.3333333333333,4,2,1,5,0,0
28559,-83.3333333333333,4,2,1,75,0,0
28820,-83.3333333333333,4,2,1,5,0,0
28908,-83.3333333333333,4,2,1,75,0,0
31001,-71.4285714285714,4,2,1,75,0,0
33792,-500,4,2,1,50,0,0
45652,-500,4,2,1,80,0,0
46176,-71.4285714285714,4,2,1,80,0,0
48355,-71.4285714285714,4,2,1,5,0,0
48443,-71.4285714285714,4,2,1,80,0,0
48792,348.837209302326,4,2,1,80,1,0
48792,-71.4285714285714,4,2,1,80,0,0
50797,-71.4285714285714,4,2,1,5,0,0
50885,-71.4285714285714,4,2,1,80,0,0
52280,-71.4285714285714,4,2,1,80,0,0
53587,-71.4285714285714,4,2,1,5,0,0
53675,-71.4285714285714,4,2,1,80,0,0
54024,348.837209302326,4,2,1,80,1,0
54040,-71.4285714285714,4,2,1,80,0,0
56815,-100,4,2,1,60,0,0
57512,-100,4,2,1,60,0,0
67890,-100,4,2,1,5,0,0
67978,-71.4285714285714,4,2,1,90,0,0
70593,-71.4285714285714,4,2,1,70,0,0
70768,-71.4285714285714,4,2,1,90,0,0
75128,-71.4285714285714,4,2,1,70,0,0
75303,-71.4285714285714,4,2,1,90,0,0
75477,-71.4285714285714,4,2,1,70,0,0
75651,-71.4285714285714,4,2,1,90,0,0
79124,-100,4,2,1,70,0,0
87512,-83.3333333333333,4,2,1,70,0,0
87774,-83.3333333333333,4,2,1,5,0,0
87862,-83.3333333333333,4,2,1,70,0,0
88122,-83.3333333333333,4,2,1,5,0,0
88210,-83.3333333333333,4,2,1,70,0,0
89649,-83.3333333333333,4,2,1,5,0,0
90319,348.837209302326,4,2,1,80,1,0
90319,-166.666666666667,4,2,1,60,0,0
92673,-166.666666666667,4,2,1,5,0,0
92760,-166.666666666667,4,2,1,60,0,0
93021,-166.666666666667,4,2,1,5,0,0
93109,-166.666666666667,4,2,1,60,0,0
97905,-166.666666666667,4,2,1,5,0,0
97993,-166.666666666667,4,2,1,60,0,0
98254,-166.666666666667,4,2,1,5,0,0
98342,-166.666666666667,4,2,1,60,0,0
98603,-166.666666666667,4,2,1,5,0,0
98691,-166.666666666667,4,2,1,60,0,0
101481,-125,4,2,1,60,0,0
102091,-125,4,2,1,5,0,0
102179,-125,4,2,1,60,0,0
102789,-125,4,2,1,5,0,0
102877,-125,4,2,1,60,0,0
103487,-125,4,2,1,5,0,0
103574,-125,4,2,1,60,0,0
103835,-125,4,2,1,5,0,0
103923,-125,4,2,1,60,0,0
104184,-125,4,2,1,5,0,0
104272,-125,4,2,1,60,0,0
105667,-111.111111111111,4,2,1,60,0,0
108807,-111.111111111111,4,2,1,60,0,0
109068,-111.111111111111,4,2,1,5,0,0
109156,-111.111111111111,4,2,1,60,0,0
109417,-111.111111111111,4,2,1,5,0,0
109505,-111.111111111111,4,2,1,60,0,0
109679,-111.111111111111,4,2,1,5,0,0
109853,-111.111111111111,4,2,1,60,0,0
112644,-166.666666666666,4,2,1,40,0,0
117513,348.837209302326,4,2,1,40,1,0
117513,-166.666666666667,4,2,1,40,0,0
118821,-166.666666666667,4,2,1,5,0,0
118908,-166.666666666667,4,2,1,40,0,0
121611,-166.666666666667,4,2,1,5,0,0
121698,-166.666666666667,4,2,1,40,0,0
122397,348.837209302326,4,2,1,40,1,0
122397,-166.666666666667,4,2,1,40,0,0
125099,-166.666666666667,4,2,1,5,0,0
125187,-166.666666666667,4,2,1,40,0,0
127192,-166.666666666667,4,2,1,5,0,0
127280,-166.666666666667,4,2,1,40,0,0
127978,-125,4,2,1,50,0,0
130332,-125,4,2,1,5,0,0
130420,-125,4,2,1,50,0,0
132862,348.837209302326,4,2,1,50,1,0
132862,-125,4,2,1,50,0,0
133123,-125,4,2,1,5,0,0
133210,-125,4,2,1,50,0,0
133559,-125,4,2,1,50,0,0
133820,-125,4,2,1,5,0,0
133907,-125,4,2,1,50,0,0
137745,348.837209302326,4,2,1,50,1,0
138006,-100,4,2,1,5,0,0
138093,-100,4,2,1,50,0,0
138703,-100,4,2,1,5,0,0
138790,-100,4,2,1,50,0,0
142629,348.837209302326,4,2,1,60,1,0
143587,-100,4,2,1,5,0,0
143675,-100,4,2,1,60,0,0
144285,-100,4,2,1,5,0,0
144373,-100,4,2,1,60,0,0
144983,-100,4,2,1,5,0,0
145070,-100,4,2,1,60,0,0
147512,-166.666666666667,4,2,1,60,0,0
148558,-166.666666666667,4,2,1,25,0,0
149605,-166.666666666667,4,2,1,60,0,0
151960,-166.666666666667,4,2,1,5,0,0
152047,-166.666666666667,4,2,1,60,0,0
152308,-166.666666666667,4,2,1,5,0,0
152396,-166.666666666667,4,2,1,60,0,0
155797,-166.666666666667,4,2,1,5,0,0
155884,-166.666666666667,4,2,1,60,0,0
156320,-166.666666666667,4,2,1,5,0,0
156408,-166.666666666667,4,2,1,60,0,0
156931,-166.666666666667,4,2,1,60,0,0
157192,-166.666666666667,4,2,1,5,0,0
157280,-166.666666666667,4,2,1,60,0,0
157541,-166.666666666667,4,2,1,5,0,0
157629,-166.666666666667,4,2,1,60,0,0
157890,-166.666666666667,4,2,1,5,0,0
157977,-166.666666666667,4,2,1,60,0,0
160768,-125,4,2,1,65,0,0
162512,-125,4,2,1,65,0,0
162773,-125,4,2,1,5,0,0
162861,-125,4,2,1,65,0,0
163122,-125,4,2,1,5,0,0
163210,-125,4,2,1,65,0,0
163471,-125,4,2,1,5,0,0
163559,-125,4,2,1,65,0,0
170361,-125,4,2,1,80,0,0
170535,-83.3333333333333,4,2,1,90,0,0
173239,-83.3333333333333,4,2,1,5,0,0

[Colours]
Combo1 : 168,123,123
Combo2 : 126,136,222
Combo3 : 191,134,238
Combo4 : 247,162,125

[HitObjects]
512,255,299,5,8,0:0:0:0:
327,175,474,1,8,0:0:0:0:
178,340,648,1,8,0:0:0:0:
87,182,822,6,0,B|32:173|11:224|11:224|64:288|161:238,1,237.999992736817,14|0,0:0|3:0,0:0:0:0:
345,168,1346,2,0,B|394:141|439:151|439:151|424:166|403:164,1,118.999996368408,10|0,0:0|3:0,0:0:0:0:
340,322,1695,1,10,0:0:0:0:
87,182,1869,1,0,3:0:0:0:
338,66,2043,1,10,0:0:0:0:
161,12,2218,6,0,B|127:79|165:127|165:127|231:98|294:146,1,237.999992736817,6|0,3:2|3:0,0:0:0:0:
474,276,2741,2,0,B|446:317|446:317|438:258|438:258|447:233|447:233|402:159,1,178.499994552612,10|0,0:0|0:0,0:0:0:0:
406,170,3090,1,10,0:0:0:0:
249,349,3264,1,10,0:0:0:0:
22,157,3441,6,0,B|-4:152|-4:152|101:136,1,118.999996368408,10|0,0:0|3:0,0:0:0:0:
310,73,3789,2,0,B|335:67|335:67|230:57,1,118.999996368408,10|0,0:0|3:0,0:0:0:0:
78,22,4138,1,10,0:0:0:0:
192,254,4313,1,0,3:0:0:0:
47,326,4487,1,10,0:0:0:0:
160,66,4661,1,6,3:2:0:0:
250,332,4836,6,0,B|262:355|312:373|373:352,1,118.999996368408,8|0,0:0|3:0,0:0:0:0:
452,52,5185,2,0,B|414:76|384:101|425:214,1,178.499994552612,10|0,0:0|0:0,0:0:0:0:
428,230,5534,1,10,0:3:0:0:
311,27,5708,1,4,0:3:0:0:
159,150,5882,1,10,0:3:0:0:
104,12,6056,1,6,0:3:0:0:
242,311,6231,6,0,B|274:315|288:291|288:291|234:240|182:343|80:283,1,237.999992736817,14|10,0:0|0:0,0:0:0:0:
450,230,6754,1,0,3:0:0:0:
461,225,6842,1,0,3:0:0:0:
470,220,6929,2,0,P|424:184|353:213,1,118.999996368408,10|0,0:0|3:0,0:0:0:0:
229,296,7278,1,10,0:0:0:0:
27,136,7452,6,0,B|71:160|67:212|67:212|20:231|-7:292|45:353,1,237.999992736817,6|0,3:2|3:0,0:0:0:0:
275,127,7975,2,0,B|309:107|309:107|219:118|219:118|143:95,1,178.499994552612,10|0,0:0|0:0,0:0:0:0:
153,92,8324,1,10,0:0:0:0:
294,346,8499,1,10,0:0:0:0:
407,216,8676,5,14,0:0:0:0:
307,193,8850,1,2,3:0:0:0:
499,184,9024,1,10,0:0:0:0:
230,253,9199,1,2,3:0:0:0:
512,179,9373,2,0,B|457:160|435:132|435:132|427:121|429:103,1,118.999996368408,10|0,0:0|3:0,0:0:0:0:
294,346,9722,2,0,B|331:321|372:324|372:324|362:346|362:346|334:339,1,118.999996368408,10|0,0:0|3:2,0:0:0:0:
116,218,10071,6,0,B|135:253|125:296|125:296|143:270|163:267,1,118.999996368408,10|0,0:0|3:0,0:0:0:0:
84,67,10420,2,0,B|65:102|75:145|75:145|57:119|37:116,1,118.999996368408,10|0,0:0|3:0,0:0:0:0:
410,219,10769,5,10,0:3:0:0:
243,163,10943,1,4,0:3:0:0:
174,342,11117,1,10,0:3:0:0:
0,374,11292,1,6,0:3:0:0:
33,286,11466,5,4,0:0:0:0:
266,351,16524,5,0,3:0:0:0:
199,265,16699,2,0,B|180:261|180:261|245:245,1,68,8|2,0:0|0:3,0:0:0:0:
313,272,16960,1,2,0:3:0:0:
327,277,17048,6,0,B|368:284|403:254|403:254|440:243|473:260|473:260|461:300,1,170,4|8,3:2|0:0,0:0:0:0:
337,197,17571,1,10,0:3:0:0:
337,197,17745,2,0,P|325:155|364:110,1,85,6|4,0:3|0:3,0:0:0:0:
428,98,18094,1,10,0:0:0:0:
243,177,18269,1,6,0:3:0:0:
243,177,18443,6,0,B|181:168|181:168|207:188,1,85,8|6,0:3|0:3,0:0:0:0:
61,244,18792,2,0,B|123:235|123:235|97:255,1,85,8|4,0:0|0:3,0:0:0:0:
245,276,19141,1,4,0:3:0:0:
245,276,19315,1,4,0:3:0:0:
111,344,19489,1,8,0:2:0:0:
0,285,19664,1,4,0:3:0:0:
0,285,19751,1,4,0:3:0:0:
0,285,19838,6,0,B|29:203|72:254|92:104,1,170,10|8,0:3|0:0,0:0:0:0:
22,70,20362,1,6,0:3:0:0:
22,70,20536,2,0,P|58:42|102:48,1,85,10|4,0:3|0:3,0:0:0:0:
199,164,20885,1,10,0:0:0:0:
361,82,21059,1,6,0:3:0:0:
361,82,21234,6,0,B|298:70|298:70|322:63,1,85,8|6,0:3|0:3,0:0:0:0:
447,129,21582,2,0,B|510:117|510:117|486:110,1,85,8|4,0:0|0:3,0:0:0:0:
323,231,21931,1,10,0:3:0:0:
305,152,22106,1,10,0:0:0:0:
448,331,22280,2,0,B|459:285|483:264|483:264|459:284|431:280,1,127.5,10|0,0:0|0:0,0:0:0:0:
341,326,22629,6,0,B|281:306|194:338|194:338|221:322|241:293,1,203.999993774414,6|8,3:2|0:0,0:0:0:0:
4,65,23327,1,2,0:0:0:0:
33,159,23501,1,2,3:2:0:0:
66,247,23676,2,0,P|116:245|163:263,1,101.999996887207,10|0,0:0|3:2,0:0:0:0:
419,348,24024,6,0,B|363:289|379:217|379:217|409:195|454:212,2,203.999993774414,2|8|2,3:2|0:0|0:0,0:0:0:0:
267,199,24896,1,0,3:2:0:0:
448,73,25071,1,10,0:0:0:0:
292,19,25245,1,0,3:2:0:0:
155,56,25420,6,0,B|214:112|285:95|285:95|308:66|291:21,2,203.999993774414,2|8|2,3:2|0:0|0:0,0:0:0:0:
341,159,26292,1,0,3:2:0:0:
213,130,26466,1,10,0:0:0:0:
157,340,26641,1,2,3:2:0:0:
274,271,26815,6,0,P|314:272|399:347,1,152.999995330811,2|0,3:2|0:0,0:0:0:0:
256,256,27164,1,10,0:0:0:0:
360,164,27338,1,2,0:0:0:0:
83,97,27513,2,0,P|70:49|96:-3,1,101.999996887207,2|0,0:0|3:2,0:0:0:0:
19,210,27862,1,10,0:0:0:0:
231,30,28036,1,0,3:2:0:0:
368,85,28210,6,0,B|432:89|483:76|483:76|488:60|488:38,1,152.999995330811,6|0,3:2|0:0,0:0:0:0:
488,30,28559,2,0,B|488:50|483:66|483:66|432:79|368:75,1,152.999995330811,8|0,0:0|0:0,0:0:0:0:
243,39,28908,1,2,0:0:0:0:
446,153,29082,1,0,3:2:0:0:
266,209,29257,1,8,0:0:0:0:
266,209,29431,1,0,3:2:0:0:
512,364,29606,6,0,L|481:265,1,101.999996887207,2|2,3:3|0:3,0:0:0:0:
446,153,29955,2,0,L|415:54,1,101.999996887207,10|2,0:0|0:3,0:0:0:0:
175,193,30303,1,2,0:3:0:0:
199,275,30478,1,0,3:2:0:0:
301,121,30652,1,8,0:0:0:0:
277,39,30827,1,0,3:2:0:0:
272,26,30914,1,0,3:2:0:0:
266,13,31001,6,0,P|213:1|171:66,1,118.999996368408,12|0,0:0|3:2,0:0:0:0:
374,227,31350,2,0,P|431:209|491:185,1,118.999996368408,8|0,0:0|3:2,0:0:0:0:
222,354,31699,2,0,P|277:332|334:314,1,118.999996368408,8|0,0:0|3:2,0:0:0:0:
4,362,32048,2,0,P|60:344|116:322,1,118.999996368408,8|0,0:0|3:2,0:0:0:0:
304,25,32396,5,8,0:0:0:0:
74,77,32571,1,0,3:2:0:0:
92,178,32745,2,0,B|79:204|79:204|41:239|-14:236,1,118.999996368408,8|0,0:0|3:2,0:0:0:0:
211,244,33094,5,10,0:3:0:0:
323,121,33269,1,4,0:3:0:0:
423,172,33443,1,6,0:3:0:0:
512,145,33617,1,6,0:3:0:0:
181,125,33792,6,0,B|210:108|226:75|226:75|186:181|242:277,1,272,4|2,0:0|0:3,0:0:0:0:
256,192,42164,12,0,44955,0:0:0:0:
0,229,45652,5,8,0:0:0:0:
193,115,45827,1,8,0:0:0:0:
324,237,46001,1,8,0:0:0:0:
472,97,46176,6,0,B|470:174|390:183|390:183|420:118|359:58,1,237.999992736817,14|0,0:0|3:0,0:0:0:0:
251,279,46699,2,0,B|234:316|234:357|234:357|229:347|230:316,1,118.999996368408,10|0,0:0|3:0,0:0:0:0:
363,321,47048,1,10,0:0:0:0:
149,246,47222,1,0,3:0:0:0:
387,104,47396,1,10,0:0:0:0:
134,44,47571,6,0,B|168:63|213:42|213:42|261:88|177:137|262:208,1,237.999992736817,6|0,3:2|3:0,0:0:0:0:
41,275,48094,2,0,B|35:289|25:299|25:299|65:280|100:211|31:140,1,178.499994552612,10|0,0:0|0:0,0:0:0:0:
40,157,48443,1,10,0:0:0:0:
218,333,48617,1,10,0:0:0:0:
459,168,48792,6,0,B|484:162|484:162|379:152,1,118.999996368408,10|0,0:0|3:0,0:0:0:0:
204,126,49140,2,0,B|179:120|179:120|284:110,1,118.999996368408,10|0,0:0|3:0,0:0:0:0:
404,57,49489,1,10,0:0:0:0:
471,302,49664,1,0,3:0:0:0:
363,279,49838,1,10,0:0:0:0:
512,78,50012,1,6,3:2:0:0:
270,318,50187,6,0,P|222:352|165:343,1,118.999996368408,8|0,0:0|3:0,0:0:0:0:
60,52,50536,2,0,B|98:76|128:101|87:214,1,178.499994552612,10|0,0:0|0:0,0:0:0:0:
84,230,50885,1,10,0:3:0:0:
173,15,51059,1,4,0:3:0:0:
294,246,51233,1,10,0:3:0:0:
343,91,51408,1,6,0:3:0:0:
84,326,51582,6,0,B|52:330|38:306|38:306|142:327|125:264|246:298,1,237.999992736817,14|10,0:0|0:0,0:0:0:0:
30,206,52105,1,0,3:0:0:0:
18,204,52193,1,0,3:2:0:0:
9,200,52280,2,0,P|43:157|123:177,1,118.999996368408,10|0,0:0|3:0,0:0:0:0:
299,329,52629,1,10,0:0:0:0:
434,237,52803,6,0,B|461:227|483:201|483:201|471:157|433:137|433:137|389:182|337:187,1,237.999992736817,6|0,3:2|3:0,0:0:0:0:
218,44,53326,2,0,B|204:50|194:60|194:60|213:20|295:-15|353:54,1,178.499994552612,10|0,0:0|0:0,0:0:0:0:
333,50,53675,1,10,0:0:0:0:
286,331,53850,1,10,0:0:0:0:
124,191,54024,5,14,0:0:0:0:
246,157,54199,1,2,3:0:0:0:
32,159,54373,1,10,0:0:0:0:
323,217,54548,1,2,3:0:0:0:
18,156,54722,2,0,B|47:120|89:117|89:117|100:100|93:75,1,118.999996368408,10|0,0:0|3:0,0:0:0:0:
178,329,55071,2,0,B|141:304|100:307|100:307|110:329|110:329|138:322,1,118.999996368408,10|0,0:0|3:2,0:0:0:0:
404,246,55419,6,0,B|385:281|395:324|395:324|377:298|357:295,1,118.999996368408,10|0,0:0|3:0,0:0:0:0:
425,58,55768,2,0,B|444:93|434:136|434:136|452:110|472:107,1,118.999996368408,10|0,0:0|3:0,0:0:0:0:
215,238,56117,5,10,0:3:0:0:
314,213,56292,1,4,0:3:0:0:
2,262,56466,1,10,0:3:0:0:
101,237,56640,1,6,0:3:0:0:
75,51,56815,6,0,B|27:37|-19:81|38:202,1,170,4|8,0:0|0:0,0:0:0:0:
70,315,57338,1,0,0:0:0:0:
70,315,57512,2,0,P|116:321|154:348,1,85,2|6,0:3|0:3,0:0:0:0:
275,282,57861,2,0,P|317:283|355:266,1,85,10|10,0:0|0:3,0:0:0:0:
347,98,58210,5,4,0:3:0:0:
347,98,58385,1,4,0:3:0:0:
302,198,58559,1,8,0:0:0:0:
212,47,58733,5,4,0:3:0:0:
205,36,58821,1,4,0:3:0:0:
197,24,58908,1,10,0:3:0:0:
351,84,59082,1,4,0:3:0:0:
145,119,59257,1,10,0:0:0:0:
53,76,59431,1,6,0:3:0:0:
12,222,59605,6,0,B|30:177|94:149|87:233|184:194,1,170,4|10,0:3|0:0,0:0:0:0:
260,165,60129,1,10,0:3:0:0:
322,289,60303,2,0,B|298:309|298:309|226:292,1,85,6|4,0:3|0:3,0:0:0:0:
322,85,60652,1,10,0:0:0:0:
398,234,60826,1,4,0:3:0:0:
458,179,61001,5,10,0:3:0:0:
458,179,61175,1,4,0:3:0:0:
244,159,61350,1,8,0:0:0:0:
453,85,61524,5,4,0:3:0:0:
470,80,61611,1,4,0:3:0:0:
488,73,61698,1,10,0:3:0:0:
330,19,61873,1,4,0:3:0:0:
303,210,62047,1,10,0:0:0:0:
391,306,62222,1,10,0:3:0:0:
224,307,62396,6,0,B|240:295|256:292|256:292|190:250|190:329|96:266,1,170,4|8,0:3|0:0,0:0:0:0:
7,216,62919,1,4,0:3:0:0:
7,216,63094,2,0,B|21:237|21:237|-5:320,1,85,10|4,0:3|0:3,0:0:0:0:
123,98,63443,1,10,0:0:0:0:
123,98,63617,6,0,B|109:119|109:119|135:202,1,85,10|4,0:3|0:3,0:0:0:0:
217,196,63966,1,6,0:3:0:0:
114,0,64140,1,8,0:0:0:0:
263,32,64315,5,4,0:3:0:0:
285,28,64402,1,4,0:3:0:0:
302,25,64489,1,10,0:3:0:0:
446,132,64664,1,4,0:3:0:0:
337,109,64838,1,10,0:0:0:0:
280,259,65012,1,10,0:3:0:0:
401,315,65187,6,0,B|457:340|505:303|505:303|468:323|470:360,1,170,4|8,0:3|0:0,0:0:0:0:
444,241,65710,1,6,0:3:0:0:
444,241,65885,1,10,0:3:0:0:
322,109,66059,1,6,0:3:0:0:
457,80,66233,2,0,B|487:75|508:62|508:62|490:73|487:89,1,85,10|4,0:0|0:3,0:0:0:0:
266,250,66582,6,0,B|257:243|257:243|229:255|197:250|197:250|188:223,1,85,10|6,0:3|0:3,0:0:0:0:
409,318,66931,2,0,P|450:324|487:306,1,85,8|6,0:0|0:3,0:0:0:0:
316,186,67280,1,8,0:3:0:0:
207,339,67454,1,10,0:0:0:0:
18,303,67629,2,0,B|53:304|81:284|81:284|104:253|97:219,1,127.5,10|0,0:0|0:0,0:0:0:0:
22,223,67978,5,14,0:0:0:0:
22,223,68326,1,10,0:0:0:0:
22,223,68675,1,10,0:0:0:0:
367,125,68850,1,8,0:0:0:0:
330,313,69025,1,10,0:0:0:0:
62,25,69373,5,10,0:0:0:0:
62,25,69722,1,8,0:0:0:0:
62,25,70071,1,8,0:0:0:0:
260,221,70245,1,8,0:0:0:0:
86,358,70420,1,8,0:0:0:0:
3,299,70594,1,2,0:0:0:0:
338,343,70769,5,10,0:0:0:0:
338,343,71118,1,8,0:0:0:0:
338,343,71466,1,10,0:0:0:0:
432,22,71641,1,10,0:0:0:0:
497,190,71815,1,10,0:0:0:0:
275,49,71990,1,2,0:0:0:0:
164,121,72164,5,8,0:0:0:0:
164,121,72513,1,10,0:0:0:0:
164,121,72862,2,0,B|143:32|143:32|126:78,1,118.999996368408,14|0,0:0|3:0,0:0:0:0:
94,294,73211,2,0,B|73:383|73:383|56:337,1,118.999996368408,10|2,0:0|3:2,0:0:0:0:
0,128,73559,5,14,0:0:0:0:
0,128,73908,1,8,0:0:0:0:
0,128,74257,1,8,0:0:0:0:
173,319,74431,1,10,0:0:0:0:
415,178,74606,1,10,0:0:0:0:
415,178,74955,6,0,B|438:82|438:82|454:118,1,118.999996368408,10|0,0:0|0:0,0:0:0:0:
323,257,75304,2,0,B|299:353|299:353|291:335,1,118.999996368408,10|0,0:0|0:0,0:0:0:0:
241,74,75652,1,10,0:0:0:0:
472,272,75827,1,10,0:0:0:0:
386,20,76001,1,10,0:0:0:0:
116,218,76176,1,2,0:0:0:0:
0,142,76350,5,10,0:0:0:0:
0,142,76699,1,8,0:0:0:0:
0,142,77048,1,8,0:0:0:0:
181,25,77222,1,8,0:0:0:0:
272,318,77397,1,8,0:0:0:0:
479,120,77745,5,10,0:0:0:0:
479,120,78094,1,8,0:0:0:0:
479,120,78443,1,10,0:0:0:0:
153,68,78618,1,0,3:0:0:0:
213,171,78792,1,10,0:0:0:0:
495,14,78966,1,2,3:0:0:0:
337,287,79141,6,0,P|361:234|425:241,1,127.5,4|0,3:2|0:0,0:0:0:0:
428,257,79490,2,0,P|459:267|497:231,1,85,0|0,3:0|0:0,0:0:0:0:
417,129,79838,1,0,3:0:0:0:
280,223,80013,1,10,0:3:0:0:
251,217,80100,1,4,0:3:0:0:
224,212,80187,1,6,0:3:0:0:
145,305,80362,1,4,0:3:0:0:
116,311,80449,1,4,0:3:0:0:
89,316,80536,1,6,3:2:0:0:
0,234,80711,5,2,0:0:0:0:
0,234,80885,2,0,P|25:204|88:229,1,85,0|2,3:0|0:0,0:0:0:0:
249,353,81234,1,2,3:2:0:0:
132,297,81408,1,8,0:3:0:0:
105,302,81495,1,4,0:3:0:0:
76,308,81582,1,6,0:3:0:0:
272,210,81757,1,4,0:3:0:0:
243,204,81844,1,4,0:3:0:0:
216,199,81931,1,6,3:2:0:0:
370,146,82106,5,0,0:0:0:0:
370,146,82280,2,0,P|385:108|364:73,1,85,2|0,3:2|0:0,0:0:0:0:
107,18,82629,1,0,3:2:0:0:
143,143,82804,1,10,0:3:0:0:
137,172,82891,1,4,0:3:0:0:
132,199,82978,1,6,0:3:0:0:
225,278,83151,1,6,0:3:0:0:
231,307,83239,1,4,0:3:0:0:
236,334,83327,1,6,3:2:0:0:
95,293,83501,5,0,0:0:0:0:
95,293,83676,2,0,B|32:282|32:282|54:267,1,85,2|2,3:2|0:0,0:0:0:0:
265,160,84025,1,2,3:2:0:0:
211,267,84199,1,10,0:3:0:0:
217,296,84286,1,4,0:3:0:0:
222,323,84373,1,4,0:3:0:0:
133,130,84548,1,4,0:3:0:0:
127,159,84635,1,4,0:3:0:0:
122,186,84722,1,6,3:2:0:0:
14,33,85071,5,2,3:3:0:0:
14,33,85245,1,2,3:3:0:0:
225,177,85420,1,2,3:3:0:0:
284,94,85594,1,6,0:3:0:0:
313,88,85681,1,4,0:3:0:0:
340,83,85768,1,6,0:3:0:0:
440,227,85943,1,4,0:3:0:0:
469,233,86030,1,4,0:3:0:0:
496,238,86117,1,6,3:2:0:0:
506,135,86292,5,2,0:0:0:0:
506,135,86466,2,0,P|472:110|432:119,1,85,2|2,3:2|3:2,0:0:0:0:
314,269,86815,1,2,3:0:0:0:
456,215,86990,1,6,0:3:0:0:
485,221,87077,1,4,0:3:0:0:
512,227,87164,1,4,0:3:0:0:
272,105,87338,1,6,0:3:0:0:
301,99,87425,1,4,0:3:0:0:
325,93,87513,6,0,B|420:69|420:69|385:53|385:53|367:77,1,152.999995330811,4|0,3:2|0:0,0:0:0:0:
255,248,87862,2,0,B|204:275|148:261|148:261|120:235|155:184,1,152.999995330811,10|0,0:2|0:0,0:0:0:0:
356,258,88211,2,0,P|381:310|364:387,1,101.999996887207,2|0,3:3|0:0,0:0:0:0:
209,148,88559,2,0,P|184:96|201:19,1,101.999996887207,10|0,0:2|3:0,0:0:0:0:
491,202,88908,5,2,3:3:0:0:
491,202,89083,1,0,3:0:0:0:
271,84,89257,1,8,0:2:0:0:
15,293,89431,1,0,3:0:0:0:
13,3,89606,6,0,L|24:39,1,25.4999992218018,14|0,3:3|0:0,0:0:0:0:
0,0,90319,6,0,L|56:204,2,203.999993774414,4|12|2,3:2|0:2|0:3,0:0:0:0:
246,168,92063,1,0,3:0:0:0:
22,300,92412,2,0,L|108:279,1,76.4999976654053,8|0,0:0|0:0,0:0:0:0:
102,304,92760,2,0,L|185:322,1,76.4999976654053,0|0,3:0|0:0,0:0:0:0:
273,299,93109,6,0,P|318:282|323:178,1,152.999995330811,4|0,3:2|3:0,0:0:0:0:
161,147,93807,1,8,0:0:0:0:
484,100,94330,1,0,3:0:0:0:
397,54,94505,5,8,0:0:0:0:
437,290,94679,1,8,0:0:0:0:
367,363,94853,1,8,0:3:0:0:
275,230,95028,1,4,0:3:0:0:
155,341,95202,2,0,L|105:331,1,50.9999984436036,8|8,0:0|0:3,0:0:0:0:
49,272,95551,2,0,L|-1:283,1,50.9999984436036,4|4,0:3|0:3,0:0:0:0:
339,196,95900,6,0,L|139:139,1,203.999993774414,4|12,3:2|0:2,0:0:0:0:
410,102,97121,1,2,0:2:0:0:
313,55,97295,1,2,0:3:0:0:
300,47,97644,2,0,L|317:134,1,76.4999976654053,0|0,3:0|0:0,0:0:0:0:
335,141,97993,2,0,L|307:231,1,76.4999976654053,8|0,0:0|0:0,0:0:0:0:
243,286,98342,2,0,P|265:309|309:314,1,76.4999976654053,0|0,3:0|0:0,0:0:0:0:
189,232,98691,6,0,P|204:301|140:330,1,152.999995330811,4|0,3:2|3:0,0:0:0:0:
38,188,99388,1,8,0:0:0:0:
38,188,99737,1,2,0:3:0:0:
111,243,99912,1,0,3:0:0:0:
180,24,100086,5,8,0:0:0:0:
180,24,100260,1,8,0:0:0:0:
391,144,100435,2,0,L|444:134,1,50.9999984436036,8|4,0:3|0:3,0:0:0:0:
270,192,100784,2,0,L|220:183,1,50.9999984436036,8|8,0:0|0:3,0:0:0:0:
506,80,101133,1,4,0:3:0:0:
470,244,101307,1,8,0:3:0:0:
511,323,101481,6,0,P|453:260|310:279,1,238,4|0,3:2|0:0,0:0:0:0:
146,313,102179,2,0,B|113:370|156:403|254:399|218:240,1,238,12|0,0:2|0:0,0:0:0:0:
191,158,102877,1,2,0:3:0:0:
0,66,103226,2,0,P|54:89|103:69,1,102,2|0,3:2|0:0,0:0:0:0:
105,55,103574,2,0,B|122:28|146:25|146:25|177:39|177:90,1,102,10|0,0:0|0:0,0:0:0:0:
214,163,103923,2,0,B|196:190|196:190|213:267,1,102,2|0,3:2|0:0,0:0:0:0:
95,353,104272,6,0,B|133:333|144:282|144:282|154:312|186:332,1,136,6|2,3:2|0:0,0:0:0:0:
378,325,104795,1,2,3:2:0:0:
336,183,104970,1,10,0:0:0:0:
433,81,105144,2,0,L|416:158,1,68,2|2,0:0|0:3,0:0:0:0:
465,272,105493,1,0,3:2:0:0:
170,110,105667,5,12,0:0:0:0:
276,62,105842,1,2,3:2:0:0:
338,183,106016,2,0,P|387:179|423:145,1,76.4999976654053,2|2,3:2|3:2,0:0:0:0:
472,288,106365,5,10,0:2:0:0:
198,223,106539,1,2,3:2:0:0:
97,307,106713,1,10,0:2:0:0:
0,274,106888,1,10,0:2:0:0:
332,191,107063,6,0,B|381:167|404:245|392:283|310:346|252:280,1,229.499992996216,4|0,3:2|3:0,0:0:0:0:
75,224,107760,2,0,B|146:105|55:89|99:4,1,229.499992996216,12|2,0:2|0:2,0:0:0:0:
307,100,108458,2,0,B|319:100|323:91|323:91|291:106|234:93,1,76.4999976654053,8|0,0:0|0:0,0:0:0:0:
457,43,108807,2,0,B|441:26|441:26|466:128,1,114.749996498108,0|0,3:0|0:0,0:0:0:0:
391,181,109156,2,0,B|407:164|407:164|382:266,1,114.749996498108,10|0,0:0|0:0,0:0:0:0:
507,286,109505,2,0,B|494:273|494:273|515:357,1,76.4999976654053,0|0,3:0|0:0,0:0:0:0:
261,161,109853,6,0,P|184:173|102:182,1,152.999995330811,4|2,3:2|0:3,0:0:0:0:
0,187,110377,1,0,3:0:0:0:
236,245,110551,2,0,P|311:265|389:290,1,152.999995330811,8|2,0:0|0:3,0:0:0:0:
485,327,111075,1,0,3:0:0:0:
466,124,111249,6,0,B|436:104|420:81|420:81|397:93|397:111|397:111|453:142|468:224,1,229.499992996216,8|0,0:0|3:0,0:0:0:0:
316,79,111946,1,8,0:0:0:0:
210,60,112121,1,8,0:3:0:0:
121,98,112295,1,4,0:3:0:0:
89,170,112470,1,4,0:3:0:0:
103,202,112644,6,0,L|68:-1,1,203.999993774414,4|8,0:0|0:0,0:0:0:0:
242,216,113691,2,0,L|272:222,3,25.4999992218018,2|2|2|2,0:0|0:0|0:0|0:0,0:0:0:0:
228,211,114040,2,0,L|284:200,1,50.9999984436036,0|0,3:0|0:0,0:0:0:0:
357,246,114388,2,0,L|407:255,1,50.9999984436036,0|0,3:0|0:0,0:0:0:0:
507,201,114737,1,8,0:0:0:0:
507,201,115086,2,0,P|487:169|488:149,1,50.9999984436036,2|0,3:3|0:0,0:0:0:0:
420,78,115435,6,0,P|405:112|389:123,1,50.9999984436036,4|2,0:2|0:0,0:0:0:0:
352,198,115784,2,0,P|314:203|296:194,1,50.9999984436036,2|2,0:3|3:2,0:0:0:0:
213,211,116133,2,0,P|189:181|188:161,1,50.9999984436036,10|0,0:2|0:0,0:0:0:0:
271,54,116481,2,0,L|265:94,3,25.4999992218018,2|2|2|2,3:2|0:0|0:0|0:0,0:0:0:0:
264,113,116830,5,10,0:0:0:0:
264,113,117005,1,2,0:3:0:0:
166,29,117179,1,2,0:3:0:0:
112,134,117353,1,2,0:3:0:0:
35,122,117513,6,0,L|141:107,2,101.999996887207,4|2|8,0:0|0:3|0:0,0:0:0:0:
102,319,118559,2,0,B|122:316|144:305|151:249,1,76.4999976654053,2|0,0:2|0:0,0:0:0:0:
157,246,118908,5,0,3:0:0:0:
223,338,119082,1,8,0:0:0:0:
276,211,119257,1,0,3:0:0:0:
276,211,119431,1,0,3:0:0:0:
347,261,119606,2,0,L|397:256,1,50.9999984436036,8|0,0:0|0:0,0:0:0:0:
440,178,119954,2,0,L|473:171,3,25.4999992218018,2|2|2|2,3:3|0:0|0:0|0:0,0:0:0:0:
490,170,120303,6,0,P|475:135|459:124,1,50.9999984436036,0|2,3:2|0:0,0:0:0:0:
422,50,120652,2,0,P|384:44|366:53,1,50.9999984436036,2|2,0:3|3:2,0:0:0:0:
283,37,121001,2,0,P|259:66|258:86,1,50.9999984436036,10|0,0:2|0:0,0:0:0:0:
324,233,121350,2,0,B|340:220|353:199|329:148,1,76.4999976654053,2|2,3:2|0:0,0:0:0:0:
322,141,121699,5,10,0:0:0:0:
322,141,121873,1,2,0:3:0:0:
218,244,122047,1,2,0:3:0:0:
132,187,122222,1,2,0:3:0:0:
57,206,122397,6,0,P|88:220|149:199,2,101.999996887207,4|2|8,0:0|0:3|0:0,0:0:0:0:
27,62,123443,2,0,L|22:29,3,25.4999992218018,2|2|2|2,0:0|0:0|0:0|0:0,0:0:0:0:
20,16,123792,5,0,3:0:0:0:
113,98,123966,1,8,0:0:0:0:
209,55,124141,2,0,B|253:47|253:47|242:40,1,50.9999984436036,0|0,3:0|3:0,0:0:0:0:
333,112,124490,2,0,L|327:163,1,50.9999984436036,8|0,0:0|0:0,0:0:0:0:
388,275,124838,2,0,B|400:288|421:301|472:277,1,76.4999976654053,2|0,0:3|0:0,0:0:0:0:
477,279,125187,6,0,P|446:256|426:256,1,50.9999984436036,0|8,3:2|0:0,0:0:0:0:
325,336,125536,2,0,P|307:354|283:361,1,50.9999984436036,2|2,0:3|3:2,0:0:0:0:
190,313,125885,2,0,P|182:288|188:264,1,50.9999984436036,10|0,0:2|0:0,0:0:0:0:
288,228,126234,1,2,3:2:0:0:
13,117,126583,5,10,0:0:0:0:
114,77,126757,1,8,0:2:0:0:
245,115,126931,2,0,L|340:99,1,76.4999976654053,8|0,0:2|0:0,0:0:0:0:
349,96,127280,5,10,0:0:0:0:
205,244,127455,1,8,0:3:0:0:
79,214,127629,1,6,0:3:0:0:
103,73,127803,1,6,0:3:0:0:
274,304,127978,6,0,B|357:310|333:237|402:274,1,136,4|2,3:2|0:0,0:0:0:0:
396,271,128676,2,0,P|379:221|376:190,1,68,8|0,0:0|0:0,0:0:0:0:
369,114,129024,2,0,P|383:63|399:36,1,68,2|2,0:0|0:0,0:0:0:0:
300,166,129373,6,0,B|262:152|262:152|227:154|244:205|170:208,1,136,10|2,0:0|3:2,0:0:0:0:
4,107,129897,1,2,0:0:0:0:
92,127,130071,2,0,B|179:107|179:107|170:126,1,102,8|0,0:0|0:0,0:0:0:0:
171,137,130420,1,2,0:3:0:0:
171,137,130594,1,0,3:2:0:0:
67,43,130769,5,8,0:0:0:0:
30,189,130943,1,8,0:0:0:0:
80,247,131117,2,0,P|42:265|-2:260,1,68,2|0,0:3|3:2,0:0:0:0:
242,300,131466,2,0,P|204:282|160:287,1,68,8|0,0:0|0:0,0:0:0:0:
304,371,131815,2,0,L|344:362,3,34,2|2|2|2,3:2|0:0|0:0|0:0,0:0:0:0:
366,357,132164,5,8,0:0:0:0:
366,357,132338,1,0,3:0:0:0:
255,291,132513,1,2,0:3:0:0:
416,230,132687,1,0,3:0:0:0:
308,70,132862,6,0,B|276:83|268:118|308:186,1,102,8|0,0:0|0:0,0:0:0:0:
298,176,133210,2,0,P|278:140|249:117,1,68,2|0,3:2|0:0,0:0:0:0:
100,186,133559,2,0,B|113:218|148:226|216:185,1,102,10|0,0:0|0:0,0:0:0:0:
206,196,133907,2,0,P|169:216|147:245,1,68,2|0,0:3|3:2,0:0:0:0:
338,344,134257,6,0,L|350:273,1,68,10|0,0:0|0:0,0:0:0:0:
427,208,134606,1,2,3:2:0:0:
427,208,134780,1,2,0:0:0:0:
330,335,134955,2,0,L|341:267,1,68,10|0,0:0|0:0,0:0:0:0:
501,156,135303,1,2,0:3:0:0:
501,156,135478,1,2,3:2:0:0:
368,32,135652,5,8,0:0:0:0:
368,32,135827,1,8,0:0:0:0:
262,167,136001,2,0,B|251:176|251:176|314:169,1,68,2|0,0:3|3:2,0:0:0:0:
445,229,136350,1,8,0:0:0:0:
151,66,136699,1,2,3:2:0:0:
151,66,137048,5,8,0:0:0:0:
151,66,137222,1,0,3:0:0:0:
261,138,137397,1,2,0:3:0:0:
93,184,137571,1,0,3:0:0:0:
244,344,137745,6,0,B|233:301|233:301|231:258|231:258|219:204,1,127.5,8|0,0:0|0:0,0:0:0:0:
214,204,138093,2,0,P|183:212|217:251,1,85,2|0,3:2|0:0,0:0:0:0:
347,268,138442,2,0,B|390:257|390:257|433:255|433:255|487:243,1,127.5,8|0,0:0|0:0,0:0:0:0:
487,238,138790,2,0,P|479:207|440:241,1,85,2|0,3:2|3:0,0:0:0:0:
404,355,139140,1,10,0:2:0:0:
328,91,139489,1,0,3:0:0:0:
108,228,139838,2,0,B|84:204|86:166|86:166|70:228|16:249,1,170,8|2,0:0|0:3,0:0:0:0:
169,170,140361,1,0,3:0:0:0:
61,337,140535,5,8,0:0:0:0:
61,337,140710,1,8,0:0:0:0:
262,285,140884,2,0,B|281:277|281:277|202:267,1,85,2|0,0:3|3:2,0:0:0:0:
12,251,141233,1,8,0:0:0:0:
132,84,141582,1,0,3:0:0:0:
355,353,141931,5,8,0:0:0:0:
355,353,142105,1,8,0:0:0:0:
429,184,142279,1,2,0:3:0:0:
468,273,142454,1,0,3:0:0:0:
230,165,142629,6,0,P|250:128|248:64,1,85,12|0,0:0|0:0,0:0:0:0:
218,2,142977,1,2,3:3:0:0:
131,219,143326,2,0,B|95:279|59:203|3:300,1,127.5,10|0,0:0|0:0,0:0:0:0:
4,291,143675,2,0,P|19:247|-4:202,1,85,2|0,3:3|0:0,0:0:0:0:
185,302,144024,2,0,B|247:270|237:353|336:301,1,127.5,10|0,0:0|0:0,0:0:0:0:
325,311,144373,2,0,P|314:270|281:245,1,85,2|2,3:3|0:0,0:0:0:0:
422,74,144722,2,0,P|404:129|403:231,1,127.5,10|0,0:0|0:0,0:0:0:0:
403,222,145070,1,2,3:3:0:0:
44,320,145419,6,0,B|99:337|153:303|153:303|148:331|169:359,2,170,10|2|10,0:0|3:3|0:0,0:0:0:0:
235,310,146466,1,2,3:3:0:0:
79,58,146815,5,8,3:3:0:0:
68,83,146902,1,8,3:3:0:0:
52,98,146989,1,8,3:3:0:0:
56,132,147076,1,8,3:3:0:0:
88,142,147163,5,4,3:3:0:0:
114,155,147250,1,4,3:3:0:0:
106,191,147337,1,4,3:3:0:0:
129,236,147424,1,4,3:3:0:0:
115,251,147512,6,0,B|72:266|43:241|43:241|73:203|165:197|145:263|268:218,1,305.999990661621,14|2,3:3|0:3,0:0:0:0:
512,0,149605,6,0,L|456:204,2,203.999993774414,4|12|2,3:2|0:2|0:3,0:0:0:0:
205,181,151349,1,0,3:0:0:0:
488,314,151699,2,0,L|402:335,1,76.4999976654053,8|0,0:0|0:0,0:0:0:0:
398,312,152047,2,0,L|315:294,1,76.4999976654053,0|0,3:0|0:0,0:0:0:0:
183,273,152396,6,0,B|214:262|214:262|252:286|243:352|199:371,1,152.999995330811,4|0,3:2|3:0,0:0:0:0:
83,307,153094,1,8,0:0:0:0:
442,239,153617,1,0,3:0:0:0:
343,213,153791,5,8,0:0:0:0:
322,344,153966,1,8,0:0:0:0:
508,183,154140,1,8,0:3:0:0:
478,97,154315,1,4,0:3:0:0:
328,227,154489,5,8,0:0:0:0:
188,167,154663,1,8,0:3:0:0:
98,242,154838,1,4,0:3:0:0:
17,202,155012,1,4,0:3:0:0:
188,6,155187,6,0,P|227:85|304:129,1,178.499994552612,4|0,3:2|0:0,0:0:0:0:
411,149,155884,2,0,P|361:139|279:155,1,127.499996109009,12|0,0:2|0:0,0:0:0:0:
194,199,156408,1,8,0:2:0:0:
30,113,156582,2,0,P|34:79|61:55,1,50.9999984436036,2|0,0:3|0:0,0:0:0:0:
91,223,156931,2,0,L|71:301,1,76.4999976654053,0|0,3:0|0:0,0:0:0:0:
19,356,157280,2,0,P|53:385|86:369,1,76.4999976654053,8|0,0:0|0:0,0:0:0:0:
214,295,157629,2,0,L|296:312,1,76.4999976654053,0|0,3:0|0:0,0:0:0:0:
426,320,157977,6,0,L|266:338,1,152.999995330811,4|0,3:2|3:0,0:0:0:0:
388,174,158675,2,0,P|416:207|482:217,1,101.999996887207,8|2,0:0|0:3,0:0:0:0:
464,137,159198,1,0,3:0:0:0:
235,245,159373,5,8,0:0:0:0:
259,323,159547,1,8,0:0:0:0:
132,142,159722,1,8,0:3:0:0:
108,220,159896,1,4,0:3:0:0:
357,46,160070,5,8,0:0:0:0:
333,124,160244,1,8,0:3:0:0:
224,81,160419,1,4,0:3:0:0:
200,3,160593,1,8,0:3:0:0:
9,237,160768,5,4,3:2:0:0:
9,237,160942,2,0,P|51:188|115:214,1,136,2|2,0:2|0:2,0:0:0:0:
161,360,161466,2,0,P|221:380|263:331,1,136,12|2,0:2|0:2,0:0:0:0:
392,158,161989,2,0,B|377:107|312:115|312:115|318:98|342:97,1,136,2|0,0:2|0:0,0:0:0:0:
469,246,162512,2,0,L|361:260,1,102,2|0,3:2|0:0,0:0:0:0:
291,204,162861,2,0,B|246:197|246:197|235:200|235:200|189:190,1,102,10|0,0:0|0:0,0:0:0:0:
58,282,163210,2,0,P|109:290|142:249,1,102,2|0,3:2|0:0,0:0:0:0:
159,99,163559,6,0,B|164:69|164:69|191:188,1,136,6|2,3:2|0:0,0:0:0:0:
226,321,164082,1,2,3:2:0:0:
450,228,164256,1,10,0:0:0:0:
365,192,164431,1,2,0:0:0:0:
219,333,164605,2,0,L|139:349,1,68,2|0,0:3|3:2,0:0:0:0:
276,117,164954,5,12,0:0:0:0:
137,358,165129,1,2,3:2:0:0:
342,323,165303,1,2,3:2:0:0:
342,323,165390,1,8,0:3:0:0:
342,323,165477,1,4,0:3:0:0:
56,171,165652,5,10,0:2:0:0:
235,234,165826,2,0,B|286:242|334:220|334:220|348:207|348:176,1,136,2|10,3:2|0:2,0:0:0:0:
509,384,166349,6,0,L|430:95,2,272,4|12|8,3:2|0:2|0:0,0:0:0:0:
280,231,168094,1,0,3:0:0:0:
498,86,168442,1,10,0:0:0:0:
330,0,168791,1,2,3:0:0:0:
320,284,169140,6,0,B|282:260|206:237|218:297|179:330|108:309,1,204,4|0,3:2|3:0,0:0:0:0:
20,108,169838,2,0,B|51:86|82:108|61:143|49:182|84:199,1,136,8|2,0:0|0:3,0:0:0:0:
265,313,170361,6,0,P|243:321|224:325,1,34,2|2,0:3|0:0,0:0:0:0:
116,312,170535,2,0,P|59:330|1:358,1,101.999996887207,12|0,0:0|3:3,0:0:0:0:
296,163,170884,2,0,P|249:183|200:198,1,101.999996887207,8|0,0:0|3:2,0:0:0:0:
494,173,171233,2,0,P|437:191|379:219,1,101.999996887207,8|0,0:0|3:3,0:0:0:0:
100,198,171582,2,0,P|43:180|-15:152,1,101.999996887207,8|0,0:0|3:3,0:0:0:0:
278,321,171931,2,0,P|231:300|182:285,1,101.999996887207,8|0,0:0|3:2,0:0:0:0:
489,331,172280,2,0,P|432:313|374:285,1,101.999996887207,8|0,0:0|3:2,0:0:0:0:
149,0,172629,5,10,0:0:0:0:
201,164,172803,1,8,0:0:0:0:
38,254,172977,1,10,0:0:0:0:
24,353,173152,5,14,0:0:0:0:
256,192,173239,12,0,181349,0:0:0:0:
