osu file format v14

[General]
AudioFilename: audio.mp3
AudioLeadIn: 0
PreviewTime: 47077
Countdown: 0
SampleSet: None
StackLeniency: 0.2
Mode: 0
LetterboxInBreaks: 0
WidescreenStoryboard: 1

[Editor]
DistanceSpacing: 1.3
BeatDivisor: 4
GridSize: 4
TimelineZoom: 1.7

[Metadata]
Title:Bare Hands
TitleUnicode:Bare Hands
Artist:PUP
ArtistUnicode:PUP
Creator:Solitaire
Version:Hitsounds
Source:
Tags:Morbid Stuff Alena Aenami
BeatmapID:2072417
BeatmapSetID:984892

[Difficulty]
HPDrainRate:6
CircleSize:4
OverallDifficulty:9
ApproachRate:9.2
SliderMultiplier:2
SliderTickRate:1

[Events]
//Background and Video events
0,0,"alena-aenami-imhere1k.jpg",0,0
//Break Periods
//Storyboard Layer 0 (Background)
//Storyboard Layer 1 (Fail)
//Storyboard Layer 2 (Pass)
//Storyboard Layer 3 (Foreground)
//Storyboard Sound Samples

[TimingPoints]
83,346.820809248555,4,3,1,60,1,0
7192,-100,4,3,1,20,0,0
7366,-100,4,3,1,25,0,0
7539,-100,4,3,1,30,0,0
7713,-100,4,3,1,35,0,0
7886,-100,4,3,1,40,0,0
8059,-100,4,3,1,45,0,0
8233,-100,4,3,1,50,0,0
8406,-200,4,3,1,60,0,0
8406,-200,4,3,1,50,0,0
19504,-100,4,3,1,60,0,0
29909,-200,4,3,1,40,0,0
41701,-100,4,3,1,60,0,0
47250,-76.9230769230769,4,3,1,60,0,0
68059,-100,4,3,1,60,0,0
74302,-142.857142857143,4,3,1,50,0,0
80545,-200,4,3,1,40,0,0
102741,-142.857142857143,4,3,1,45,0,0
116614,-142.857142857143,4,3,1,55,0,0
119389,-76.923076923077,4,3,1,60,0,0
163782,-142.857142857143,4,3,1,50,0,0
174880,-142.857142857143,4,3,1,60,0,0
174980,-142.857142857143,4,3,1,50,0,0
181817,-142.857142857143,4,3,1,60,0,0
183204,-142.857142857143,4,3,1,70,0,0
186065,382.165605095541,4,3,1,60,1,0
186065,-166.666666666667,4,3,1,10,0,0
210523,-166.666666666667,4,3,1,8,0,0
212052,-166.666666666667,4,3,1,6,0,0
213580,-166.666666666667,4,3,1,5,0,0

[Colours]
Combo1 : 44,29,56
Combo2 : 245,118,56
Combo3 : 209,12,12
Combo4 : 149,183,32

[HitObjects]
255,192,83,5,10,0:2:0:0:
255,192,1123,1,10,0:2:0:0:
255,192,1470,1,10,0:2:0:0:
255,192,2510,1,10,0:2:0:0:
255,192,2857,1,10,0:2:0:0:
255,192,4938,1,10,0:2:0:0:
255,192,5632,1,10,0:2:0:0:
255,192,6672,1,10,0:2:0:0:
255,192,7019,1,10,0:2:0:0:
255,192,7192,1,8,0:0:0:0:
255,192,7366,1,8,0:0:0:0:
255,192,7539,1,8,0:0:0:0:
255,192,7713,1,8,0:0:0:0:
255,192,7886,1,8,0:0:0:0:
255,192,8059,1,8,0:0:0:0:
255,192,8233,1,8,0:0:0:0:
255,192,8406,1,12,0:2:0:0:
255,191,8926,1,8,0:0:0:0:
255,191,9100,1,8,0:2:0:0:
255,191,9447,1,8,0:2:0:0:
255,191,9793,1,8,0:2:0:0:
255,191,10140,1,8,0:2:0:0:
255,191,10227,1,8,0:2:0:0:
255,191,10314,1,8,0:2:0:0:
255,191,10487,1,8,0:0:0:0:
255,191,10834,1,8,0:2:0:0:
255,191,11181,1,8,0:2:0:0:
256,191,11528,1,10,0:2:0:0:
256,191,11701,1,10,0:0:0:0:
255,191,12048,1,8,0:2:0:0:
255,191,12221,1,8,0:2:0:0:
255,191,12568,1,8,0:2:0:0:
256,191,13088,1,8,0:0:0:0:
256,191,13262,1,8,0:0:0:0:
255,191,13435,1,8,0:2:0:0:
255,191,13609,1,8,0:2:0:0:
255,191,13782,1,8,0:2:0:0:
255,191,13955,1,8,0:2:0:0:
255,191,14129,1,8,0:2:0:0:
255,191,14302,1,8,0:2:0:0:
255,191,14476,1,8,0:0:0:0:
255,191,14996,1,8,0:2:0:0:
255,191,15169,1,8,0:2:0:0:
255,191,15343,1,8,0:2:0:0:
255,191,15689,1,8,0:2:0:0:
255,191,15776,1,8,0:2:0:0:
255,191,15863,1,8,0:2:0:0:
255,191,16036,1,8,0:0:0:0:
255,191,16383,1,8,0:2:0:0:
255,191,16730,1,8,0:2:0:0:
255,191,17077,1,10,0:2:0:0:
255,191,17250,1,10,0:0:0:0:
255,191,17770,1,8,0:2:0:0:
255,191,18117,1,8,0:2:0:0:
256,191,18637,1,8,0:0:0:0:
256,191,18811,1,8,0:0:0:0:
255,191,18984,1,8,0:2:0:0:
255,191,19158,1,8,0:2:0:0:
255,191,19331,1,8,0:2:0:0:
256,191,19504,1,14,0:2:0:0:
256,191,20025,1,10,0:2:0:0:
256,191,20545,1,10,0:2:0:0:
256,191,20892,1,10,0:2:0:0:
256,191,21412,1,10,0:2:0:0:
256,191,21932,1,10,0:2:0:0:
256,191,22279,1,10,0:2:0:0:
256,191,22799,1,10,0:2:0:0:
256,191,23319,1,10,0:2:0:0:
255,191,23666,1,12,0:0:0:0:
255,191,24013,1,12,0:0:0:0:
255,191,24360,1,8,0:0:0:0:
256,191,24533,1,8,0:2:0:0:
256,191,24707,1,8,0:2:0:0:
256,191,24880,1,8,0:2:0:0:
255,192,25054,1,12,0:2:0:0:
255,192,25400,1,2,0:0:0:0:
255,192,25574,1,8,0:2:0:0:
255,192,25747,1,8,0:0:0:0:
255,192,25921,1,8,0:2:0:0:
255,192,26007,1,8,0:2:0:0:
255,192,26094,1,10,0:2:0:0:
255,192,26267,1,8,0:2:0:0:
255,192,26354,1,8,0:2:0:0:
255,192,26441,1,12,0:2:0:0:
255,192,26788,1,10,0:2:0:0:
255,192,26961,1,8,0:2:0:0:
255,192,27134,1,8,0:0:0:0:
255,192,27308,1,8,0:2:0:0:
255,192,27395,1,8,0:2:0:0:
255,192,27482,1,12,0:2:0:0:
256,191,27828,1,10,0:0:0:0:
255,192,28002,1,8,0:2:0:0:
255,192,28175,1,8,0:2:0:0:
256,191,28348,1,10,0:0:0:0:
255,192,28522,1,8,0:2:0:0:
255,192,28695,1,8,0:2:0:0:
256,191,28869,1,10,0:0:0:0:
255,192,29043,1,8,0:2:0:0:
256,191,29215,1,10,0:0:0:0:
255,192,29389,1,8,0:2:0:0:
255,192,29562,1,8,0:2:0:0:
255,191,29736,1,10,0:0:0:0:
255,191,29909,1,10,0:0:0:0:
255,192,30083,1,8,0:2:0:0:
255,192,30256,1,8,0:2:0:0:
255,192,30429,1,8,0:2:0:0:
255,192,30603,1,12,0:2:0:0:
255,191,31123,1,8,0:0:0:0:
255,191,31297,1,8,0:2:0:0:
255,191,31644,1,8,0:2:0:0:
255,191,31990,1,8,0:2:0:0:
255,191,32337,1,8,0:2:0:0:
255,191,32424,1,8,0:2:0:0:
255,191,32511,1,8,0:2:0:0:
255,191,32684,1,8,0:0:0:0:
255,191,33031,1,8,0:2:0:0:
255,191,33378,1,8,0:2:0:0:
256,191,33725,1,10,0:2:0:0:
256,191,33898,1,10,0:0:0:0:
255,191,34245,1,8,0:2:0:0:
255,191,34418,1,8,0:2:0:0:
255,191,34765,1,8,0:2:0:0:
256,191,35285,1,8,0:0:0:0:
256,191,35459,1,8,0:0:0:0:
255,191,35632,1,8,0:2:0:0:
255,191,35806,1,8,0:2:0:0:
255,191,35979,1,8,0:2:0:0:
255,191,36152,1,8,0:2:0:0:
255,191,36326,1,8,0:2:0:0:
255,191,36499,1,8,0:2:0:0:
255,191,36673,1,8,0:0:0:0:
255,191,37193,1,8,0:2:0:0:
255,191,37366,1,8,0:2:0:0:
255,191,37540,1,8,0:2:0:0:
255,191,37886,1,8,0:2:0:0:
255,191,37973,1,8,0:2:0:0:
255,191,38060,1,8,0:2:0:0:
255,191,38233,1,8,0:0:0:0:
255,191,38580,1,8,0:2:0:0:
255,191,38927,1,8,0:2:0:0:
255,191,39274,1,10,0:2:0:0:
255,191,39447,1,10,0:0:0:0:
255,191,39967,1,8,0:2:0:0:
255,191,40314,1,8,0:2:0:0:
256,191,40834,1,8,0:0:0:0:
256,191,41008,1,8,0:0:0:0:
255,191,41181,1,8,0:2:0:0:
255,191,41355,1,8,0:2:0:0:
255,191,41528,1,8,0:2:0:0:
256,191,41701,1,14,0:2:0:0:
256,191,42222,1,10,0:2:0:0:
256,191,42742,1,10,0:2:0:0:
256,191,43089,1,10,0:2:0:0:
256,191,43609,1,10,0:2:0:0:
256,191,44129,1,10,0:2:0:0:
256,191,44476,1,10,0:2:0:0:
256,191,44996,1,10,0:2:0:0:
256,191,45516,1,10,0:2:0:0:
255,191,45863,1,12,0:0:0:0:
255,191,46210,1,12,0:0:0:0:
255,191,46557,1,8,0:0:0:0:
256,191,47250,1,12,0:2:0:0:
256,191,47597,1,10,0:2:0:0:
256,191,47944,1,2,0:0:0:0:
256,191,48291,1,2,0:0:0:0:
256,191,48464,1,8,0:2:0:0:
256,191,48637,1,10,0:0:0:0:
256,191,48984,1,10,0:2:0:0:
256,191,49331,1,2,0:0:0:0:
256,191,49678,1,2,0:0:0:0:
256,191,50025,1,10,0:2:0:0:
256,191,50372,1,10,0:2:0:0:
256,191,50718,1,2,0:0:0:0:
256,191,51065,1,2,0:0:0:0:
256,191,51239,1,8,0:2:0:0:
256,191,51412,1,10,0:0:0:0:
256,191,51759,1,10,0:2:0:0:
256,191,52106,1,10,0:0:0:0:
256,191,52452,1,2,0:0:0:0:
256,191,52799,1,12,0:2:0:0:
256,191,53146,1,10,0:2:0:0:
256,191,53493,1,2,0:0:0:0:
256,191,53840,1,2,0:0:0:0:
256,191,54013,1,8,0:2:0:0:
256,191,54187,1,10,0:0:0:0:
256,191,54533,1,10,0:2:0:0:
256,191,54880,1,2,0:0:0:0:
256,191,55227,1,2,0:0:0:0:
256,191,55574,1,10,0:2:0:0:
256,191,55921,1,10,0:2:0:0:
256,191,56267,1,2,0:0:0:0:
256,191,56614,1,2,0:0:0:0:
256,191,56788,1,8,0:2:0:0:
256,191,56961,1,8,0:0:0:0:
256,191,57135,1,8,0:2:0:0:
256,191,57308,1,8,0:2:0:0:
256,191,57481,1,8,0:2:0:0:
256,191,57655,1,8,0:0:0:0:
256,191,57828,1,8,0:2:0:0:
256,191,58002,1,8,0:2:0:0:
256,191,58175,1,8,0:2:0:0:
256,191,58348,1,12,0:2:0:0:
256,191,58695,1,2,0:0:0:0:
256,191,58869,1,8,0:2:0:0:
256,191,59042,1,10,0:0:0:0:
256,191,59215,1,8,0:2:0:0:
256,191,59389,1,2,0:0:0:0:
256,191,59562,1,8,0:2:0:0:
256,191,59736,1,10,0:2:0:0:
256,191,60083,1,2,0:0:0:0:
256,191,60256,1,8,0:2:0:0:
256,191,60429,1,10,0:0:0:0:
256,191,60776,1,2,0:0:0:0:
256,191,61123,1,10,0:2:0:0:
256,191,61470,1,2,0:0:0:0:
256,191,61643,1,8,0:2:0:0:
256,191,61817,1,10,0:0:0:0:
256,191,62163,1,2,0:0:0:0:
256,191,62337,1,8,0:2:0:0:
256,191,62510,1,10,0:0:0:0:
256,191,62857,1,10,0:2:0:0:
256,191,63204,1,10,0:0:0:0:
256,191,63377,1,8,0:2:0:0:
256,191,63551,1,2,0:0:0:0:
256,191,63724,1,8,0:2:0:0:
256,191,63898,1,10,0:0:0:0:
255,192,64072,1,8,0:2:0:0:
255,192,64245,1,8,0:2:0:0:
256,191,64418,1,10,0:0:0:0:
255,192,64592,1,8,0:2:0:0:
255,192,64765,1,8,0:2:0:0:
256,191,64939,1,10,0:0:0:0:
255,192,65113,1,8,0:2:0:0:
256,191,65285,1,10,0:0:0:0:
255,192,65459,1,8,0:2:0:0:
255,192,65632,1,8,0:2:0:0:
256,191,65805,1,10,0:0:0:0:
255,192,65979,1,8,0:2:0:0:
255,192,66152,1,8,0:2:0:0:
256,191,66326,1,10,0:0:0:0:
255,192,66500,1,8,0:2:0:0:
256,191,66672,1,10,0:0:0:0:
255,192,66846,1,8,0:2:0:0:
255,192,67019,1,8,0:2:0:0:
256,191,67192,1,10,0:0:0:0:
255,192,67366,1,8,0:2:0:0:
255,192,67539,1,8,0:2:0:0:
256,191,67713,1,10,0:0:0:0:
255,192,67887,1,8,0:2:0:0:
255,191,68059,1,8,0:2:0:0:
255,191,68175,1,8,0:2:0:0:
255,191,68291,1,8,0:2:0:0:
255,191,68406,1,8,0:2:0:0:
255,191,68522,1,8,0:2:0:0:
255,191,68638,1,8,0:2:0:0:
255,191,68753,1,10,0:0:0:0:
256,191,69447,1,12,0:2:0:0:
256,191,69967,1,12,0:2:0:0:
256,191,70487,1,12,0:2:0:0:
256,191,70834,1,12,0:2:0:0:
256,191,71354,1,12,0:2:0:0:
256,191,71874,1,10,0:2:0:0:
256,191,72221,1,14,0:0:0:0:
255,192,72395,1,8,0:2:0:0:
255,192,72568,1,8,0:2:0:0:
256,191,72741,1,10,0:0:0:0:
255,192,72915,1,8,0:2:0:0:
255,192,73088,1,8,0:2:0:0:
256,191,73262,1,10,0:0:0:0:
255,192,73436,1,8,0:2:0:0:
256,191,73608,1,10,0:0:0:0:
255,192,73782,1,8,0:2:0:0:
255,192,73955,1,8,0:2:0:0:
255,191,74129,1,10,0:0:0:0:
255,191,74302,1,10,0:0:0:0:
255,192,74476,1,8,0:2:0:0:
255,192,74649,1,8,0:2:0:0:
255,192,74822,1,8,0:2:0:0:
255,192,74996,1,12,0:2:0:0:
255,192,75342,1,2,0:0:0:0:
255,192,75516,1,8,0:2:0:0:
255,192,75689,1,8,0:0:0:0:
255,192,75863,1,8,0:2:0:0:
255,192,75949,1,8,0:2:0:0:
255,192,76036,1,10,0:2:0:0:
255,192,76209,1,8,0:2:0:0:
255,192,76296,1,8,0:2:0:0:
255,192,76383,1,12,0:2:0:0:
255,192,76730,1,10,0:2:0:0:
255,192,76903,1,8,0:2:0:0:
255,192,77076,1,8,0:0:0:0:
255,192,77250,1,8,0:2:0:0:
255,192,77337,1,8,0:2:0:0:
255,192,77424,1,14,0:2:0:0:
256,191,77770,1,10,0:0:0:0:
255,192,77944,1,8,0:2:0:0:
255,192,78117,1,8,0:2:0:0:
256,191,78290,1,10,0:0:0:0:
255,192,78464,1,8,0:2:0:0:
255,192,78637,1,8,0:2:0:0:
256,191,78811,1,10,0:0:0:0:
255,192,78985,1,8,0:2:0:0:
256,191,79157,1,10,0:0:0:0:
255,192,79331,1,8,0:2:0:0:
255,192,79504,1,8,0:2:0:0:
255,191,79678,1,10,0:0:0:0:
255,191,79851,1,10,0:0:0:0:
255,192,80025,1,8,0:2:0:0:
255,192,80198,1,8,0:2:0:0:
255,192,80371,1,8,0:2:0:0:
255,192,80545,1,12,0:2:0:0:
255,191,81065,1,8,0:0:0:0:
255,191,81239,1,8,0:2:0:0:
255,191,81586,1,10,0:2:0:0:
255,191,81932,1,10,0:2:0:0:
255,191,82106,1,8,0:2:0:0:
255,191,82279,1,8,0:2:0:0:
255,191,82366,1,8,0:2:0:0:
255,191,82453,1,8,0:2:0:0:
255,191,82626,1,8,0:0:0:0:
255,191,82973,1,8,0:2:0:0:
255,191,83320,1,10,0:2:0:0:
255,191,83493,1,8,0:2:0:0:
256,191,83667,1,10,0:2:0:0:
256,191,83840,1,8,0:0:0:0:
255,191,84360,1,8,0:2:0:0:
255,191,84707,1,8,0:2:0:0:
255,191,84880,1,8,0:2:0:0:
255,191,85054,1,8,0:2:0:0:
256,191,85227,1,8,0:0:0:0:
256,191,85401,1,8,0:0:0:0:
255,191,85574,1,8,0:2:0:0:
255,191,85748,1,8,0:2:0:0:
255,191,85921,1,8,0:2:0:0:
255,191,86094,1,8,0:2:0:0:
255,191,86268,1,8,0:2:0:0:
255,191,86441,1,8,0:2:0:0:
255,191,86615,1,8,0:0:0:0:
255,191,87135,1,10,0:2:0:0:
255,191,87308,1,8,0:2:0:0:
255,191,87482,1,10,0:2:0:0:
255,191,87828,1,8,0:2:0:0:
255,191,87915,1,8,0:2:0:0:
255,191,88002,1,8,0:2:0:0:
255,191,88175,1,8,0:0:0:0:
255,191,88522,1,8,0:2:0:0:
255,191,88869,1,8,0:2:0:0:
255,191,89042,1,8,0:2:0:0:
255,191,89216,1,10,0:2:0:0:
255,191,89389,1,8,0:0:0:0:
255,191,89909,1,8,0:2:0:0:
255,191,89996,1,8,0:2:0:0:
255,191,90083,1,8,0:2:0:0:
255,191,90169,1,8,0:2:0:0:
255,191,90256,1,8,0:2:0:0:
255,191,90429,1,8,0:2:0:0:
255,191,90603,1,8,0:2:0:0:
256,191,90776,1,8,0:0:0:0:
256,191,90950,1,8,0:0:0:0:
255,191,91123,1,8,0:2:0:0:
255,191,91297,1,8,0:2:0:0:
255,191,91470,1,8,0:2:0:0:
256,191,91643,1,14,0:2:0:0:
256,191,92164,1,10,0:2:0:0:
256,191,92684,1,10,0:2:0:0:
256,191,93031,1,10,0:2:0:0:
256,191,93551,1,10,0:2:0:0:
256,191,94071,1,10,0:2:0:0:
256,191,94418,1,10,0:2:0:0:
256,191,94938,1,10,0:2:0:0:
256,191,95458,1,10,0:2:0:0:
256,191,95805,1,10,0:2:0:0:
256,191,96325,1,10,0:2:0:0:
256,191,96845,1,10,0:2:0:0:
256,191,97192,1,14,0:2:0:0:
256,191,97712,1,10,0:2:0:0:
256,191,98232,1,10,0:2:0:0:
256,191,98580,1,10,0:2:0:0:
256,191,99100,1,10,0:2:0:0:
256,191,99620,1,10,0:2:0:0:
256,191,99967,1,10,0:2:0:0:
256,191,100487,1,10,0:2:0:0:
256,191,101007,1,10,0:2:0:0:
256,191,101354,1,10,0:2:0:0:
256,191,101874,1,10,0:2:0:0:
256,191,102394,1,10,0:2:0:0:
256,191,102741,1,8,0:0:0:0:
255,192,102915,1,8,0:2:0:0:
255,192,103088,1,8,0:2:0:0:
256,191,103261,1,8,0:0:0:0:
255,192,103435,1,8,0:2:0:0:
255,192,103608,1,8,0:2:0:0:
256,191,103782,1,8,0:0:0:0:
255,192,103955,1,8,0:2:0:0:
256,191,104129,1,8,0:0:0:0:
255,192,104303,1,8,0:2:0:0:
255,192,104476,1,8,0:2:0:0:
256,191,104649,1,8,0:0:0:0:
255,192,104823,1,8,0:2:0:0:
255,192,104996,1,8,0:2:0:0:
256,191,105170,1,8,0:0:0:0:
255,192,105343,1,8,0:2:0:0:
256,191,105516,1,8,0:0:0:0:
255,192,105690,1,8,0:2:0:0:
255,192,105863,1,8,0:2:0:0:
256,191,106036,1,8,0:0:0:0:
255,192,106210,1,8,0:2:0:0:
255,192,106383,1,8,0:2:0:0:
256,191,106557,1,8,0:0:0:0:
255,192,106730,1,8,0:2:0:0:
256,191,106903,1,8,0:0:0:0:
255,192,107077,1,8,0:2:0:0:
255,192,107250,1,8,0:2:0:0:
256,191,107423,1,8,0:0:0:0:
255,192,107597,1,8,0:2:0:0:
255,192,107770,1,8,0:2:0:0:
256,191,107944,1,8,0:0:0:0:
255,192,108117,1,8,0:2:0:0:
256,191,108291,1,8,0:0:0:0:
255,192,108465,1,8,0:2:0:0:
255,192,108638,1,8,0:2:0:0:
256,191,108811,1,8,0:0:0:0:
255,192,108985,1,8,0:2:0:0:
255,192,109158,1,8,0:2:0:0:
256,191,109332,1,8,0:0:0:0:
255,192,109505,1,8,0:2:0:0:
256,191,109678,1,8,0:0:0:0:
255,192,109852,1,8,0:2:0:0:
255,192,110025,1,8,0:2:0:0:
256,191,110198,1,8,0:0:0:0:
255,192,110372,1,8,0:2:0:0:
255,192,110545,1,8,0:2:0:0:
256,191,110719,1,8,0:0:0:0:
255,192,110892,1,8,0:2:0:0:
256,191,111065,1,8,0:0:0:0:
255,192,111239,1,8,0:2:0:0:
255,192,111412,1,8,0:2:0:0:
256,191,111585,1,8,0:0:0:0:
255,192,111759,1,8,0:2:0:0:
255,192,111932,1,8,0:2:0:0:
256,191,112106,1,8,0:0:0:0:
255,192,112279,1,8,0:2:0:0:
256,191,112452,1,8,0:0:0:0:
255,192,112626,1,8,0:2:0:0:
255,192,112799,1,8,0:2:0:0:
256,191,112972,1,8,0:0:0:0:
255,192,113146,1,8,0:2:0:0:
255,192,113319,1,8,0:2:0:0:
256,191,113493,1,8,0:0:0:0:
255,191,113840,1,10,0:0:0:0:
255,191,114013,1,8,0:2:0:0:
255,191,114187,1,8,0:2:0:0:
255,191,114360,1,8,0:2:0:0:
255,191,114533,1,8,0:2:0:0:
255,191,114707,1,8,0:2:0:0:
255,191,114880,1,8,0:2:0:0:
255,191,115054,1,8,0:2:0:0:
255,191,115227,1,8,0:2:0:0:
255,191,115400,1,8,0:2:0:0:
255,191,115574,1,8,0:2:0:0:
255,191,115747,1,8,0:2:0:0:
255,191,115921,1,8,0:2:0:0:
255,191,116094,1,8,0:2:0:0:
255,191,116267,1,8,0:2:0:0:
255,191,116441,1,8,0:2:0:0:
255,191,116614,1,8,0:0:0:0:
255,191,116788,1,8,0:0:0:0:
255,191,116961,1,8,0:0:0:0:
255,191,117135,1,8,0:0:0:0:
255,191,117308,1,8,0:0:0:0:
255,191,117481,1,8,0:0:0:0:
255,191,117655,1,8,0:0:0:0:
255,191,117828,1,8,0:0:0:0:
255,191,118002,1,12,0:0:0:0:
255,191,118348,1,12,0:0:0:0:
256,191,119389,1,12,0:2:0:0:
256,191,119736,1,10,0:2:0:0:
256,191,120083,1,2,0:0:0:0:
256,191,120430,1,2,0:0:0:0:
256,191,120603,1,8,0:2:0:0:
256,191,120776,1,10,0:0:0:0:
256,191,121123,1,10,0:2:0:0:
256,191,121470,1,2,0:0:0:0:
256,191,121817,1,2,0:0:0:0:
256,191,122164,1,10,0:2:0:0:
256,191,122511,1,10,0:2:0:0:
256,191,122857,1,2,0:0:0:0:
256,191,123204,1,2,0:0:0:0:
256,191,123378,1,8,0:2:0:0:
256,191,123551,1,10,0:0:0:0:
256,191,123898,1,10,0:2:0:0:
256,191,124245,1,10,0:0:0:0:
256,191,124591,1,2,0:0:0:0:
256,191,124938,1,12,0:2:0:0:
256,191,125285,1,10,0:2:0:0:
256,191,125632,1,2,0:0:0:0:
256,191,125979,1,2,0:0:0:0:
256,191,126152,1,8,0:2:0:0:
256,191,126326,1,10,0:0:0:0:
256,191,126672,1,10,0:2:0:0:
256,191,127019,1,2,0:0:0:0:
256,191,127366,1,2,0:0:0:0:
256,191,127713,1,10,0:2:0:0:
256,191,128060,1,10,0:2:0:0:
256,191,128406,1,2,0:0:0:0:
256,191,128753,1,2,0:0:0:0:
256,191,128927,1,8,0:2:0:0:
256,191,129100,1,8,0:0:0:0:
256,191,129274,1,8,0:2:0:0:
256,191,129447,1,8,0:2:0:0:
256,191,129533,1,8,0:2:0:0:
256,191,129620,1,8,0:2:0:0:
256,191,129707,1,8,0:2:0:0:
256,191,129794,1,8,0:0:0:0:
256,191,130487,1,12,0:2:0:0:
256,191,130834,1,2,0:0:0:0:
256,191,131008,1,8,0:2:0:0:
256,191,131181,1,10,0:0:0:0:
256,191,131354,1,8,0:2:0:0:
256,191,131528,1,2,0:0:0:0:
256,191,131701,1,8,0:2:0:0:
256,191,131875,1,10,0:2:0:0:
256,191,132222,1,2,0:0:0:0:
256,191,132395,1,8,0:2:0:0:
256,191,132568,1,10,0:0:0:0:
256,191,132741,1,8,0:2:0:0:
256,191,132915,1,10,0:2:0:0:
256,191,133088,1,8,0:2:0:0:
256,191,133262,1,10,0:2:0:0:
256,191,133609,1,2,0:0:0:0:
256,191,133782,1,8,0:2:0:0:
256,191,133956,1,10,0:0:0:0:
256,191,134129,1,8,0:2:0:0:
256,191,134302,1,2,0:0:0:0:
256,191,134476,1,8,0:2:0:0:
256,191,134649,1,10,0:0:0:0:
256,191,134996,1,10,0:2:0:0:
256,191,135343,1,10,0:0:0:0:
256,191,135516,1,8,0:2:0:0:
256,191,135690,1,2,0:0:0:0:
256,191,135863,1,8,0:2:0:0:
256,191,136037,1,10,0:0:0:0:
255,192,136211,1,8,0:2:0:0:
255,192,136384,1,8,0:2:0:0:
256,191,136557,1,10,0:0:0:0:
255,192,136731,1,8,0:2:0:0:
255,192,136904,1,8,0:2:0:0:
256,191,137078,1,10,0:0:0:0:
255,192,137252,1,8,0:2:0:0:
256,191,137424,1,10,0:0:0:0:
255,192,137598,1,8,0:2:0:0:
255,192,137771,1,8,0:2:0:0:
256,191,137944,1,10,0:0:0:0:
255,192,138118,1,8,0:2:0:0:
255,192,138291,1,8,0:2:0:0:
256,191,138465,1,10,0:0:0:0:
255,192,138639,1,8,0:2:0:0:
256,191,138811,1,10,0:0:0:0:
255,192,138985,1,8,0:2:0:0:
255,192,139158,1,8,0:2:0:0:
256,191,139331,1,10,0:0:0:0:
255,192,139505,1,8,0:2:0:0:
255,192,139678,1,8,0:2:0:0:
256,191,139852,1,10,0:0:0:0:
255,192,140026,1,8,0:2:0:0:
255,191,140198,1,10,0:2:0:0:
255,191,140545,1,10,0:2:0:0:
256,191,140892,1,8,0:2:0:0:
256,191,141065,1,8,0:2:0:0:
256,191,141239,1,8,0:2:0:0:
256,191,141412,1,8,0:2:0:0:
256,191,141585,1,12,0:2:0:0:
256,191,142279,1,12,0:2:0:0:
256,191,142799,1,8,0:2:0:0:
256,191,142886,1,8,0:2:0:0:
256,191,142973,1,12,0:2:0:0:
256,191,143319,1,12,0:2:0:0:
255,191,143666,1,10,0:0:0:0:
255,191,143840,1,8,0:2:0:0:
255,191,144013,1,8,0:2:0:0:
255,191,144187,1,8,0:2:0:0:
256,191,144360,1,12,0:2:0:0:
255,191,144707,1,8,0:2:0:0:
255,191,145054,1,8,0:0:0:0:
255,191,145227,1,8,0:2:0:0:
255,191,145400,1,8,0:2:0:0:
255,191,145574,1,8,0:2:0:0:
255,191,145747,1,8,0:2:0:0:
255,191,146094,1,8,0:2:0:0:
255,191,146441,1,8,0:0:0:0:
255,191,146614,1,8,0:2:0:0:
255,191,146788,1,10,0:2:0:0:
256,191,147135,1,12,0:2:0:0:
256,191,147829,1,12,0:2:0:0:
256,191,148349,1,8,0:2:0:0:
256,191,148436,1,8,0:2:0:0:
256,191,148523,1,12,0:2:0:0:
256,191,148869,1,12,0:2:0:0:
255,191,149216,1,10,0:0:0:0:
255,191,149390,1,8,0:2:0:0:
255,191,149563,1,8,0:2:0:0:
255,191,149737,1,8,0:2:0:0:
256,191,149910,1,12,0:2:0:0:
255,191,150257,1,8,0:2:0:0:
255,191,150604,1,8,0:0:0:0:
255,191,150777,1,8,0:2:0:0:
255,191,150950,1,8,0:2:0:0:
255,191,151124,1,8,0:2:0:0:
255,191,151297,1,10,0:0:0:0:
255,191,151644,1,10,0:0:0:0:
255,191,151990,1,8,0:0:0:0:
255,191,152163,1,8,0:2:0:0:
255,191,152337,1,8,0:2:0:0:
255,191,152510,1,8,0:2:0:0:
256,191,152684,1,12,0:2:0:0:
255,191,153030,1,2,0:0:0:0:
255,192,153204,1,0,0:2:0:0:
255,191,153377,1,10,0:0:0:0:
255,192,153551,1,0,0:2:0:0:
255,191,153724,1,2,0:0:0:0:
255,192,153898,1,0,0:2:0:0:
255,191,154071,1,8,0:0:0:0:
255,192,154244,1,0,0:2:0:0:
255,191,154418,1,2,0:0:0:0:
255,192,154591,1,0,0:2:0:0:
255,191,154765,1,10,0:0:0:0:
255,192,154938,1,0,0:2:0:0:
255,191,155111,1,2,0:0:0:0:
255,192,155285,1,0,0:2:0:0:
255,191,155458,1,8,0:0:0:0:
255,192,155632,1,0,0:2:0:0:
255,191,155805,1,2,0:0:0:0:
255,192,155979,1,0,0:2:0:0:
255,191,156152,1,10,0:0:0:0:
255,192,156326,1,0,0:2:0:0:
255,191,156499,1,2,0:0:0:0:
255,192,156672,1,0,0:2:0:0:
255,191,156846,1,8,0:0:0:0:
255,192,157019,1,0,0:2:0:0:
255,192,157192,1,2,0:2:0:0:
255,192,157366,1,0,0:2:0:0:
255,191,157539,1,8,0:0:0:0:
255,192,157713,1,0,0:2:0:0:
255,191,157886,1,2,0:0:0:0:
255,192,158059,1,0,0:2:0:0:
256,191,158233,1,10,0:0:0:0:
255,192,158407,1,8,0:2:0:0:
255,192,158580,1,8,0:2:0:0:
256,191,158753,1,10,0:0:0:0:
255,192,158927,1,8,0:2:0:0:
255,192,159100,1,8,0:2:0:0:
256,191,159274,1,10,0:0:0:0:
255,192,159448,1,8,0:2:0:0:
256,191,159620,1,10,0:0:0:0:
255,192,159794,1,8,0:2:0:0:
255,192,159967,1,8,0:2:0:0:
256,191,160140,1,10,0:0:0:0:
255,192,160314,1,8,0:2:0:0:
255,192,160487,1,8,0:2:0:0:
256,191,160661,1,10,0:0:0:0:
255,192,160835,1,8,0:2:0:0:
256,191,161007,1,14,0:2:0:0:
256,191,161181,1,10,0:2:0:0:
256,191,161354,1,10,0:2:0:0:
256,191,161528,1,10,0:2:0:0:
256,191,161701,1,10,0:2:0:0:
256,191,161875,1,10,0:2:0:0:
256,191,162048,1,10,0:2:0:0:
256,191,162222,1,10,0:2:0:0:
256,191,162395,1,10,0:2:0:0:
256,191,162569,1,10,0:2:0:0:
256,191,162741,1,10,0:2:0:0:
256,191,162915,1,10,0:2:0:0:
255,191,163088,1,8,0:2:0:0:
255,191,163175,1,8,0:2:0:0:
255,191,163262,1,8,0:2:0:0:
255,191,163348,1,8,0:2:0:0:
255,191,163435,1,8,0:2:0:0:
255,191,163522,1,8,0:2:0:0:
255,191,163609,1,8,0:2:0:0:
255,191,163695,1,8,0:2:0:0:
255,191,163782,1,12,0:2:0:0:
255,191,164476,1,10,0:2:0:0:
256,191,164822,1,8,0:2:0:0:
255,191,165169,1,12,0:2:0:0:
255,191,165863,1,10,0:2:0:0:
256,191,166210,1,8,0:2:0:0:
255,191,166556,1,14,0:2:0:0:
256,191,166730,1,0,0:2:0:0:
256,191,166903,1,0,0:2:0:0:
255,191,167077,1,10,0:2:0:0:
256,191,167251,1,0,0:2:0:0:
256,191,167424,1,0,0:2:0:0:
255,191,167597,1,10,0:2:0:0:
256,191,167771,1,0,0:2:0:0:
255,191,167944,1,10,0:2:0:0:
256,191,168118,1,0,0:2:0:0:
256,191,168291,1,0,0:2:0:0:
255,191,168464,1,10,0:2:0:0:
256,191,168638,1,0,0:2:0:0:
256,191,168811,1,0,0:2:0:0:
255,191,168984,1,10,0:2:0:0:
256,191,169158,1,0,0:2:0:0:
255,191,169331,1,12,0:2:0:0:
255,191,170025,1,10,0:2:0:0:
256,191,170371,1,8,0:2:0:0:
255,191,170718,1,12,0:2:0:0:
255,191,171412,1,10,0:2:0:0:
256,191,171759,1,8,0:2:0:0:
255,191,172105,1,14,0:2:0:0:
256,191,172279,1,0,0:2:0:0:
256,191,172452,1,0,0:2:0:0:
255,191,172626,1,10,0:2:0:0:
256,191,172800,1,0,0:2:0:0:
256,191,172973,1,0,0:2:0:0:
255,191,173146,1,10,0:2:0:0:
256,191,173320,1,0,0:2:0:0:
255,191,173493,1,10,0:2:0:0:
256,191,173666,1,8,0:2:0:0:
256,191,173753,1,8,0:2:0:0:
256,191,173840,1,8,0:2:0:0:
256,191,173926,1,8,0:2:0:0:
256,191,174013,1,8,0:2:0:0:
256,191,174100,1,8,0:2:0:0:
256,191,174187,1,10,0:0:0:0:
256,191,174274,1,8,0:2:0:0:
256,191,174360,1,8,0:2:0:0:
256,191,174447,1,8,0:2:0:0:
256,191,174533,1,8,0:2:0:0:
256,191,174620,1,8,0:2:0:0:
256,191,174707,1,8,0:2:0:0:
256,191,174793,1,8,0:2:0:0:
255,191,174880,1,12,0:2:0:0:
255,191,175400,1,12,0:2:0:0:
255,191,175921,1,12,0:2:0:0:
255,191,176267,1,12,0:2:0:0:
256,191,176354,1,8,0:2:0:0:
256,191,176441,1,8,0:2:0:0:
256,191,176528,1,8,0:2:0:0:
256,191,176614,1,8,0:2:0:0:
256,191,176701,1,8,0:2:0:0:
255,191,176788,1,12,0:2:0:0:
256,191,176874,1,8,0:2:0:0:
256,191,176961,1,8,0:2:0:0:
256,191,177048,1,8,0:2:0:0:
256,191,177135,1,8,0:2:0:0:
256,191,177221,1,8,0:2:0:0:
255,191,177308,1,12,0:2:0:0:
256,191,177655,1,10,0:0:0:0:
255,192,177829,1,8,0:2:0:0:
255,192,178002,1,8,0:2:0:0:
256,191,178175,1,10,0:0:0:0:
255,192,178349,1,8,0:2:0:0:
255,192,178522,1,8,0:2:0:0:
256,191,178696,1,10,0:0:0:0:
255,192,178870,1,8,0:2:0:0:
256,191,179042,1,10,0:0:0:0:
255,192,179216,1,8,0:2:0:0:
255,192,179389,1,8,0:2:0:0:
255,191,179563,1,10,0:0:0:0:
255,191,179736,1,10,0:0:0:0:
255,192,179910,1,8,0:2:0:0:
255,192,180083,1,8,0:2:0:0:
255,192,180256,1,8,0:2:0:0:
255,192,180430,1,14,0:2:0:0:
255,192,180603,1,10,0:2:0:0:
255,192,180776,1,10,0:2:0:0:
255,192,180950,1,10,0:2:0:0:
255,192,181123,1,10,0:2:0:0:
255,192,181296,1,10,0:2:0:0:
255,192,181470,1,10,0:2:0:0:
255,192,181643,1,10,0:2:0:0:
255,192,181817,1,10,0:2:0:0:
255,192,181990,1,10,0:2:0:0:
255,192,182163,1,10,0:2:0:0:
255,192,182337,1,10,0:2:0:0:
255,192,182510,1,10,0:2:0:0:
255,192,182684,1,10,0:2:0:0:
255,192,182857,1,10,0:2:0:0:
255,192,183030,1,10,0:2:0:0:
255,192,183204,1,10,0:2:0:0:
255,192,183377,1,10,0:2:0:0:
255,192,183551,1,10,0:2:0:0:
255,192,183724,1,10,0:2:0:0:
255,192,183898,1,10,0:2:0:0:
255,192,184071,1,10,0:2:0:0:
255,192,184244,1,10,0:2:0:0:
255,192,184418,1,10,0:2:0:0:
255,192,184591,1,14,0:2:0:0:
255,192,184938,1,14,0:2:0:0:
255,191,186065,1,2,0:0:0:0:
255,191,187020,1,2,0:0:0:0:
255,191,187593,1,2,0:0:0:0:
255,191,188549,1,2,0:0:0:0:
255,191,189122,1,2,0:0:0:0:
255,191,190077,1,2,0:0:0:0:
255,191,190650,1,2,0:0:0:0:
255,191,192179,1,2,0:0:0:0:
255,191,193134,1,2,0:0:0:0:
255,191,193707,1,2,0:0:0:0:
255,191,194663,1,2,0:0:0:0:
255,191,195236,1,2,0:0:0:0:
255,191,196191,1,2,0:0:0:0:
255,191,196764,1,2,0:0:0:0:
255,191,198294,1,2,0:0:0:0:
255,191,199249,1,2,0:0:0:0:
255,191,199822,1,2,0:0:0:0:
255,191,200778,1,2,0:0:0:0:
255,191,201351,1,2,0:0:0:0:
255,191,202306,1,2,0:0:0:0:
255,191,202879,1,2,0:0:0:0:
255,191,204408,1,2,0:0:0:0:
255,191,205363,1,2,0:0:0:0:
255,191,205936,1,2,0:0:0:0:
255,191,206892,1,2,0:0:0:0:
255,191,207465,1,2,0:0:0:0:
255,191,208420,1,2,0:0:0:0:
255,191,208993,1,2,0:0:0:0:
