osu file format v14

[General]
AudioFilename: audio.mp3
AudioLeadIn: 0
PreviewTime: 47077
Countdown: 0
SampleSet: None
StackLeniency: 0.4
Mode: 0
LetterboxInBreaks: 0
WidescreenStoryboard: 0

[Editor]
DistanceSpacing: 1.4
BeatDivisor: 4
GridSize: 4
TimelineZoom: 1.7

[Metadata]
Title:Bare Hands
TitleUnicode:Bare Hands
Artist:PUP
ArtistUnicode:PUP
Creator:Solitaire
Version:Bad Trip
Source:
Tags:Morbid Stuff Alena Aenami
BeatmapID:2060729
BeatmapSetID:984892

[Difficulty]
HPDrainRate:6
CircleSize:4
OverallDifficulty:9
ApproachRate:9.2
SliderMultiplier:2
SliderTickRate:1

[Events]
//Background and Video events
0,0,"alena-aenami-imhere1k.jpg",0,0
//Break Periods
//Storyboard Layer 0 (Background)
//Storyboard Layer 1 (Fail)
//Storyboard Layer 2 (Pass)
//Storyboard Layer 3 (Foreground)
//Storyboard Sound Samples

[TimingPoints]
83,346.820809248555,4,3,1,60,1,0
8406,-200,4,3,1,60,0,0
19504,-100,4,3,1,60,0,0
29909,-200,4,3,1,40,0,0
41701,-100,4,3,1,60,0,0
47250,-76.9230769230769,4,3,1,60,0,1
68059,-100,4,3,1,60,0,0
74302,-142.857142857143,4,3,1,50,0,0
80545,-200,4,3,1,40,0,0
102741,-142.857142857143,4,3,1,45,0,0
116614,-142.857142857143,4,3,1,55,0,0
119389,-76.923076923077,4,3,1,60,0,1
163782,-142.857142857143,4,3,1,50,0,0
174880,-142.857142857143,4,3,1,60,0,0
174980,-142.857142857143,4,3,1,50,0,0
181817,-142.857142857143,4,3,1,60,0,0
183204,-142.857142857143,4,3,1,70,0,0
186065,382.165605095541,4,3,1,20,1,0
186065,-166.666666666667,4,3,1,20,0,0
210523,-100,4,3,1,15,0,0
212052,-100,4,3,1,10,0,0
213580,-100,4,3,1,5,0,0

[Colours]
Combo1 : 44,29,56
Combo2 : 245,118,56
Combo3 : 209,12,12
Combo4 : 149,183,32

[HitObjects]
489,365,83,6,0,B|440:298|465:220|465:220|417:245|392:303|398:347|398:347|318:312|319:375|182:342,1,500,10|0,0:2|0:0,0:0:0:0:
135,145,1123,6,0,B|147:190|147:190|134:243,1,100,10|0,0:2|0:0,0:0:0:0:
406,108,1470,6,0,P|371:65|371:182,1,300,10|0,0:2|0:0,0:0:0:0:
135,50,2163,1,0,0:0:0:0:
135,50,2510,2,0,B|122:94|122:94|136:146,1,100,10|0,0:2|0:0,0:0:0:0:
356,356,2857,6,0,B|340:271|219:222|151:290|159:370|159:370|211:395|311:344|252:153|252:153|309:201|386:233|467:204|518:43|399:-59|263:52|308:82|308:82|355:111,1,1100,10|0,0:2|0:0,0:0:0:0:
71,289,4938,2,0,B|98:234|120:211|171:192|171:192|119:175|119:175|97:126|97:126|104:152|98:175,1,300,10|0,0:2|0:0,0:0:0:0:
354,113,5632,6,0,B|353:179|423:238|423:238|372:309|379:362|379:362|317:337|293:288|293:288|271:344|204:348,1,500,10|0,0:2|0:0,0:0:0:0:
158,185,6672,2,0,L|262:194,1,100,10|0,0:2|0:0,0:0:0:0:
469,134,7019,5,10,0:2:0:0:
398,243,7192,1,8,0:0:0:0:
354,113,7366,1,8,0:0:0:0:
283,264,7539,1,8,0:0:0:0:
239,92,7713,1,8,0:0:0:0:
160,282,7886,1,8,0:0:0:0:
124,72,8059,1,8,0:0:0:0:
53,305,8233,1,8,0:0:0:0:
338,83,8406,6,0,L|238:91,1,100,12|0,0:2|0:0,0:0:0:0:
325,262,8926,1,8,0:0:0:0:
255,185,9100,2,0,L|155:176,1,100,8|8,0:2|0:2,0:0:0:0:
406,330,9793,6,0,P|422:292|418:226,1,100,8|8,0:2|0:2,0:0:0:0:
408,211,10227,1,8,0:2:0:0:
408,211,10314,1,8,0:2:0:0:
452,27,10487,2,0,P|470:65|467:113,1,75,8|0,0:0|0:0,0:0:0:0:
462,127,10834,1,8,0:2:0:0:
221,291,11181,6,0,L|298:284,1,75,8|0,0:2|0:0,0:0:0:0:
324,279,11528,1,10,0:2:0:0:
236,136,11701,1,10,0:0:0:0:
175,221,11875,1,0,0:0:0:0:
338,192,12048,1,8,0:2:0:0:
204,57,12222,2,0,P|173:77|153:108,1,75,8|0,0:2|0:0,0:0:0:0:
148,138,12568,5,8,0:2:0:0:
90,202,12742,1,0,0:0:0:0:
117,284,12915,1,0,0:0:0:0:
268,285,13089,1,8,0:0:0:0:
334,82,13262,1,8,0:0:0:0:
248,198,13435,1,8,0:2:0:0:
334,226,13609,1,8,0:2:0:0:
385,152,13782,1,8,0:2:0:0:
248,110,13955,6,0,L|199:114,2,50,8|8|8,0:2|0:2|0:2,0:0:0:0:
374,325,14475,2,0,L|270:315,1,100,8|0,0:0|0:0,0:0:0:0:
161,301,14995,1,8,0:2:0:0:
114,194,15169,1,8,0:2:0:0:
297,119,15342,6,0,B|292:170|292:170|287:222,1,100,8|8,0:2|0:2,0:0:0:0:
161,301,15862,1,8,0:2:0:0:
88,115,16036,2,0,P|143:117|192:156,1,100,8|8,0:0|0:2,0:0:0:0:
161,301,16556,1,0,0:0:0:0:
265,214,16729,6,0,L|324:219,1,50,8|0,0:2|0:0,0:0:0:0:
383,124,17076,1,10,0:2:0:0:
265,214,17249,1,10,0:0:0:0:
333,306,17423,2,0,P|361:305|388:294,1,50,0|0,0:0|0:0,0:0:0:0:
216,205,17770,2,0,P|244:206|271:217,1,50,8|0,0:2|0:0,0:0:0:0:
99,306,18117,6,0,P|127:305|154:294,1,50,8|0,0:2|0:0,0:0:0:0:
148,156,18463,1,0,0:0:0:0:
103,228,18637,1,8,0:0:0:0:
244,107,18810,1,8,0:0:0:0:
23,138,18984,1,8,0:2:0:0:
211,254,19157,1,8,0:2:0:0:
148,156,19330,1,8,0:2:0:0:
67,337,19504,6,0,B|172:320|172:368|275:337,1,200,14|0,0:2|0:0,0:0:0:0:
352,175,20025,2,0,P|304:218|396:255,1,200,10|0,0:2|0:0,0:0:0:0:
278,97,20544,2,0,P|234:133|209:177,1,100,10|0,0:2|0:0,0:0:0:0:
339,347,20891,6,0,B|385:317|385:317|235:304,1,200,10|0,0:2|0:0,0:0:0:0:
96,335,21411,2,0,B|131:292|131:292|116:147,1,200,10|0,0:2|0:0,0:0:0:0:
36,27,21932,2,0,B|17:77|17:77|23:125,1,100,10|0,0:2|0:0,0:0:0:0:
241,297,22278,6,0,L|212:81,1,200,10|0,0:2|0:0,0:0:0:0:
387,0,22799,2,0,L|360:198,1,200,10|0,0:2|0:0,0:0:0:0:
490,294,23319,2,0,L|476:194,1,100,10|0,0:2|0:0,0:0:0:0:
280,88,23666,5,12,0:0:0:0:
86,335,24013,1,12,0:0:0:0:
355,309,24360,1,8,0:0:0:0:
347,215,24534,1,8,0:2:0:0:
252,223,24707,1,8,0:2:0:0:
261,318,24881,1,8,0:2:0:0:
429,264,25054,6,0,B|421:189|421:189|442:113,1,150,12|0,0:2|0:0,0:0:0:0:
453,89,25401,2,0,P|411:114|349:111,1,100,2|8,0:0|0:2,0:0:0:0:
152,273,25748,2,0,L|160:172,1,100,8|8,0:0|0:2,0:0:0:0:
165,145,26008,1,8,0:2:0:0:
165,145,26094,1,10,0:2:0:0:
355,306,26268,1,8,0:2:0:0:
355,306,26355,1,8,0:2:0:0:
355,306,26441,6,0,L|336:88,1,200,12|10,0:2|0:2,0:0:0:0:
264,231,26961,1,8,0:2:0:0:
444,196,27135,1,8,0:0:0:0:
245,73,27308,1,8,0:2:0:0:
245,73,27394,1,8,0:2:0:0:
245,73,27481,2,0,L|94:86,1,150,12|0,0:2|0:0,0:0:0:0:
67,88,27828,5,10,0:0:0:0:
174,300,28001,1,8,0:2:0:0:
174,300,28175,1,8,0:2:0:0:
304,147,28348,1,10,0:0:0:0:
61,223,28522,1,8,0:2:0:0:
61,223,28695,1,8,0:2:0:0:
289,317,28868,1,10,0:0:0:0:
175,112,29042,1,8,0:2:0:0:
77,340,29215,5,10,0:0:0:0:
242,234,29389,1,8,0:2:0:0:
242,234,29562,1,8,0:2:0:0:
67,88,29735,1,10,0:0:0:0:
77,340,29909,6,0,L|130:335,1,50,10|8,0:0|0:2,0:0:0:0:
242,234,30256,2,0,L|295:238,1,50,8|8,0:2|0:2,0:0:0:0:
411,344,30602,6,0,P|395:293|403:245,1,100,12|0,0:2|0:0,0:0:0:0:
482,163,31123,2,0,P|497:112|489:64,1,100,8|0,0:0|0:0,0:0:0:0:
307,121,31643,2,0,L|383:114,1,75,8|0,0:2|0:0,0:0:0:0:
411,109,31990,5,8,0:2:0:0:
254,267,32338,1,8,0:2:0:0:
254,267,32424,1,8,0:2:0:0:
254,267,32511,1,8,0:2:0:0:
116,156,32684,2,0,L|220:165,1,100,8|8,0:0|0:2,0:0:0:0:
278,350,33377,6,0,P|239:350|202:335,1,75,8|0,0:2|0:0,0:0:0:0:
182,314,33724,1,10,0:2:0:0:
345,205,33897,1,10,0:0:0:0:
254,267,34071,2,0,L|249:215,1,50,0|8,0:0|0:2,0:0:0:0:
412,87,34417,2,0,L|407:136,1,50,8|0,0:2|0:0,0:0:0:0:
164,237,34764,5,8,0:2:0:0:
172,147,34938,1,0,0:0:0:0:
260,127,35111,1,0,0:0:0:0:
340,292,35285,1,8,0:0:0:0:
80,261,35458,1,8,0:0:0:0:
164,237,35631,1,8,0:2:0:0:
212,310,35805,1,8,0:2:0:0:
158,378,35978,1,8,0:2:0:0:
37,183,36153,6,0,L|45:83,1,100,8|8,0:2|0:2,0:0:0:0:
219,39,36673,1,8,0:0:0:0:
146,105,36846,2,0,L|150:160,1,50,0|0,0:0|0:0,0:0:0:0:
311,206,37193,2,0,L|306:255,1,50,8|8,0:2|0:2,0:0:0:0:
113,335,37540,6,0,P|156:304|204:305,1,100,8|8,0:2|0:2,0:0:0:0:
226,318,37973,1,8,0:2:0:0:
226,318,38060,1,8,0:2:0:0:
399,237,38234,2,0,P|356:206|308:207,1,100,8|8,0:0|0:2,0:0:0:0:
136,72,38927,6,0,L|142:148,1,75,8|0,0:2|0:0,0:0:0:0:
149,179,39274,1,10,0:2:0:0:
287,56,39447,1,10,0:0:0:0:
240,147,39621,1,0,0:0:0:0:
341,140,39794,1,0,0:0:0:0:
207,324,39968,1,8,0:2:0:0:
224,237,40141,1,0,0:0:0:0:
398,339,40314,6,0,L|343:334,1,50,8|0,0:2|0:0,0:0:0:0:
224,237,40661,1,0,0:0:0:0:
341,140,40835,1,8,0:0:0:0:
348,334,41008,1,8,0:0:0:0:
300,211,41181,1,8,0:2:0:0:
242,330,41355,1,8,0:2:0:0:
423,278,41528,1,8,0:2:0:0:
238,136,41701,6,0,L|35:118,1,200,14|0,0:2|0:0,0:0:0:0:
344,240,42221,2,0,L|141:257,1,200,10|0,0:2|0:0,0:0:0:0:
424,88,42741,2,0,L|322:79,1,100,10|0,0:2|0:0,0:0:0:0:
426,307,43088,6,0,P|365:336|251:279,1,200,10|0,0:2|0:0,0:0:0:0:
77,203,43609,2,0,P|157:149|249:178,1,200,10|0,0:2|0:0,0:0:0:0:
180,333,44129,2,0,P|164:282|179:231,1,100,10|0,0:2|0:0,0:0:0:0:
384,226,44476,6,0,B|350:255|350:255|364:93,1,200,10|0,0:2|0:0,0:0:0:0:
222,40,44996,2,0,B|188:10|188:10|202:172,1,200,10|0,0:2|0:0,0:0:0:0:
105,307,45516,2,0,B|88:321|88:321|95:240,1,100,10|0,0:2|0:0,0:0:0:0:
308,149,45863,5,12,0:0:0:0:
413,356,46210,1,12,0:0:0:0:
367,340,46296,1,0,0:0:0:0:
367,292,46383,1,0,0:0:0:0:
413,278,46470,1,0,0:0:0:0:
440,317,46557,1,8,0:0:0:0:
88,53,47250,6,0,L|76:182,1,129.999994049073,12|0,0:2|0:0,0:0:0:0:
271,347,47597,2,0,L|253:149,1,194.999991073609,10|0,0:2|0:0,0:0:0:0:
251,125,47944,1,2,0:0:0:0:
161,289,48117,1,0,0:0:0:0:
370,226,48291,1,2,0:0:0:0:
137,166,48464,1,8,0:2:0:0:
405,327,48637,6,0,P|457:287|472:222,1,129.999994049073,10|0,0:0|0:0,0:0:0:0:
289,56,48984,2,0,B|253:123|253:123|445:106,1,259.999988098145,10|2,0:2|0:0,0:0:0:0:
187,57,49505,1,0,0:0:0:0:
330,209,49678,1,2,0:0:0:0:
381,29,49851,1,0,0:0:0:0:
199,203,50025,6,0,L|210:336,1,129.999994049073,10|0,0:2|0:0,0:0:0:0:
380,133,50372,2,0,P|376:219|451:188,1,194.999991073609,10|0,0:2|0:0,0:0:0:0:
455,170,50718,2,0,L|443:305,1,129.999994049073,2|0,0:0|0:0,0:0:0:0:
263,103,51065,1,2,0:0:0:0:
318,283,51239,1,8,0:2:0:0:
148,136,51412,6,0,P|158:60|205:10,1,129.999994049073,10|0,0:0|0:0,0:0:0:0:
410,260,51759,2,0,P|400:336|353:386,1,129.999994049073,10|0,0:2|0:0,0:0:0:0:
166,260,52106,1,10,0:0:0:0:
366,87,52279,1,0,0:0:0:0:
293,306,52453,1,2,0:0:0:0:
216,38,52626,1,0,0:0:0:0:
452,195,52799,6,0,L|440:325,1,129.999994049073,12|0,0:2|0:0,0:0:0:0:
128,157,53145,2,0,P|71:217|146:373,1,259.999988098145,10|2,0:2|0:0,0:0:0:0:
214,128,53665,1,0,0:0:0:0:
29,252,53839,1,2,0:0:0:0:
219,313,54012,1,8,0:2:0:0:
147,75,54186,6,0,L|5:62,1,129.999994049073,10|0,0:0|0:0,0:0:0:0:
309,292,54532,2,0,L|450:279,1,129.999994049073,10|0,0:2|0:0,0:0:0:0:
295,102,54879,1,2,0:0:0:0:
181,235,55053,1,0,0:0:0:0:
413,169,55226,2,0,L|424:38,1,129.999994049073,2|0,0:0|0:0,0:0:0:0:
78,235,55573,6,0,P|102:296|161:334,1,129.999994049073,10|0,0:2|0:0,0:0:0:0:
266,93,55920,2,0,P|195:128|181:236,1,194.999991073609,10|0,0:2|0:0,0:0:0:0:
196,257,56267,1,2,0:0:0:0:
369,220,56440,1,0,0:0:0:0:
156,120,56613,1,2,0:0:0:0:
305,325,56787,1,8,0:2:0:0:
357,114,56960,6,0,L|494:101,1,129.999994049073,8|8,0:0|0:2,0:0:0:0:
149,339,57307,1,8,0:2:0:0:
256,146,57480,1,8,0:2:0:0:
444,345,57654,1,8,0:0:0:0:
190,255,57827,1,8,0:2:0:0:
486,101,58001,1,8,0:2:0:0:
305,325,58174,1,8,0:2:0:0:
178,88,58347,6,0,L|44:76,1,129.999994049073,12|0,0:2|0:0,0:0:0:0:
326,234,58694,1,2,0:0:0:0:
326,234,58868,1,8,0:2:0:0:
278,44,59041,1,10,0:0:0:0:
190,256,59215,1,8,0:2:0:0:
190,256,59562,1,8,0:2:0:0:
430,60,59736,6,0,B|367:188|461:196|411:312,1,259.999988098145,10|2,0:2|0:0,0:0:0:0:
241,169,60256,1,8,0:2:0:0:
502,137,60429,1,10,0:0:0:0:
502,137,60776,1,2,0:0:0:0:
340,250,60950,1,0,0:0:0:0:
209,79,61123,6,0,P|137:38|179:149,1,259.999988098145,10|2,0:2|0:0,0:0:0:0:
305,108,61644,1,8,0:2:0:0:
77,35,61817,1,10,0:0:0:0:
77,35,62164,1,2,0:0:0:0:
153,247,62337,1,8,0:2:0:0:
305,108,62511,6,0,L|315:236,1,129.999994049073,10|0,0:0|0:0,0:0:0:0:
63,228,62857,2,0,L|52:356,1,129.999994049073,10|0,0:2|0:0,0:0:0:0:
238,131,63204,1,10,0:0:0:0:
25,104,63378,1,8,0:2:0:0:
185,251,63551,1,2,0:0:0:0:
104,27,63725,1,8,0:2:0:0:
57,302,63898,5,10,0:0:0:0:
286,205,64071,1,8,0:2:0:0:
286,205,64245,1,8,0:2:0:0:
124,132,64418,1,10,0:0:0:0:
177,339,64592,1,8,0:2:0:0:
177,339,64765,1,8,0:2:0:0:
292,98,64938,1,10,0:0:0:0:
64,285,65112,1,8,0:2:0:0:
362,293,65285,5,10,0:0:0:0:
184,213,65459,1,8,0:2:0:0:
184,213,65632,1,8,0:2:0:0:
283,369,65805,1,10,0:0:0:0:
388,171,65979,1,8,0:2:0:0:
388,171,66152,1,8,0:2:0:0:
170,325,66326,1,10,0:0:0:0:
392,306,66499,1,8,0:2:0:0:
270,123,66673,5,10,0:0:0:0:
93,252,66846,1,8,0:2:0:0:
93,252,67019,1,8,0:2:0:0:
313,242,67193,1,10,0:0:0:0:
122,106,67366,1,8,0:2:0:0:
122,106,67540,1,8,0:2:0:0:
201,282,67713,1,10,0:0:0:0:
378,154,67886,1,8,0:2:0:0:
393,345,68060,6,0,L|323:338,2,66.6666666666667,8|8|8,0:2|0:2|0:2,0:0:0:0:
227,193,68407,2,0,L|157:199,2,66.6666666666667,8|8|8,0:2|0:2|0:2,0:0:0:0:
73,340,68753,1,10,0:0:0:0:
73,340,69447,5,12,0:2:0:0:
93,308,69534,1,0,0:0:0:0:
106,272,69620,1,0,0:0:0:0:
111,235,69707,1,0,0:0:0:0:
106,198,69794,1,0,0:0:0:0:
92,163,69881,1,0,0:0:0:0:
71,132,69967,5,12,0:2:0:0:
49,167,70054,1,0,0:0:0:0:
39,219,70141,1,0,0:0:0:0:
55,270,70227,1,0,0:0:0:0:
93,308,70314,1,0,0:0:0:0:
144,325,70401,1,0,0:0:0:0:
196,317,70488,5,12,0:2:0:0:
197,304,70574,1,0,0:0:0:0:
198,292,70661,1,0,0:0:0:0:
199,279,70748,1,0,0:0:0:0:
200,267,70834,5,12,0:2:0:0:
246,249,70921,1,0,0:0:0:0:
296,248,71008,1,0,0:0:0:0:
339,273,71094,1,0,0:0:0:0:
377,305,71181,1,0,0:0:0:0:
423,324,71268,1,0,0:0:0:0:
473,322,71355,5,12,0:2:0:0:
429,288,71441,1,0,0:0:0:0:
400,242,71528,1,0,0:0:0:0:
389,188,71615,1,0,0:0:0:0:
397,135,71701,1,0,0:0:0:0:
424,88,71788,1,0,0:0:0:0:
465,53,71874,2,0,L|479:209,1,150,10|0,0:2|0:0,0:0:0:0:
482,236,72221,5,14,0:0:0:0:
268,74,72395,1,8,0:2:0:0:
268,74,72568,1,8,0:2:0:0:
219,272,72741,1,10,0:0:0:0:
389,188,72915,1,8,0:2:0:0:
389,188,73088,1,8,0:2:0:0:
134,135,73262,1,10,0:0:0:0:
116,341,73435,1,8,0:2:0:0:
308,202,73609,5,10,0:0:0:0:
81,236,73782,1,8,0:2:0:0:
81,236,73955,1,8,0:2:0:0:
283,342,74129,1,10,0:0:0:0:
361,123,74302,6,0,L|290:116,1,69.9999978637696,10|8,0:0|0:2,0:0:0:0:
150,229,74649,2,0,L|79:235,1,69.9999978637696,8|8,0:2|0:2,0:0:0:0:
171,96,74996,5,12,0:2:0:0:
283,342,75342,2,0,P|281:303|289:269,1,69.9999978637696,2|8,0:0|0:2,0:0:0:0:
404,178,75689,1,8,0:0:0:0:
377,317,75863,1,8,0:2:0:0:
377,317,75949,1,8,0:2:0:0:
377,317,76036,1,10,0:2:0:0:
276,169,76209,1,8,0:2:0:0:
276,169,76296,1,8,0:2:0:0:
276,169,76383,6,0,B|221:177|221:159|170:169,1,104.999996795654,12|0,0:2|0:0,0:0:0:0:
141,181,76730,1,10,0:2:0:0:
251,94,76903,1,8,0:2:0:0:
194,251,77076,1,8,0:0:0:0:
157,83,77250,1,8,0:2:0:0:
157,83,77337,1,8,0:2:0:0:
157,83,77424,2,0,L|53:73,1,104.999996795654,14|0,0:2|0:0,0:0:0:0:
17,69,77770,5,10,0:0:0:0:
259,197,77944,1,8,0:2:0:0:
259,197,78117,1,8,0:2:0:0:
346,13,78291,1,10,0:0:0:0:
157,83,78464,1,8,0:2:0:0:
157,83,78638,1,8,0:2:0:0:
364,233,78811,1,10,0:0:0:0:
256,53,78984,1,8,0:2:0:0:
204,319,79158,5,10,0:0:0:0:
340,137,79331,1,8,0:2:0:0:
145,173,79505,1,8,0:2:0:0:
310,334,79678,1,10,0:0:0:0:
145,173,79851,6,0,L|151:251,1,69.9999978637696,10|8,0:0|0:2,0:0:0:0:
310,102,80198,2,0,L|303:180,1,69.9999978637696,8|8,0:2|0:2,0:0:0:0:
153,88,80545,6,0,P|99:103|65:146,1,100,12|0,0:2|0:0,0:0:0:0:
121,257,81065,2,0,B|174:267|174:249|222:257,1,100,8|0,0:0|0:0,0:0:0:0:
303,309,81586,1,10,0:2:0:0:
303,309,81932,6,0,L|307:259,1,50,10|8,0:2|0:2,0:0:0:0:
401,176,82279,1,8,0:2:0:0:
401,176,82366,1,8,0:2:0:0:
401,176,82453,1,8,0:2:0:0:
245,112,82626,2,0,L|249:161,1,50,8|0,0:0|0:0,0:0:0:0:
442,105,82973,2,0,P|413:93|393:92,1,50,8|0,0:2|0:0,0:0:0:0:
199,233,83320,6,0,P|228:245|248:246,2,50,10|8|10,0:2|0:2|0:2,0:0:0:0:
401,176,83840,2,0,L|350:180,2,50,8|0|0,0:0|0:0|0:0,0:0:0:0:
254,79,84360,2,0,L|258:131,1,50,8|0,0:2|0:0,0:0:0:0:
334,279,84707,6,0,L|329:331,2,50,8|8|8,0:2|0:2|0:2,0:0:0:0:
192,213,85227,1,8,0:0:0:0:
31,358,85401,1,8,0:0:0:0:
45,277,85574,1,8,0:2:0:0:
104,216,85747,1,8,0:2:0:0:
192,213,85921,1,8,0:2:0:0:
354,110,86094,6,0,P|325:98|305:97,2,50,8|8|8,0:2|0:2|0:2,0:0:0:0:
316,236,86614,1,8,0:0:0:0:
316,236,86788,2,0,L|311:182,1,50,0|0,0:0|0:0,0:0:0:0:
217,54,87135,2,0,L|210:106,1,50,10|8,0:2|0:2,0:0:0:0:
360,304,87481,6,0,P|331:316|311:317,1,50,10|0,0:2|0:0,0:0:0:0:
313,140,87828,1,8,0:2:0:0:
313,140,87915,1,8,0:2:0:0:
313,140,88002,1,8,0:2:0:0:
191,277,88175,2,0,L|252:271,1,50,8|0,0:0|0:0,0:0:0:0:
396,154,88522,2,0,P|387:177|372:197,1,50,8|0,0:2|0:0,0:0:0:0:
232,156,88869,5,8,0:2:0:0:
270,72,89042,1,8,0:2:0:0:
367,75,89216,1,10,0:2:0:0:
290,232,89389,2,0,L|294:281,2,50,8|0|0,0:0|0:0|0:0,0:0:0:0:
162,102,89909,1,8,0:2:0:0:
150,124,89996,1,8,0:2:0:0:
145,148,90083,1,8,0:2:0:0:
148,173,90169,1,8,0:2:0:0:
157,196,90256,6,0,L|206:200,2,50,8|8|8,0:2|0:2|0:2,0:0:0:0:
302,84,90776,1,8,0:0:0:0:
286,259,90950,1,8,0:0:0:0:
162,102,91123,1,8,0:2:0:0:
297,178,91296,1,8,0:2:0:0:
172,219,91470,1,8,0:2:0:0:
200,23,91643,6,0,L|248:18,2,50,14|0|0,0:2|0:0|0:0,0:0:0:0:
403,156,92164,2,0,L|354:151,2,50,10|0|0,0:2|0:0|0:0,0:0:0:0:
200,23,92684,2,0,L|248:18,1,50,10|0,0:2|0:0,0:0:0:0:
186,283,93031,6,0,P|190:259|186:234,2,50,10|0|0,0:2|0:0|0:0,0:0:0:0:
66,74,93551,2,0,P|62:99|66:123,2,50,10|0|0,0:2|0:0|0:0,0:0:0:0:
186,283,94071,2,0,P|190:258|186:233,1,50,10|0,0:2|0:0,0:0:0:0:
395,26,94417,6,0,L|360:75,2,50,10|0|0,0:2|0:0|0:0,0:0:0:0:
495,226,94937,2,0,L|469:171,2,50,10|0|0,0:2|0:0|0:0,0:0:0:0:
269,207,95458,2,0,L|318:211,1,50,10|0,0:2|0:0,0:0:0:0:
66,74,95805,6,0,P|62:99|66:123,2,50,10|0|0,0:2|0:0|0:0,0:0:0:0:
269,207,96325,2,0,P|249:191|225:183,2,50,10|0|0,0:2|0:0|0:0,0:0:0:0:
53,316,96845,2,0,P|76:306|95:290,1,50,10|0,0:2|0:0,0:0:0:0:
317,307,97192,6,0,L|371:302,1,50,14|0,0:2|0:0,0:0:0:0:
449,199,97539,1,0,0:0:0:0:
302,330,97712,2,0,L|356:325,1,50,10|0,0:2|0:0,0:0:0:0:
434,222,98059,1,0,0:0:0:0:
287,353,98232,2,0,L|341:348,1,50,10|0,0:2|0:0,0:0:0:0:
198,121,98579,6,0,P|194:146|198:170,1,50,10|0,0:2|0:0,0:0:0:0:
301,258,98926,1,0,0:0:0:0:
181,100,99099,2,0,P|177:125|181:149,1,50,10|0,0:2|0:0,0:0:0:0:
284,237,99446,1,0,0:0:0:0:
164,79,99620,2,0,P|160:104|164:128,1,50,10|0,0:2|0:0,0:0:0:0:
444,126,99966,6,0,L|385:120,1,50,10|0,0:2|0:0,0:0:0:0:
257,113,100313,1,0,0:0:0:0:
340,282,100487,2,0,L|373:233,1,50,10|0,0:2|0:0,0:0:0:0:
444,126,100833,1,0,0:0:0:0:
256,113,101007,2,0,L|280:166,1,50,10|0,0:2|0:0,0:0:0:0:
95,329,101354,6,0,P|93:304|99:280,1,50,10|0,0:2|0:0,0:0:0:0:
196,191,101700,1,0,0:0:0:0:
351,331,101874,2,0,P|330:345|306:351,1,50,10|0,0:2|0:0,0:0:0:0:
180,312,102221,1,0,0:0:0:0:
224,108,102394,2,0,P|246:118|264:136,1,50,10|0,0:2|0:0,0:0:0:0:
118,246,102741,5,8,0:0:0:0:
281,337,102915,2,0,L|359:330,1,69.9999978637696,8|8,0:2|0:2,0:0:0:0:
196,191,103262,1,8,0:0:0:0:
359,100,103436,2,0,L|437:106,1,69.9999978637696,8|0,0:2|0:0,0:0:0:0:
307,244,103782,1,8,0:0:0:0:
242,84,103956,1,8,0:2:0:0:
403,238,104129,5,8,0:0:0:0:
254,324,104303,2,0,P|227:295|216:265,1,69.9999978637696,8|8,0:2|0:2,0:0:0:0:
418,91,104649,1,8,0:0:0:0:
373,257,104823,2,0,P|333:255|304:242,1,69.9999978637696,8|8,0:2|0:2,0:0:0:0:
242,84,105170,1,8,0:0:0:0:
355,182,105343,1,8,0:2:0:0:
254,324,105517,5,8,0:0:0:0:
118,187,105690,2,0,L|39:180,1,69.9999978637696,8|8,0:2|0:2,0:0:0:0:
145,339,106037,1,8,0:0:0:0:
285,188,106210,2,0,L|363:181,1,69.9999978637696,8|8,0:2|0:2,0:0:0:0:
171,110,106557,1,8,0:0:0:0:
298,269,106730,1,8,0:2:0:0:
418,123,106904,5,8,0:0:0:0:
275,34,107077,2,0,P|259:80|266:114,1,69.9999978637696,8|8,0:2|0:2,0:0:0:0:
440,206,107424,1,8,0:0:0:0:
401,41,107597,2,0,P|357:63|338:92,1,69.9999978637696,8|8,0:2|0:2,0:0:0:0:
298,269,107944,1,8,0:0:0:0:
418,123,108118,1,8,0:2:0:0:
222,214,108291,5,8,0:0:0:0:
396,293,108464,2,0,L|402:367,1,69.9999978637696,8|8,0:2|0:2,0:0:0:0:
312,184,108811,1,8,0:0:0:0:
138,263,108985,2,0,L|131:337,1,69.9999978637696,8|8,0:2|0:2,0:0:0:0:
196,114,109332,1,8,0:0:0:0:
285,310,109505,1,8,0:2:0:0:
327,101,109678,5,8,0:0:0:0:
145,195,109851,2,0,P|133:235|138:266,1,69.9999978637696,8|8,0:2|0:2,0:0:0:0:
360,254,110199,1,8,0:0:0:0:
196,114,110372,2,0,P|155:102|124:107,1,69.9999978637696,8|8,0:2|0:2,0:0:0:0:
407,44,110719,1,8,0:0:0:0:
261,220,110892,1,8,0:2:0:0:
267,44,111065,5,8,0:0:0:0:
360,254,111239,2,0,L|366:180,1,69.9999978637696,8|8,0:2|0:2,0:0:0:0:
196,114,111585,1,8,0:0:0:0:
103,324,111758,2,0,L|96:250,1,69.9999978637696,8|8,0:2|0:2,0:0:0:0:
290,130,112105,1,8,0:0:0:0:
209,306,112278,1,8,0:2:0:0:
101,147,112452,5,8,0:0:0:0:
293,264,112625,2,0,P|301:308|298:333,1,69.9999978637696,8|8,0:2|0:2,0:0:0:0:
96,254,112972,1,8,0:0:0:0:
290,130,113145,2,0,P|298:85|295:60,1,69.9999978637696,8|8,0:2|0:2,0:0:0:0:
96,346,113492,2,0,B|149:332|149:332|182:288,1,104.999996795654,8|0,0:0|0:0,0:0:0:0:
198,264,113839,5,10,0:0:0:0:
128,116,114012,1,8,0:2:0:0:
96,254,114186,1,8,0:2:0:0:
236,96,114359,1,8,0:2:0:0:
303,273,114533,1,8,0:2:0:0:
110,101,114706,1,8,0:2:0:0:
361,153,114879,1,8,0:2:0:0:
177,296,115053,1,8,0:2:0:0:
234,62,115226,5,8,0:2:0:0:
456,213,115400,1,8,0:2:0:0:
166,196,115573,1,8,0:2:0:0:
403,44,115746,1,8,0:2:0:0:
354,318,115920,1,8,0:2:0:0:
221,40,116093,1,8,0:2:0:0:
245,309,116267,1,8,0:2:0:0:
392,65,116440,1,8,0:2:0:0:
111,301,116614,5,8,0:0:0:0:
417,184,116787,1,8,0:0:0:0:
111,104,116960,1,8,0:0:0:0:
339,330,117134,1,8,0:0:0:0:
221,40,117307,1,8,0:0:0:0:
182,354,117481,1,8,0:0:0:0:
392,65,117654,1,8,0:0:0:0:
63,215,117827,1,8,0:0:0:0:
461,344,118001,5,12,0:0:0:0:
47,45,118348,5,12,0:0:0:0:
461,344,119389,6,0,L|323:331,1,129.999994049073,12|0,0:2|0:0,0:0:0:0:
196,135,119736,2,0,P|287:116|355:209,1,194.999991073609,10|0,0:2|0:0,0:0:0:0:
356,224,120083,1,2,0:0:0:0:
306,87,120256,1,0,0:0:0:0:
232,281,120430,1,2,0:0:0:0:
433,100,120603,1,8,0:2:0:0:
185,5,120776,6,0,L|196:140,1,129.999994049073,10|0,0:0|0:0,0:0:0:0:
410,301,121123,2,0,P|369:209|275:199,1,194.999991073609,10|0,0:2|0:0,0:0:0:0:
255,206,121470,2,0,L|266:336,1,129.999994049073,2|0,0:0|0:0,0:0:0:0:
371,172,121817,1,2,0:0:0:0:
232,281,121990,1,0,0:0:0:0:
91,112,122164,6,0,P|158:96|222:122,1,129.999994049073,10|0,0:2|0:0,0:0:0:0:
403,333,122510,2,0,P|322:343|353:268,1,194.999991073609,10|0,0:2|0:0,0:0:0:0:
381,270,122857,2,0,L|514:281,1,129.999994049073,2|0,0:0|0:0,0:0:0:0:
290,171,123204,1,2,0:0:0:0:
184,287,123378,1,8,0:2:0:0:
129,132,123551,6,0,L|140:-3,1,129.999994049073,10|0,0:0|0:0,0:0:0:0:
301,300,123898,2,0,L|289:170,1,129.999994049073,10|0,0:2|0:0,0:0:0:0:
65,212,124245,1,10,0:0:0:0:
239,359,124418,1,0,0:0:0:0:
189,201,124591,1,2,0:0:0:0:
120,344,124765,1,0,0:0:0:0:
345,227,124938,6,0,P|332:151|287:106,1,129.999994049073,12|0,0:2|0:0,0:0:0:0:
93,146,125285,2,0,B|64:212|64:212|259:195,1,259.999988098145,10|2,0:2|0:0,0:0:0:0:
137,73,125805,1,0,0:0:0:0:
168,250,125979,1,2,0:0:0:0:
276,96,126152,1,8,0:2:0:0:
67,213,126326,6,0,L|78:344,1,129.999994049073,10|0,0:0|0:0,0:0:0:0:
374,148,126672,2,0,L|362:279,1,129.999994049073,10|0,0:2|0:0,0:0:0:0:
137,73,127019,1,2,0:0:0:0:
219,240,127193,1,0,0:0:0:0:
365,65,127366,2,0,P|435:85|446:207,1,194.999991073609,2|0,0:0|0:0,0:0:0:0:
433,218,127712,6,0,L|301:206,1,129.999994049073,10|0,0:2|0:0,0:0:0:0:
106,359,128059,2,0,L|238:347,2,129.999994049073,10|0|2,0:2|0:0|0:0,0:0:0:0:
37,165,128579,1,0,0:0:0:0:
208,233,128753,1,2,0:0:0:0:
34,298,128926,1,8,0:2:0:0:
152,138,129099,6,0,L|281:149,1,129.999994049073,8|8,0:0|0:2,0:0:0:0:
465,292,129446,1,8,0:2:0:0:
422,269,129533,1,8,0:2:0:0:
374,274,129620,1,8,0:2:0:0:
336,303,129706,1,8,0:2:0:0:
320,348,129793,1,8,0:0:0:0:
71,54,130487,6,0,P|144:46|203:88,1,129.999994049073,12|0,0:2|0:0,0:0:0:0:
414,164,130834,2,0,P|343:143|261:224,1,194.999991073609,2|0,0:0|0:0,0:0:0:0:
264,250,131180,1,10,0:0:0:0:
297,69,131354,1,8,0:2:0:0:
297,69,131701,1,8,0:2:0:0:
103,301,131874,6,0,B|77:234|77:234|265:251,1,259.999988098145,10|2,0:2|0:0,0:0:0:0:
399,259,132394,1,8,0:2:0:0:
182,142,132568,1,10,0:0:0:0:
182,142,132914,1,10,0:2:0:0:
257,347,133088,1,8,0:2:0:0:
424,102,133261,6,0,P|360:55|329:156,1,194.999991073609,10|0,0:2|0:0,0:0:0:0:
330,167,133608,2,0,L|468:179,1,129.999994049073,2|8,0:0|0:2,0:0:0:0:
306,52,133955,1,10,0:0:0:0:
203,232,134129,1,8,0:2:0:0:
203,232,134476,1,8,0:2:0:0:
470,307,134649,6,0,L|458:171,1,129.999994049073,10|0,0:0|0:0,0:0:0:0:
227,16,134995,2,0,L|215:145,1,129.999994049073,10|0,0:2|0:0,0:0:0:0:
374,264,135342,1,10,0:0:0:0:
262,82,135516,1,8,0:2:0:0:
295,333,135689,1,2,0:0:0:0:
394,95,135862,1,8,0:2:0:0:
468,340,136036,5,10,0:0:0:0:
278,220,136209,1,0,0:0:0:0:
278,220,136383,1,8,0:2:0:0:
486,115,136556,1,10,0:0:0:0:
386,356,136729,1,0,0:0:0:0:
386,356,136903,1,8,0:2:0:0:
288,115,137076,1,0,0:0:0:0:
466,252,137250,1,0,0:0:0:0:
231,345,137423,5,10,0:0:0:0:
375,213,137597,1,8,0:2:0:0:
375,213,137770,1,8,0:2:0:0:
113,118,137943,1,10,0:0:0:0:
263,244,138117,1,8,0:2:0:0:
263,244,138290,1,8,0:2:0:0:
224,36,138464,1,10,0:0:0:0:
127,268,138637,1,0,0:0:0:0:
358,119,138810,5,10,0:0:0:0:
125,28,138984,1,8,0:2:0:0:
125,28,139157,1,8,0:2:0:0:
263,244,139331,1,10,0:0:0:0:
333,34,139504,1,8,0:2:0:0:
333,34,139677,1,8,0:2:0:0:
116,138,139851,2,0,L|127:272,1,129.999994049073,10|8,0:0|0:2,0:0:0:0:
363,226,140198,6,0,P|313:168|239:159,1,129.999994049073,10|0,0:2|0:0,0:0:0:0:
26,337,140545,2,0,P|76:279|150:270,1,129.999994049073,10|0,0:2|0:0,0:0:0:0:
355,329,140891,1,8,0:2:0:0:
116,138,141065,1,8,0:2:0:0:
214,352,141238,1,8,0:2:0:0:
372,105,141412,1,8,0:2:0:0:
36,63,141585,6,0,P|12:146|227:139,1,389.999982147218,12|0,0:2|0:0,0:0:0:0:
464,206,142279,2,0,P|488:289|273:282,1,389.999982147218,12|8,0:2|0:2,0:0:0:0:
353,203,142886,5,8,0:2:0:0:
353,203,142972,2,0,L|364:73,1,129.999994049073,12|0,0:2|0:0,0:0:0:0:
33,316,143319,2,0,P|61:230|175:204,1,194.999991073609,12|0,0:2|0:0,0:0:0:0:
177,211,143666,2,0,L|188:342,1,129.999994049073,10|8,0:0|0:2,0:0:0:0:
365,74,144013,1,8,0:2:0:0:
339,289,144186,1,8,0:2:0:0:
99,153,144360,6,0,P|82:224|111:294,1,129.999994049073,12|0,0:2|0:0,0:0:0:0:
339,289,144707,2,0,P|305:214|183:204,1,194.999991073609,8|0,0:2|0:0,0:0:0:0:
177,211,145054,1,8,0:0:0:0:
447,87,145227,2,0,B|461:202|461:202|438:253|438:253|447:348,1,259.999988098145,8|8,0:2|0:2,0:0:0:0:
112,294,145747,2,0,L|250:281,1,129.999994049073,8|0,0:2|0:0,0:0:0:0:
363,134,146094,2,0,L|167:116,1,194.999991073609,8|0,0:2|0:0,0:0:0:0:
135,112,146441,1,8,0:0:0:0:
241,282,146614,1,8,0:2:0:0:
358,48,146788,2,0,P|430:78|435:191,1,194.999991073609,10|0,0:2|0:0,0:0:0:0:
351,270,147134,6,0,P|304:197|168:364,1,389.999982147218,12|0,0:2|0:0,0:0:0:0:
40,100,147828,2,0,P|86:27|222:194,1,389.999982147218,12|8,0:2|0:2,0:0:0:0:
349,320,148435,1,8,0:2:0:0:
349,320,148522,6,0,B|275:300|275:300|152:350,1,194.999991073609,12|0,0:2|0:0,0:0:0:0:
91,276,148869,2,0,B|165:256|165:256|288:306,1,194.999991073609,12|0,0:2|0:0,0:0:0:0:
356,187,149216,1,10,0:0:0:0:
165,256,149389,1,8,0:2:0:0:
349,320,149563,1,8,0:2:0:0:
207,172,149736,1,8,0:2:0:0:
207,172,149823,1,0,0:0:0:0:
207,172,149909,6,0,P|130:172|81:210,1,129.999994049073,12|0,0:2|0:0,0:0:0:0:
311,104,150256,2,0,P|387:104|436:142,1,129.999994049073,8|0,0:2|0:0,0:0:0:0:
197,348,150603,1,8,0:0:0:0:
395,304,150776,2,0,B|340:364|340:364|356:183,1,259.999988098145,8|8,0:2|0:2,0:0:0:0:
74,102,151297,6,0,L|206:90,1,129.999994049073,10|0,0:0|0:0,0:0:0:0:
395,304,151643,2,0,L|262:292,1,129.999994049073,10|0,0:0|0:0,0:0:0:0:
285,58,151990,1,8,0:0:0:0:
393,186,152164,1,8,0:2:0:0:
265,292,152337,1,8,0:2:0:0:
161,166,152511,1,8,0:2:0:0:
477,113,152684,6,0,B|494:193|494:193|466:266|466:266|477:374,1,259.999988098145,12|2,0:2|0:0,0:0:0:0:
393,186,153204,1,0,0:2:0:0:
218,363,153378,1,10,0:0:0:0:
388,316,153551,1,0,0:2:0:0:
388,316,153898,1,0,0:2:0:0:
178,119,154071,5,8,0:0:0:0:
276,295,154245,1,0,0:2:0:0:
425,144,154418,2,0,L|280:131,1,129.999994049073,2|0,0:0|0:2,0:0:0:0:
164,327,154765,1,10,0:0:0:0:
352,225,154938,1,0,0:2:0:0:
129,190,155112,1,2,0:0:0:0:
276,295,155285,1,0,0:2:0:0:
239,21,155459,5,8,0:0:0:0:
410,131,155632,1,0,0:2:0:0:
218,233,155805,2,0,L|229:98,1,129.999994049073,2|0,0:0|0:2,0:0:0:0:
390,32,156152,1,10,0:0:0:0:
465,223,156326,2,0,P|400:232|335:211,1,129.999994049073,0|2,0:2|0:0,0:0:0:0:
319,101,156672,1,0,0:2:0:0:
156,323,156846,6,0,L|288:311,1,129.999994049073,8|0,0:0|0:2,0:0:0:0:
115,29,157193,2,0,L|97:227,1,194.999991073609,2|0,0:2|0:0,0:0:0:0:
95,258,157539,1,8,0:0:0:0:
241,113,157713,1,0,0:2:0:0:
14,120,157886,1,2,0:0:0:0:
243,247,158060,1,0,0:2:0:0:
343,37,158233,5,10,0:0:0:0:
156,192,158406,1,8,0:2:0:0:
156,192,158580,1,8,0:2:0:0:
428,268,158753,1,10,0:0:0:0:
241,113,158927,1,8,0:2:0:0:
241,113,159100,1,8,0:2:0:0:
279,324,159274,1,10,0:0:0:0:
417,115,159447,1,8,0:2:0:0:
141,298,159620,5,10,0:0:0:0:
332,175,159794,1,8,0:2:0:0:
332,175,159967,1,8,0:2:0:0:
410,369,160141,1,10,0:0:0:0:
179,200,160314,1,8,0:2:0:0:
179,200,160487,1,8,0:2:0:0:
452,34,160661,2,0,L|434:233,1,194.999991073609,10|0,0:0|0:0,0:0:0:0:
434,262,161007,5,14,0:2:0:0:
142,74,161180,1,10,0:2:0:0:
310,323,161354,1,10,0:2:0:0:
311,22,161527,1,10,0:2:0:0:
418,358,161701,1,10,0:2:0:0:
121,202,161874,1,10,0:2:0:0:
436,93,162047,1,10,0:2:0:0:
224,368,162221,1,10,0:2:0:0:
124,44,162394,5,10,0:2:0:0:
84,354,162568,1,10,0:2:0:0:
234,75,162741,1,10,0:2:0:0:
350,351,162915,1,10,0:2:0:0:
61,205,163088,1,8,0:2:0:0:
106,191,163175,1,8,0:2:0:0:
156,186,163261,1,8,0:2:0:0:
203,195,163348,1,8,0:2:0:0:
249,213,163435,1,8,0:2:0:0:
294,232,163521,1,8,0:2:0:0:
342,239,163608,1,8,0:2:0:0:
390,231,163695,1,8,0:2:0:0:
432,197,163782,5,12,0:2:0:0:
432,186,163868,1,0,0:0:0:0:
433,175,163955,1,0,0:0:0:0:
434,165,164042,1,0,0:0:0:0:
423,146,164128,1,0,0:0:0:0:
422,136,164215,1,0,0:0:0:0:
421,125,164302,1,0,0:0:0:0:
420,114,164388,1,0,0:0:0:0:
420,104,164476,2,0,L|424:68,3,34.9999989318848,10|0|0|0,0:2|0:0|0:0|0:0,0:0:0:0:
275,174,164822,2,0,L|278:137,3,34.9999989318848,8|0|0|0,0:2|0:0|0:0|0:0,0:0:0:0:
118,85,165169,5,12,0:2:0:0:
111,94,165256,1,0,0:0:0:0:
105,104,165342,1,0,0:0:0:0:
101,115,165429,1,0,0:0:0:0:
98,126,165516,1,0,0:0:0:0:
97,138,165602,1,0,0:0:0:0:
97,149,165689,1,0,0:0:0:0:
99,161,165776,1,0,0:0:0:0:
102,172,165862,2,0,L|151:176,3,34.9999989318848,10|0|0|0,0:2|0:0|0:0|0:0,0:0:0:0:
253,292,166209,2,0,P|237:224|259:183,1,104.999996795654,8|0,0:2|0:0,0:0:0:0:
275,174,166556,5,14,0:2:0:0:
154,296,166730,1,0,0:2:0:0:
154,296,166903,1,0,0:2:0:0:
185,70,167076,1,10,0:2:0:0:
336,262,167250,1,0,0:2:0:0:
336,262,167423,1,0,0:2:0:0:
340,66,167597,1,10,0:2:0:0:
134,204,167770,1,0,0:2:0:0:
430,219,167943,5,10,0:2:0:0:
267,117,168117,1,0,0:2:0:0:
267,117,168290,1,0,0:2:0:0:
214,322,168464,1,10,0:2:0:0:
370,142,168637,1,0,0:2:0:0:
134,127,168810,1,0,0:2:0:0:
318,307,168984,2,0,B|374:321|374:299|429:307,1,104.999996795654,10|0,0:2|0:0,0:0:0:0:
455,320,169331,5,12,0:2:0:0:
456,306,169417,1,0,0:0:0:0:
457,293,169504,1,0,0:0:0:0:
458,280,169591,1,0,0:0:0:0:
445,259,169677,1,0,0:0:0:0:
444,246,169764,1,0,0:0:0:0:
443,233,169851,1,0,0:0:0:0:
441,220,169937,1,0,0:0:0:0:
440,207,170025,2,0,L|443:171,3,34.9999989318848,10|0|0|0,0:2|0:0|0:0|0:0,0:0:0:0:
353,73,170372,2,0,L|356:107,3,34.9999989318848,8|0|0|0,0:2|0:0|0:0|0:0,0:0:0:0:
166,35,170718,5,12,0:2:0:0:
184,33,170805,1,0,0:0:0:0:
201,36,170891,1,0,0:0:0:0:
217,42,170978,1,0,0:0:0:0:
232,52,171065,1,0,0:0:0:0:
244,64,171152,1,0,0:0:0:0:
253,79,171238,1,0,0:0:0:0:
259,96,171325,1,0,0:0:0:0:
261,113,171412,2,0,L|258:147,3,34.9999989318848,10|0|0|0,0:2|0:0|0:0|0:0,0:0:0:0:
162,259,171758,2,0,L|171:151,1,104.999996795654,8|0,0:2|0:0,0:0:0:0:
175,121,172105,5,14,0:2:0:0:
337,272,172279,1,0,0:2:0:0:
337,272,172452,1,0,0:2:0:0:
396,68,172626,1,10,0:2:0:0:
242,212,172799,1,0,0:2:0:0:
242,212,172972,1,0,0:2:0:0:
487,334,173146,2,0,L|496:227,1,104.999996795654,10|0,0:2|0:0,0:0:0:0:
499,193,173493,5,10,0:2:0:0:
230,305,173666,1,8,0:2:0:0:
186,290,173753,1,8,0:2:0:0:
154,256,173839,1,8,0:2:0:0:
140,212,173926,1,8,0:2:0:0:
148,167,174013,1,8,0:2:0:0:
177,130,174099,1,8,0:2:0:0:
218,110,174186,2,0,L|253:113,1,34.9999989318848,10|8,0:0|0:2,0:0:0:0:
345,212,174360,2,0,L|311:216,1,34.9999989318848,8|8,0:2|0:2,0:0:0:0:
375,114,174533,2,0,L|410:117,1,34.9999989318848,8|8,0:2|0:2,0:0:0:0:
499,193,174706,2,0,L|464:196,1,34.9999989318848,8|8,0:2|0:2,0:0:0:0:
332,367,174880,5,12,0:2:0:0:
333,355,174967,1,0,0:0:0:0:
334,343,175053,1,0,0:0:0:0:
335,332,175140,1,0,0:0:0:0:
336,320,175227,1,0,0:0:0:0:
337,308,175313,1,0,0:0:0:0:
338,297,175400,5,12,0:2:0:0:
312,318,175487,1,0,0:0:0:0:
282,332,175573,1,0,0:0:0:0:
249,339,175660,1,0,0:0:0:0:
216,337,175747,1,0,0:0:0:0:
184,328,175834,1,0,0:0:0:0:
156,310,175920,5,12,0:2:0:0:
159,275,176007,1,0,0:0:0:0:
162,240,176094,1,0,0:0:0:0:
165,205,176180,1,0,0:0:0:0:
168,170,176267,5,12,0:2:0:0:
141,126,176354,1,8,0:2:0:0:
91,115,176441,1,8,0:2:0:0:
49,145,176527,1,8,0:2:0:0:
42,195,176614,2,0,L|86:198,1,34.9999989318848,8|8,0:2|0:2,0:0:0:0:
231,107,176787,5,12,0:2:0:0:
258,63,176874,1,8,0:2:0:0:
308,52,176961,1,8,0:2:0:0:
350,82,177047,1,8,0:2:0:0:
357,132,177134,2,0,L|312:135,1,34.9999989318848,8|8,0:2|0:2,0:0:0:0:
149,31,177308,1,12,0:2:0:0:
388,332,177655,5,10,0:0:0:0:
462,96,177828,1,8,0:2:0:0:
462,96,178002,1,8,0:2:0:0:
210,259,178175,1,10,0:0:0:0:
470,239,178348,1,8,0:2:0:0:
470,239,178522,1,8,0:2:0:0:
309,96,178695,1,10,0:0:0:0:
296,351,178869,1,8,0:2:0:0:
132,141,179042,5,10,0:0:0:0:
361,229,179215,1,8,0:2:0:0:
140,292,179389,1,8,0:2:0:0:
409,118,179562,1,10,0:0:0:0:
447,369,179736,1,10,0:0:0:0:
245,259,179909,1,8,0:2:0:0:
460,228,180083,1,8,0:2:0:0:
346,329,180256,1,8,0:2:0:0:
211,111,180429,5,14,0:2:0:0:
170,348,180603,1,10,0:2:0:0:
345,162,180776,1,10,0:2:0:0:
435,364,180950,1,10,0:2:0:0:
129,157,181123,1,10,0:2:0:0:
255,358,181296,1,10,0:2:0:0:
366,140,181470,1,10,0:2:0:0:
101,281,181643,1,10,0:2:0:0:
366,312,181817,5,10,0:2:0:0:
236,97,181990,1,10,0:2:0:0:
159,349,182163,1,10,0:2:0:0:
316,210,182337,1,10,0:2:0:0:
70,117,182510,1,10,0:2:0:0:
261,307,182684,1,10,0:2:0:0:
346,81,182857,1,10,0:2:0:0:
186,212,183030,1,10,0:2:0:0:
416,304,183204,5,10,0:2:0:0:
184,116,183377,1,10,0:2:0:0:
467,24,183551,1,10,0:2:0:0:
261,307,183724,1,10,0:2:0:0:
244,20,183898,1,10,0:2:0:0:
461,164,184071,1,10,0:2:0:0:
148,288,184244,1,10,0:2:0:0:
346,81,184418,1,10,0:2:0:0:
461,356,184591,5,14,0:2:0:0:
49,48,184938,1,14,0:2:0:0:
427,341,186065,6,0,L|188:319,1,239.999992675781,2|0,0:0|0:0,0:0:0:0:
313,248,187020,2,0,L|301:123,1,119.999996337891,2|0,0:0|0:0,0:0:0:0:
112,45,187593,2,0,P|93:122|232:183,1,239.999992675781,2|0,0:0|0:0,0:0:0:0:
318,108,188549,2,0,L|442:118,1,119.999996337891,2|0,0:0|0:0,0:0:0:0:
353,259,189122,6,0,L|113:279,1,239.999992675781,2|0,0:0|0:0,0:0:0:0:
169,151,190077,2,0,P|214:175|232:248,1,119.999996337891,2|0,0:0|0:0,0:0:0:0:
101,83,190650,2,0,B|161:60|161:60|278:88,1,179.999994506836,2|0,0:0|0:0,0:0:0:0:
368,173,191415,2,0,L|362:231,1,59.9999981689454,0|0,0:0|0:0,0:0:0:0:
285,298,191797,2,0,L|290:356,1,59.9999981689454,0|0,0:0|0:0,0:0:0:0:
101,289,192179,6,0,P|168:190|283:206,1,239.999992675781,2|0,0:0|0:0,0:0:0:0:
154,166,193135,2,0,L|164:45,1,119.999996337891,2|0,0:0|0:0,0:0:0:0:
362,103,193708,2,0,L|382:342,1,239.999992675781,2|0,0:0|0:0,0:0:0:0:
195,316,194663,2,0,P|212:269|282:238,1,119.999996337891,2|0,0:0|0:0,0:0:0:0:
73,185,195236,6,0,B|39:245|39:245|213:229,1,239.999992675781,2|0,0:0|0:0,0:0:0:0:
158,20,196192,2,0,L|146:146,1,119.999996337891,2|0,0:0|0:0,0:0:0:0:
311,184,196765,2,0,L|327:372,1,179.999994506836,2|0,0:0|0:0,0:0:0:0:
470,280,197529,2,0,P|435:277|406:288,1,59.9999981689454,0|0,0:0|0:0,0:0:0:0:
326,363,197912,2,0,P|291:366|262:354,1,59.9999981689454,0|0,0:0|0:0,0:0:0:0:
133,231,198294,6,0,P|218:205|177:305,1,239.999992675781,2|0,0:0|0:0,0:0:0:0:
55,172,199249,2,0,B|36:227|36:227|53:286,1,119.999996337891,2|0,0:0|0:0,0:0:0:0:
233,240,199822,2,0,B|271:130|271:130|237:12,1,239.999992675781,2|0,0:0|0:0,0:0:0:0:
56,147,200778,2,0,L|185:135,1,119.999996337891,2|0,0:0|0:0,0:0:0:0:
338,228,201351,6,0,B|380:275|380:275|205:260,1,239.999992675781,2|0,0:0|0:0,0:0:0:0:
257,55,202307,2,0,L|267:173,1,119.999996337891,2|0,0:0|0:0,0:0:0:0:
128,322,202880,2,0,P|109:276|182:178,1,179.999994506836,2|0,0:0|0:0,0:0:0:0:
350,223,203644,2,0,L|355:282,1,59.9999981689454,0|0,0:0|0:0,0:0:0:0:
285,146,204026,2,0,L|290:86,1,59.9999981689454,0|0,0:0|0:0,0:0:0:0:
467,180,204408,6,0,P|489:110|383:153,1,239.999992675781,2|0,0:0|0:0,0:0:0:0:
482,281,205364,2,0,L|363:270,1,119.999996337891,2|0,0:0|0:0,0:0:0:0:
252,158,205937,2,0,L|13:178,1,239.999992675781,2|0,0:0|0:0,0:0:0:0:
109,304,206893,2,0,P|145:271|155:198,1,119.999996337891,2|0,0:0|0:0,0:0:0:0:
330,62,207466,2,0,P|294:95|374:239,1,239.999992675781,2|0,0:0|0:0,0:0:0:0:
488,133,208421,2,0,L|367:143,1,119.999996337891,2|0,0:0|0:0,0:0:0:0:
256,298,208994,1,2,0:0:0:0:
256,192,209090,12,0,213580,0:0:0:0:
