osu file format v14

[General]
AudioFilename: audio.mp3
AudioLeadIn: 0
PreviewTime: 97714
Countdown: 0
SampleSet: Soft
StackLeniency: 0.7
Mode: 0
LetterboxInBreaks: 0
WidescreenStoryboard: 1

[Editor]
Bookmarks: 99143
DistanceSpacing: 1.6
BeatDivisor: 6
GridSize: 16
TimelineZoom: 2.799999

[Metadata]
Title:Anaphylaxis
TitleUnicode:Anaphylaxis
Artist:PUP
ArtistUnicode:PUP
Creator:Hobbes2
Version:BEES!
Source:
Tags:english punk rock featured artist fa alt alternator male vocals pathetic use of potential bees
BeatmapID:2466476
BeatmapSetID:1169856

[Difficulty]
HPDrainRate:4
CircleSize:4
OverallDifficulty:8.7
ApproachRate:9.5
SliderMultiplier:1.6
SliderTickRate:1

[Events]
//Background and Video events
0,0,"cover.jpg",0,0
//Break Periods
2,96516,97889
//Storyboard Layer 0 (Background)
//Storyboard Layer 1 (Fail)
//Storyboard Layer 2 (Pass)
//Storyboard Layer 3 (Foreground)
//Storyboard Layer 4 (Overlay)
//Storyboard Sound Samples

[TimingPoints]
130,238.095238095238,6,2,0,80,1,0
14415,-133.333333333333,3,2,0,60,0,0
18701,-80,3,2,0,80,0,0
20129,-133.333333333333,3,2,0,60,0,0
24415,-100,3,2,0,80,0,0
25844,-133.333333333333,3,2,0,60,0,0
30129,-100,3,2,0,70,0,0
31558,-133.333333333333,3,2,0,60,0,0
35844,-100,3,2,0,70,0,0
37273,238.095238095238,5,2,0,60,1,0
37273,-133.333333333333,5,2,0,60,0,0
38463,238.095238095238,6,2,0,60,1,0
38463,-133.333333333333,5,2,0,60,0,0
39891,238.095238095238,5,2,0,60,1,0
39891,-133.333333333333,5,2,0,60,0,0
41081,238.095238095238,6,2,0,60,1,0
41081,-133.333333333333,5,2,0,60,0,0
42509,238.095238095238,5,2,0,60,1,0
42509,-133.333333333333,5,2,0,60,0,0
43699,238.095238095238,6,2,0,60,1,0
43699,-133.333333333333,5,2,0,60,0,0
45127,238.095238095238,5,2,0,60,1,0
45127,-133.333333333333,5,2,0,60,0,0
46317,238.095238095238,6,2,0,70,1,0
47745,-66.6666666666667,3,2,0,60,0,0
48459,-133.333333333333,3,2,0,60,0,0
50602,-100,3,2,0,60,0,0
51316,-133.333333333333,3,2,0,60,0,0
56316,-100,3,2,0,70,0,0
57745,-200,3,2,0,70,0,0
59173,-100,3,2,0,80,0,0
73459,-133.333333333333,3,2,0,60,0,0
77744,-80,3,2,0,80,0,0
79173,-133.333333333333,3,2,0,60,0,0
83459,-100,3,2,0,70,0,0
84887,-90.9090909090909,3,2,0,80,0,0
85840,-74.0740740740741,3,2,0,80,0,0
86316,-90.9090909090909,3,2,0,80,0,0
87268,-74.0740740740741,3,2,0,80,0,0
87744,-90.9090909090909,3,2,0,80,0,0
90602,-83.3333333333333,3,2,0,80,0,0
91554,-68.9655172413793,3,2,0,80,0,0
92030,-83.3333333333333,3,2,0,80,0,0
92983,-68.9655172413793,3,2,0,80,0,0
93459,-83.3333333333333,3,2,0,80,0,0
99173,238.095238095238,6,2,0,85,1,0
99173,-133.333333333333,6,2,0,70,0,0
99887,-90.9090909090909,6,2,0,85,0,0
102030,-133.333333333333,6,2,0,70,0,0
102744,-90.9090909090909,6,2,0,85,0,0
104887,-133.333333333333,6,2,0,60,0,0
105601,-90.9090909090909,6,2,0,85,0,0
119173,-133.333333333333,6,2,0,60,0,0
130602,238.095238095238,5,2,0,60,1,0
130602,-133.333333333333,5,2,0,60,0,0
131792,238.095238095238,6,2,0,60,1,0
131792,-133.333333333333,6,2,0,60,0,0
133220,238.095238095238,5,2,0,60,1,0
133220,-133.333333333333,5,2,0,60,0,0
134410,238.095238095238,6,2,0,60,1,0
134410,-133.333333333333,6,2,0,60,0,0
135838,238.095238095238,5,2,0,60,1,0
135838,-133.333333333333,5,2,0,60,0,0
137028,238.095238095238,6,2,0,60,1,0
137028,-133.333333333333,6,2,0,60,0,0
138456,238.095238095238,5,2,0,60,1,0
138456,-133.333333333333,5,2,0,60,0,0
139646,238.095238095238,6,2,0,70,1,0
139646,-133.333333333333,6,2,0,70,0,0
141074,238.095238095238,5,2,0,85,1,0
141074,-90.9090909090909,5,2,0,85,0,0
142264,238.095238095238,6,2,0,80,1,0
143692,238.095238095238,5,2,0,85,1,0
143692,-90.9090909090909,5,2,0,85,0,0
144882,238.095238095238,6,2,0,80,1,0
146310,238.095238095238,5,2,0,85,1,0
146310,-90.9090909090909,5,2,0,85,0,0
147500,238.095238095238,6,2,0,80,1,0
148928,-90.9090909090909,3,2,0,80,0,0
154642,-133.333333333333,3,2,0,70,0,0
155356,-90.9090909090908,3,2,0,85,0,0
157499,-133.333333333333,3,2,0,70,0,0
158213,-90.9090909090909,3,2,0,85,0,0
160356,-133.333333333333,3,2,0,70,0,0
161070,-90.9090909090909,3,2,0,85,0,0
170356,-76.9230769230769,3,2,0,85,0,0
171785,-90.9090909090909,3,2,0,85,0,0
180356,309.278350515464,6,2,0,60,1,0
181283,365.853658536585,6,2,0,60,1,0
182379,375,6,2,0,60,1,0
183504,377.358490566038,6,2,0,60,1,0
185768,422.535211267606,6,2,0,60,1,0
186190,496.894409937888,6,2,0,60,1,0
187308,496.894409937888,6,2,0,60,1,0
194016,-100,3,2,0,5,0,0

[Colours]
Combo1 : 255,255,170
Combo2 : 255,172,136
Combo3 : 255,159,217
Combo4 : 198,255,113
Combo5 : 255,204,128

[HitObjects]
60,118,2272,5,8,0:0:0:0:
60,118,2510,1,4,0:3:0:0:
60,118,2749,1,4,0:3:0:0:
60,118,2987,6,0,P|37:154|29:196,1,80,6|0,3:2|0:0,0:0:0:0:
66,272,3225,1,8,0:0:0:0:
48,36,3344,2,0,P|107:137|155:180,1,160,6|0,3:2|3:2,0:0:0:0:
186,238,3701,2,0,P|225:237|264:228,1,80,14|0,0:0|0:0,0:0:0:0:
306,348,3939,2,0,P|326:314|338:276,1,80,0|0,0:0|3:2,0:0:0:0:
462,298,4177,2,0,P|441:263|414:234,1,80,8|0,0:0|0:0,0:0:0:0:
292,47,4415,6,0,L|279:126,1,80,6|0,3:2|0:0,0:0:0:0:
298,211,4653,1,8,0:0:0:0:
460,83,4772,2,0,B|416:47|416:47|315:72,1,160,6|0,3:2|3:2,0:0:0:0:
187,207,5129,5,10,0:0:0:0:
155,83,5249,1,8,0:0:0:0:
211,224,5368,1,8,0:0:0:0:
76,149,5487,1,8,0:0:0:0:
55,166,5725,1,8,0:0:0:0:
166,51,5844,6,0,L|80:36,1,80,6|0,3:2|0:0,0:0:0:0:
0,49,6082,1,8,0:0:0:0:
240,9,6201,2,0,B|170:91|170:91|157:167,1,160,6|0,3:2|3:2,0:0:0:0:
214,212,6558,2,0,P|253:217|283:243,1,80,14|0,0:0|0:0,0:0:0:0:
430,179,6796,2,0,P|407:210|369:224,1,80,0|0,0:0|3:2,0:0:0:0:
351,382,7034,2,0,P|336:345|343:306,1,80,8|0,0:0|0:0,0:0:0:0:
265,81,7272,6,0,L|343:68,1,80,6|0,3:2|0:0,0:0:0:0:
233,162,7510,1,8,0:0:0:0:
144,14,7629,2,0,B|56:6|56:6|79:85,1,160,6|0,3:2|3:2,0:0:0:0:
148,234,7987,6,0,P|189:170|162:103,1,120,14|0,0:0|0:0,0:0:0:0:
163,103,8225,1,0,3:0:0:0:
36,156,8344,2,0,P|70:224|147:234,1,160,14|0,0:0|0:0,0:0:0:0:
284,162,8701,6,0,L|206:143,1,80,6|0,3:2|0:0,0:0:0:0:
135,90,8939,1,8,0:0:0:0:
353,215,9058,2,0,P|282:126|242:68,1,160,6|0,3:2|3:2,0:0:0:0:
196,153,9415,2,0,P|216:232|218:257,1,80,14|0,0:0|0:0,0:0:0:0:
268,352,9653,2,0,P|281:315|290:276,1,80,0|0,0:0|3:2,0:0:0:0:
74,281,9891,2,0,P|112:293|151:300,1,80,8|0,0:0|0:0,0:0:0:0:
214,76,10129,6,0,B|167:69|167:69|142:90,1,80,6|0,3:2|0:0,0:0:0:0:
168,175,10368,1,8,0:0:0:0:
354,103,10487,2,0,B|240:34|240:34|214:43,1,160,6|0,3:2|3:2,0:0:0:0:
256,234,10844,5,10,0:0:0:0:
392,189,10963,1,8,0:0:0:0:
269,256,11082,1,8,0:0:0:0:
400,289,11201,1,8,0:0:0:0:
401,264,11439,1,8,0:0:0:0:
297,354,11558,6,0,P|275:320|254:285,1,80,12|0,3:2|3:0,0:0:0:0:
235,124,11796,1,8,0:0:0:0:
251,29,11915,1,0,3:0:0:0:
345,11,12034,1,8,0:0:0:0:
394,93,12153,1,0,3:0:0:0:
292,180,12272,6,0,P|214:152|196:148,1,80,12|0,0:0|3:0,0:0:0:0:
91,10,12510,1,8,0:0:0:0:
27,82,12629,1,0,3:0:0:0:
14,177,12749,1,8,0:0:0:0:
39,269,12868,1,0,3:0:0:0:
128,184,12987,5,12,0:0:0:0:
170,346,13106,1,0,3:0:0:0:
17,291,13225,1,8,0:0:0:0:
229,211,13344,2,0,P|327:229|402:246,1,160,4|0,3:2|3:0,0:0:0:0:
171,35,13701,6,0,P|105:3|68:-11,1,80,14|2,0:0|0:0,0:0:0:0:
20,41,13939,1,0,3:0:0:0:
258,108,14058,2,0,B|134:133|134:133|99:171,1,160,14|0,0:0|0:0,0:0:0:0:
62,320,14415,6,0,P|149:335|231:351,1,120.000004577637,6|0,1:2|3:0,0:0:0:0:
248,303,14772,1,0,3:0:0:0:
269,323,14891,1,0,3:0:0:0:
285,347,15010,1,0,3:0:0:0:
180,340,15129,5,8,0:0:0:0:
323,51,15368,1,4,0:3:0:0:
368,279,15606,1,4,0:3:0:0:
488,14,15844,6,0,P|504:96|516:171,1,120.000004577637,2|0,1:2|3:0,0:0:0:0:
474,201,16201,1,0,3:0:0:0:
472,232,16320,1,0,3:0:0:0:
483,260,16439,1,0,3:0:0:0:
427,326,16558,6,0,L|307:312,1,120.000004577637,10|0,0:0|3:0,0:0:0:0:
260,374,16915,2,0,P|203:330|221:275,1,120.000004577637,2|0,1:2|0:0,0:0:0:0:
295,234,17272,5,6,1:2:0:0:
180,90,17510,1,0,3:0:0:0:
155,107,17629,1,0,3:0:0:0:
127,120,17749,1,0,3:0:0:0:
97,127,17868,1,0,3:0:0:0:
88,41,17987,5,8,0:0:0:0:
296,5,18225,1,4,0:3:0:0:
18,200,18463,1,4,0:3:0:0:
403,21,18701,6,0,B|420:41|420:41|437:114|437:114|451:124,1,100,14|0,0:2|0:0,0:0:0:0:
267,110,18939,2,0,B|259:137|259:137|258:202|258:202|276:226,1,100,4|0,0:3|0:0,0:0:0:0:
108,37,19177,2,0,B|90:57|90:57|76:117|76:117|69:132,1,100,4|0,0:3|0:0,0:0:0:0:
436,26,19415,6,0,B|429:51|429:51|435:131|435:131|432:149,1,100,14|0,0:2|0:0,0:0:0:0:
237,133,19653,2,0,B|247:157|247:157|240:236|240:236|218:258,1,100,4|0,0:3|0:0,0:0:0:0:
71,21,19891,2,0,B|77:49|77:49|63:104|63:104|78:170,1,100,4|0,0:3|0:0,0:0:0:0:
0,374,20129,6,0,L|145:354,1,120.000004577637,6|0,1:2|3:0,0:0:0:0:
196,368,20487,1,0,3:0:0:0:
222,355,20606,1,0,3:0:0:0:
252,356,20725,1,0,3:0:0:0:
259,273,20844,5,8,0:0:0:0:
483,173,21082,1,4,0:3:0:0:
150,269,21320,1,4,0:3:0:0:
214,151,21558,5,2,1:2:0:0:
305,253,21796,1,0,3:0:0:0:
335,251,21915,1,0,3:0:0:0:
365,252,22034,1,0,3:0:0:0:
393,262,22153,1,0,3:0:0:0:
405,175,22272,6,0,P|449:182|481:190,1,60.0000022888184,10|0,0:2|0:0,0:0:0:0:
507,290,22510,1,0,3:0:0:0:
405,384,22629,2,0,P|318:363|288:360,1,120.000004577637,2|0,1:2|0:0,0:0:0:0:
210,373,22987,6,0,P|191:312|247:269,1,120.000004577637,6|0,1:2|3:0,0:0:0:0:
302,273,23344,1,0,3:0:0:0:
316,246,23463,1,0,3:0:0:0:
322,216,23582,1,0,3:0:0:0:
259,163,23701,5,8,0:0:0:0:
435,14,23939,1,4,0:3:0:0:
399,301,24177,1,4,0:3:0:0:
333,57,24415,6,0,P|296:39|260:24,1,80,6|0,3:2|0:0,0:0:0:0:
165,78,24653,1,8,0:0:0:0:
0,0,24772,2,0,P|17:36|32:72,1,80,6|0,3:2|0:0,0:0:0:0:
94,184,25010,1,8,0:0:0:0:
0,299,25129,2,0,L|15:377,1,80,6|0,3:2|0:0,0:0:0:0:
260,228,25368,2,0,P|219:216|181:212,1,80,8|0,0:0|0:0,0:0:0:0:
121,384,25606,2,0,P|162:372|199:368,1,80,8|0,0:0|0:0,0:0:0:0:
304,322,25844,5,6,1:2:0:0:
304,322,26082,1,0,3:0:0:0:
429,242,26320,1,0,3:0:0:0:
442,268,26439,1,0,3:0:0:0:
401,335,26558,5,8,0:0:0:0:
438,142,26796,1,4,0:3:0:0:
326,236,27034,1,4,0:3:0:0:
499,214,27272,5,2,1:2:0:0:
333,106,27510,1,0,3:0:0:0:
305,117,27629,1,0,3:0:0:0:
275,123,27749,1,0,3:0:0:0:
245,126,27868,1,0,3:0:0:0:
178,66,27987,6,0,P|161:142|157:157,1,60.0000022888184,10|0,0:0|0:0,0:0:0:0:
185,231,28225,1,0,3:0:0:0:
53,265,28344,2,0,P|103:298|149:335,1,120.000004577637,2|0,1:2|0:0,0:0:0:0:
219,371,28701,6,0,P|251:305|328:313,1,120.000004577637,6|0,1:2|3:0,0:0:0:0:
356,340,29058,1,0,3:0:0:0:
376,318,29177,1,0,3:0:0:0:
376,288,29296,1,0,3:0:0:0:
454,326,29415,5,8,0:0:0:0:
405,116,29653,1,4,0:3:0:0:
506,255,29891,1,4,0:3:0:0:
307,104,30129,6,0,B|299:119|299:119|305:177|305:177|303:181,1,80,14|0,0:2|0:0,0:0:0:0:
147,178,30368,2,0,B|162:191|162:191|197:247|197:247|208:255,1,80,4|0,0:3|0:0,0:0:0:0:
111,355,30606,2,0,B|141:364|141:364|186:362|186:362|208:367,1,80,4|0,0:3|0:0,0:0:0:0:
294,83,30844,6,0,B|291:107|291:107|299:178,1,80,14|0,0:2|0:0,0:0:0:0:
117,161,31082,2,0,B|140:175|140:175|155:221|155:221|169:232,1,80,4|0,0:3|0:0,0:0:0:0:
84,376,31320,2,0,B|99:369|99:369|159:385|159:385|174:382,1,80,4|0,0:3|0:0,0:0:0:0:
346,375,31558,6,0,P|420:342|414:282,1,120.000004577637,6|0,1:2|3:0,0:0:0:0:
393,239,31915,1,0,3:0:0:0:
393,205,32034,1,0,3:0:0:0:
416,182,32153,1,0,3:0:0:0:
480,242,32272,5,8,0:0:0:0:
276,26,32510,1,4,0:3:0:0:
298,324,32749,1,4,0:3:0:0:
179,61,32987,5,2,1:2:0:0:
208,248,33225,1,0,3:0:0:0:
198,276,33344,1,0,3:0:0:0:
189,304,33463,1,0,3:0:0:0:
180,332,33582,1,0,3:0:0:0:
102,351,33701,6,0,P|160:368|187:378,1,60.0000022888184,10|0,0:0|0:0,0:0:0:0:
278,320,33939,1,0,3:0:0:0:
359,254,34058,2,0,P|379:330|392:387,1,120.000004577637,2|0,1:2|0:0,0:0:0:0:
476,379,34415,5,6,1:2:0:0:
486,154,34653,1,0,3:0:0:0:
456,154,34772,1,0,3:0:0:0:
426,154,34891,1,0,3:0:0:0:
396,150,35010,1,0,3:0:0:0:
310,178,35129,5,8,0:0:0:0:
441,0,35368,1,4,0:3:0:0:
374,336,35606,1,4,0:3:0:0:
178,175,35844,6,0,L|280:151,1,80,6|0,3:2|0:0,0:0:0:0:
285,45,36082,1,8,0:0:0:0:
118,19,36201,2,0,B|146:45|146:45|166:107,1,80,6|0,3:2|0:0,0:0:0:0:
32,280,36439,1,8,0:0:0:0:
132,363,36558,2,0,P|95:377|51:391,1,80,6|0,3:2|0:0,0:0:0:0:
281,202,36796,2,0,P|288:241|295:280,1,80,8|0,0:0|0:0,0:0:0:0:
50,173,37034,2,0,P|56:133|64:94,1,80,8|0,0:0|0:0,0:0:0:0:
323,40,37273,5,4,3:2:0:0:
346,36,37392,1,0,0:0:0:0:
369,42,37511,1,0,0:0:0:0:
407,112,37630,2,0,P|397:84|388:56,1,60.0000022888184,8|0,0:0|0:0,0:0:0:0:
486,127,37868,1,0,0:0:0:0:
450,199,37987,2,0,P|467:175|490:155,1,60.0000022888184,8|0,0:0|0:0,0:0:0:0:
493,282,38225,1,0,0:0:0:0:
470,290,38344,1,0,0:0:0:0:
449,302,38463,6,0,P|391:284|332:271,1,120.000004577637,0|0,3:0|0:0,0:0:0:0:
257,374,38820,2,0,P|285:361|313:352,1,60.0000022888184,8|0,0:0|0:0,0:0:0:0:
286,207,39058,1,0,0:0:0:0:
255,286,39177,5,8,0:0:0:0:
353,161,39415,1,4,0:3:0:0:
214,167,39653,1,4,0:3:0:0:
453,192,39891,5,0,3:0:0:0:
458,168,40010,1,0,0:0:0:0:
469,146,40129,1,0,0:0:0:0:
465,71,40248,2,0,P|474:100|485:128,1,60.0000022888184,8|0,0:0|0:0,0:0:0:0:
397,24,40486,1,0,0:0:0:0:
321,19,40605,2,0,P|349:27|377:38,1,60.0000022888184,8|0,0:0|0:0,0:0:0:0:
245,138,40843,1,0,0:0:0:0:
265,123,40962,1,0,0:0:0:0:
282,106,41081,6,0,B|237:69|206:64|206:64|171:64|176:64,1,120.000004577637,0|0,3:0|0:0,0:0:0:0:
138,181,41438,2,0,P|129:153|119:125,1,60.0000022888184,8|0,0:0|0:0,0:0:0:0:
16,191,41676,1,0,0:0:0:0:
37,109,41795,5,8,0:0:0:0:
70,267,42033,1,4,0:3:0:0:
103,43,42271,1,4,0:3:0:0:
166,221,42509,6,0,P|154:316|150:367,1,120.000004577637,0|0,3:0|0:0,0:0:0:0:
225,381,42866,2,0,P|277:351|289:344,1,60.0000022888184,8|0,0:0|0:0,0:0:0:0:
327,232,43104,1,0,0:0:0:0:
250,272,43223,2,0,P|276:267|308:264,1,60.0000022888184,8|0,0:0|0:0,0:0:0:0:
414,320,43461,1,0,0:0:0:0:
425,341,43580,1,0,0:0:0:0:
445,358,43699,6,0,P|450:298|459:239,1,120.000004577637,0|0,3:0|0:0,0:0:0:0:
507,116,44056,2,0,P|509:145|512:175,1,60.0000022888184,8|0,0:0|0:0,0:0:0:0:
416,125,44294,1,0,0:0:0:0:
458,51,44413,5,8,0:0:0:0:
344,180,44651,1,4,0:3:0:0:
260,30,44889,1,4,0:3:0:0:
184,136,45127,5,0,3:0:0:0:
160,132,45246,1,0,0:0:0:0:
137,123,45365,1,0,0:0:0:0:
129,44,45484,2,0,P|122:73|116:102,1,60.0000022888184,8|0,0:0|0:0,0:0:0:0:
59,189,45722,1,0,0:0:0:0:
10,124,45841,2,0,P|18:152|28:181,1,60.0000022888184,8|0,0:0|0:0,0:0:0:0:
56,313,46079,1,0,0:0:0:0:
41,294,46198,1,0,0:0:0:0:
46,269,46317,5,8,0:0:0:0:
133,230,46436,1,8,0:0:0:0:
216,276,46555,1,8,0:0:0:0:
290,214,46674,1,8,0:0:0:0:
370,266,46793,1,8,0:0:0:0:
445,207,46912,1,8,0:0:0:0:
377,291,47031,5,8,0:0:0:0:
305,181,47150,1,0,3:0:0:0:
254,242,47269,1,0,3:0:0:0:
210,194,47388,1,0,3:0:0:0:
177,217,47507,1,0,3:0:0:0:
156,204,47626,1,0,3:0:0:0:
72,207,47745,6,0,B|72:21|228:-48|331:-14|444:-11|512:189|238:226|198:96|158:46,1,720.000027465821,6|2,0:0|0:0,0:0:0:0:
388,324,48697,6,0,P|402:224|409:188,1,120.000004577637
246,372,49173,2,0,P|214:260|91:264,1,240.000009155274,2|0,0:0|0:0,0:0:0:0:
16,148,49887,2,0,P|96:130|143:114,2,120.000004577637,2|0|0,0:0|0:0|0:0,0:0:0:0:
0,353,50602,6,0,B|29:323|54:309|54:309|135:303|167:348|183:348|250:257|250:257|156:290,1,320,2|0,0:0|0:0,0:0:0:0:
17,34,51316,1,2,0:0:0:0:
17,34,51554,2,0,P|131:17|160:9,1,120.000004577637,2|0,0:0|0:0,0:0:0:0:
290,124,52030,2,0,P|371:69|402:61,2,120.000004577637,2|0|0,0:0|0:0|0:0,0:0:0:0:
212,339,52745,2,0,P|131:284|100:276,2,120.000004577637,2|0|0,0:0|0:0|0:0,0:0:0:0:
413,344,53340,1,0,0:0:0:0:
424,365,53459,6,0,P|440:276|502:119,1,240.000009155274,6|0,3:2|0:0,0:0:0:0:
325,130,54173,2,0,P|256:107|208:89,2,120.000004577637,2|0|0,0:0|0:0|0:0,0:0:0:0:
58,209,54887,1,2,0:0:0:0:
58,209,55125,2,0,L|36:50,1,120.000004577637
8,365,55602,2,0,P|98:349|154:322,2,120.000004577637,2|2|2,0:0|0:0|0:0,0:0:0:0:
59,109,56316,6,0,B|144:52|237:44|237:44|324:113|403:88|403:88|355:60,1,400,6|0,3:2|0:0,0:0:0:0:
216,145,57030,6,0,B|203:263|267:364|267:364|332:326|370:264|370:264|336:249,1,400,6|0,3:2|0:0,0:0:0:0:
163,369,57745,6,0,P|47:359|49:251,1,240,6|0,3:2|0:0,0:0:0:0:
147,40,59173,6,0,P|174:114|179:128,1,80,8|0,0:0|0:0,0:0:0:0:
323,0,59411,2,0,P|295:83|289:104,1,80,4|0,0:3|0:0,0:0:0:0:
472,168,59649,2,0,P|437:188|403:209,1,80,4|0,0:3|0:0,0:0:0:0:
352,364,59887,6,0,P|391:364|429:377,1,80,4|0,0:3|0:0,0:0:0:0:
152,224,60125,2,0,P|112:224|74:237,1,80,4|0,0:3|0:0,0:0:0:0:
356,76,60364,2,0,P|393:63|433:62,1,80,4|0,0:3|0:0,0:0:0:0:
84,115,60602,6,0,L|57:25,1,80,6|0,3:2|0:0,0:0:0:0:
201,32,60840,1,8,0:0:0:0:
164,211,60959,2,0,B|203:161|203:161|210:124,1,80,6|0,3:2|0:0,0:0:0:0:
28,218,61197,1,8,0:0:0:0:
104,341,61316,2,0,P|22:372|19:373,1,80,6|0,3:2|0:0,0:0:0:0:
31,67,61554,2,0,P|68:80|105:95,1,80,8|0,0:0|0:0,0:0:0:0:
317,285,61792,2,0,P|330:361|333:378,1,80,8|0,0:0|0:0,0:0:0:0:
393,161,62030,6,0,P|455:179|476:226,1,80,6|0,3:2|0:0,0:0:0:0:
467,276,62268,1,8,0:0:0:0:
315,131,62387,2,0,P|406:118|444:47,1,160,6|0,3:2|3:2,0:0:0:0:
224,112,62744,2,0,P|232:151|240:190,1,80,14|0,0:0|0:0,0:0:0:0:
121,145,62983,2,0,P|108:183|96:221,1,80,0|0,0:0|3:2,0:0:0:0:
62,61,63221,2,0,P|32:87|2:114,1,80,8|0,0:0|0:0,0:0:0:0:
104,329,63459,6,0,L|182:314,1,80,6|0,3:2|0:0,0:0:0:0:
32,377,63697,1,8,0:0:0:0:
284,362,63816,2,0,B|232:331|204:299|204:299|178:227,1,160,6|0,3:2|3:2,0:0:0:0:
237,174,64173,5,10,0:0:0:0:
366,111,64292,1,8,0:0:0:0:
305,241,64411,1,8,0:0:0:0:
362,85,64530,1,8,0:0:0:0:
357,58,64768,1,8,0:0:0:0:
420,188,64887,6,0,P|457:173|495:160,1,80,6|0,3:2|0:0,0:0:0:0:
392,271,65125,1,8,0:0:0:0:
337,99,65244,2,0,P|410:87|442:154,1,160,6|0,3:2|3:2,0:0:0:0:
253,148,65602,2,0,P|250:108|249:68,1,80,14|0,0:0|0:0,0:0:0:0:
154,166,65840,2,0,P|131:132|110:98,1,80,0|0,0:0|3:2,0:0:0:0:
314,250,66078,2,0,P|331:214|350:178,1,80,8|0,0:0|0:0,0:0:0:0:
147,321,66316,6,0,P|60:345|42:356,1,80,6|0,3:2|0:0,0:0:0:0:
12,273,66554,1,8,0:0:0:0:
235,342,66673,2,0,P|175:290|130:225,1,160,6|0,3:2|3:2,0:0:0:0:
256,44,67030,6,0,B|223:10|193:0|193:0|154:18,1,120,14|0,0:0|0:0,0:0:0:0:
125,30,67268,1,0,3:0:0:0:
178,149,67387,2,0,B|202:148|246:133|246:133|263:99|256:45,1,160,14|0,0:0|0:0,0:0:0:0:
45,114,67745,6,0,P|28:195|26:219,1,80,6|0,3:2|0:0,0:0:0:0:
74,267,67983,1,8,0:0:0:0:
125,30,68102,2,0,B|28:88|28:88|10:131,1,160,6|0,3:2|3:2,0:0:0:0:
211,115,68459,2,0,P|250:114|289:105,1,80,14|0,0:0|0:0,0:0:0:0:
331,225,68697,2,0,P|351:191|363:153,1,80,0|0,0:0|3:2,0:0:0:0:
487,175,68935,2,0,P|466:140|439:111,1,80,8|0,0:0|0:0,0:0:0:0:
149,225,69173,6,0,P|183:245|212:272,1,80,6|0,3:2|0:0,0:0:0:0:
211,360,69411,1,8,0:0:0:0:
62,203,69530,2,0,B|143:195|202:167|202:167|213:152,1,160,6|0,3:2|3:2,0:0:0:0:
248,75,69887,5,10,0:0:0:0:
328,194,70006,1,8,0:0:0:0:
341,51,70125,1,8,0:0:0:0:
312,214,70244,1,8,0:0:0:0:
305,242,70482,1,8,0:0:0:0:
414,144,70602,6,0,P|435:216|444:248,1,80,12|0,3:2|3:0,0:0:0:0:
275,363,70840,1,8,0:0:0:0:
180,346,70959,1,0,3:0:0:0:
144,257,71078,1,8,0:0:0:0:
181,168,71197,1,0,3:0:0:0:
285,280,71316,6,0,P|355:275|390:273,1,80,12|0,0:0|3:0,0:0:0:0:
329,70,71554,1,8,0:0:0:0:
400,5,71673,1,0,3:0:0:0:
486,50,71792,1,8,0:0:0:0:
474,146,71911,1,0,3:0:0:0:
318,90,72030,5,12,0:0:0:0:
389,209,72149,1,0,3:0:0:0:
197,138,72268,1,8,0:0:0:0:
263,335,72387,2,0,B|294:290|294:290|299:247|284:186,1,160,4|0,3:2|3:0,0:0:0:0:
123,41,72744,6,0,P|119:80|132:117,1,80,14|0,0:0|0:0,0:0:0:0:
241,100,72983,1,0,3:0:0:0:
0,165,73102,2,0,B|75:201|134:214|134:214|148:205,1,160,14|0,0:0|0:0,0:0:0:0:
203,362,73459,6,0,P|234:275|253:231,1,120.000004577637,6|0,1:2|3:0,0:0:0:0:
301,194,73816,1,0,3:0:0:0:
138,38,74054,1,0,3:0:0:0:
282,100,74173,6,0,B|261:86|261:86|170:108,1,120.000004577637,8|0,0:0|3:0,0:0:0:0:
144,181,74530,1,0,3:0:0:0:
158,207,74649,1,0,3:0:0:0:
151,236,74768,1,0,3:0:0:0:
205,292,74887,6,0,L|345:268,1,120.000004577637,2|0,1:2|3:0,0:0:0:0:
376,214,75244,1,0,3:0:0:0:
423,276,75364,1,0,3:0:0:0:
452,203,75483,1,0,3:0:0:0:
354,188,75602,5,8,0:0:0:0:
314,381,75840,1,4,0:3:0:0:
368,52,76078,1,4,0:3:0:0:
133,181,76316,6,0,B|188:146|217:146|217:146|244:152|263:162,1,120.000004577637,6|0,1:2|3:0,0:0:0:0:
227,229,76673,1,0,3:0:0:0:
273,291,76792,1,0,3:0:0:0:
230,356,76911,1,0,3:0:0:0:
148,269,77030,6,0,B|134:291|134:291|156:382,1,120.000004577637,8|0,0:0|3:3,0:0:0:0:
230,356,77387,1,0,3:3:0:0:
273,291,77506,1,0,3:3:0:0:
337,334,77625,1,0,3:3:0:0:
372,251,77744,6,0,B|401:232|401:232|454:240|454:240|481:233,1,100,14|0,0:2|0:0,0:0:0:0:
303,124,77983,2,0,B|320:117|320:117|397:129|397:129|429:120,1,100,4|0,0:3|0:0,0:0:0:0:
359,0,78221,2,0,B|399:2|399:2|456:24|456:24|488:0,1,100,4|0,0:3|0:0,0:0:0:0:
361,272,78459,6,0,B|444:250|444:250|472:252,1,100,14|0,0:2|0:0,0:0:0:0:
286,138,78697,2,0,B|312:138|312:138|377:121|377:121|405:125,1,100,4|0,0:3|0:0,0:0:0:0:
335,10,78935,2,0,B|393:8|393:8|437:20|437:20|467:13,1,100,4|0,0:3|0:0,0:0:0:0:
208,211,79173,6,0,P|196:152|184:93,1,120.000004577637,6|0,1:2|3:0,0:0:0:0:
125,43,79530,1,0,3:0:0:0:
52,70,79649,1,0,3:0:0:0:
25,143,79768,1,0,3:0:0:0:
123,220,79887,6,0,B|96:218|96:218|29:283,1,120.000004577637,8|0,0:0|3:0,0:0:0:0:
72,348,80244,1,0,3:0:0:0:
101,343,80364,1,0,3:0:0:0:
128,353,80483,1,0,3:0:0:0:
205,346,80602,6,0,P|213:226|216:203,1,120.000004577637,2|0,1:2|3:0,0:0:0:0:
271,175,80959,1,0,3:0:0:0:
348,165,81078,1,0,3:0:0:0:
393,228,81197,1,0,3:0:0:0:
301,266,81316,5,8,0:0:0:0:
511,45,81554,1,4,0:3:0:0:
180,138,81792,1,4,0:3:0:0:
313,355,82030,6,0,P|389:340|440:333,1,120.000004577637,6|0,1:2|3:0,0:0:0:0:
483,276,82387,1,0,3:0:0:0:
420,229,82506,1,0,3:0:0:0:
476,175,82625,1,0,3:0:0:0:
493,290,82744,5,8,0:0:0:0:
427,0,82983,1,4,0:3:0:0:
338,341,83221,1,4,0:3:0:0:
238,125,83459,6,0,P|273:107|312:102,1,80,6|0,3:2|0:0,0:0:0:0:
218,211,83697,1,8,0:0:0:0:
155,0,83816,2,0,P|194:4|229:23,1,80,6|0,3:2|0:0,0:0:0:0:
338,196,84054,1,8,0:0:0:0:
444,109,84173,2,0,B|465:176|465:176|461:185,1,80,6|0,3:2|0:0,0:0:0:0:
238,306,84411,2,0,B|217:239|217:239|220:229,1,80,8|0,0:0|0:0,0:0:0:0:
468,323,84649,2,0,P|380:304|351:304,1,80,8|0,0:0|0:0,0:0:0:0:
210,127,84887,5,12,3:2:0:0:
149,351,85006,2,0,B|114:281|115:228|115:228|132:184,1,176.000005371094,12|8,3:2|3:2,0:0:0:0:
258,45,85364,1,8,3:2:0:0:
250,206,85483,1,0,3:0:0:0:
189,110,85602,1,8,3:2:0:0:
273,21,85721,1,0,3:0:0:0:
143,3,85840,6,0,B|130:-3|130:-3|51:10|51:10|-33:3,1,108.000000411987,14|0,0:0|3:0,0:0:0:0:
113,253,86078,2,0,B|103:260|103:260|34:252|34:252|6:260,1,108.000000411987,14|0,0:0|3:0,0:0:0:0:
218,113,86316,5,12,3:2:0:0:
384,281,86435,2,0,B|371:252|378:222|378:222|356:161|310:130,1,176.000005371094,12|8,3:2|3:2,0:0:0:0:
231,205,86792,1,8,3:2:0:0:
239,30,86911,1,0,3:0:0:0:
146,168,87030,1,8,3:2:0:0:
116,60,87149,1,0,3:0:0:0:
45,189,87268,6,0,B|34:208|34:208|45:275|45:275|41:317,1,108.000000411987,14|0,0:0|3:0,0:0:0:0:
319,189,87506,2,0,B|331:212|331:212|331:275|331:275|323:317,1,108.000000411987,14|0,0:0|3:0,0:0:0:0:
209,93,87744,5,12,3:2:0:0:
440,116,87864,2,0,B|445:116|403:120|403:120|349:90|291:41,1,176.000005371094,12|8,3:2|3:2,0:0:0:0:
397,7,88221,1,8,3:2:0:0:
394,197,88340,1,0,3:0:0:0:
489,236,88459,2,0,P|511:320|517:339,1,88.000002685547,8|0,3:2|3:0,0:0:0:0:
281,289,88697,2,0,P|293:246|303:203,1,88.000002685547,8|0,0:0|3:0,0:0:0:0:
395,309,88935,1,8,0:0:0:0:
289,384,89054,1,0,3:0:0:0:
121,316,89173,6,0,P|49:284|4:272,1,88.000002685547,14|0,0:0|3:0,0:0:0:0:
328,80,89411,2,0,P|309:41|294:0,1,88.000002685547,10|0,0:0|3:0,0:0:0:0:
477,290,89649,1,10,0:0:0:0:
401,383,89768,1,0,3:0:0:0:
313,264,89887,6,0,P|374:238|427:234,1,88.000002685547,14|0,0:0|3:0,0:0:0:0:
68,82,90125,2,0,P|77:39|97:-1,1,88.000002685547,10|0,0:0|3:0,0:0:0:0:
195,341,90364,1,8,0:0:0:0:
178,246,90483,1,0,3:0:0:0:
84,309,90602,5,12,3:2:0:0:
68,82,90721,2,0,B|28:70|28:70|9:164|27:217,1,191.999994140625,12|8,3:2|3:2,0:0:0:0:
186,320,91078,1,8,3:2:0:0:
222,228,91197,1,0,3:0:0:0:
123,217,91316,1,8,3:2:0:0:
260,138,91435,1,0,3:0:0:0:
122,87,91554,6,0,B|98:80|98:80|19:72|19:72|-7:92,1,116.000003540039,14|0,0:0|3:0,0:0:0:0:
112,359,91792,2,0,B|82:359|82:359|9:344|9:344|-20:322,1,116.000003540039,14|0,0:0|3:0,0:0:0:0:
287,270,92030,5,12,3:2:0:0:
35,219,92149,2,0,B|82:236|82:236|158:230|216:191,1,191.999994140625,12|8,3:2|3:2,0:0:0:0:
235,18,92506,1,8,3:2:0:0:
155,104,92625,1,0,3:0:0:0:
337,59,92744,1,8,3:2:0:0:
293,142,92864,1,0,3:0:0:0:
427,184,92983,6,0,B|418:155|418:155|428:72|428:72|426:70,1,116.000003540039,14|0,0:0|3:0,0:0:0:0:
102,186,93221,2,0,B|99:166|99:166|103:90|103:90|115:71,1,116.000003540039,14|0,0:0|3:0,0:0:0:0:
290,365,93459,5,12,3:2:0:0:
213,129,93578,2,0,B|243:129|243:129|265:153|329:266,1,191.999994140625,12|8,3:2|3:2,0:0:0:0:
213,301,93935,1,8,3:2:0:0:
396,357,94054,1,0,3:0:0:0:
265,370,94173,1,8,3:2:0:0:
342,266,94292,1,0,3:0:0:0:
389,186,94411,2,0,P|435:199|482:207,1,95.9999970703126,8|0,0:0|3:0,0:0:0:0:
243,276,94649,2,0,P|256:322|264:369,1,95.9999970703126,8|0,0:0|3:0,0:0:0:0:
327,5,94887,6,0,B|231:93|211:98|211:98|129:65,1,191.999994140625,14|0,0:0|3:0,0:0:0:0:
0,318,95244,2,0,P|103:314|133:405,1,191.999994140625,12|0,0:0|3:0,0:0:0:0:
290,210,95602,1,12,0:0:0:0:
385,384,95721,2,0,P|342:364|297:349,1,95.9999970703126,2|0,0:0|3:0,0:0:0:0:
128,168,95959,2,0,B|161:73|198:24|198:24|227:60,1,191.999994140625,12|0,0:0|0:0,0:0:0:0:
201,278,96316,5,4,3:2:0:0:
311,132,98459,5,8,0:0:0:0:
311,132,98697,1,4,0:3:0:0:
311,132,98935,1,4,0:3:0:0:
311,132,99173,6,0,P|388:140|418:144,1,60.0000022888184,6|0,3:2|0:0,0:0:0:0:
355,245,99411,2,0,P|395:229|421:217,1,60.0000022888184,10|0,0:0|3:0,0:0:0:0:
445,336,99649,2,0,P|470:300|485:273,1,60.0000022888184,2|0,0:0|3:0,0:0:0:0:
273,302,99887,6,0,P|301:378|308:410,1,88.000002685547,10|0,0:0|0:0,0:0:0:0:
0,309,100125,2,0,P|11:267|29:227,1,88.000002685547,2|0,0:0|3:0,0:0:0:0:
0,30,100364,2,0,P|40:12|82:0,1,88.000002685547,10|0,0:0|0:0,0:0:0:0:
184,261,100602,6,0,P|267:272|317:205,1,176.000005371094,2|8,3:2|0:0,0:0:0:0:
323,358,100958,2,0,P|366:364|408:376,1,88.000002685547,0|0,3:0|0:0,0:0:0:0:
507,301,101196,1,0,3:0:0:0:
462,57,101315,2,0,B|421:89|421:89|404:148|432:211,1,176.000005371094,8|0,0:0|0:0,0:0:0:0:
507,301,101673,1,0,3:0:0:0:
357,298,101792,2,0,P|368:340|375:383,1,88.000002685547,8|0,0:0|0:0,0:0:0:0:
116,349,102030,6,0,P|156:332|184:320,1,60.0000022888184,4|0,3:2|0:0,0:0:0:0:
35,244,102268,2,0,P|78:248|112:255,1,60.0000022888184,8|0,0:0|3:0,0:0:0:0:
23,117,102506,2,0,P|58:142|80:161,1,60.0000022888184,0|0,0:0|3:0,0:0:0:0:
246,55,102744,6,0,P|318:-1|355:4,1,88.000002685547,10|0,0:0|0:0,0:0:0:0:
500,122,102982,2,0,P|478:210|485:264,1,88.000002685547,2|0,0:0|3:0,0:0:0:0:
183,222,103220,2,0,P|176:178|161:137,1,88.000002685547,10|0,0:0|0:0,0:0:0:0:
415,368,103458,6,0,B|334:290|284:297|284:297|294:353,1,176.000005371094,2|8,3:2|0:0,0:0:0:0:
484,299,103815,2,0,P|464:213|457:171,1,88.000002685547,0|0,3:0|0:0,0:0:0:0:
482,72,104053,1,0,3:0:0:0:
355,147,104173,2,0,B|306:65|264:35|264:35|198:32,1,176.000005371094,10|0,0:0|0:0,0:0:0:0:
114,86,104530,1,0,3:0:0:0:
177,175,104649,1,8,0:0:0:0:
120,295,104768,1,0,3:0:0:0:
275,331,104887,6,0,P|247:268|240:257,1,60.0000022888184,6|0,3:2|0:0,0:0:0:0:
358,312,105125,2,0,P|350:252|349:233,1,60.0000022888184,10|0,0:0|3:0,0:0:0:0:
449,334,105363,2,0,P|468:275|480:251,1,60.0000022888184,2|0,0:0|3:0,0:0:0:0:
394,154,105601,6,0,P|458:89|482:81,1,88.000002685547,10|0,0:0|0:0,0:0:0:0:
192,104,105839,2,0,P|168:14|158:-7,1,88.000002685547,2|0,0:0|3:0,0:0:0:0:
117,302,106077,2,0,P|27:242|11:234,1,88.000002685547,10|0,0:0|0:0,0:0:0:0:
391,384,106315,6,0,P|459:313|400:230,1,176.000005371094,2|8,3:2|0:0,0:0:0:0:
512,70,106673,2,0,P|467:55|412:34,1,88.000002685547,0|0,3:0|0:0,0:0:0:0:
336,136,106911,1,0,3:0:0:0:
245,249,107030,2,0,B|211:194|216:118|216:118|245:91,1,176.000005371094,8|0,0:0|0:0,0:0:0:0:
437,180,107387,1,0,3:0:0:0:
399,324,107506,2,0,P|356:328|313:339,1,88.000002685547,8|0,0:0|0:0,0:0:0:0:
84,363,107744,6,0,P|66:240|120:215,1,176.000005371094,6|8,3:2|0:0,0:0:0:0:
6,63,108101,2,0,P|99:88|167:88,1,88.000002685547,0|0,3:0|0:0,0:0:0:0:
226,19,108339,1,0,3:0:0:0:
247,206,108458,2,0,B|330:127|404:96|404:96|454:131|458:162,1,264.000008056641,10|0,0:0|3:0,0:0:0:0:
427,0,108934,2,0,P|518:27|549:29,1,88.000002685547,8|0,0:0|0:0,0:0:0:0:
469,362,109173,6,0,P|437:258|344:251,1,176.000005371094,6|8,3:2|0:0,0:0:0:0:
284,382,109530,2,0,P|273:340|250:303,1,88.000002685547,0|0,3:0|0:0,0:0:0:0:
150,246,109768,1,0,3:0:0:0:
0,375,109887,2,0,B|46:291|51:240|51:240|37:212,1,176.000005371094,8|0,0:0|0:0,0:0:0:0:
88,82,110244,1,0,3:0:0:0:
192,65,110363,1,8,0:0:0:0:
244,186,110482,1,0,3:0:0:0:
152,337,110601,6,0,P|218:366|247:385,1,88.000002685547,4|0,3:2|0:0,0:0:0:0:
144,229,110839,2,0,P|224:221|250:214,1,88.000002685547,0|0,3:2|0:0,0:0:0:0:
400,339,111077,2,0,P|476:291|498:285,1,88.000002685547,0|0,3:2|0:0,0:0:0:0:
457,48,111315,6,0,P|507:120|512:145,1,88.000002685547,8|0,0:0|0:0,0:0:0:0:
238,3,111553,2,0,P|248:106|244:134,1,88.000002685547,4|0,0:3|0:0,0:0:0:0:
27,97,111792,2,0,P|7:189|-2:204,1,88.000002685547,4|0,0:3|0:0,0:0:0:0:
440,207,112030,6,0,P|355:211|298:275,1,176.000005371094,6|8,3:2|0:0,0:0:0:0:
511,299,112387,2,0,P|495:339|482:381,1,88.000002685547,0|0,2:0|0:0,0:0:0:0:
356,352,112625,1,0,3:0:0:0:
195,384,112744,2,0,P|173:293|140:205,1,176.000005371094,10|0,0:0|0:0,0:0:0:0:
1,180,113101,1,0,3:0:0:0:
85,7,113220,2,0,P|12:23|-13:21,1,88.000002685547,8|0,0:0|0:0,0:0:0:0:
275,38,113458,6,0,B|411:62|440:79|440:79|433:132,1,176.000005371094,6|8,3:2|0:0,0:0:0:0:
384,301,113815,6,0,P|475:290|516:292,1,88.000002685547,0|0,3:0|0:0,0:0:0:0:
337,174,114053,1,0,3:0:0:0:
286,371,114173,2,0,B|257:280|180:186|180:186|164:256,1,264.000008056641,10|0,0:0|3:0,0:0:0:0:
8,305,114649,2,0,P|57:361|65:387,1,88.000002685547,8|0,0:0|0:0,0:0:0:0:
13,134,114887,6,0,P|103:73|87:-7,1,176.000005371094,6|8,3:2|0:0,0:0:0:0:
225,208,115244,2,0,P|181:202|137:199,1,88.000002685547,0|0,3:0|0:0,0:0:0:0:
141,327,115482,1,0,3:0:0:0:
306,377,115601,2,0,B|312:345|348:230|348:230|378:200,2,176.000005371094,8|0|8,0:0|0:0|0:0,0:0:0:0:
231,244,116196,1,0,0:0:0:0:
506,157,116315,5,6,3:2:0:0:
506,157,116553,2,0,P|415:124|372:103,1,88.000002685547,0|0,3:2|0:0,0:0:0:0:
368,12,116792,2,0,P|327:28|285:41,1,88.000002685547,0|0,3:2|0:0,0:0:0:0:
15,175,117030,6,0,P|90:240|106:256,1,88.000002685547,8|0,0:0|0:0,0:0:0:0:
129,53,117268,2,0,P|138:127|138:156,1,88.000002685547,4|0,0:3|0:0,0:0:0:0:
259,175,117506,2,0,P|206:264|196:293,1,88.000002685547,4|0,0:3|0:0,0:0:0:0:
310,40,117744,6,0,P|401:20|434:6,1,88.000002685547,6|0,3:2|0:0,0:0:0:0:
504,136,117982,1,8,0:0:0:0:
341,276,118101,2,0,P|364:313|386:351,1,88.000002685547,6|0,3:2|0:0,0:0:0:0:
198,244,118339,1,8,0:0:0:0:
468,270,118458,5,6,3:2:0:0:
324,90,118696,1,8,0:0:0:0:
241,336,118934,1,8,0:0:0:0:
32,246,119173,6,0,B|97:256|144:200|144:200|193:145|254:153,1,240.000009155274,6|0,3:2|0:0,0:0:0:0:
263,172,119768,1,0,0:0:0:0:
308,253,119887,2,0,P|366:253|410:214,1,120.000004577637,8|0,0:0|0:0,0:0:0:0:
258,22,120363,1,0,0:0:0:0:
222,84,120482,1,0,0:0:0:0:
155,56,120601,2,0,B|88:157|101:299|101:299|140:344,1,300.000011444092,2|0,3:2|0:0,0:0:0:0:
203,332,121315,5,8,0:0:0:0:
409,16,121553,1,4,0:3:0:0:
318,305,121792,1,4,0:3:0:0:
156,22,122030,6,0,P|68:89|120:187,1,240.000009155274,6|0,3:2|0:0,0:0:0:0:
149,179,122625,1,0,0:0:0:0:
133,293,122744,2,0,P|63:265|-3:260,1,120.000004577637,8|0,0:0|0:0,0:0:0:0:
245,370,123220,1,0,0:0:0:0:
293,317,123339,1,0,0:0:0:0:
362,334,123458,2,0,B|364:183|409:82|409:82|464:56,1,300.000011444092,2|0,3:2|0:0,0:0:0:0:
493,118,124172,5,8,0:3:0:0:
465,185,124292,1,8,0:3:0:0:
494,250,124411,1,8,0:3:0:0:
466,317,124530,2,0,P|429:300|394:287,1,60.0000022888184,8|0,0:3|0:0,0:0:0:0:
241,227,124768,1,8,0:3:0:0:
226,365,124887,6,0,B|216:300|272:253|272:253|327:204|319:143,1,240.000009155274,6|0,3:2|0:0,0:0:0:0:
303,130,125482,1,0,0:0:0:0:
396,42,125601,2,0,P|462:66|479:120,1,120.000004577637,8|0,0:0|0:0,0:0:0:0:
193,40,126077,1,0,0:0:0:0:
125,14,126196,1,0,0:0:0:0:
73,63,126315,2,0,P|59:142|33:368,1,300.000011444092,2|0,3:2|0:0,0:0:0:0:
105,350,127030,5,8,0:0:0:0:
211,13,127268,1,4,0:3:0:0:
295,301,127506,1,4,0:3:0:0:
512,143,127744,6,0,B|425:83|326:105|326:105|292:134,1,240.000009155274,6|0,3:2|0:0,0:0:0:0:
274,159,128339,1,0,0:0:0:0:
194,70,128458,2,0,L|179:189,1,120.000004577637,8|0,0:0|0:0,0:0:0:0:
42,237,128934,2,0,P|61:297|65:318,1,60.0000022888184
23,356,129172,1,4,3:2:0:0:
202,335,129411,2,0,L|280:341,2,60.0000022888184
135,206,129887,6,0,P|189:182|248:173,1,120.000004577637,14|0,0:0|0:0,0:0:0:0:
292,62,130244,2,0,P|316:116|354:163,1,120.000004577637,2|0,0:0|0:0,0:0:0:0:
447,127,130602,5,0,3:0:0:0:
442,150,130721,1,0,0:0:0:0:
447,173,130840,1,0,0:0:0:0:
479,248,130959,2,0,P|471:219|461:191,1,60.0000022888184,8|0,0:0|0:0,0:0:0:0:
401,276,131197,1,0,0:0:0:0:
392,357,131316,2,0,P|399:327|405:298,1,60.0000022888184,8|0,0:0|0:0,0:0:0:0:
298,340,131554,1,0,0:0:0:0:
274,334,131673,1,0,0:0:0:0:
250,337,131792,6,0,P|220:342|191:350,2,60.0000022888184,0|0|0,3:0|0:0|0:0,0:0:0:0:
155,245,132149,2,0,P|213:258|234:264,1,60.0000022888184,8|0,0:0|0:0,0:0:0:0:
107,311,132387,1,0,0:0:0:0:
61,224,132506,5,8,0:0:0:0:
195,156,132744,1,4,0:3:0:0:
19,92,132982,1,4,0:3:0:0:
253,25,133220,5,0,3:0:0:0:
260,47,133339,1,0,0:0:0:0:
266,70,133458,1,0,0:0:0:0:
191,101,133577,2,0,P|220:100|250:100,1,60.0000022888184,8|0,0:0|0:0,0:0:0:0:
206,183,133815,1,0,0:0:0:0:
156,247,133934,2,0,P|181:231|207:216,1,60.0000022888184,8|0,0:0|0:0,0:0:0:0:
115,335,134172,1,0,0:0:0:0:
104,356,134291,1,0,0:0:0:0:
83,371,134410,6,0,P|72:312|57:254,1,120.000004577637,0|0,3:0|0:0,0:0:0:0:
4,151,134767,2,0,P|57:136|73:129,1,60.0000022888184,8|0,0:0|0:0,0:0:0:0:
97,40,135005,1,0,0:0:0:0:
7,24,135124,5,8,0:0:0:0:
198,14,135362,1,4,0:3:0:0:
114,206,135600,1,4,0:3:0:0:
229,104,135838,6,0,P|240:145|245:174,1,60.0000022888184,0|0,3:0|0:0,0:0:0:0:
339,152,136076,2,0,P|311:212|300:235,1,60.0000022888184,0|8,0:0|0:0,0:0:0:0:
403,238,136314,2,0,P|348:294|340:303,1,60.0000022888184
401,357,136552,2,0,P|448:350|468:346,1,60.0000022888184,8|0,0:0|0:0,0:0:0:0:
316,384,136790,2,0,P|286:379|256:374,1,60.0000022888184
193,287,137028,2,0,P|182:316|175:345,1,60.0000022888184,0|0,3:0|0:0,0:0:0:0:
93,383,137266,2,0,P|86:353|75:325,1,60.0000022888184,0|8,0:0|0:0,0:0:0:0:
11,243,137504,2,0,P|81:223|99:217,1,60.0000022888184
120,160,137742,5,8,0:0:0:0:
193,26,137980,1,4,0:3:0:0:
24,83,138218,1,4,0:3:0:0:
234,175,138456,5,0,3:0:0:0:
226,197,138575,1,0,0:0:0:0:
220,220,138694,1,0,0:0:0:0:
225,302,138813,2,0,P|221:272|217:243,1,60.0000022888184,8|0,0:0|0:0,0:0:0:0:
131,315,139051,1,0,0:0:0:0:
176,383,139170,2,0,P|157:359|139:335,1,60.0000022888184,8|0,0:0|0:0,0:0:0:0:
69,239,139408,1,0,0:0:0:0:
0,127,139527,5,8,0:0:0:0:
69,196,139646,1,8,0:0:0:0:
139,130,139765,1,0,3:0:0:0:
208,176,139884,1,0,3:0:0:0:
268,136,140003,1,0,3:0:0:0:
317,169,140122,1,0,3:0:0:0:
359,146,140241,1,0,3:0:0:0:
256,104,140360,5,8,0:0:0:0:
0,357,141074,6,0,P|93:384|136:397,1,88.000002685547,14|0,0:0|0:0,0:0:0:0:
157,234,141312,1,0,3:0:0:0:
205,50,141431,2,0,P|215:92|226:135,1,88.000002685547,12|0,0:0|0:0,0:0:0:0:
0,169,141669,1,0,3:0:0:0:
98,0,141788,2,0,P|85:42|73:84,1,88.000002685547,12|0,0:0|0:0,0:0:0:0:
5,269,142026,1,0,3:0:0:0:
27,353,142145,1,0,3:0:0:0:
151,377,142264,6,0,B|224:325|271:326|271:326|296:335,1,160,6|0,1:2|3:0,0:0:0:0:
373,321,142621,1,0,3:0:0:0:
410,253,142740,1,0,3:0:0:0:
382,181,142859,1,0,3:0:0:0:
387,343,142978,5,8,0:0:0:0:
460,0,143216,1,4,0:3:0:0:
168,233,143454,1,4,0:3:0:0:
331,352,143692,6,0,P|372:337|414:325,1,88.000002685547,14|0,0:0|0:0,0:0:0:0:
121,359,143930,1,0,3:0:0:0:
50,211,144049,2,0,B|36:245|27:284|27:284|30:296,1,88.000002685547,12|0,0:0|0:0,0:0:0:0:
179,209,144287,1,0,3:0:0:0:
79,35,144406,2,0,B|83:77|93:104|93:104|104:119,1,88.000002685547,12|0,0:0|0:0,0:0:0:0:
365,79,144644,1,0,3:0:0:0:
295,26,144763,1,0,3:0:0:0:
249,149,144882,6,0,P|271:230|287:315,1,160,6|0,1:2|3:0,0:0:0:0:
216,343,145239,1,0,3:0:0:0:
137,340,145358,1,0,3:0:0:0:
71,297,145477,1,0,3:0:0:0:
221,369,145596,5,8,0:0:0:0:
51,37,145834,1,4,0:3:0:0:
387,354,146072,1,4,0:3:0:0:
308,14,146310,6,0,P|287:82|268:145,1,88.000002685547,14|0,0:0|0:0,0:0:0:0:
103,216,146548,1,0,3:0:0:0:
268,303,146667,2,0,P|226:287|183:278,1,88.000002685547,12|0,0:0|0:0,0:0:0:0:
356,225,146905,1,0,3:0:0:0:
502,348,147024,2,0,P|458:354|417:369,1,88.000002685547,12|0,0:0|0:0,0:0:0:0:
183,278,147262,1,0,3:0:0:0:
144,358,147381,1,0,3:0:0:0:
0,369,147500,6,0,B|-1:320|11:250|11:250|38:220,1,160,6|0,1:2|3:0,0:0:0:0:
116,209,147857,1,0,3:0:0:0:
184,249,147976,1,0,3:0:0:0:
211,322,148095,1,0,3:0:0:0:
114,175,148214,5,8,0:0:0:0:
329,370,148452,1,4,0:3:0:0:
396,22,148690,1,4,0:3:0:0:
499,353,148928,6,0,P|464:277|381:274,1,176.000005371094,6|0,3:2|3:0,0:0:0:0:
201,377,149285,2,0,P|215:336|224:293,1,88.000002685547
157,189,149523,1,0,3:0:0:0:
0,74,149642,2,0,B|117:28|217:-2|217:-2|281:45,1,264.000008056641,10|0,0:0|0:0,0:0:0:0:
394,125,150118,2,0,P|353:108|311:99,1,88.000002685547,2|0,0:3|0:0,0:0:0:0:
344,370,150357,6,0,P|380:293|464:282,1,176.000005371094,6|0,3:2|0:0,0:0:0:0:
230,384,150714,2,0,P|219:342|196:305,1,88.000002685547,0|0,3:0|0:0,0:0:0:0:
96,248,150952,1,0,3:0:0:0:
291,168,151071,2,0,B|263:182|263:182|212:177|128:131,1,176.000005371094,8|0,0:0|0:0,0:0:0:0:
337,13,151428,2,0,P|352:54|369:94,1,88.000002685547,8|0,0:0|0:0,0:0:0:0:
494,151,151666,1,0,0:0:0:0:
361,312,151785,6,0,P|439:294|482:290,1,88.000002685547,12|0,0:0|0:0,0:0:0:0:
261,216,152023,2,0,P|304:217|348:214,1,88.000002685547,4|0,0:3|0:0,0:0:0:0:
202,367,152261,2,0,P|278:314|291:313,1,88.000002685547,4|0,0:3|0:0,0:0:0:0:
24,271,152499,6,0,P|88:338|95:360,1,88.000002685547,12|0,0:0|0:0,0:0:0:0:
207,120,152737,2,0,P|176:215|172:236,1,88.000002685547,4|0,0:3|0:0,0:0:0:0:
4,18,152975,2,0,P|69:64|120:82,1,88.000002685547,4|0,0:3|0:0,0:0:0:0:
356,73,153213,6,0,P|431:89|468:90,1,88.000002685547,14|0,3:2|0:0,0:0:0:0:
452,209,153451,1,8,0:0:0:0:
257,34,153570,2,0,B|320:74|356:134|356:134|361:188,1,176.000005371094,6|0,3:2|0:0,0:0:0:0:
256,328,153928,1,10,0:0:0:0:
30,29,154642,6,0,P|58:74|71:102,1,60.0000022888184,6|0,3:2|0:0,0:0:0:0:
152,24,154880,2,0,P|151:99|148:112,1,60.0000022888184,10|0,0:0|3:0,0:0:0:0:
0,147,155118,2,0,P|29:167|55:187,1,60.0000022888184,2|0,0:0|3:0,0:0:0:0:
46,365,155356,6,0,P|126:349|157:348,1,88.000002685547,10|0,0:0|0:0,0:0:0:0:
317,152,155594,2,0,P|254:114|232:99,1,88.000002685547,2|0,0:0|3:0,0:0:0:0:
0,40,155832,2,0,P|79:-1|112:-9,1,88.000002685547,10|0,0:0|0:0,0:0:0:0:
366,35,156070,6,0,B|413:97|423:161|423:161|400:202,1,176.000005371094,2|8,3:2|0:0,0:0:0:0:
294,329,156428,2,0,P|229:313|199:305,1,88.000002685547,0|0,3:0|0:0,0:0:0:0:
306,216,156666,1,0,3:0:0:0:
383,383,156785,2,0,P|431:312|512:281,1,176.000005371094,8|0,0:0|0:0,0:0:0:0:
406,167,157142,1,0,3:0:0:0:
511,79,157261,2,0,P|467:-26|462:-48,1,88.000002685547,8|0,0:0|0:0,0:0:0:0:
260,19,157499,6,0,B|307:40|307:40|340:77,1,60.0000022888184,6|0,3:2|0:0,0:0:0:0:
172,112,157737,2,0,B|225:104|225:104|270:122,1,60.0000022888184,10|0,0:0|3:0,0:0:0:0:
251,197,157975,2,0,B|302:176|302:176|330:138,1,60.0000022888184,2|0,0:0|3:0,0:0:0:0:
54,247,158213,6,0,P|-2:175|3:138,1,88.000002685547,10|0,0:0|0:0,0:0:0:0:
135,0,158451,2,0,P|223:22|277:15,1,88.000002685547,2|0,0:0|3:0,0:0:0:0:
227,337,158689,2,0,P|183:344|142:359,1,88.000002685547,10|0,0:0|0:0,0:0:0:0:
333,91,158927,6,0,B|255:172|262:222|262:222|318:212,1,176.000005371094,2|8,3:2|0:0,0:0:0:0:
478,303,159285,2,0,P|459:342|445:384,1,88.000002685547,0|0,3:0|0:0,0:0:0:0:
379,257,159523,1,0,3:0:0:0:
494,145,159642,2,0,P|495:44|423:3,1,176.000005371094,10|0,0:0|0:0,0:0:0:0:
332,65,159999,1,0,3:0:0:0:
246,115,160118,1,8,0:0:0:0:
144,46,160237,1,0,3:0:0:0:
71,184,160356,6,0,P|99:250|101:266,1,60.0000022888184,6|0,3:2|0:0,0:0:0:0:
144,341,160594,2,0,P|171:276|174:269,1,60.0000022888184,10|0,0:0|3:0,0:0:0:0:
231,213,160832,2,0,P|196:207|166:197,1,60.0000022888184,2|0,0:0|3:0,0:0:0:0:
321,366,161070,6,0,P|394:302|417:298,1,88.000002685547,10|0,0:0|0:0,0:0:0:0:
482,128,161308,2,0,P|460:39|461:7,1,88.000002685547,2|0,0:0|3:0,0:0:0:0:
205,8,161547,2,0,P|198:51|183:92,1,88.000002685547,10|0,0:0|0:0,0:0:0:0:
111,370,161785,6,0,P|31:348|21:266,1,176.000005371094,2|8,3:2|0:0,0:0:0:0:
207,340,162142,2,0,P|291:319|331:316,1,88.000002685547,0|0,3:0|0:0,0:0:0:0:
375,159,162380,1,0,3:0:0:0:
220,54,162499,2,0,B|265:152|268:187|268:187|256:219,1,176.000005371094,8|0,0:0|0:0,0:0:0:0:
91,95,162856,1,0,3:0:0:0:
0,223,162975,2,0,P|41:237|81:254,1,88.000002685547,8|0,0:0|0:0,0:0:0:0:
307,378,163213,6,0,B|410:339|448:338|448:338|473:352,1,176.000005371094,6|8,3:2|0:0,0:0:0:0:
201,355,163570,2,0,P|226:262|225:193,1,88.000002685547,0|0,3:0|0:0,0:0:0:0:
180,166,163808,1,0,3:0:0:0:
385,261,163928,2,0,B|394:170|443:58|443:58|496:107,1,264.000008056641,10|0,0:0|3:0,0:0:0:0:
286,173,164403,2,0,P|276:130|259:89,1,88.000002685547,8|0,0:0|0:0,0:0:0:0:
136,0,164642,6,0,P|51:-6|0:60,1,176.000005371094,6|8,3:2|0:0,0:0:0:0:
0,278,164999,2,0,P|42:289|79:312,1,88.000002685547,0|0,3:0|0:0,0:0:0:0:
316,284,165237,1,0,3:0:0:0:
194,384,165356,2,0,B|180:356|180:356|185:305|231:221,1,176.000005371094,8|0,0:0|0:0,0:0:0:0:
121,190,165713,1,0,3:0:0:0:
45,120,165832,1,8,0:0:0:0:
104,0,165951,1,0,0:3:0:0:
260,9,166070,6,0,P|349:26|382:28,1,88.000002685547,4|0,3:2|0:0,0:0:0:0:
354,135,166308,2,0,P|446:113|469:101,1,88.000002685547,0|0,3:2|0:0,0:0:0:0:
252,199,166547,2,0,P|324:246|349:267,1,88.000002685547,0|0,3:2|0:0,0:0:0:0:
500,224,166785,6,0,P|482:303|476:346,1,88.000002685547,8|0,0:0|0:0,0:0:0:0:
203,381,167023,2,0,P|194:337|183:295,1,88.000002685547,4|0,0:3|0:0,0:0:0:0:
296,43,167261,2,0,P|378:29|418:20,1,88.000002685547,4|0,0:3|0:0,0:0:0:0:
0,230,167499,6,0,B|55:153|53:99|53:99|31:74,1,176.000005371094,6|8,3:2|0:0,0:0:0:0:
0,359,167856,2,0,P|76:314|122:303,1,88.000002685547,0|0,2:0|0:0,0:0:0:0:
233,350,168094,1,0,3:0:0:0:
408,209,168213,2,0,P|376:290|356:376,1,176.000005371094,10|0,0:0|0:0,0:0:0:0:
469,331,168570,1,0,3:0:0:0:
503,198,168689,1,8,0:0:0:0:
442,111,168808,1,8,2:3:0:0:
284,204,168928,6,0,P|277:160|260:119,1,88.000002685547,14|0,0:0|3:0,0:0:0:0:
47,22,169166,1,8,0:0:0:0:
99,148,169285,1,0,3:0:0:0:
35,242,169404,1,8,0:0:0:0:
80,337,169523,1,0,3:0:0:0:
201,300,169642,6,0,P|244:299|288:307,1,88.000002685547,14|0,0:0|3:0,0:0:0:0:
421,363,169880,1,8,0:0:0:0:
443,233,169999,1,0,3:0:0:0:
373,148,170118,1,8,0:0:0:0:
410,40,170237,1,0,3:0:0:0:
238,108,170356,6,0,B|156:70|86:65|86:65|19:86,1,207.999990478516,14|8,3:2|0:3,0:0:0:0:
170,349,170713,2,0,P|259:323|330:314,2,103.999995239258,8|0|8,0:3|0:0|0:3,0:0:0:0:
99,231,171070,2,0,P|48:218|0:202,1,103.999995239258,8|0,0:0|0:0,0:0:0:0:
185,34,171308,5,8,0:0:0:0:
202,177,171428,1,8,0:0:0:0:
310,148,171547,1,8,0:0:0:0:
332,11,171666,1,8,0:0:0:0:
458,4,171785,6,0,P|465:47|479:107,1,88.000002685547,6|0,3:2|0:0,0:0:0:0:
512,204,172023,2,0,P|473:288|463:320,1,88.000002685547,10|0,0:0|3:0,0:0:0:0:
380,381,172261,2,0,P|298:366|230:363,1,88.000002685547,2|0,0:0|3:0,0:0:0:0:
112,295,172499,2,0,P|167:230|252:220,1,176.000005371094,10|0,0:0|0:0,0:0:0:0:
193,66,172856,1,0,3:0:0:0:
308,1,172975,2,0,P|389:27|421:29,1,88.000002685547,8|0,0:0|0:0,0:0:0:0:
86,98,173213,6,0,P|55:15|46:-2,1,88.000002685547,6|0,3:2|0:0,0:0:0:0:
24,337,173451,2,0,P|66:324|109:316,1,88.000002685547,10|0,0:0|3:0,0:0:0:0:
260,364,173689,2,0,P|303:372|345:384,1,88.000002685547,2|0,0:0|3:0,0:0:0:0:
455,117,173928,2,0,B|479:219|484:259|484:259|470:286,1,176.000005371094,10|0,0:0|0:0,0:0:0:0:
338,171,174285,1,0,3:0:0:0:
244,293,174404,2,0,P|218:196|213:184,1,88.000002685547,8|0,0:0|0:0,0:0:0:0:
22,86,174642,6,0,P|65:73|107:60,1,88.000002685547,6|0,3:2|0:0,0:0:0:0:
295,0,174880,2,0,P|336:13|379:25,1,88.000002685547,10|0,0:0|3:0,0:0:0:0:
497,111,175118,2,0,P|465:205|460:232,1,88.000002685547,2|0,0:0|3:0,0:0:0:0:
354,328,175356,2,0,P|342:285|333:242,1,88.000002685547,10|0,0:0|0:0,0:0:0:0:
203,95,175594,1,0,0:0:0:0:
106,188,175713,2,0,B|85:184|30:178|30:178|-1:187,2,88.000002685547,0|8|0,3:0|0:0|0:0,0:0:0:0:
353,80,176070,6,0,P|361:123|373:165,1,88.000002685547,6|0,3:2|0:0,0:0:0:0:
469,205,176308,1,8,0:0:0:0:
277,3,176428,2,0,P|352:48|436:72,1,176.000005371094,6|0,3:2|3:0,0:0:0:0:
469,225,176785,5,10,0:0:0:0:
343,342,176904,1,8,0:0:0:0:
485,203,177023,1,8,0:0:0:0:
274,250,177142,1,8,0:0:0:0:
259,231,177380,1,8,0:0:0:0:
327,100,177499,6,0,P|416:128|439:137,1,88.000002685547,14|0,0:0|3:0,0:0:0:0:
271,363,177737,1,8,0:0:0:0:
232,219,177856,1,0,3:0:0:0:
375,279,177975,1,8,0:0:0:0:
255,376,178094,1,0,3:0:0:0:
149,310,178213,6,0,P|107:300|63:294,1,88.000002685547,14|0,0:0|3:0,0:0:0:0:
14,172,178451,1,8,0:0:0:0:
38,31,178570,1,0,3:0:0:0:
139,130,178689,1,8,0:0:0:0:
179,13,178808,1,0,3:0:0:0:
289,39,178928,6,0,P|307:111|326:160,1,88.000002685547,14|0,0:0|3:0,0:0:0:0:
191,209,179166,2,0,P|218:242|241:280,1,88.000002685547,12|0,0:0|3:0,0:0:0:0:
440,321,179404,1,8,0:0:0:0:
413,176,179523,1,0,3:0:0:0:
492,229,179642,5,14,0:0:0:0:
481,89,179761,1,0,3:0:0:0:
358,75,179880,1,8,0:0:0:0:
340,222,179999,1,0,3:0:0:0:
500,253,180118,1,8,0:0:0:0:
421,159,180237,1,0,3:0:0:0:
323,304,180356,6,0,B|184:314|58:261|58:261|23:187,1,320,14|0,0:0|0:0,0:0:0:0:
138,3,181283,6,0,P|126:41|118:80,1,80,12|0,0:0|0:0,0:0:0:0:
249,132,181648,2,0,P|287:120|326:112,1,80,6|0,0:0|0:0,0:0:0:0:
79,198,182014,2,0,P|40:186|1:178,1,80,6|0,0:0|0:0,0:0:0:0:
333,311,182380,6,0,P|346:191|375:75,1,240,6|0,0:0|3:0,0:0:0:0:
168,188,183316,1,0,3:0:0:0:
4,158,183504,6,0,P|113:207|185:227,1,160,14|0,0:0|0:0,0:0:0:0:
141,325,184070,2,0,P|232:310|260:303,1,80,10|0,0:0|0:0,0:0:0:0:
326,125,184447,1,2,3:3:0:0:
402,306,184636,6,0,B|362:199|356:130|356:130|384:80,1,240,6|8,0:0|0:0,0:0:0:0:
66,72,185579,1,0,3:0:0:0:
178,11,185768,6,0,P|250:32|276:37,1,80,14|0,0:0|0:0,0:0:0:0:
298,261,186190,2,0,P|334:244|371:231,1,80,14|0,0:0|0:0,0:0:0:0:
402,224,186521,1,4,0:3:0:0:
433,219,186604,1,4,0:3:0:0:
464,221,186686,1,4,0:3:0:0:
85,96,187308,5,6,0:0:0:0:
256,192,187494,12,0,194016,0:0:0:0:
