osu file format v14

[General]
AudioFilename: audio.mp3
AudioLeadIn: 0
PreviewTime: -1
Countdown: 1
SampleSet: Soft
StackLeniency: 0.7
Mode: 0
LetterboxInBreaks: 0
WidescreenStoryboard: 0

[Editor]
DistanceSpacing: 1.8
BeatDivisor: 4
GridSize: 4
TimelineZoom: 1

[Metadata]
Title:El Pollito Pio (Miku ver)
TitleUnicode:El Pollito Pio (Miku ver)
Artist:PULCINO PIO
ArtistUnicode:PULCINO PIO
Creator:Jorkseljund
Version:Matenme
Source:
Tags:
BeatmapID:1618094
BeatmapSetID:769553

[Difficulty]
HPDrainRate:7
CircleSize:5
OverallDifficulty:7
ApproachRate:9
SliderMultiplier:2
SliderTickRate:1

[Events]
//Background and Video events
0,0,"my_profile_pic_hatsune_miku_black_dress_by_kasumi09-d5hkftw.jpg",0,0
//Break Periods
//Storyboard Layer 0 (Background)
//Storyboard Layer 1 (Fail)
//Storyboard Layer 2 (Pass)
//Storyboard Layer 3 (Foreground)
//Storyboard Sound Samples

[TimingPoints]
539,512.820512820513,4,2,0,30,1,0
7846,-200,4,2,0,30,0,0
8359,-100,4,2,0,30,0,0
10026,-200,4,2,0,30,0,0
10410,-100,4,2,0,30,0,0
18231,-200,4,2,0,30,0,0
18615,-100,4,2,0,30,0,0
20282,-200,4,2,0,30,0,0
20667,-100,4,2,0,30,0,0
28487,-200,4,2,0,30,0,0
28872,-100,4,2,0,30,0,0
30539,-200,4,2,0,30,0,0
30923,-100,4,2,0,30,0,0

[HitObjects]
80,72,539,5,0,0:0:0:0:
60,140,667,1,0,0:0:0:0:
128,140,795,1,0,0:0:0:0:
100,204,923,1,0,0:0:0:0:
168,204,1051,1,0,0:0:0:0:
288,276,1308,2,0,B|300:212|312:200|348:220|336:252|324:268|332:300|352:304|376:288|400:248|400:224|392:212|392:192|392:196|392:196|392:192|392:192|392:192,1,200
428,168,1949,5,0,0:0:0:0:
322,121,2077,2,0,L|372:128,1,50
248,60,2462,2,0,L|328:64,1,50
242,170,2718,2,0,L|260:124,1,50
124,156,3103,2,0,P|92:184|108:196,1,66.6666666666667
104,284,3444,2,0,P|132:316|144:300,1,66.6666666666667
280,312,3872,5,0,0:0:0:0:
248,252,4000,1,0,0:0:0:0:
316,256,4128,1,0,0:0:0:0:
284,192,4256,1,0,0:0:0:0:
434,104,4513,2,0,L|420:152,1,50
352,244,4769,2,0,L|364:196,2,50
228,304,5282,5,0,0:0:0:0:
110,300,5410,2,0,L|160:300,1,50
296,304,5667,1,0,0:0:0:0:
161,129,5795,2,0,L|176:204,1,50
380,176,6436,1,0,0:0:0:0:
424,120,6564,1,0,0:0:0:0:
448,184,6692,1,0,0:0:0:0:
404,240,6821,1,0,0:0:0:0:
336,232,6949,6,0,P|304:184|376:56,1,200
420,40,7590,1,0,0:0:0:0:
280,32,7718,1,0,0:0:0:0:
192,96,7846,1,0,0:0:0:0:
72,240,7974,6,0,B|64:212|64:212|76:192|76:192|68:168|68:168|76:176,1,75
92,104,8487,1,0,0:0:0:0:
144,60,8615,1,0,0:0:0:0:
152,128,8744,1,0,0:0:0:0:
208,84,8872,1,0,0:0:0:0:
204,16,9000,2,0,P|264:32|216:148,1,200
216,208,9641,5,0,0:0:0:0:
392,204,9769,1,0,0:0:0:0:
288,292,9897,1,0,0:0:0:0:
384,80,10026,2,0,B|364:104|364:104|376:120|376:120|348:136,1,75
288,108,10539,1,0,0:0:0:0:
316,224,10667,1,0,0:0:0:0:
440,156,10795,1,0,0:0:0:0:
244,176,10923,1,0,0:0:0:0:
200,300,11051,2,0,L|232:244,1,50
112,72,11821,2,0,P|88:128|96:168,1,100
64,228,12205,5,0,0:0:0:0:
160,136,12333,2,0,P|188:84|184:44,1,100
228,160,12718,2,0,L|216:212,1,50
132,320,12974,2,0,L|72:344,2,50
200,296,13359,2,0,L|184:248,1,50
252,272,13615,2,0,L|240:344,1,50
288,268,13872,2,0,L|312:216,1,50
352,276,14128,6,0,L|408:296,1,50
424,228,14385,2,0,P|480:232|520:200,1,100
456,168,14769,1,0,0:0:0:0:
344,60,14897,1,0,0:0:0:0:
276,184,15026,1,0,0:0:0:0:
400,116,15154,1,0,0:0:0:0:
216,104,15282,2,0,P|188:184|196:232,1,100
160,264,15667,6,0,P|104:272|76:264,1,50
224,292,15923,2,0,P|256:284|288:292,1,50
296,220,16180,2,0,P|344:192|336:288,1,200
276,288,16821,1,0,0:0:0:0:
252,156,16949,1,0,0:0:0:0:
344,68,17077,1,0,0:0:0:0:
384,124,17205,6,0,P|432:224|332:252,1,200
344,200,17846,1,0,0:0:0:0:
280,88,17974,1,0,0:0:0:0:
172,132,18103,1,0,0:0:0:0:
124,280,18231,2,0,B|96:252|96:252|72:276|72:276|60:256,1,75
8,172,18744,6,0,P|0:132|12:100,1,50
80,8,19000,2,0,P|120:0|152:12,1,50
168,160,19256,2,0,P|156:244|192:336,1,150
404,272,19769,1,0,0:0:0:0:
224,208,19897,1,0,0:0:0:0:
404,140,20026,1,0,0:0:0:0:
280,296,20154,1,0,0:0:0:0:
280,136,20282,6,0,B|256:120|256:120|236:136|236:136|216:116,1,75
176,216,20795,2,0,L|160:288,1,50
68,172,21051,2,0,L|56:112,1,50
144,40,21308,1,0,0:0:0:0:
260,64,22077,2,0,P|260:128|296:164,1,100
324,96,22462,5,0,0:0:0:0:
208,176,22590,2,0,P|228:232|224:256,1,50
128,320,22974,2,0,B|96:264|96:264|120:232|120:232,1,100
68,184,23359,1,0,0:0:0:0:
116,136,23487,1,0,0:0:0:0:
168,76,23615,2,0,B|188:28|200:24|208:28|212:48|212:56|208:68,1,66.6666666666667
196,92,23872,2,0,B|228:51|241:50|247:56|246:77|243:84|236:95,1,66.6666666666667
224,120,24128,2,0,P|216:160|224:232,1,100
164,292,24513,5,0,0:0:0:0:
288,212,24641,2,0,P|292:152|304:132,2,50
396,316,25026,1,0,0:0:0:0:
444,240,25154,1,0,0:0:0:0:
404,160,25282,1,0,0:0:0:0:
440,76,25410,1,0,0:0:0:0:
400,0,25539,1,0,0:0:0:0:
232,64,25795,6,0,P|216:96|220:120,1,50
268,184,26051,1,0,0:0:0:0:
200,244,26180,1,0,0:0:0:0:
128,300,26308,1,0,0:0:0:0:
40,252,26436,1,0,0:0:0:0:
92,168,26564,1,0,0:0:0:0:
176,220,26692,1,0,0:0:0:0:
236,300,26821,5,0,0:0:0:0:
296,220,26949,1,0,0:0:0:0:
348,304,27077,1,0,0:0:0:0:
404,220,27205,1,0,0:0:0:0:
452,308,27333,1,0,0:0:0:0:
348,304,27462,2,0,B|292:216|292:216|292:216,1,100
220,288,27846,2,0,L|272:360,1,50
156,296,28103,2,0,L|120:232,1,50
160,168,28359,1,0,0:0:0:0:
44,136,28487,6,0,B|24:172|24:172|40:188|40:188|16:212,1,75
72,276,29000,1,0,0:0:0:0:
160,256,29128,1,0,0:0:0:0:
224,88,29256,1,0,0:0:0:0:
132,96,29385,1,0,0:0:0:0:
272,180,29513,2,0,L|368:172,1,50
248,52,30026,5,0,0:0:0:0:
204,128,30154,1,0,0:0:0:0:
376,216,30282,1,0,0:0:0:0:
300,316,30410,1,0,0:0:0:0:
224,224,30539,2,0,B|196:256|196:256|204:288|204:288,1,75
52,280,31051,6,0,L|60:224,1,50
160,52,31308,2,0,L|153:101,1,50
348,168,31564,2,0,P|300:180|240:164,1,100
160,328,32333,2,0,B|220:304|220:304|252:320|252:320|288:316,1,100,4|0,0:0|0:0,0:0:0:0:
