osu file format v14

[General]
AudioFilename: audio.mp3
AudioLeadIn: 0
PreviewTime: 26951
Countdown: 0
SampleSet: Soft
StackLeniency: 0.7
Mode: 0
LetterboxInBreaks: 0
WidescreenStoryboard: 1

[Editor]
Bookmarks: 544,6826,16944,27049,37171,47255
DistanceSpacing: 1
BeatDivisor: 2
GridSize: 32
TimelineZoom: 1.7

[Metadata]
Title:HiHi (TV Size)
TitleUnicode:HiHi (TV Size)
Artist:PUFFY AMIYUMI
ArtistUnicode:PUFFY AMIYUMI
Creator:Xandit
Version:Normal!
Source:HiHi PUFFY AMIYUMI
Tags:cartoon show english japanese pop rock j-rock jrock ami yumi onuki yoshimura intro opening network ハイ!ハイ!パフィー・アミユミ anime
BeatmapID:3068406
BeatmapSetID:1496906

[Difficulty]
HPDrainRate:3
CircleSize:3
OverallDifficulty:4.5
ApproachRate:5.5
SliderMultiplier:1.1
SliderTickRate:1

[Events]
//Background and Video events
0,0,"hihibg.jpg",0,0
//Break Periods
//Storyboard Layer 0 (Background)
//Storyboard Layer 1 (Fail)
//Storyboard Layer 2 (Pass)
//Storyboard Layer 3 (Foreground)
//Storyboard Layer 4 (Overlay)
//Storyboard Sound Samples

[TimingPoints]
527,314.13612565445,4,2,1,45,1,0
527,-111.111111111111,4,2,1,45,0,0
6826,-111.111111111111,4,2,1,55,0,0
8694,322.58064516129,4,2,1,55,1,0
9339,315.789473684211,4,2,1,55,1,0
9339,-111.111111111111,4,2,1,55,0,0
11865,317.460317460317,4,2,1,55,1,0
11865,-111.111111111111,4,2,1,55,0,0
14401,315.789473684211,4,2,1,55,1,0
14401,-111.111111111111,4,2,1,55,0,0
16944,-111.111111111111,4,2,1,60,0,0
27049,312.5,4,2,1,70,1,0
27049,-100,4,2,1,70,0,0
29549,317.460317460317,4,2,1,70,1,0
32088,315.789473684211,4,2,1,70,1,0
34614,342.857142857143,4,2,1,70,1,0
34956,315.789473684211,4,2,1,70,1,0
35903,315.789473684211,4,2,1,70,1,0
37166,312.5,4,2,1,70,1,0
38416,315.789473684211,4,2,1,70,1,0
40940,319.148936170213,4,2,1,70,1,0
42216,315.789473684211,4,2,1,70,1,0
45847,300,4,2,1,70,1,0
46297,320.855614973262,4,2,1,70,1,0
46938,317.460317460317,4,2,1,70,1,0
47255,315.789473684211,4,2,1,70,1,0
52307,319.148936170213,4,2,1,70,1,0
54238,359.281437125748,4,2,1,70,1,0
54597,375,4,2,1,70,1,0
55082,329.670329670329,4,2,1,70,1,0

[Colours]
Combo1 : 228,150,71
Combo2 : 28,101,223
Combo3 : 209,41,175
Combo4 : 232,236,57

[HitObjects]
463,355,527,6,0,P|485:293|459:247,1,98.9999969787598,10|10,0:0|0:0,0:0:0:0:
437,231,998,1,2,0:0:0:0:
480,144,1312,1,0,3:0:0:0:
480,144,1469,2,0,P|423:133|368:130,1,98.9999969787598,10|10,0:0|0:0,0:0:0:0:
348,102,1940,1,2,0:0:0:0:
203,69,2411,2,0,P|210:100|216:131,1,49.4999984893799,10|2,0:0|3:0,0:0:0:0:
237,160,2725,2,0,P|230:191|224:222,1,49.4999984893799,10|2,0:0|3:0,0:0:0:0:
245,254,3040,6,0,P|304:289|342:274,1,98.9999969787598,10|10,0:0|0:0,0:0:0:0:
360,243,3511,1,2,0:0:0:0:
459,133,3982,1,10,0:0:0:0:
395,56,4296,6,0,P|329:48|272:51,1,98.9999969787598,10|8,3:2|3:2,0:0:0:0:
254,22,4767,1,8,3:2:0:0:
254,22,4924,2,0,P|220:26|191:24,1,49.4999984893799,10|8,3:2|3:2,0:0:0:0:
173,64,5239,1,8,3:2:0:0:
77,39,5553,2,0,P|51:97|79:157,1,98.9999969787598,10|8,3:2|3:2,0:0:0:0:
94,162,6024,1,8,3:2:0:0:
94,162,6181,2,0,P|125:158|159:147,1,49.4999984893799,10|8,3:2|3:2,0:0:0:0:
165,196,6495,2,0,P|196:200|230:211,1,49.4999984893799,8|8,3:2|0:0,0:0:0:0:
249,171,6809,5,6,3:2:0:0:
332,224,7123,1,10,0:0:0:0:
415,170,7437,2,0,P|406:132|403:100,2,49.4999984893799,2|2|10,3:2|3:0|0:0,0:0:0:0:
459,191,7909,2,0,P|488:245|471:290,1,98.9999969787599,2|2,0:0|3:0,0:0:0:0:
439,308,8380,2,0,P|411:301|374:299,1,49.4999984893799,8|2,0:0|0:0,0:0:0:0:
304,344,8855,1,0,3:0:0:0:
304,344,9016,1,10,0:0:0:0:
219,283,9339,5,2,3:2:0:0:
219,283,9496,2,0,P|214:335|208:386,2,98.9999969787599,2|2|2,3:0|0:0|3:0,0:0:0:0:
163,189,10444,2,0,P|146:123|163:89,1,98.9999969787599,2|0,3:0|3:0,0:0:0:0:
188,58,10917,1,8,0:0:0:0:
281,89,11233,2,0,P|312:83|344:80,1,49.4999984893799,0|0,3:0|3:0,0:0:0:0:
369,51,11549,1,8,0:3:0:0:
447,111,11865,6,0,P|453:76|458:52,2,49.4999984893799,0|2|10,3:0|3:0|0:0,0:0:0:0:
481,203,12499,2,0,P|426:205|373:216,1,98.9999969787599,2|10,3:0|0:0,0:0:0:0:
352,252,12976,1,2,0:0:0:0:
270,195,13293,1,2,3:0:0:0:
196,260,13611,2,0,P|150:276|100:251,1,98.9999969787599,2|0,0:0|3:0,0:0:0:0:
75,217,14087,1,10,0:0:0:0:
99,123,14401,5,2,3:0:0:0:
99,123,14558,2,0,P|36:113|-24:114,2,98.9999969787599,2|2|2,3:0|0:0|3:0,0:0:0:0:
170,54,15506,2,0,P|225:28|275:48,1,98.9999969787599,2|8,3:0|0:0,0:0:0:0:
282,81,15979,1,8,0:0:0:0:
323,171,16295,2,0,P|314:198|310:229,1,49.4999984893799,8|8,0:0|0:0,0:0:0:0:
276,254,16611,2,0,P|285:281|289:312,1,49.4999984893799,8|10,0:0|0:0,0:0:0:0:
319,340,16927,6,0,P|384:351|414:330,1,98.9999969787599,6|8,3:2|0:0,0:0:0:0:
463,252,17558,2,0,P|492:245|525:242,2,49.4999984893799,0|2|8,3:2|3:2|0:0,0:0:0:0:
422,223,18032,5,6,3:2:0:0:
119,16,19453,6,0,P|129:80|132:137,1,98.9999969787599,6|8,3:2|0:0,0:0:0:0:
200,185,20085,2,0,P|193:225|191:261,2,49.4999984893799,0|2|8,3:2|3:2|0:0,0:0:0:0:
233,148,20558,1,6,3:2:0:0:
424,239,21979,6,0,P|452:176|426:119,1,98.9999969787599,6|8,3:2|0:0,0:0:0:0:
413,111,22453,1,2,0:0:0:0:
316,89,22769,2,0,P|322:126|322:148,1,49.4999984893799,0|10,3:2|0:2,0:0:0:0:
279,162,23085,2,0,P|221:166|155:178,1,98.9999969787599,2|0,0:2|3:2,0:0:0:0:
144,148,23558,1,10,0:2:0:0:
144,148,23716,2,0,P|134:177|130:203,1,49.4999984893799,2|0,0:0|3:2,0:0:0:0:
155,273,24190,1,10,0:2:0:0:
257,247,24506,5,14,0:2:0:0:
257,247,24664,2,0,B|309:242|295:271|359:271,1,98.9999969787599,2|0,3:2|3:2,0:0:0:0:
384,233,25137,1,10,0:2:0:0:
473,274,25453,2,0,P|480:242|491:213,1,49.4999984893799,10|2,0:2|3:2,0:0:0:0:
498,178,25769,1,12,0:0:0:0:
60,227,27049,6,0,P|32:161|55:106,1,110,6|10,3:2|0:0,0:0:0:0:
120,50,27674,2,0,P|162:55|198:64,1,55,2|2,3:2|3:2,0:0:0:0:
218,28,27986,2,0,P|260:23|296:14,1,55,10|2,0:0|0:0,0:0:0:0:
320,51,28299,2,0,P|333:88|328:123,1,55,2|2,3:2|3:2,0:0:0:0:
254,176,28767,1,2,0:0:0:0:
328,257,29080,2,0,P|321:291|320:322,1,55,0|8,3:2|0:0,0:0:0:0:
278,346,29392,5,4,3:2:0:0:
278,346,29549,1,2,0:0:0:0:
187,283,29866,1,10,0:0:0:0:
92,339,30183,2,0,P|79:298|83:260,1,55,2|2,3:2|3:2,0:0:0:0:
57,235,30501,2,0,P|70:194|66:156,1,55,10|2,0:0|0:0,0:0:0:0:
48,132,30818,2,0,P|78:125|108:117,1,55,2|2,3:2|3:2,0:0:0:0:
173,35,31295,1,2,0:0:0:0:
242,120,31612,2,0,P|272:127|302:135,1,55,0|10,3:2|0:0,0:0:0:0:
340,99,31929,5,6,3:2:0:0:
340,99,32088,1,2,0:0:0:0:
440,54,32403,1,10,0:0:0:0:
487,153,32719,2,0,P|477:179|471:217,1,55,2|2,3:2|3:2,0:0:0:0:
427,239,33035,2,0,P|437:265|443:303,1,55,10|2,0:0|0:0,0:0:0:0:
414,339,33351,2,0,P|383:335|346:332,1,55,2|2,3:2|3:2,0:0:0:0:
292,245,33824,1,2,0:0:0:0:
206,314,34140,1,8,0:0:0:0:
206,314,34298,2,0,P|173:325|125:314,1,55,8|8,0:0|0:0,0:0:0:0:
109,291,34614,6,0,P|126:228|133:172,1,110,4|14,3:2|0:0,0:0:0:0:
78,87,35271,2,0,P|42:95|2:100,2,55,2|2|8,3:2|3:2|0:0,0:0:0:0:
120,51,35745,2,0,P|175:26|232:47,1,110,6|2,3:2|3:2,0:0:0:0:
258,78,36218,2,0,P|248:110|243:143,1,55,8|6,0:0|3:2,0:0:0:0:
314,223,36692,1,8,0:3:0:0:
314,223,36850,1,8,0:3:0:0:
257,314,37166,6,0,P|333:339|364:323,1,110,6|10,3:2|0:0,0:0:0:0:
428,245,37791,2,0,P|436:198|446:175,1,55,10|2,0:0|3:2,0:0:0:0:
477,152,38103,2,0,P|469:105|459:82,1,55,10|2,0:0|3:2,0:0:0:0:
422,64,38416,1,10,0:0:0:0:
325,117,38731,1,8,0:0:0:0:
240,46,39047,2,0,P|213:43|154:42,1,55,8|0,0:0|3:2,0:0:0:0:
148,82,39363,2,0,P|151:109|152:168,1,55,8|0,0:0|3:2,0:0:0:0:
108,170,39679,5,10,0:0:0:0:
191,241,39994,1,10,0:0:0:0:
142,339,40310,2,0,P|170:340|206:352,1,55,10|2,0:0|3:2,0:0:0:0:
244,321,40626,2,0,P|272:320|308:308,1,55,10|2,0:0|3:2,0:0:0:0:
348,331,40940,6,0,P|355:353|350:396,2,55,10|2|10,0:0|3:2|0:0,0:0:0:0:
377,284,41418,1,2,3:2:0:0:
453,205,41737,1,0,3:2:0:0:
453,205,41897,1,10,0:0:0:0:
377,122,42216,6,0,P|315:114|257:99,1,110,10|10,0:0|0:0,0:0:0:0:
174,45,42847,2,0,P|159:77|168:116,1,55,10|2,0:0|3:2,0:0:0:0:
123,136,43163,2,0,P|138:168|129:207,1,55,10|2,0:0|3:2,0:0:0:0:
95,223,43479,2,0,P|104:252|113:295,1,55,10|2,0:0|3:2,0:0:0:0:
77,320,43794,1,8,0:0:0:0:
173,372,44110,1,8,0:0:0:0:
244,288,44426,2,0,P|283:281|321:282,1,55,8|8,0:0|0:0,0:0:0:0:
345,309,44742,6,0,P|399:328|454:301,1,110,4|14,3:2|0:0,0:0:0:0:
492,209,45373,2,0,P|480:166|478:142,1,55,2|2,3:0|3:0,0:0:0:0:
455,112,45689,1,8,0:0:0:0:
455,112,45847,2,0,B|406:103|406:103|384:114|384:114|337:106,1,110,6|2,3:2|3:2,0:0:0:0:
312,67,46297,2,0,P|275:79|235:85,1,55,8|6,0:0|3:2,0:0:0:0:
174,152,46778,1,8,0:0:0:0:
174,152,46938,1,8,0:0:0:0:
241,238,47255,6,0,P|252:295|254:366,1,110,4|10,3:2|0:0,0:0:0:0:
150,382,47886,2,0,P|119:374|76:373,1,55,2|2,3:0|3:0,0:0:0:0:
45,384,48202,1,8,0:0:0:0:
45,384,48360,1,6,3:2:0:0:
66,275,48676,2,0,P|73:243|76:205,1,55,2|8,3:2|0:0,0:0:0:0:
63,166,48991,2,0,P|131:186|176:144,1,110,6|8,3:2|0:3,0:0:0:0:
183,117,49465,1,8,0:3:0:0:
282,164,49781,6,0,P|340:155|416:150,1,110,4|10,3:2|0:0,0:0:0:0:
484,210,50412,2,0,P|494:173|505:144,2,55,2|2|8,3:0|3:0|0:0,0:0:0:0:
446,249,50886,2,0,P|473:304|459:368,1,110,6|2,3:2|3:2,0:0:0:0:
416,371,51360,2,0,P|388:364|345:360,1,55,8|2,0:0|3:2,0:0:0:0:
328,316,51676,2,0,P|300:323|257:327,1,55,8|0,0:0|3:2,0:0:0:0:
243,372,51991,1,8,0:3:0:0:
149,318,52307,6,0,P|116:268|124:212,1,110,10|10,0:0|0:0,0:0:0:0:
153,176,52785,2,0,P|211:184|274:182,1,110,2|0,3:2|3:2,0:0:0:0:
293,137,53264,1,10,0:0:0:0:
364,54,53583,1,10,0:0:0:0:
364,54,53743,2,0,P|422:46|485:48,1,110,2|0,3:2|3:2,0:0:0:0:
511,78,54238,6,0,P|496:115|493:158,1,55,10|10,0:0|0:0,0:0:0:0:
460,165,54597,2,0,P|475:202|478:245,1,55,10|10,0:0|0:0,0:0:0:0:
512,342,55082,5,4,3:2:0:0:
256,192,55246,12,8,59038,0:0:0:0:
