osu file format v14

[General]
AudioFilename: audio.mp3
AudioLeadIn: 0
PreviewTime: 26951
Countdown: 0
SampleSet: Soft
StackLeniency: 0.7
Mode: 0
LetterboxInBreaks: 0
WidescreenStoryboard: 1

[Editor]
Bookmarks: 8240
DistanceSpacing: 1
BeatDivisor: 4
GridSize: 32
TimelineZoom: 1.7

[Metadata]
Title:HiHi (TV Size)
TitleUnicode:HiHi (TV Size)
Artist:PUFFY AMIYUMI
ArtistUnicode:PUFFY AMIYUMI
Creator:Xandit
Version:Insane!
Source:HiHi PUFFY AMIYUMI
Tags:cartoon show english japanese pop rock j-rock jrock ami yumi onuki yoshimura intro opening network ハイ!ハイ!パフィー・アミユミ anime
BeatmapID:3119690
BeatmapSetID:1496906

[Difficulty]
HPDrainRate:5
CircleSize:3.6
OverallDifficulty:8
ApproachRate:9
SliderMultiplier:1.7
SliderTickRate:1

[Events]
//Background and Video events
0,0,"hihibg.jpg",0,0
//Break Periods
//Storyboard Layer 0 (Background)
//Storyboard Layer 1 (Fail)
//Storyboard Layer 2 (Pass)
//Storyboard Layer 3 (Foreground)
//Storyboard Layer 4 (Overlay)
//Storyboard Sound Samples

[TimingPoints]
527,314.13612565445,4,2,1,45,1,0
527,-133.333333333333,4,2,1,45,0,0
6809,-117.647058823529,4,2,1,45,0,0
6826,-117.647058823529,4,2,1,55,0,0
8537,-119.047619047619,4,2,1,55,0,0
8694,322.58064516129,4,2,1,55,1,0
9016,-117.647058823529,4,2,1,55,0,0
9339,315.789473684211,4,2,1,55,1,0
9339,-117.647058823529,4,2,1,55,0,0
11865,317.460317460317,4,2,1,55,1,0
11865,-117.647058823529,4,2,1,55,0,0
14401,315.789473684211,4,2,1,55,1,0
14401,-117.647058823529,4,2,1,55,0,0
16944,-117.647058823529,4,2,1,60,0,0
27049,312.5,4,2,1,70,1,0
29549,317.460317460317,4,2,1,70,1,0
32088,315.789473684211,4,2,1,70,1,0
34614,342.857142857143,4,2,1,70,1,0
34956,315.789473684211,4,2,1,70,1,0
35903,315.789473684211,4,2,1,70,1,0
37166,312.5,4,2,1,70,1,0
37400,-100,4,2,1,5,0,0
37478,-100,4,2,1,70,0,0
38416,315.789473684211,4,2,1,70,1,0
40940,319.148936170213,4,2,1,70,1,0
42216,315.789473684211,4,2,1,70,1,0
45847,300,4,2,1,70,1,0
46297,320.855614973262,4,2,1,70,1,0
46938,317.460317460317,4,2,1,70,1,0
47255,315.789473684211,4,2,1,70,1,0
52307,319.148936170213,4,2,1,70,1,0
54238,359.281437125748,4,2,1,70,1,0
54597,375,4,2,1,70,1,0
55082,329.670329670329,4,2,1,70,1,0

[Colours]
Combo1 : 228,150,71
Combo2 : 28,101,223
Combo3 : 209,41,175
Combo4 : 232,236,57

[HitObjects]
118,35,527,6,0,P|109:75|126:120,1,63.7500024318696,10|0,0:0|0:0,0:0:0:0:
182,161,841,1,10,0:0:0:0:
182,161,998,2,0,B|244:145|235:200|321:177,1,127.500004863739,2|0,0:0|3:0,0:0:0:0:
371,113,1469,2,0,L|379:44,1,63.7500024318696,10|0,0:0|3:0,0:0:0:0:
452,174,1783,5,10,0:0:0:0:
452,174,1940,2,0,P|494:209|485:289,1,127.500004863739,2|0,0:0|0:0,0:0:0:0:
431,341,2411,2,0,L|357:326,1,63.7500024318696,10|2,0:0|3:0,0:0:0:0:
319,263,2725,2,0,L|245:278,1,63.7500024318696,10|2,0:0|3:0,0:0:0:0:
183,333,3040,6,0,P|162:287|165:261,1,63.7500024318696,10|0,0:0|0:0,0:0:0:0:
95,211,3354,1,10,0:0:0:0:
95,211,3511,2,0,P|121:172|93:87,1,127.500004863739,2|0,0:0|3:0,0:0:0:0:
171,36,3982,2,0,L|250:43,1,63.7500024318696,10|0,0:0|0:0,0:0:0:0:
307,110,4296,5,10,3:2:0:0:
307,110,4453,1,8,3:2:0:0:
374,47,4610,2,0,P|414:37|445:45,1,63.7500024318696,8|8,3:2|3:2,0:0:0:0:
500,168,4924,5,10,3:2:0:0:
507,84,5081,1,8,3:2:0:0:
403,181,5239,2,0,L|411:102,1,63.7500024318696,8|8,3:2|3:2,0:0:0:0:
469,251,5553,5,10,3:2:0:0:
318,214,5710,1,8,3:2:0:0:
476,273,5867,5,8,3:2:0:0:
284,309,6024,1,8,3:2:0:0:
437,378,6181,5,10,3:2:0:0:
403,181,6338,1,8,3:2:0:0:
295,321,6495,1,8,3:2:0:0:
295,321,6574,1,8,0:0:0:0:
295,321,6652,2,0,L|347:313,1,31.8750012159348,8|8,0:0|0:0,0:0:0:0:
204,176,6809,5,6,3:2:0:0:
204,176,6966,1,2,3:0:0:0:
128,297,7123,2,0,P|87:308|51:297,1,72.2500013780594,10|0,0:0|0:0,0:0:0:0:
16,162,7437,1,2,3:2:0:0:
99,213,7595,1,2,3:0:0:0:
1,167,7752,1,10,0:0:0:0:
87,93,7909,6,0,L|166:87,1,72.2500013780594,2|0,0:0|3:2,0:0:0:0:
276,181,8223,2,0,L|197:175,1,72.2500013780594,2|8,3:0|0:0,0:0:0:0:
337,97,8537,2,0,P|392:92|450:167,1,144.500002756119,2|0,0:0|3:0,0:0:0:0:
387,281,9016,2,0,P|373:235|379:210,1,72.2500013780594,10|0,0:0|0:0,0:0:0:0:
345,357,9339,5,2,3:2:0:0:
345,357,9496,2,0,B|429:326|429:326|492:362,2,144.500002756119,2|2|2,3:0|0:0|3:0,0:0:0:0:
279,240,10444,6,0,P|313:198|297:112,1,144.500002756119,2|0,3:0|3:0,0:0:0:0:
206,96,10917,2,0,L|219:185,1,72.2500013780594,8|0,0:0|0:0,0:0:0:0:
268,311,11233,2,0,L|281:222,1,72.2500013780594,0|0,3:0|3:0,0:0:0:0:
373,347,11549,5,8,0:3:0:0:
373,347,11707,1,8,0:3:0:0:
474,275,11865,5,0,3:0:0:0:
474,275,12023,1,2,3:0:0:0:
395,192,12182,2,0,L|385:277,1,72.2500013780594,10|0,0:0|0:0,0:0:0:0:
481,125,12499,1,2,3:0:0:0:
481,125,12658,1,2,3:0:0:0:
404,63,12817,1,10,0:0:0:0:
310,117,12976,6,0,P|271:126|225:114,1,72.2500013780594,2|0,0:0|3:0,0:0:0:0:
130,112,13293,2,0,P|157:141|169:187,1,72.2500013780594,2|8,3:0|0:0,0:0:0:0:
123,244,13611,2,0,P|167:211|255:233,1,144.500002756119,2|0,0:0|3:0,0:0:0:0:
294,311,14087,2,0,L|284:386,1,72.2500013780594,10|0,0:0|0:0,0:0:0:0:
378,243,14401,5,2,3:0:0:0:
378,243,14558,2,0,L|368:168,1,72.2500013780594,2|8,3:0|0:0,0:0:0:0:
297,80,14874,2,0,P|348:90|371:85,1,72.2500013780594,2|0,0:0|3:0,0:0:0:0:
336,0,15190,1,2,3:0:0:0:
336,0,15348,1,8,0:0:0:0:
207,40,15506,6,0,B|201:91|201:91|215:123|215:123|209:185,1,144.500002756119,2|8,3:0|0:0,0:0:0:0:
67,272,15979,1,8,0:0:0:0:
130,144,16137,1,8,0:0:0:0:
156,319,16295,1,8,0:0:0:0:
0,186,16453,1,8,0:0:0:0:
19,380,16611,1,8,0:0:0:0:
134,227,16769,1,10,0:0:0:0:
233,364,16927,5,6,3:2:0:0:
233,364,17085,2,0,P|285:373|316:360,1,72.2500013780594,2|8,3:2|0:0,0:0:0:0:
310,215,17401,2,0,P|276:255|271:288,1,72.2500013780594,2|0,0:0|3:2,0:0:0:0:
433,363,17716,1,2,3:2:0:0:
357,285,17874,1,8,0:0:0:0:
482,227,18032,5,6,3:2:0:0:
490,219,19295,1,2,0:0:0:0:
414,132,19453,5,6,3:2:0:0:
414,132,19611,2,0,L|328:122,1,72.2500013780594,2|8,0:0|0:0,0:0:0:0:
230,47,19927,2,0,L|316:37,1,72.2500013780594,2|0,0:0|3:2,0:0:0:0:
242,166,20243,1,2,3:2:0:0:
131,69,20401,1,8,0:0:0:0:
161,225,20558,5,6,3:2:0:0:
178,234,21822,1,2,0:0:0:0:
104,328,21979,5,6,3:2:0:0:
104,328,22137,2,0,P|154:313|178:318,1,72.2500013780594,2|8,0:0|0:0,0:0:0:0:
282,381,22453,2,0,B|250:332|250:332|279:231,1,144.500002756119,2|0,0:0|3:2,0:0:0:0:
251,161,22927,1,10,0:2:0:0:
373,248,23085,6,0,B|446:233|430:284|515:267,1,144.500002756119,2|0,0:2|3:2,0:0:0:0:
490,110,23558,1,10,0:2:0:0:
490,110,23716,2,0,L|479:189,1,72.2500013780594,2|0,0:0|3:2,0:0:0:0:
407,58,24032,1,0,3:2:0:0:
407,58,24190,2,0,P|436:30|473:18,1,72.2500013780594,10|0,0:2|3:2,0:0:0:0:
356,137,24506,5,14,0:2:0:0:
199,77,24664,1,2,3:2:0:0:
308,25,24822,5,8,0:2:0:0:
249,197,24979,1,0,3:2:0:0:
120,96,25137,6,0,L|110:6,1,72.2500013780594,10|0,0:2|3:2,0:0:0:0:
7,172,25453,2,0,L|-3:262,1,72.2500013780594,10|2,0:2|3:2,0:0:0:0:
21,28,25769,5,12,0:0:0:0:
54,231,27049,6,0,B|115:223|115:223|148:249|148:249|223:239,1,170,6|10,3:2|0:0,0:0:0:0:
334,154,27517,1,0,0:0:0:0:
334,154,27674,1,2,3:2:0:0:
402,300,27830,1,2,3:2:0:0:
512,180,27986,2,0,L|418:170,1,85,10|2,0:0|0:0,0:0:0:0:
305,242,28299,5,2,3:2:0:0:
410,384,28455,2,0,L|400:290,1,85,2|8,3:2|0:0,0:0:0:0:
228,296,28767,2,0,P|283:334|312:335,1,85,2|0,0:0|3:2,0:0:0:0:
216,192,29080,1,0,3:2:0:0:
216,192,29236,1,8,0:0:0:0:
146,325,29392,1,4,3:2:0:0:
33,222,29549,6,0,L|123:213,1,85,2|0,0:0|3:2,0:0:0:0:
220,97,29866,2,0,L|130:88,1,85,10|0,0:0|0:0,0:0:0:0:
268,8,30183,1,2,3:2:0:0:
268,8,30342,1,2,3:2:0:0:
315,159,30501,1,10,0:0:0:0:
390,20,30660,1,2,0:0:0:0:
492,132,30818,5,2,3:2:0:0:
492,132,30977,2,0,P|438:145|402:130,1,85,2|8,3:2|0:0,0:0:0:0:
264,253,31295,2,0,P|318:240|354:255,1,85,2|0,0:0|3:2,0:0:0:0:
424,364,31612,1,0,3:2:0:0:
306,327,31771,1,10,0:0:0:0:
191,382,31929,6,0,B|126:374|126:374|102:342|102:342|29:333,1,170,6|0,3:2|3:2,0:0:0:0:
133,188,32403,2,0,P|143:251|128:280,1,85,10|0,0:0|0:0,0:0:0:0:
43,161,32719,1,2,3:2:0:0:
43,161,32877,1,2,3:2:0:0:
182,113,33035,2,0,L|276:121,1,85,10|2,0:0|0:0,0:0:0:0:
419,207,33351,5,2,3:2:0:0:
275,247,33509,1,2,3:2:0:0:
374,130,33666,2,0,P|441:124|477:142,1,85,8|2,0:0|0:0,0:0:0:0:
511,292,33982,1,0,3:2:0:0:
419,207,34140,1,8,0:0:0:0:
419,207,34219,1,8,0:0:0:0:
419,207,34298,2,0,L|411:268,3,42.5,8|8|8|8,0:0|0:0|0:0|0:0,0:0:0:0:
395,362,34614,5,4,3:2:0:0:
383,347,34956,6,0,L|289:334,1,85,14|2,0:0|0:0,0:0:0:0:
148,272,35271,1,2,3:2:0:0:
283,220,35429,1,2,3:2:0:0:
210,343,35587,1,8,0:0:0:0:
167,190,35745,6,0,B|74:170|98:251|3:227,1,170,6|2,3:2|3:2,0:0:0:0:
58,95,36218,1,8,0:0:0:0:
187,199,36376,2,0,B|295:174|295:174|364:206,1,170,6|8,3:2|0:3,0:0:0:0:
447,266,36850,2,0,P|435:226|449:178,1,85,8|0,0:3|3:0,0:0:0:0:
512,68,37166,6,0,L|385:80,1,127.5,6|0,3:2|0:0,0:0:0:0:
366,96,37478,2,0,L|379:7,1,85,10|0,0:0|0:0,0:0:0:0:
203,55,37791,1,10,0:0:0:0:
305,178,37947,1,2,3:2:0:0:
289,30,38103,1,10,0:0:0:0:
179,145,38259,1,2,3:2:0:0:
325,199,38416,6,0,L|423:190,1,85,10|2,0:0|3:2,0:0:0:0:
193,293,38731,2,0,L|95:284,1,85,8|2,0:0|3:2,0:0:0:0:
32,144,39047,1,8,0:0:0:0:
32,144,39205,1,0,3:2:0:0:
143,183,39363,1,8,0:0:0:0:
18,243,39521,1,0,3:2:0:0:
110,101,39679,6,0,L|195:92,1,85,10|0,0:0|3:2,0:0:0:0:
325,199,39994,2,0,L|240:190,1,85,10|0,0:0|3:2,0:0:0:0:
356,87,40310,1,10,0:0:0:0:
356,87,40468,1,2,3:2:0:0:
430,206,40626,1,10,0:0:0:0:
430,206,40784,1,2,3:2:0:0:
504,104,40940,6,0,P|514:62|502:22,2,85,10|2|10,0:0|3:2|0:0,0:0:0:0:
430,206,41418,2,0,L|446:294,1,85,2|8,3:2|0:0,0:0:0:0:
316,366,41737,1,0,3:2:0:0:
316,366,41897,2,0,L|332:278,1,85,10|2,0:0|3:2,0:0:0:0:
242,196,42216,6,0,P|189:208|151:192,1,85,10|0,0:0|3:2,0:0:0:0:
157,56,42531,2,0,P|193:95|201:139,1,85,10|0,0:0|3:2,0:0:0:0:
86,232,42847,1,10,0:0:0:0:
86,232,43005,1,2,3:2:0:0:
24,122,43163,2,0,L|120:132,1,85,10|2,0:0|3:2,0:0:0:0:
241,47,43479,5,10,0:0:0:0:
241,47,43637,2,0,L|145:57,1,85,2|8,3:2|0:0,0:0:0:0:
292,148,43952,1,2,3:2:0:0:
380,32,44110,1,8,0:0:0:0:
381,56,44426,5,8,0:0:0:0:
381,56,44505,1,8,0:0:0:0:
381,56,44584,2,0,L|390:117,1,42.5,8|8,0:0|0:0,0:0:0:0:
408,243,44742,5,4,3:2:0:0:
413,258,45058,2,0,L|326:246,1,85,14|2,0:0|0:0,0:0:0:0:
187,306,45373,1,2,3:0:0:0:
187,306,45531,1,2,3:0:0:0:
250,175,45689,1,8,0:0:0:0:
274,348,45847,6,0,B|173:317|205:395|90:359,1,170,6|2,3:2|3:2,0:0:0:0:
8,267,46297,1,8,0:0:0:0:
119,181,46457,2,0,L|104:281,1,85,6|0,3:2|0:0,0:0:0:0:
25,152,46778,1,8,0:0:0:0:
178,110,46938,1,8,0:0:0:0:
90,79,47096,1,0,3:0:0:0:
206,198,47255,5,4,3:2:0:0:
219,210,47570,2,0,L|319:195,1,85,10|0,0:0|0:0,0:0:0:0:
427,120,47886,1,2,3:0:0:0:
294,73,48044,1,2,3:0:0:0:
381,199,48202,1,8,0:0:0:0:
488,68,48360,6,0,B|478:134|478:134|493:172|493:172|482:243,1,170,6|2,3:2|3:2,0:0:0:0:
395,370,48833,1,8,0:0:0:0:
290,270,48991,2,0,P|203:255|145:326,1,170,6|8,3:2|0:3,0:0:0:0:
42,202,49465,2,0,L|57:114,1,85,8|4,0:3|0:3,0:0:0:0:
159,25,49781,5,4,3:2:0:0:
168,36,50097,2,0,P|214:23|258:38,1,85,10|0,0:0|0:0,0:0:0:0:
354,156,50412,1,2,3:0:0:0:
213,112,50570,1,2,3:0:0:0:
343,64,50728,1,8,0:0:0:0:
263,192,50886,6,0,P|201:208|120:126,1,170,6|2,3:2|3:2,0:0:0:0:
213,112,51360,1,8,0:0:0:0:
213,112,51518,1,2,3:2:0:0:
354,156,51676,1,8,0:0:0:0:
233,260,51833,1,0,3:2:0:0:
360,350,51991,2,0,L|342:257,1,85,8|4,0:3|0:3,0:0:0:0:
441,152,52307,6,0,P|434:203|406:234,1,85,10|0,0:0|3:2,0:0:0:0:
396,74,52626,1,10,0:0:0:0:
396,74,52785,2,0,L|488:61,1,85,2|8,3:2|0:0,0:0:0:0:
354,156,53104,1,0,3:2:0:0:
354,156,53264,2,0,L|262:143,1,85,10|0,0:0|3:2,0:0:0:0:
145,34,53583,5,10,0:0:0:0:
145,34,53743,2,0,P|188:65|201:101,1,85,2|8,3:2|0:0,0:0:0:0:
167,245,54062,1,0,3:2:0:0:
22,108,54238,6,0,L|130:119,1,85,10|10,0:0|0:0,0:0:0:0:
167,245,54597,2,0,L|59:256,1,85,10|10,0:0|0:0,0:0:0:0:
225,359,55082,5,4,3:2:0:0:
256,192,55164,12,8,59038,0:0:0:0:
