osu file format v14

[General]
AudioFilename: audio.mp3
AudioLeadIn: 0
PreviewTime: 99777
Countdown: 0
SampleSet: Normal
StackLeniency: 0.7
Mode: 1
LetterboxInBreaks: 0
WidescreenStoryboard: 1

[Editor]
Bookmarks: 43265,75358
DistanceSpacing: 1
BeatDivisor: 8
GridSize: 32
TimelineZoom: 2

[Metadata]
Title:Starfall
TitleUnicode:Starfall
Artist:PTB10
ArtistUnicode:PTB10
Creator:HEAVENLY MOON
Version:Muzukashii
Source:
Tags:drum & bass n' and dnb electronic neurofunk instrumental ginjani featured artist fa mappers' guild mpg mg
BeatmapID:3394957
BeatmapSetID:1661508

[Difficulty]
HPDrainRate:7
CircleSize:5
OverallDifficulty:4
ApproachRate:5
SliderMultiplier:1.4
SliderTickRate:1

[Events]
//Background and Video events
0,0,"ptb.jpg",0,50
//Break Periods
//Storyboard Layer 0 (Background)
//Storyboard Layer 1 (Fail)
//Storyboard Layer 2 (Pass)
//Storyboard Layer 3 (Foreground)
//Storyboard Layer 4 (Overlay)
//Storyboard Sound Samples

[TimingPoints]
1405,348.837209302326,4,1,0,30,1,0
1405,-133.333333333333,4,1,0,30,0,0
11172,-133.333333333333,4,1,0,30,0,0
11521,-131.506791668256,4,1,0,30,0,0
11870,-129.729785829097,4,1,0,30,0,0
11957,-129.292845709676,4,1,0,30,0,0
12044,-128.85900505385,4,1,0,30,0,0
12218,-128,4,1,0,30,0,0
12480,-126.73275357323,4,1,0,30,0,0
12567,-126.315736288111,4,1,0,30,0,0
12742,-125.490196078431,4,1,0,30,0,0
12916,-124.675376488468,4,1,0,30,0,0
13265,-123.076923076923,4,1,0,30,0,0
13352,-122.683731155779,4,1,0,30,0,0
13439,-122.293043482515,4,1,0,30,0,0
13614,-121.518938118911,4,1,0,30,0,0
13875,-120.3761996993,4,1,0,30,0,0
13963,-120.000048000019,4,1,0,40,0,0
14137,-119.254610979534,4,1,0,40,0,0
14311,-118.518518518519,4,1,0,40,0,0
14660,-117.073125044634,4,1,0,50,0,0
14748,-116.717302523078,4,1,0,50,0,0
14835,-116.363636363636,4,1,0,50,0,0
15009,-115.662695195256,4,1,0,50,0,0
15271,-114.626843772782,4,1,0,50,0,0
15358,-114.285714285714,4,1,0,60,0,0
15532,-113.609510479341,4,1,0,60,0,0
15707,-112.941133951573,4,1,0,60,0,0
15881,-112.280701754386,4,1,0,60,0,0
15968,-111.953373658939,4,1,0,60,0,0
16056,-111.627948512725,4,1,0,70,0,0
16143,-111.304285882832,4,1,0,70,0,0
16230,-110.982617902384,4,1,0,70,0,0
16405,-110.344827586207,4,1,0,70,0,0
16666,-109.401769245412,4,1,0,70,0,0
16753,-109.090869421502,4,1,0,80,0,0
16928,-108.474576271186,4,1,0,80,0,0
17102,-107.865207322322,4,1,0,80,0,0
17277,-107.262531481553,4,1,0,80,0,0
17364,-106.963769232086,4,1,0,80,0,0
17451,-106.666666666667,4,1,0,80,0,0
17538,-106.371209993788,4,1,0,80,0,0
17625,-106.077385574324,4,1,0,80,0,0
17800,-105.49446839755,4,1,0,80,0,0
17974,-104.918032786885,4,1,0,80,0,0
18061,-104.632170835038,4,1,0,80,0,0
18149,-104.347862381865,4,1,0,80,0,0
18323,-103.783747880217,4,1,0,80,0,0
18498,-103.225806451613,4,1,0,80,0,0
18672,-102.673831931151,4,1,0,90,0,0
18759,-102.400052428827,4,1,0,90,0,0
18846,-102.127624807617,4,1,0,90,0,0
18934,-101.856746634398,4,1,0,90,0,0
19021,-101.587301587302,4,1,0,90,0,0
19108,-101.319278323044,4,1,0,90,0,0
19195,-101.05266561774,4,1,0,90,0,0
19370,-100.523526526148,4,1,0,90,0,0
19544,-100,4,1,0,90,0,0
19849,-100,4,1,0,60,0,0
20067,-101.010101010101,4,1,0,60,0,0
20155,-102.040816326531,4,1,0,60,0,0
20242,-103.092783505155,4,1,0,60,0,0
20329,-104.166666666667,4,1,0,60,0,0
20416,-105.263157894737,4,1,0,60,0,0
20503,-106.382978723404,4,1,0,60,0,0
20591,-107.52688172043,4,1,0,60,0,0
20678,-108.695652173913,4,1,0,60,0,0
20765,-109.89010989011,4,1,0,60,0,0
20896,-100,4,1,0,90,0,0
20939,-76.9230769230769,4,1,0,90,0,0
21114,-76.3358778625954,4,1,0,90,0,0
21201,-75.7575757575758,4,1,0,90,0,0
21375,-74.6268656716418,4,1,0,90,0,0
21463,-74.0740740740741,4,1,0,90,0,0
21811,-83.3333333333333,4,1,0,90,0,0
21986,-80,4,1,0,90,0,0
22335,-86.9565217391304,4,1,0,90,0,0
43439,-86.2068965517241,4,1,0,90,0,0
43614,-85.4700854700855,4,1,0,90,0,0
43788,-84.7457627118644,4,1,0,90,0,0
43875,-84.0336134453781,4,1,0,90,0,0
43963,-83.3333333333333,4,1,0,90,0,0
44137,-82.6446280991736,4,1,0,90,0,0
44311,-81.9672131147541,4,1,0,90,0,0
44486,-81.3008130081301,4,1,0,90,0,0
44660,-80.6451612903226,4,1,0,90,0,0
45009,-86.9565217391304,4,1,0,100,0,0
46928,-88.8888888888889,4,1,0,100,0,0
47102,-90.9090909090909,4,1,0,100,0,0
47451,-88.8888888888889,4,1,0,100,0,0
47800,-86.9565217391304,4,1,0,100,0,0
49544,-87.719298245614,4,1,0,100,0,0
49631,-88.4955752212389,4,1,0,100,0,0
49718,-89.2857142857143,4,1,0,100,0,0
49806,-90.0900900900901,4,1,0,100,0,0
50242,-88.8888888888889,4,1,0,100,0,0
50591,-86.9565217391304,4,1,0,100,0,0
53032,-86.5800865800866,4,1,0,90,0,0
53120,-86.2068965517241,4,1,0,90,0,0
53207,-85.8369098712446,4,1,0,90,0,0
53294,-85.4700854700855,4,1,0,90,0,0
53381,-85.1063829787234,4,1,0,90,0,0
53468,-84.7457627118644,4,1,0,90,0,0
53556,-84.3881856540084,4,1,0,90,0,0
53643,-84.0336134453781,4,1,0,90,0,0
53730,-83.6820083682008,4,1,0,90,0,0
53817,-83.3333333333333,4,1,0,90,0,0
53905,-82.9875518672199,4,1,0,90,0,0
53992,-82.6446280991736,4,1,0,90,0,0
54079,-82.3045267489712,4,1,0,90,0,0
54166,-81.9672131147541,4,1,0,90,0,0
54253,-81.6326530612245,4,1,0,90,0,0
54341,-81.3008130081301,4,1,0,90,0,0
54428,-80.6451612903226,4,1,0,90,0,0
54777,-83.3333333333333,4,1,0,90,0,0
54951,-86.9565217391304,4,1,0,90,0,0
75358,-83.3333333333333,4,1,0,90,0,0
75881,-90.9090909090909,4,1,0,90,0,0
76230,-95.2380952380952,4,1,0,90,0,0
76579,-97.5609756097561,4,1,0,90,0,0
76753,-100,4,1,0,90,0,0
78149,-83.3333333333333,4,1,0,90,0,0
79544,-100,4,1,0,90,0,0
94893,-99.009900990099,4,1,0,90,0,0
95067,-98.0392156862745,4,1,0,90,0,0
95242,-97.0873786407767,4,1,0,90,0,0
95416,-96.1538461538461,4,1,0,90,0,0
95591,-95.2380952380952,4,1,0,90,0,0
95765,-94.3396226415094,4,1,0,90,0,0
95939,-93.4579439252336,4,1,0,90,0,0
96114,-92.5925925925926,4,1,0,90,0,0
96288,-91.743119266055,4,1,0,90,0,0
97335,-92.5925925925926,4,1,0,90,0,0
97422,-93.4579439252336,4,1,0,90,0,0
97509,-94.3396226415094,4,1,0,90,0,0
97684,-95.2380952380952,4,1,0,90,0,0
99079,-83.3333333333333,4,1,0,90,0,0
99428,-90.9090909090909,4,1,0,90,0,0
99602,-89.2857142857143,4,1,0,90,0,0
99689,-87.719298245614,4,1,0,90,0,0
99777,-86.2068965517241,4,1,0,90,0,0
100474,-76.9230769230769,4,1,0,90,0,1
101521,-80,4,1,0,90,0,1
101695,-81.6326530612245,4,1,0,90,0,1
101870,-83.3333333333333,4,1,0,90,0,0
102916,-80,4,1,0,90,0,0
103091,-78.4313725490196,4,1,0,90,0,0
103265,-76.9230769230769,4,1,0,90,0,1
104311,-80,4,1,0,90,0,1
104486,-81.6326530612245,4,1,0,90,0,1
104660,-83.3333333333333,4,1,0,90,0,0
105707,-80,4,1,0,90,0,0
105881,-78.4313725490196,4,1,0,90,0,0
106056,-76.9230769230769,4,1,0,90,0,1
107277,-83.3333333333333,4,1,0,90,0,1
107451,-80,4,1,0,90,0,1
107800,-86.9565217391304,4,1,0,90,0,1
107974,-80,4,1,0,90,0,1
108498,-83.3333333333333,4,1,0,90,0,0
109718,-81.6326530612245,4,1,0,90,0,0
109893,-80,4,1,0,90,0,0
110067,-78.4313725490196,4,1,0,90,0,0
110242,-76.9230769230769,4,1,0,90,0,1
110416,-78.4313725490196,4,1,0,90,0,1
110765,-76.9230769230769,4,1,0,90,0,1
110939,-78.4313725490196,4,1,0,90,0,1
111114,-80,4,1,0,90,0,1
111463,-78.4313725490196,4,1,0,90,0,1
111637,-76.9230769230769,4,1,0,90,0,1
112335,-78.4313725490196,4,1,0,90,0,0
112422,-80,4,1,0,90,0,0
112509,-81.6326530612245,4,1,0,90,0,0
112684,-83.3333333333333,4,1,0,90,0,0
112858,-85.1063829787234,4,1,0,90,0,0
113032,-76.9230769230769,4,1,0,90,0,1
113730,-80,4,1,0,90,0,0
114079,-81.6326530612245,4,1,0,90,0,0
114253,-83.3333333333333,4,1,0,90,0,0
114428,-76.9230769230769,4,1,0,90,0,1
115125,-78.4313725490196,4,1,0,90,0,0
115213,-80,4,1,0,90,0,0
115300,-81.6326530612245,4,1,0,90,0,0
115474,-83.3333333333333,4,1,0,90,0,0
115649,-84.7457627118644,4,1,0,90,0,0
115823,-76.9230769230769,4,1,0,90,0,1
116521,-78.4313725490196,4,1,0,90,0,0
116695,-80,4,1,0,90,0,0
116870,-83.3333333333333,4,1,0,90,0,0
120009,-81.9672131147541,4,1,0,90,0,0
120358,-80.6451612903226,4,1,0,90,0,0
120532,-79.3650793650794,4,1,0,90,0,0
120707,-78.125,4,1,0,90,0,0
120881,-76.9230769230769,4,1,0,90,0,0
121056,-76.3358778625954,4,1,0,90,0,0
121143,-75.7575757575758,4,1,0,90,0,0
121230,-75.187969924812,4,1,0,90,0,0
121317,-74.6268656716418,4,1,0,90,0,0
122277,-83.3333333333333,4,1,0,90,0,0
122364,-81.9672131147541,4,1,0,90,0,0
122451,-80.6451612903226,4,1,0,90,0,0
122538,-79.3650793650794,4,1,0,90,0,0
122625,-78.125,4,1,0,90,0,0
122800,-66.6666666666667,4,1,0,90,0,0

[HitObjects]
256,192,11172,5,0,0:0:0:0:
256,192,11521,1,8,0:0:0:0:
256,192,11870,1,0,0:0:0:0:
256,192,12044,1,8,0:0:0:0:
256,192,12218,1,8,0:0:0:0:
256,192,12567,1,0,0:0:0:0:
256,192,12742,1,0,0:0:0:0:
256,192,12916,1,8,0:0:0:0:
256,192,13439,1,0,0:0:0:0:
256,192,13614,1,8,0:0:0:0:
256,192,13875,1,0,0:0:0:0:
256,192,13963,1,0,0:0:0:0:
256,192,14137,1,0,0:0:0:0:
256,192,14311,1,8,0:0:0:0:
256,192,14660,1,0,0:0:0:0:
256,192,14835,1,0,0:0:0:0:
256,192,15009,1,8,0:0:0:0:
256,192,15271,1,0,0:0:0:0:
256,192,15358,1,0,0:0:0:0:
256,192,15532,1,0,0:0:0:0:
256,192,15707,1,8,0:0:0:0:
256,192,16056,1,0,0:0:0:0:
256,192,16230,1,0,0:0:0:0:
256,192,16405,1,8,0:0:0:0:
256,192,16666,1,0,0:0:0:0:
256,192,16753,1,8,0:0:0:0:
256,192,16928,1,0,0:0:0:0:
256,192,17102,1,8,0:0:0:0:
256,192,17277,1,0,0:0:0:0:
256,192,17364,1,0,0:0:0:0:
256,192,17451,1,0,0:0:0:0:
256,192,17625,1,0,0:0:0:0:
256,192,17800,1,8,0:0:0:0:
256,192,18149,1,0,0:0:0:0:
256,192,18498,1,8,0:0:0:0:
256,192,18672,1,0,0:0:0:0:
256,192,18846,1,8,0:0:0:0:
256,192,18934,1,8,0:0:0:0:
256,192,19021,1,8,0:0:0:0:
256,192,19195,1,8,0:0:0:0:
256,192,19544,1,0,0:0:0:0:
256,192,19893,1,8,0:0:0:0:
256,192,20067,1,0,0:0:0:0:
256,192,20155,1,0,0:0:0:0:
256,192,20242,1,0,0:0:0:0:
256,192,20416,1,8,0:0:0:0:
256,192,20591,1,8,0:0:0:0:
256,192,20765,1,0,0:0:0:0:
256,192,20939,1,4,0:0:0:0:
256,192,21201,1,4,0:0:0:0:
256,192,21463,1,4,0:0:0:0:
256,192,21986,1,8,0:0:0:0:
256,192,22335,1,4,0:0:0:0:
256,192,22509,1,8,0:0:0:0:
256,192,22684,1,8,0:0:0:0:
256,192,23032,1,0,0:0:0:0:
256,192,23120,1,0,0:0:0:0:
256,192,23207,1,0,0:0:0:0:
256,192,23381,1,8,0:0:0:0:
256,192,23730,1,8,0:0:0:0:
256,192,24079,1,8,0:0:0:0:
256,192,24253,1,8,0:0:0:0:
256,192,24428,1,0,0:0:0:0:
256,192,24602,1,0,0:0:0:0:
256,192,24777,1,8,0:0:0:0:
256,192,25125,1,8,0:0:0:0:
256,192,25474,1,0,0:0:0:0:
256,192,25649,1,8,0:0:0:0:
256,192,25736,1,8,0:0:0:0:
256,192,25823,1,8,0:0:0:0:
256,192,25998,1,0,0:0:0:0:
256,192,26172,1,8,0:0:0:0:
256,192,26346,1,8,0:0:0:0:
256,192,26521,1,0,0:0:0:0:
256,192,26870,1,8,0:0:0:0:
256,192,27218,1,8,0:0:0:0:
256,192,27393,1,0,0:0:0:0:
256,192,27567,1,8,0:0:0:0:
256,192,27916,1,8,0:0:0:0:
256,192,28265,1,8,0:0:0:0:
256,192,28439,1,8,0:0:0:0:
256,192,28527,1,8,0:0:0:0:
256,192,28614,1,8,0:0:0:0:
256,192,28788,1,0,0:0:0:0:
256,192,28963,1,8,0:0:0:0:
256,192,29311,1,8,0:0:0:0:
256,192,29660,1,8,0:0:0:0:
256,192,29835,1,8,0:0:0:0:
256,192,30009,1,0,0:0:0:0:
256,192,30184,1,8,0:0:0:0:
256,192,30358,1,8,0:0:0:0:
256,192,30707,1,8,0:0:0:0:
256,192,30881,1,0,0:0:0:0:
256,192,31056,1,0,0:0:0:0:
256,192,31230,1,8,0:0:0:0:
256,192,31317,1,8,0:0:0:0:
256,192,31405,1,8,0:0:0:0:
256,192,31579,1,8,0:0:0:0:
256,192,31753,1,0,0:0:0:0:
256,192,32102,1,8,0:0:0:0:
256,192,32277,1,8,0:0:0:0:
256,192,32451,1,0,0:0:0:0:
256,192,32625,1,8,0:0:0:0:
256,192,32713,1,8,0:0:0:0:
256,192,32800,1,8,0:0:0:0:
256,192,32974,1,8,0:0:0:0:
256,192,33149,1,0,0:0:0:0:
256,192,33498,1,8,0:0:0:0:
256,192,33846,1,0,0:0:0:0:
256,192,34021,1,8,0:0:0:0:
256,192,34195,1,0,0:0:0:0:
256,192,34282,1,0,0:0:0:0:
256,192,34370,1,0,0:0:0:0:
256,192,34544,1,8,0:0:0:0:
256,192,34893,1,0,0:0:0:0:
256,192,35242,1,8,0:0:0:0:
256,192,35416,1,8,0:0:0:0:
256,192,35591,1,0,0:0:0:0:
256,192,35765,1,0,0:0:0:0:
256,192,35939,1,8,0:0:0:0:
256,192,36288,1,8,0:0:0:0:
256,192,36637,1,8,0:0:0:0:
256,192,36811,1,8,0:0:0:0:
256,192,36986,1,0,0:0:0:0:
256,192,37073,1,0,0:0:0:0:
256,192,37160,1,0,0:0:0:0:
256,192,37335,1,8,0:0:0:0:
256,192,37509,1,8,0:0:0:0:
256,192,37684,1,0,0:0:0:0:
256,192,38032,1,8,0:0:0:0:
256,192,38381,1,0,0:0:0:0:
256,192,38556,1,8,0:0:0:0:
256,192,38730,1,8,0:0:0:0:
256,192,39079,1,8,0:0:0:0:
256,192,39428,1,8,0:0:0:0:
256,192,39602,1,0,0:0:0:0:
256,192,39689,1,0,0:0:0:0:
256,192,39777,1,0,0:0:0:0:
256,192,39951,1,0,0:0:0:0:
256,192,40125,1,8,0:0:0:0:
256,192,40474,1,8,0:0:0:0:
256,192,40823,1,8,0:0:0:0:
256,192,40998,1,0,0:0:0:0:
256,192,41172,1,8,0:0:0:0:
256,192,41346,1,8,0:0:0:0:
256,192,41521,1,0,0:0:0:0:
256,192,41870,1,8,0:0:0:0:
256,192,42044,1,8,0:0:0:0:
256,192,42218,1,0,0:0:0:0:
256,192,42393,1,8,0:0:0:0:
256,192,42480,1,8,0:0:0:0:
256,192,42567,1,8,0:0:0:0:
256,192,42742,1,0,0:0:0:0:
256,192,43003,1,8,0:0:0:0:
256,192,43091,1,8,0:0:0:0:
256,192,43614,1,8,0:0:0:0:
256,192,43788,1,8,0:0:0:0:
256,192,43875,1,8,0:0:0:0:
256,192,43963,1,8,0:0:0:0:
256,192,44137,1,8,0:0:0:0:
256,192,44311,1,8,0:0:0:0:
256,192,44660,1,0,0:0:0:0:
256,192,45009,1,8,0:0:0:0:
256,192,45096,1,8,0:0:0:0:
256,192,45184,1,8,0:0:0:0:
256,192,45358,1,0,0:0:0:0:
256,192,45532,1,8,0:0:0:0:
256,192,45881,1,0,0:0:0:0:
256,192,46056,1,8,0:0:0:0:
256,192,46143,1,8,0:0:0:0:
256,192,46230,1,8,0:0:0:0:
256,192,46405,1,0,0:0:0:0:
256,192,46492,1,0,0:0:0:0:
256,192,46579,1,0,0:0:0:0:
256,192,46753,1,8,0:0:0:0:
256,192,47102,1,0,0:0:0:0:
256,192,47451,1,0,0:0:0:0:
256,192,47800,1,8,0:0:0:0:
256,192,47887,1,8,0:0:0:0:
256,192,47974,1,8,0:0:0:0:
256,192,48149,1,0,0:0:0:0:
256,192,48323,1,8,0:0:0:0:
256,192,48672,1,8,0:0:0:0:
256,192,48759,1,8,0:0:0:0:
256,192,48846,1,8,0:0:0:0:
256,192,49021,1,0,0:0:0:0:
256,192,49195,1,8,0:0:0:0:
256,192,49282,1,8,0:0:0:0:
256,192,49370,1,8,0:0:0:0:
256,192,49544,1,0,0:0:0:0:
256,192,49718,1,0,0:0:0:0:
256,192,49806,1,0,0:0:0:0:
256,192,50242,1,0,0:0:0:0:
256,192,50591,1,8,0:0:0:0:
256,192,50678,1,8,0:0:0:0:
256,192,50765,1,8,0:0:0:0:
256,192,50939,1,0,0:0:0:0:
256,192,51114,1,8,0:0:0:0:
256,192,51463,1,0,0:0:0:0:
256,192,51637,1,8,0:0:0:0:
256,192,51986,1,0,0:0:0:0:
256,192,52160,1,8,0:0:0:0:
256,192,52248,1,8,0:0:0:0:
256,192,52335,1,8,0:0:0:0:
256,192,52509,1,0,0:0:0:0:
256,192,52684,1,8,0:0:0:0:
256,192,53032,1,0,0:0:0:0:
256,192,53381,1,8,0:0:0:0:
256,192,53556,1,0,0:0:0:0:
256,192,53643,1,0,0:0:0:0:
256,192,53730,1,0,0:0:0:0:
256,192,53905,1,8,0:0:0:0:
256,192,53992,1,8,0:0:0:0:
256,192,54079,1,8,0:0:0:0:
256,192,54253,1,0,0:0:0:0:
256,192,54428,1,8,0:0:0:0:
256,192,54777,1,0,0:0:0:0:
256,192,54951,1,0,0:0:0:0:
256,192,55823,1,4,0:0:0:0:
256,192,56172,1,8,0:0:0:0:
256,192,56346,1,0,0:0:0:0:
256,192,56695,1,4,0:0:0:0:
256,192,56870,1,8,0:0:0:0:
256,192,57131,1,0,0:0:0:0:
256,192,57218,1,8,0:0:0:0:
256,192,57393,1,0,0:0:0:0:
256,192,57567,1,8,0:0:0:0:
256,192,57742,1,8,0:0:0:0:
256,192,58091,1,4,0:0:0:0:
256,192,58265,1,8,0:0:0:0:
256,192,58614,1,0,0:0:0:0:
256,192,58788,1,0,0:0:0:0:
256,192,58963,1,8,0:0:0:0:
256,192,59137,1,8,0:0:0:0:
256,192,59224,1,8,0:0:0:0:
256,192,59486,1,4,0:0:0:0:
256,192,59660,1,8,0:0:0:0:
256,192,59922,1,8,0:0:0:0:
256,192,60009,1,8,0:0:0:0:
256,192,60184,1,0,0:0:0:0:
256,192,60358,1,8,0:0:0:0:
256,192,60881,1,4,0:0:0:0:
256,192,61056,1,8,0:0:0:0:
256,192,61405,1,8,0:0:0:0:
256,192,61579,1,8,0:0:0:0:
256,192,61753,1,0,0:0:0:0:
256,192,61928,1,8,0:0:0:0:
256,192,62277,1,4,0:0:0:0:
256,192,62451,1,8,0:0:0:0:
256,192,62713,1,8,0:0:0:0:
256,192,62800,1,8,0:0:0:0:
256,192,62974,1,0,0:0:0:0:
256,192,63149,1,0,0:0:0:0:
256,192,63323,1,8,0:0:0:0:
256,192,63672,1,4,0:0:0:0:
256,192,63846,1,8,0:0:0:0:
256,192,64021,1,8,0:0:0:0:
256,192,64195,1,4,0:0:0:0:
256,192,64544,1,8,0:0:0:0:
256,192,64806,1,8,0:0:0:0:
256,192,65067,1,0,0:0:0:0:
256,192,65155,1,0,0:0:0:0:
256,192,65242,1,0,0:0:0:0:
256,192,65416,1,8,0:0:0:0:
256,192,65765,1,0,0:0:0:0:
256,192,65939,1,8,0:0:0:0:
256,192,66027,1,8,0:0:0:0:
256,192,66201,1,0,0:0:0:0:
256,192,66375,1,0,0:0:0:0:
256,192,66637,1,8,0:0:0:0:
256,192,67160,1,4,0:0:0:0:
256,192,67335,1,8,0:0:0:0:
256,192,67509,1,8,0:0:0:0:
256,192,67858,1,4,0:0:0:0:
256,192,68032,1,8,0:0:0:0:
256,192,68294,1,0,0:0:0:0:
256,192,68381,1,8,0:0:0:0:
256,192,68556,1,0,0:0:0:0:
256,192,68730,1,8,0:0:0:0:
256,192,68905,1,8,0:0:0:0:
256,192,69253,1,4,0:0:0:0:
256,192,69428,1,8,0:0:0:0:
256,192,69777,1,8,0:0:0:0:
256,192,69951,1,0,0:0:0:0:
256,192,70125,1,8,0:0:0:0:
256,192,70300,1,8,0:0:0:0:
256,192,70649,1,4,0:0:0:0:
256,192,70823,1,8,0:0:0:0:
256,192,71085,1,8,0:0:0:0:
256,192,71172,1,8,0:0:0:0:
256,192,71346,1,0,0:0:0:0:
256,192,71521,1,8,0:0:0:0:
256,192,71695,1,8,0:0:0:0:
256,192,72044,1,4,0:0:0:0:
256,192,72218,1,8,0:0:0:0:
256,192,72306,1,8,0:0:0:0:
256,192,72393,1,8,0:0:0:0:
256,192,72567,1,8,0:0:0:0:
256,192,72742,1,0,0:0:0:0:
256,192,72916,1,8,0:0:0:0:
256,192,73091,1,8,0:0:0:0:
256,192,73439,1,4,0:0:0:0:
256,192,73614,1,0,0:0:0:0:
256,192,73875,1,8,0:0:0:0:
256,192,73963,1,8,0:0:0:0:
256,192,74137,1,0,0:0:0:0:
256,192,74311,1,8,0:0:0:0:
256,192,74486,1,0,0:0:0:0:
256,192,74835,1,4,0:0:0:0:
256,192,75009,1,8,0:0:0:0:
256,192,75184,1,8,0:0:0:0:
256,192,75358,1,4,0:0:0:0:
256,192,75532,1,4,0:0:0:0:
256,192,75881,1,8,0:0:0:0:
256,192,76230,1,8,0:0:0:0:
256,192,76579,1,0,0:0:0:0:
256,192,76753,1,8,0:0:0:0:
256,192,76928,1,0,0:0:0:0:
256,192,77102,1,0,0:0:0:0:
256,192,77277,1,8,0:0:0:0:
256,192,77625,1,8,0:0:0:0:
256,192,77800,1,0,0:0:0:0:
256,192,78149,1,4,0:0:0:0:
256,192,80416,1,8,0:0:0:0:
256,192,80591,1,8,0:0:0:0:
256,192,80765,1,0,0:0:0:0:
256,192,80939,1,8,0:0:0:0:
256,192,81288,1,0,0:0:0:0:
256,192,81463,1,8,0:0:0:0:
256,192,83032,1,8,0:0:0:0:
256,192,83730,1,8,0:0:0:0:
256,192,85300,1,0,0:0:0:0:
256,192,85474,1,0,0:0:0:0:
256,192,85649,1,8,0:0:0:0:
256,192,85998,1,0,0:0:0:0:
256,192,86172,1,0,0:0:0:0:
256,192,86346,1,8,0:0:0:0:
256,192,86695,1,0,0:0:0:0:
256,192,86870,1,8,0:0:0:0:
256,192,87044,1,8,0:0:0:0:
256,192,87393,1,0,0:0:0:0:
256,192,87567,1,8,0:0:0:0:
256,192,87742,1,8,0:0:0:0:
256,192,87916,1,8,0:0:0:0:
256,192,88614,1,8,0:0:0:0:
256,192,88788,1,8,0:0:0:0:
256,192,88963,1,0,0:0:0:0:
256,192,89137,1,8,0:0:0:0:
256,192,89311,1,4,0:0:0:0:
256,192,89660,1,0,0:0:0:0:
256,192,90009,1,4,0:0:0:0:
256,192,90358,1,0,0:0:0:0:
256,192,90707,1,4,0:0:0:0:
256,192,91056,1,0,0:0:0:0:
256,192,91405,1,4,0:0:0:0:
256,192,91753,1,0,0:0:0:0:
256,192,92102,1,8,0:0:0:0:
256,192,92451,1,8,0:0:0:0:
256,192,92800,1,8,0:0:0:0:
256,192,93149,1,8,0:0:0:0:
256,192,93323,1,0,0:0:0:0:
256,192,93498,1,8,0:0:0:0:
256,192,93672,1,0,0:0:0:0:
256,192,93759,1,0,0:0:0:0:
256,192,93846,1,0,0:0:0:0:
256,192,94021,1,0,0:0:0:0:
256,192,94195,1,8,0:0:0:0:
256,192,94544,1,0,0:0:0:0:
256,192,94893,1,4,0:0:0:0:
256,192,95067,1,0,0:0:0:0:
256,192,95242,1,8,0:0:0:0:
256,192,95416,1,8,0:0:0:0:
256,192,95591,1,0,0:0:0:0:
256,192,95765,1,0,0:0:0:0:
256,192,95939,1,8,0:0:0:0:
256,192,96288,1,8,0:0:0:0:
256,192,96375,1,8,0:0:0:0:
256,192,96463,1,8,0:0:0:0:
256,192,96637,1,0,0:0:0:0:
256,192,96811,1,8,0:0:0:0:
256,192,96986,1,0,0:0:0:0:
256,192,97073,1,0,0:0:0:0:
256,192,97160,1,0,0:0:0:0:
256,192,97335,1,8,0:0:0:0:
256,192,97509,1,8,0:0:0:0:
256,192,97684,1,0,0:0:0:0:
256,192,99079,1,8,0:0:0:0:
256,192,99428,1,0,0:0:0:0:
256,192,99602,1,8,0:0:0:0:
256,192,99689,1,8,0:0:0:0:
256,192,99777,1,8,0:0:0:0:
256,192,100474,1,4,0:0:0:0:
256,192,100998,1,4,0:0:0:0:
256,192,101521,1,8,0:0:0:0:
256,192,101695,1,0,0:0:0:0:
256,192,101870,1,8,0:0:0:0:
256,192,102916,1,8,0:0:0:0:
256,192,103091,1,8,0:0:0:0:
256,192,103265,1,4,0:0:0:0:
256,192,103788,1,4,0:0:0:0:
256,192,104137,1,4,0:0:0:0:
256,192,104311,1,8,0:0:0:0:
256,192,104486,1,8,0:0:0:0:
256,192,104660,1,8,0:0:0:0:
256,192,105707,1,0,0:0:0:0:
256,192,105881,1,8,0:0:0:0:
256,192,106056,1,4,0:0:0:0:
256,192,106579,1,4,0:0:0:0:
256,192,107277,1,0,0:0:0:0:
256,192,107451,1,8,0:0:0:0:
256,192,107800,1,0,0:0:0:0:
256,192,107974,1,4,0:0:0:0:
256,192,108498,1,8,0:0:0:0:
256,192,108672,1,8,0:0:0:0:
256,192,108846,1,8,0:0:0:0:
256,192,109195,1,8,0:0:0:0:
256,192,109370,1,0,0:0:0:0:
256,192,109718,1,8,0:0:0:0:
256,192,109893,1,4,0:0:0:0:
256,192,110067,1,8,0:0:0:0:
256,192,110242,1,4,0:0:0:0:
256,192,110416,1,8,0:0:0:0:
256,192,110765,1,4,0:0:0:0:
256,192,110939,1,8,0:0:0:0:
256,192,111114,1,8,0:0:0:0:
256,192,111463,1,8,0:0:0:0:
256,192,111637,1,4,0:0:0:0:
256,192,112160,1,4,0:0:0:0:
256,192,112335,1,8,0:0:0:0:
256,192,112422,1,8,0:0:0:0:
256,192,112509,1,8,0:0:0:0:
256,192,112684,1,8,0:0:0:0:
256,192,112858,1,8,0:0:0:0:
256,192,113032,1,4,0:0:0:0:
256,192,113294,1,4,0:0:0:0:
256,192,113556,1,4,0:0:0:0:
256,192,113730,1,8,0:0:0:0:
256,192,114079,1,8,0:0:0:0:
256,192,114253,1,8,0:0:0:0:
256,192,114428,1,4,0:0:0:0:
256,192,114951,1,4,0:0:0:0:
256,192,115125,1,8,0:0:0:0:
256,192,115213,1,8,0:0:0:0:
256,192,115300,1,8,0:0:0:0:
256,192,115474,1,0,0:0:0:0:
256,192,115649,1,8,0:0:0:0:
256,192,115823,1,4,0:0:0:0:
256,192,116085,1,4,0:0:0:0:
256,192,116346,1,4,0:0:0:0:
256,192,116521,1,8,0:0:0:0:
256,192,116695,1,8,0:0:0:0:
256,192,116870,1,0,0:0:0:0:
256,192,117218,1,4,0:0:0:0:
256,192,117916,1,4,0:0:0:0:
256,192,118265,1,0,0:0:0:0:
256,192,118439,1,8,0:0:0:0:
256,192,118614,1,4,0:0:0:0:
256,192,119311,1,4,0:0:0:0:
256,192,119486,1,8,0:0:0:0:
256,192,119573,1,8,0:0:0:0:
256,192,119660,1,8,0:0:0:0:
256,192,119835,1,8,0:0:0:0:
256,192,120009,1,4,0:0:0:0:
256,192,120358,1,4,0:0:0:0:
256,192,120532,1,0,0:0:0:0:
256,192,120707,1,8,0:0:0:0:
256,192,120881,1,8,0:0:0:0:
256,192,121056,1,8,0:0:0:0:
256,192,121143,1,8,0:0:0:0:
256,192,121230,1,8,0:0:0:0:
256,192,121317,1,8,0:0:0:0:
256,192,122277,1,0,0:0:0:0:
256,192,122364,1,0,0:0:0:0:
256,192,122451,1,0,0:0:0:0:
256,192,122625,1,8,0:0:0:0:
256,192,122800,1,4,0:0:0:0:
