osu file format v14

[General]
AudioFilename: audio.mp3
AudioLeadIn: 0
PreviewTime: 55456
Countdown: 0
SampleSet: Soft
StackLeniency: 0.4
Mode: 0
LetterboxInBreaks: 0
WidescreenStoryboard: 1

[Editor]
Bookmarks: 11154,19527,22317,44643,55806,64177,66968,72549,75340,78131,89294,100457,111620,122782
DistanceSpacing: 1
BeatDivisor: 4
GridSize: 16
TimelineZoom: 4.299998

[Metadata]
Title:Starfall
TitleUnicode:Starfall
Artist:PTB10
ArtistUnicode:PTB10
Creator:Altai
Version:Hard
Source:
Tags:electronic instrumental fa featured artist mappers' guild mg mpg dnb drum and bass neuro funk neurofunk seolv lukas [_l_u_k_a_s_] aistre alphabet venax
BeatmapID:3376986
BeatmapSetID:1648460

[Difficulty]
HPDrainRate:4.5
CircleSize:3.5
OverallDifficulty:6.5
ApproachRate:8
SliderMultiplier:1.5
SliderTickRate:1

[Events]
//Background and Video events
0,0,"photo-1524168948265-8f79ad8d4e33.jpg",0,0
//Break Periods
2,78341,88553
//Storyboard Layer 0 (Background)
//Storyboard Layer 1 (Fail)
//Storyboard Layer 2 (Pass)
//Storyboard Layer 3 (Foreground)
//Storyboard Layer 4 (Overlay)
//Storyboard Sound Samples

[TimingPoints]
1397,348.837209302326,4,2,1,45,1,0
11164,-133.333333333333,4,2,1,45,0,0
11426,-133.333333333333,4,2,1,5,0,0
11513,-133.333333333333,4,2,1,45,0,0
12821,-133.333333333333,4,2,1,5,0,0
12908,-133.333333333333,4,2,1,45,0,0
13955,-133.333333333333,4,2,1,50,0,0
16745,-133.333333333333,4,2,1,55,0,0
19536,-133.333333333333,4,2,1,45,0,0
19885,-133.333333333333,4,2,1,35,0,0
20931,-100,4,2,1,80,0,0
21716,-100,4,2,1,5,0,0
21803,-100,4,2,1,80,0,0
22327,-111.111111111111,4,2,1,85,0,1
43344,-111.111111111111,4,2,1,5,0,1
43431,-111.111111111111,4,2,1,85,0,1
44652,-125,4,2,1,85,0,0
45001,-125,4,2,1,75,0,0
49100,-125,4,2,1,5,0,0
49187,-125,4,2,1,75,0,0
50147,-125,4,2,1,5,0,0
50234,-125,4,2,1,75,0,0
51542,-125,4,2,1,5,0,0
51629,-125,4,2,1,75,0,0
53024,-125,4,2,1,70,0,0
53373,-125,4,2,1,65,0,0
54420,-125,4,2,1,60,0,0
54681,-125,4,2,1,5,0,0
54769,-125,4,2,1,60,0,0
55815,-66.6666666666667,4,2,1,85,0,1
56077,-66.6666666666667,4,2,1,5,0,1
56120,-66.6666666666667,4,2,1,5,0,1
56164,-80,4,2,1,85,0,1
56687,-90.9090909090909,4,2,1,85,0,1
57559,-80,4,2,1,85,0,1
58083,-90.9090909090909,4,2,1,85,0,1
58606,-90.9090909090909,4,2,1,85,0,1
58955,-80,4,2,1,85,0,1
59478,-90.9090909090909,4,2,1,85,0,1
60350,-80,4,2,1,85,0,1
61048,-71.4285714285714,4,2,1,85,0,1
61309,-71.4285714285714,4,2,1,5,0,1
61353,-71.4285714285714,4,2,1,5,0,1
61397,-66.6666666666667,4,2,1,85,0,1
61658,-66.6666666666667,4,2,1,5,0,1
61702,-66.6666666666667,4,2,1,5,0,1
61745,-80,4,2,1,85,0,1
62269,-90.9090909090909,4,2,1,85,0,1
63141,-80,4,2,1,85,0,1
63664,-90.9090909090909,4,2,1,85,0,1
64187,-80,4,2,1,85,0,0
67152,-71.4285714285714,4,2,1,85,0,1
67850,-90.9090909090909,4,2,1,85,0,1
68722,-80,4,2,1,85,0,1
69245,-90.9090909090909,4,2,1,85,0,1
69769,-71.4285714285714,4,2,1,85,0,1
70641,-90.9090909090909,4,2,1,85,0,1
72210,-71.4285714285714,4,2,1,85,0,1
72472,-71.4285714285714,4,2,1,5,0,1
72516,-71.4285714285714,4,2,1,5,0,1
72559,-66.6666666666667,4,2,1,85,0,1
72821,-66.6666666666667,4,2,1,5,0,1
72865,-66.6666666666667,4,2,1,5,0,1
72908,-71.4285714285714,4,2,1,85,0,1
73431,-90.9090909090909,4,2,1,85,0,1
75001,-71.4285714285714,4,2,1,85,0,1
75263,-71.4285714285714,4,2,1,5,0,1
75306,-71.4285714285714,4,2,1,5,0,1
75350,-111.111111111111,4,2,1,85,0,0
75873,-111.111111111111,4,2,1,65,0,0
76135,-111.111111111111,4,2,1,5,0,0
76222,-111.111111111111,4,2,1,65,0,0
76658,-111.111111111111,4,2,1,5,0,0
76745,-111.111111111111,4,2,1,50,0,0
78141,-111.111111111111,4,2,1,75,0,0
89303,-100,4,2,1,65,0,0
89914,-100,4,2,1,5,0,0
90001,-100,4,2,1,65,0,0
90612,-100,4,2,1,5,0,0
90699,-100,4,2,1,65,0,0
91135,-100,4,2,1,5,0,0
91222,-100,4,2,1,65,0,0
91833,-100,4,2,1,5,0,0
91920,-100,4,2,1,65,0,0
92094,-100,4,2,1,70,0,0
94449,-100,4,2,1,5,0,0
94536,-100,4,2,1,70,0,0
94798,-100,4,2,1,5,0,0
94885,-100,4,2,1,60,0,0
95583,-100,4,2,1,65,0,0
96280,-100,4,2,1,70,0,0
96629,-100,4,2,1,60,0,0
96978,-100,4,2,1,50,0,0
97327,-100,4,2,1,40,0,0
99071,-100,4,2,1,60,0,0
100379,-100,4,2,1,5,0,0
100466,-66.6666666666667,4,2,1,90,0,1
100902,-66.6666666666667,4,2,1,5,0,1
100990,-66.6666666666667,4,2,1,90,0,1
101426,-66.6666666666667,4,2,1,5,0,1
101513,-66.6666666666667,4,2,1,90,0,1
101862,-66.6666666666667,4,2,1,90,0,0
103257,-66.6666666666667,4,2,1,90,0,1
103693,-66.6666666666667,4,2,1,5,0,1
103780,-66.6666666666667,4,2,1,90,0,1
104042,-66.6666666666667,4,2,1,5,0,1
104129,-66.6666666666667,4,2,1,90,0,1
104303,-80,4,2,1,90,0,1
104652,-80,4,2,1,90,0,0
106048,-66.6666666666667,4,2,1,90,0,1
106484,-66.6666666666667,4,2,1,5,0,1
106571,-66.6666666666667,4,2,1,90,0,1
108402,-66.6666666666667,4,2,1,5,0,1
108490,-66.6666666666667,4,2,1,90,0,1
108838,-80,4,2,1,90,0,0
109100,-80,4,2,1,5,0,0
109187,-80,4,2,1,90,0,0
109623,-80,4,2,1,5,0,0
109710,-80,4,2,1,90,0,0
110059,-71.4285714285714,4,2,1,90,0,1
110670,-71.4285714285714,4,2,1,5,0,1
110757,-71.4285714285714,4,2,1,90,0,1
111629,-66.6666666666667,4,2,1,90,0,1
112065,-66.6666666666667,4,2,1,5,0,1
112152,-66.6666666666667,4,2,1,90,0,1
112327,-66.6666666666667,4,2,1,90,0,0
112676,-80,4,2,1,90,0,0
113024,-66.6666666666667,4,2,1,90,0,1
113722,-66.6666666666667,4,2,1,90,0,0
114071,-80,4,2,1,90,0,0
114420,-66.6666666666667,4,2,1,90,0,1
114856,-66.6666666666667,4,2,1,5,0,1
114943,-66.6666666666667,4,2,1,90,0,1
115117,-66.6666666666667,4,2,1,90,0,0
115379,-66.6666666666667,4,2,1,5,0,0
115466,-80,4,2,1,90,0,0
115815,-66.6666666666667,4,2,1,90,0,1
116862,-66.6666666666667,4,2,1,70,0,1
117123,-66.6666666666667,4,2,1,5,0,1
117210,-100,4,2,1,80,0,0
117821,-100,4,2,1,5,0,0
117908,-100,4,2,1,80,0,0
118170,-100,4,2,1,5,0,0
118257,-100,4,2,1,80,0,0
120001,-80,4,2,1,85,0,0
120263,-80,4,2,1,5,0,0
120350,-80,4,2,1,90,0,0
120612,-80,4,2,1,5,0,0
120699,-80,4,2,1,95,0,0
122269,-80,4,2,1,65,0,0
122792,-80,4,2,1,70,0,0

[Colours]
Combo1 : 255,21,21
Combo2 : 210,210,210
Combo3 : 148,148,148
Combo4 : 36,239,255
Combo5 : 62,77,255

[HitObjects]
493,364,11164,6,0,L|481:299,1,56.2500021457673,6|0,1:2|0:0,0:0:0:0:
437,243,11513,2,0,P|388:232|364:330,1,168.750006437302,8|4,0:0|3:0,0:0:0:0:
288,368,12210,1,8,0:0:0:0:
185,260,12559,6,0,P|142:251|126:250,1,56.2500021457673,6|0,1:2|0:0,0:0:0:0:
60,293,12908,2,0,P|-8:262|35:193,1,168.750006437302,8|4,0:0|3:0,0:0:0:0:
44,116,13606,1,8,0:0:0:0:
154,25,13955,54,0,P|197:34|213:35,1,56.2500021457673,0|2,1:0|3:0,0:0:0:0:
293,30,14303,2,0,P|284:74|281:98,1,56.2500021457673,8|8,0:0|3:0,0:0:0:0:
288,95,14565,1,4,3:0:0:0:
294,104,14652,1,8,3:0:0:0:
368,71,14827,1,4,3:0:0:0:
429,124,15001,1,8,3:2:0:0:
329,213,15350,6,0,P|286:222|270:223,1,56.2500021457673,0|2,1:0|3:0,0:0:0:0:
190,218,15698,2,0,P|199:262|202:286,1,56.2500021457673,8|8,0:0|3:0,0:0:0:0:
195,283,15960,1,4,3:0:0:0:
189,292,16047,1,8,3:0:0:0:
115,259,16222,1,4,3:0:0:0:
54,312,16396,1,8,3:2:0:0:
26,178,16745,54,0,P|15:137|11:120,1,56.2500021457673,0|2,1:0|3:0,0:0:0:0:
39,45,17094,1,8,0:0:0:0:
120,85,17269,1,8,3:0:0:0:
132,81,17356,1,4,3:0:0:0:
143,79,17443,2,0,P|171:73|204:66,1,56.2500021457673,10|4,3:2|3:0,0:0:0:0:
254,7,17792,1,8,3:2:0:0:
339,112,18141,6,0,P|380:101|397:97,1,56.2500021457673,0|2,1:0|3:0,0:0:0:0:
472,125,18490,1,8,0:0:0:0:
432,206,18665,1,8,3:0:0:0:
436,218,18752,1,4,3:0:0:0:
438,229,18839,2,0,P|444:257|451:290,1,56.2500021457673,10|4,3:2|3:0,0:0:0:0:
510,340,19188,1,8,3:2:0:0:
383,382,19536,53,6,0:0:0:0:
11,211,20931,22,2,P|40:168|81:169,1,75,14|0,1:2|0:0,0:1:0:0:
68,154,21193,2,2,P|119:157|139:193,1,75,14|0,1:2|0:0,0:1:0:0:
147,172,21455,2,2,P|163:235|176:327,1,150,14|0,1:2|1:0,0:1:0:0:
255,244,21978,1,12,0:0:0:0:
396,306,22327,38,0,P|407:346|414:384,2,67.4999979400635,6|2|10,1:1|3:1|0:0,0:0:0:0:
447,238,22850,1,2,0:0:0:0:
444,223,22937,1,2,0:0:0:0:
440,208,23024,1,2,0:1:0:0:
371,156,23199,1,2,1:2:0:0:
423,92,23373,1,10,0:0:0:0:
276,66,23722,22,0,P|270:32|264:-2,2,67.4999979400635,6|2|10,1:1|3:1|0:0,0:0:0:0:
204,109,24245,1,2,0:0:0:0:
187,114,24333,1,2,0:0:0:0:
172,119,24420,2,0,L|123:130,3,33.7499989700318,2|2|2|2,0:1|0:0|1:2|0:0,0:0:0:0:
93,107,24769,2,0,L|44:118,2,33.7499989700318,10|2|2,0:0|0:1|0:0,0:0:0:0:
87,199,25117,38,0,L|16:217,2,67.4999979400635,6|2|10,1:1|3:1|0:0,0:0:0:0:
160,238,25641,1,2,0:0:0:0:
172,241,25728,1,2,0:0:0:0:
184,245,25815,1,2,0:1:0:0:
248,193,25990,1,2,1:2:0:0:
310,244,26164,1,10,0:0:0:0:
447,213,26513,22,0,L|518:195,2,67.4999979400635,6|2|10,1:1|3:1|0:0,0:0:0:0:
404,288,27036,1,2,0:0:0:0:
403,303,27123,1,2,0:0:0:0:
402,317,27210,2,0,L|348:332,3,33.7499989700318,2|2|2|2,0:1|0:0|1:2|0:0,0:0:0:0:
335,363,27559,2,0,L|281:378,2,33.7499989700318,10|2|2,0:0|0:1|0:0,0:0:0:0:
297,279,27908,38,0,P|287:240|278:203,2,67.4999979400635,6|2|8,1:1|3:1|0:0,0:0:0:0:
223,321,28431,1,2,0:0:0:0:
207,318,28519,1,2,0:0:0:0:
191,314,28606,1,2,0:1:0:0:
119,357,28780,1,2,1:2:0:0:
72,289,28955,1,10,0:0:0:0:
70,138,29303,22,0,P|60:99|51:62,2,67.4999979400635,6|2|8,1:1|3:1|0:0,0:0:0:0:
142,180,29827,1,2,0:0:0:0:
157,176,29914,1,2,0:0:0:0:
171,172,30001,2,0,L|211:160,3,33.7499989700318,2|2|2|2,0:1|0:0|1:2|0:0,0:0:0:0:
235,122,30350,2,0,L|275:110,2,33.7499989700318,10|2|2,0:0|0:1|0:0,0:0:0:0:
206,37,30699,38,0,L|127:57,2,67.4999979400635,6|2|8,1:1|3:1|0:0,0:0:0:0:
292,12,31222,1,2,0:0:0:0:
306,16,31309,1,2,0:0:0:0:
320,20,31397,1,2,0:1:0:0:
362,90,31571,1,2,1:2:0:0:
436,56,31745,1,10,0:0:0:0:
477,200,32094,22,0,L|492:270,2,67.4999979400635,6|2|10,1:1|3:1|0:0,0:0:0:0:
361,284,32705,1,8,0:0:0:0:
348,280,32792,1,2,1:2:0:0:
274,258,32966,1,2,1:2:0:0:
198,234,33141,1,10,0:2:0:0:
83,359,33490,37,4,1:1:0:0:
18,311,33664,1,2,0:1:0:0:
61,244,33838,2,2,P|51:185|37:157,1,67.4999979400635,10|2,0:0|0:3,0:1:0:0:
53,163,34100,1,2,0:3:0:0:
59,148,34187,2,0,P|103:139|122:127,1,67.4999979400635,2|0,0:1|1:0,0:0:0:0:
138,49,34536,21,10,0:0:0:0:
219,60,34710,2,2,P|255:70|284:96,1,67.4999979400635,2|0,0:0|1:0,0:1:0:0:
361,77,35059,2,0,P|400:83|435:72,1,67.4999979400635,2|8,0:1|0:0,0:0:0:0:
497,125,35408,37,2,3:1:0:0:
495,140,35495,1,8,3:0:0:0:
494,155,35583,2,0,P|489:189|484:229,1,67.4999979400635,4|0,3:0|1:0,0:0:0:0:
415,268,35931,2,0,P|410:301|405:334,1,67.4999979400635,8|0,0:0|0:0,0:0:0:0:
334,374,36280,21,4,1:1:0:0:
284,314,36455,1,2,0:1:0:0:
206,349,36629,2,2,P|168:336|138:334,1,67.4999979400635,10|2,0:0|0:3,0:1:0:0:
135,321,36891,1,2,0:3:0:0:
129,307,36978,2,0,P|92:323|61:323,1,67.4999979400635,2|0,0:1|1:0,0:0:0:0:
4,269,37327,37,10,0:0:0:0:
54,202,37501,2,2,P|59:166|66:136,1,67.4999979400635,2|0,0:0|1:0,0:1:0:0:
119,75,37850,2,0,P|154:80|185:87,1,67.4999979400635,2|8,0:1|0:0,0:0:0:0:
251,138,38199,21,8,3:0:0:0:
265,135,38286,1,8,3:0:0:0:
280,133,38373,2,0,P|300:102|298:72,2,67.4999979400635,4|0|8,3:0|1:2|0:0,0:0:0:0:
359,259,39071,37,4,1:1:0:0:
323,332,39245,1,2,0:1:0:0:
243,359,39420,2,2,P|203:344|171:341,1,67.4999979400635,10|2,0:0|0:3,0:1:0:0:
175,327,39681,1,2,0:3:0:0:
170,313,39769,2,0,P|130:298|98:295,1,67.4999979400635,2|0,0:1|1:0,0:0:0:0:
58,360,40117,21,10,0:0:0:0:
0,299,40292,2,2,P|13:257|18:231,1,67.4999979400635,2|0,0:0|1:0,0:1:0:0:
78,179,40641,2,0,P|91:137|96:111,1,67.4999979400635,2|8,0:1|0:0,0:0:0:0:
137,41,40990,37,2,3:1:0:0:
152,39,41077,1,8,3:0:0:0:
167,36,41164,2,0,P|209:30|235:23,1,67.4999979400635,2|0,3:1|1:0,0:0:0:0:
306,58,41513,2,0,P|338:49|372:45,1,67.4999979400635,10|0,0:2|0:0,0:0:0:0:
444,9,41862,21,4,1:0:0:0:
504,68,42036,1,2,0:1:0:0:
444,127,42210,2,2,P|455:169|460:211,1,67.4999979400635,10|2,0:0|0:3,0:1:0:0:
449,204,42472,1,2,0:3:0:0:
439,215,42559,2,0,P|397:226|355:231,1,67.4999979400635,2|0,0:1|1:0,0:0:0:0:
291,362,42995,37,0,1:2:0:0:
275,367,43083,2,2,P|234:313|161:308,1,134.999995880127,10|0,0:0|1:0,0:1:0:0:
92,329,43606,22,0,P|78:277|63:250,1,67.4999979400635,10|10,0:0|0:0,0:0:0:0:
129,202,43955,2,0,P|115:170|109:137,1,67.4999979400635,10|10,0:0|0:0,0:0:0:0:
38,99,44303,1,14,0:0:0:0:
160,0,44652,37,2,0:0:0:0:
313,37,45001,6,2,B|330:45|330:45|382:32,1,60,10|2,0:0|0:3,0:1:0:0:
381,31,45263,1,2,0:3:0:0:
393,28,45350,1,2,0:3:0:0:
462,79,45524,2,2,B|454:96|454:96|467:148,1,60,10|2,0:0|0:3,0:1:0:0:
468,147,45786,1,2,0:3:0:0:
471,159,45873,1,2,0:3:0:0:
420,228,46048,54,2,B|403:220|403:220|351:233,1,60,10|2,0:0|0:3,0:1:0:0:
352,234,46310,1,2,0:3:0:0:
340,237,46397,1,8,0:0:0:0:
271,186,46571,2,2,B|279:169|279:169|266:117,1,60,10|2,0:0|0:3,0:1:0:0:
265,118,46833,1,2,0:3:0:0:
262,106,46920,1,2,0:3:0:0:
313,37,47094,1,4,0:3:0:0:
18,21,47792,6,2,B|23:50|23:50|26:52|26:52|35:97,1,60,10|2,0:0|0:3,0:1:0:0:
42,87,48053,1,2,0:3:0:0:
53,95,48141,1,2,0:3:0:0:
125,131,48315,2,2,B|130:160|130:160|133:162|133:162|142:207,1,60,10|2,0:0|0:3,0:1:0:0:
149,197,48576,1,2,0:3:0:0:
160,205,48664,1,2,0:3:0:0:
128,284,48838,54,2,P|182:299|183:364,1,120,10|8,0:0|3:0,0:1:0:0:
272,370,49362,1,10,0:0:0:0:
415,229,49710,5,0,1:0:0:0:
429,232,49798,2,2,B|501:243|501:243|515:151,1,150,0|2,1:0|1:3,0:1:0:0:
438,45,50583,54,0,L|360:64,1,60,6|2,1:2|0:3,0:0:0:0:
310,10,50931,1,2,1:3:0:0:
286,15,51018,1,2,0:3:0:0:
262,21,51105,1,8,3:0:0:0:
198,78,51280,2,0,L|217:156,1,60,2|0,1:2|0:0,0:0:0:0:
149,192,51629,5,10,1:2:0:0:
125,187,51716,1,2,3:0:0:0:
101,181,51803,2,0,L|55:170,2,30,8|2|2,3:2|3:0|3:0,0:0:0:0:
169,271,52152,1,8,1:2:0:0:
189,351,52327,1,2,3:0:0:0:
213,356,52414,1,2,3:0:0:0:
237,361,52501,1,8,3:0:0:0:
261,366,52589,1,2,3:0:0:0:
285,371,52676,2,0,L|331:382,2,30,8|2|2,3:2|0:3|0:3,0:0:0:0:
315,294,53024,53,0,3:0:0:0:
447,231,53373,2,0,L|460:163,1,60,2|2,3:0|0:3,0:0:0:0:
469,163,53635,1,2,0:3:0:0:
481,157,53722,1,2,0:3:0:0:
454,77,53897,2,0,L|386:64,1,60,2|2,3:2|0:3,0:0:0:0:
386,55,54159,1,2,0:3:0:0:
380,43,54246,1,2,0:3:0:0:
295,62,54420,6,2,P|283:122|269:186,1,120,2|2,0:0|0:0,0:1:0:0:
200,128,54943,1,2,0:0:0:0:
499,364,55815,38,2,B|448:352|448:352|433:285|433:285|378:270,1,168.750006437302,6|0,1:2|0:0,0:1:0:0:
379,282,56164,2,0,B|307:297|307:297|293:326|293:326|195:347,1,187.5,10|0,3:2|0:0,0:0:0:0:
135,314,56687,5,2,1:2:0:0:
161,240,56862,2,2,L|146:155,1,82.5000025177003,10|0,3:2|0:0,0:1:0:0:
156,146,57123,1,2,0:1:0:0:
166,134,57210,2,0,L|156:83,2,41.2500012588501,0|0|8,1:0|0:0|3:0,0:0:0:0:
245,159,57559,2,2,B|304:134|328:187|326:189|321:190|342:248|405:222,1,187.5,10|0,3:2|0:0,0:1:0:0:
463,171,58083,1,2,1:2:0:0:
448,92,58257,2,2,B|434:31|434:31|360:47,1,123.75000377655,10|8,3:2|0:3,0:1:0:0:
365,36,58606,53,2,1:2:0:0:
293,75,58780,1,2,0:0:0:0:
227,27,58955,2,0,B|155:42|155:42|141:71|141:71|43:92,1,187.5,10|0,3:2|0:0,0:0:0:0:
15,154,59478,5,2,1:2:0:0:
62,221,59652,2,2,P|74:272|77:301,1,82.5000025177003,10|0,3:2|0:0,0:1:0:0:
90,311,59914,1,2,0:1:0:0:
104,321,60001,2,0,P|127:316|155:311,2,41.2500012588501,0|0|8,1:0|0:0|3:0,0:0:0:0:
197,370,60350,2,2,B|256:395|280:342|278:340|273:339|294:281|357:307,1,187.5,10|0,3:2|0:0,0:1:0:0:
432,283,60873,1,2,1:2:0:0:
449,203,61048,2,2,B|469:75|469:75|455:49,1,157.499995193482,10|0,3:2|0:0,0:1:0:0:
417,26,61397,54,2,B|355:38|355:38|335:84|335:84|271:99,1,168.750006437302,6|0,1:2|0:0,0:1:0:0:
273,87,61745,2,0,B|190:71|190:71|187:64|187:64|79:42,1,187.5,10|0,3:2|0:0,0:0:0:0:
20,78,62269,5,2,1:2:0:0:
64,145,62443,2,2,P|54:186|41:227,1,82.5000025177003,10|0,3:2|0:0,0:1:0:0:
50,237,62705,1,2,0:1:0:0:
57,252,62792,2,0,P|47:293|36:322,2,41.2500012588501,0|0|8,1:0|0:0|3:0,0:0:0:0:
129,312,63141,2,2,B|133:342|160:358|195:352|195:352|294:337,1,187.5,10|0,3:2|0:0,0:1:0:0:
366,298,63664,2,0,P|399:322|402:373,2,82.5000025177003,2|10|6,1:2|3:2|0:0,0:0:0:0:
324,224,64187,21,6,1:2:0:0:
380,158,64362,1,2,0:0:0:0:
395,156,64449,1,2,0:0:0:0:
409,155,64536,2,0,L|456:149,2,46.875,10|2|2,0:0|0:0|0:0,0:0:0:0:
332,88,64885,1,2,0:0:0:0:
330,73,64972,1,2,0:0:0:0:
329,59,65059,2,0,L|323:12,2,46.875,2|2|2,0:0|0:0|0:0,0:0:0:0:
246,100,65408,37,10,0:0:0:0:
231,102,65495,1,2,0:0:0:0:
216,104,65583,2,0,P|158:114|117:119,1,93.75,2|2,0:0|1:2,0:0:0:0:
59,166,65931,2,0,P|69:224|74:265,1,93.75,2|2,3:2|0:0,0:0:0:0:
138,312,66280,22,0,L|148:364,2,46.875,2|2|2,0:0|1:2|0:0,0:0:0:0:
211,274,66629,1,10,0:0:0:0:
227,277,66716,1,2,0:0:0:0:
244,280,66804,1,2,0:0:0:0:
420,368,67152,21,2,1:2:0:0:
484,317,67327,2,2,B|465:247|465:247|431:225|431:225|406:122,1,209.999993591309,10|0,3:2|0:0,0:1:0:0:
457,66,67850,5,2,1:2:0:0:
387,16,68024,2,2,P|335:24|302:33,1,82.5000025177003,10|0,3:2|0:0,0:1:0:0:
301,47,68286,1,2,0:1:0:0:
294,62,68373,2,0,L|242:75,2,41.2500012588501,0|0|8,1:0|0:0|3:0,0:0:0:0:
301,147,68722,2,2,B|331:151|347:178|341:213|341:213|326:312,1,187.5,10|2,3:2|3:0,0:1:0:0:
259,363,69245,1,2,1:2:0:0:
204,304,69420,2,2,B|139:293|139:293|127:357,1,123.75000377655,10|10,3:2|3:0,0:1:0:0:
118,355,69769,53,2,1:2:0:0:
38,333,69943,1,2,0:2:0:0:
63,258,70117,2,0,B|49:162|49:162|53:160|53:160|37:38,1,209.999993591309,10|2,3:2|3:0,0:0:0:0:
105,8,70641,5,2,1:2:0:0:
172,54,70815,2,2,P|223:43|260:38,1,82.5000025177003,10|2,3:2|0:3,0:1:0:0:
263,47,71077,1,2,0:1:0:0:
272,57,71164,2,0,L|266:113,2,41.2500012588501,2|8|8,1:2|3:0|3:0,0:0:0:0:
355,41,71513,1,10,3:2:0:0:
370,39,71600,1,4,3:0:0:0:
386,36,71687,2,0,L|442:30,1,41.2500012588501,4|4,3:0|3:0,0:0:0:0:
511,158,72036,1,2,1:2:0:0:
449,209,72210,2,2,B|435:233|435:233|455:361,1,157.499995193482,10|0,3:2|0:0,0:1:0:0:
403,377,72559,54,2,B|342:367|342:367|328:320|328:320|263:337,1,168.750006437302,6|0,1:2|0:0,0:1:0:0:
263,325,72908,2,2,L|294:106,1,209.999993591309,10|0,3:2|0:0,0:1:0:0:
260,43,73431,5,2,1:2:0:0:
188,79,73606,2,2,P|149:84|98:93,1,82.5000025177003,10|0,3:2|0:0,0:1:0:0:
96,101,73867,1,2,0:1:0:0:
86,110,73954,2,0,L|25:120,2,41.2500012588501,2|8|8,1:2|3:0|3:0,0:0:0:0:
151,174,74303,1,10,3:2:0:0:
153,189,74390,1,4,3:0:0:0:
156,205,74477,2,0,L|162:261,1,41.2500012588501,4|4,3:0|3:0,0:0:0:0:
271,356,74827,1,2,1:2:0:0:
315,290,75001,2,0,B|393:276|393:276|375:183,1,157.499995193482,10|0,3:2|0:0,0:0:0:0:
386,192,75350,53,4,1:3:0:0:
312,120,75524,1,4,1:3:0:0:
444,4,75873,6,0,P|477:15|494:53,1,67.4999979400635,2|0,0:0|0:0,0:0:0:0:
471,115,76222,2,0,P|485:187|502:261,1,134.999995880127,6|0,0:0|0:0,0:0:0:0:
472,322,76745,5,10,0:0:0:0:
397,357,76920,1,2,3:3:0:0:
377,353,77007,1,0,0:0:0:0:
358,350,77094,1,2,3:0:0:0:
313,280,77269,1,2,3:2:0:0:
242,325,77443,2,0,L|194:336,3,33.7499989700318,8|8|4|4,0:3|0:3|0:3|0:3,0:0:0:0:
172,369,77792,1,0,1:0:0:0:
18,298,78141,5,6,1:2:0:0:
16,361,89303,38,0,P|118:343|248:328,1,225,6|0,1:2|0:0,0:0:0:0:
323,349,90001,2,0,P|305:247|290:117,1,225,6|0,1:2|0:0,0:0:0:0:
319,45,90699,2,0,P|235:56|160:62,1,150,6|0,1:2|0:0,0:0:0:0:
107,12,91222,1,2,3:0:0:0:
54,74,91397,2,0,P|65:158|71:233,1,150,6|0,1:2|0:0,0:0:0:0:
6,275,91920,1,8,3:3:0:0:
60,338,92094,6,0,P|107:347|139:363,1,75,14|0,1:2|0:0,0:0:0:0:
204,323,92443,2,0,P|213:276|229:244,1,75,10|0,1:2|3:2,0:0:0:0:
298,219,92792,2,0,P|345:228|377:244,1,75,8|8,1:2|3:0,0:0:0:0:
442,204,93141,2,0,P|451:157|467:125,1,75,10|0,1:2|0:0,0:0:0:0:
436,57,93490,53,10,1:2:0:0:
357,82,93664,2,0,L|346:124,2,37.5,2|0|8,3:0|0:0|1:3,3:0:0:0:
305,16,94013,1,8,3:0:0:0:
289,20,94100,1,2,3:0:0:0:
273,25,94187,1,4,1:3:0:0:
223,208,94536,1,4,1:3:0:0:
14,244,94885,6,0,P|24:280|31:323,1,75,2|2,3:0|3:0,0:0:0:0:
99,357,95234,2,0,P|135:347|178:340,1,75,2|2,3:0|3:0,0:0:0:0:
239,293,95583,1,2,3:0:0:0:
257,297,95670,1,2,3:0:0:0:
274,300,95757,1,2,3:0:0:0:
334,357,95931,2,0,P|370:347|413:340,1,75,2|2,3:0|3:0,0:0:0:0:
466,285,96280,54,0,L|475:237,3,37.5,2|2|2|2,3:0|3:0|3:0|3:0,0:0:0:0:
443,205,96629,2,0,L|452:157,3,37.5,2|2|2|2,3:0|3:0|3:0|3:0,0:0:0:0:
501,144,96978,2,0,L|510:96,3,37.5,2|2|2|2,3:0|3:0|3:0|3:0,0:0:0:0:
478,64,97327,2,0,L|487:16,3,37.5,2|2|2|2,3:0|3:0|3:0|3:0,0:0:0:0:
11,361,99071,6,0,P|81:351|72:277,1,150,6|8,0:0|0:0,0:0:0:0:
26,224,99594,1,2,3:0:0:0:
87,170,99769,2,0,P|72:102|55:15,1,150,10|0,3:2|0:0,0:0:0:0:
206,133,100466,6,2,B|299:161|326:82|324:81|321:80|350:-8|446:38,1,281.250010728836,6|0,1:2|0:0,0:1:0:0:
434,45,100990,2,2,P|501:93|386:181,1,281.250010728836,6|0,1:2|0:0,0:1:0:0:
382,170,101513,1,6,0:0:0:0:
313,211,101687,1,2,0:0:0:0:
336,306,101862,1,8,3:2:0:0:
14,363,102908,1,2,0:0:0:0:
78,313,103083,1,2,0:0:0:0:
35,244,103257,6,2,B|4:36|4:36|12:83|58:88,1,281.250010728836,6|0,1:2|0:0,0:1:0:0:
56,77,103780,2,2,P|140:58|231:47,1,168.750006437302,6|0,1:2|0:0,0:1:0:0:
232,55,104129,1,0,1:0:0:0:
299,103,104303,2,0,P|350:85|355:33,1,93.75,6|2,0:0|0:0,0:0:0:0:
461,20,104652,1,8,3:2:0:0:
499,363,105699,2,0,P|481:321|438:310,1,93.75,2|2,0:0|0:0,0:0:0:0:
355,354,106048,54,2,B|262:382|235:303|237:302|240:301|211:213|115:259,1,281.250010728836,6|0,1:2|0:0,0:1:0:0:
111,249,106571,2,2,B|53:279|66:374|163:382|217:339|206:265|202:263|197:261|251:151|346:166|346:166|311:193|326:246,1,506.250019311906,6|2,1:2|0:3,0:1:0:0:
334,240,107443,6,2,B|395:235|418:302|418:302|404:234|456:204,1,225.000008583069,10|0,3:2|0:0,0:1:0:0:
424,129,107966,2,2,B|419:68|486:45|486:45|418:59|389:11|389:11|269:33,1,337.500012874604,6|2,1:2|3:0,0:1:0:0:
193,13,108664,5,2,3:0:0:0:
195,28,108751,1,2,3:0:0:0:
197,42,108838,2,2,B|206:97|206:97|166:137|166:137|176:223,1,187.5,6|10,1:2|3:2,0:1:0:0:
149,295,109362,2,2,B|223:286|223:286|263:326|263:326|321:318,1,187.5,6|2,1:2|0:0,0:1:0:0:
331,329,109798,1,2,0:0:0:0:
343,340,109885,1,6,1:2:0:0:
426,363,110059,38,2,P|475:330|456:279,1,104.999996795654,6|0,0:0|1:0,0:1:0:0:
509,222,110408,2,2,P|504:163|451:154,1,104.999996795654,2|0,0:0|0:0,0:1:0:0:
428,79,110757,2,0,P|374:53|340:95,1,104.999996795654,2|10,1:1|3:2,0:0:0:0:
263,77,111106,2,2,P|213:109|233:161,1,104.999996795654,6|0,1:2|0:0,0:1:0:0:
177,215,111455,1,2,0:1:0:0:
237,271,111629,6,2,B|330:243|357:322|355:323|352:324|381:412|477:366,1,281.250010728836,6|0,1:2|0:0,0:1:0:0:
473,358,112152,1,2,1:1:0:0:
512,273,112327,1,8,3:2:0:0:
393,136,112676,2,0,P|343:145|292:156,1,93.75,2|2,0:0|0:0,0:0:0:0:
257,219,113024,54,2,P|187:201|178:146,1,112.500004291535,6|0,1:2|0:0,0:1:0:0:
164,157,113286,2,2,P|144:87|187:52,1,112.500004291535,2|0,1:2|0:0,0:1:0:0:
172,47,113548,1,2,1:1:0:0:
97,2,113722,1,10,3:2:0:0:
1,113,114071,2,0,P|16:164|24:205,1,93.75,2|2,0:0|0:0,0:0:0:0:
46,289,114420,6,2,P|131:247|255:375,1,281.250010728836,6|0,1:2|0:0,0:1:0:0:
264,366,114943,1,2,1:1:0:0:
335,303,115117,1,10,3:2:0:0:
494,364,115466,2,0,P|501:307|511:262,1,93.75,2|2,0:0|0:0,0:0:0:0:
446,223,115815,54,2,P|399:216|376:156,1,112.500004291535,6|0,1:2|0:0,0:1:0:0:
362,152,116077,2,2,P|344:107|385:57,1,112.500004291535,2|0,1:2|0:0,0:1:0:0:
379,50,116338,1,2,1:1:0:0:
281,0,116513,1,10,3:2:0:0:
186,118,116862,1,2,0:0:0:0:
12,83,117210,38,0,P|43:153|70:305,1,225,6|0,1:2|0:0,0:0:0:0:
124,358,117908,2,0,P|194:327|286:321,1,150,6|2,1:2|0:0,0:0:0:0:
334,363,118431,1,0,0:0:0:0:
391,300,118606,5,6,1:2:0:0:
464,332,118780,1,2,0:0:0:0:
478,335,118867,1,2,0:0:0:0:
490,339,118955,2,0,P|475:276|459:167,1,150,2|0,0:0|1:2,0:0:0:0:
509,127,119478,1,2,0:0:0:0:
504,109,119565,1,2,0:0:0:0:
500,94,119652,1,2,0:0:0:0:
431,40,119827,1,2,0:0:0:0:
357,71,120001,54,0,P|305:58|255:52,1,93.75,6|0,1:2|0:0,0:0:0:0:
187,82,120350,2,0,P|174:134|168:184,1,93.75,6|0,1:2|0:0,0:0:0:0:
226,234,120699,1,2,1:2:0:0:
171,294,120873,1,0,1:2:0:0:
99,256,121048,1,0,1:0:0:0:
81,259,121135,1,0,1:0:0:0:
63,262,121222,1,0,1:0:0:0:
45,265,121309,1,0,1:0:0:0:
370,379,122269,54,0,B|408:371|408:371|411:373|411:373|443:367|443:367|435:317|435:317|431:315|431:315|421:251,1,187.5,2|2,0:0|0:0,1:0:0:0:
512,192,122792,37,6,1:2:0:0:
