osu file format v14

[General]
AudioFilename: audio.mp3
AudioLeadIn: 0
PreviewTime: 55456
Countdown: 0
SampleSet: Soft
StackLeniency: 0.4
Mode: 0
LetterboxInBreaks: 0
WidescreenStoryboard: 0

[Editor]
Bookmarks: 11154,19527,22317,44643,55806,64177,66968,72549,75340,78131,89294,100457,111620,122782
DistanceSpacing: 0.1
BeatDivisor: 8
GridSize: 16
TimelineZoom: 4.299998

[Metadata]
Title:Starfall
TitleUnicode:Starfall
Artist:PTB10
ArtistUnicode:PTB10
Creator:Altai
Version:Celestial
Source:
Tags:electronic instrumental fa featured artist mappers' guild mg mpg dnb drum and bass neuro funk neurofunk seolv lukas [_l_u_k_a_s_] aistre alphabet venax
BeatmapID:3364707
BeatmapSetID:1648460

[Difficulty]
HPDrainRate:6
CircleSize:4
OverallDifficulty:8.5
ApproachRate:9.4
SliderMultiplier:2.8
SliderTickRate:1

[Events]
//Background and Video events
0,0,"photo-1524168948265-8f79ad8d4e33.jpg",0,0
//Break Periods
2,78341,88763
//Storyboard Layer 0 (Background)
//Storyboard Layer 1 (Fail)
//Storyboard Layer 2 (Pass)
//Storyboard Layer 3 (Foreground)
//Storyboard Layer 4 (Overlay)
//Storyboard Sound Samples

[TimingPoints]
1397,348.837209302326,4,2,1,45,1,0
11164,-133.333333333333,4,2,1,45,0,0
11426,-133.333333333333,4,2,1,5,0,0
11513,-133.333333333333,4,2,1,45,0,0
12821,-133.333333333333,4,2,1,5,0,0
12908,-133.333333333333,4,2,1,45,0,0
13955,-133.333333333333,4,2,1,50,0,0
16745,-133.333333333333,4,2,1,55,0,0
19536,-133.333333333333,4,2,1,45,0,0
19885,-133.333333333333,4,2,1,35,0,0
20931,-66.6666666666667,4,2,1,80,0,0
21716,-66.6666666666667,4,2,1,5,0,0
21803,-66.6666666666667,4,2,1,80,0,0
22327,-125,4,2,1,85,0,1
33141,-125,4,2,1,85,0,0
33490,-117.647058823529,4,2,1,85,0,1
35931,-117.647058823529,4,2,1,85,0,0
36280,-117.647058823529,4,2,1,85,0,1
38722,-117.647058823529,4,2,1,85,0,0
39071,-117.647058823529,4,2,1,85,0,1
41513,-117.647058823529,4,2,1,85,0,0
41862,-117.647058823529,4,2,1,85,0,1
43083,-100,4,2,1,85,0,1
43344,-100,4,2,1,5,0,1
43431,-100,4,2,1,85,0,1
44652,-117.647058823529,4,2,1,85,0,0
45001,-58.8235294117647,4,2,1,75,0,0
46397,-76.9230769230769,4,2,1,75,0,0
46571,-58.8235294117647,4,2,1,75,0,0
47443,-76.9230769230769,4,2,1,75,0,0
47792,-58.8235294117647,4,2,1,75,0,0
48838,-47.6190476190476,4,2,1,75,0,0
49100,-47.6190476190476,4,2,1,5,0,0
49187,-47.6190476190476,4,2,1,75,0,0
49798,-133.333333333333,4,2,1,75,0,0
50147,-133.333333333333,4,2,1,5,0,0
50234,-100,4,2,1,75,0,0
50583,-80,4,2,1,75,0,0
51542,-80,4,2,1,5,0,0
51629,-80,4,2,1,75,0,0
53024,-133.333333333333,4,2,1,70,0,0
53373,-100,4,2,1,65,0,0
54420,-200,4,2,1,60,0,0
54681,-200,4,2,1,5,0,0
54769,-200,4,2,1,60,0,0
55815,-40,4,2,1,85,0,0
56120,-40,4,2,1,5,0,0
56164,-500,4,2,1,85,0,1
56513,-500,4,2,1,85,0,0
56687,-66.6666666666667,4,2,1,85,0,0
56862,-40,4,2,1,85,0,0
57210,-100,4,2,1,85,0,0
57385,-66.6666666666667,4,2,1,85,0,0
57559,-44.4444444444445,4,2,1,85,0,0
58083,-66.6666666666667,4,2,1,85,0,0
58257,-40,4,2,1,85,0,0
58606,-50,4,2,1,85,0,0
58780,-66.6666666666667,4,2,1,85,0,0
58955,-500,4,2,1,85,0,1
59303,-500,4,2,1,85,0,0
59478,-66.6666666666667,4,2,1,85,0,0
59652,-40,4,2,1,85,0,0
60001,-100,4,2,1,85,0,0
60350,-44.4444444444445,4,2,1,85,0,0
60873,-66.6666666666667,4,2,1,85,0,0
61048,-44.4444444444445,4,2,1,85,0,1
61353,-33.3333333333333,4,2,1,5,0,1
61397,-40,4,2,1,85,0,0
61702,-40,4,2,1,5,0,0
61745,-500,4,2,1,85,0,1
62094,-500,4,2,1,85,0,0
62269,-66.6666666666667,4,2,1,85,0,0
62443,-40,4,2,1,85,0,0
62792,-100,4,2,1,85,0,0
63141,-44.4444444444445,4,2,1,85,0,0
63664,-66.6666666666667,4,2,1,85,0,0
64710,-100,4,2,1,85,0,0
66629,-133.333333333333,4,2,1,85,0,0
67152,-66.6666666666667,4,2,1,85,0,1
67327,-40,4,2,1,85,0,1
67850,-66.6666666666667,4,2,1,85,0,1
68024,-40,4,2,1,85,0,1
68373,-100,4,2,1,85,0,1
68722,-44.4444444444445,4,2,1,85,0,1
69245,-66.6666666666667,4,2,1,85,0,1
69420,-40,4,2,1,85,0,1
69769,-50,4,2,1,85,0,1
69943,-66.6666666666667,4,2,1,85,0,1
70117,-133.333333333333,4,2,1,85,0,1
70641,-66.6666666666667,4,2,1,85,0,1
70815,-40,4,2,1,85,0,1
71164,-100,4,2,1,85,0,1
72036,-66.6666666666667,4,2,1,85,0,1
72210,-44.4444444444445,4,2,1,85,0,1
72516,-33.3333333333333,4,2,1,5,0,1
72559,-40,4,2,1,85,0,0
72865,-40,4,2,1,5,0,0
72908,-500,4,2,1,85,0,1
73257,-500,4,2,1,85,0,0
73431,-66.6666666666667,4,2,1,85,0,0
73606,-40,4,2,1,85,0,0
74827,-66.6666666666667,4,2,1,85,0,0
75001,-44.4444444444445,4,2,1,85,0,0
75306,-44.4444444444445,4,2,1,5,0,0
75350,-44.4444444444445,4,2,1,85,0,1
75524,-44.4444444444445,4,2,1,85,0,0
75873,-250,4,2,1,65,0,0
76135,-250,4,2,1,5,0,0
76222,-250,4,2,1,65,0,0
76658,-250,4,2,1,5,0,0
76745,-133.333333333333,4,2,1,50,0,0
77792,-250,4,2,1,50,0,0
78141,-100,4,2,1,75,0,0
89303,-200,4,2,1,65,0,0
89914,-200,4,2,1,5,0,0
90001,-200,4,2,1,65,0,0
90612,-200,4,2,1,5,0,0
90699,-200,4,2,1,65,0,0
91135,-200,4,2,1,5,0,0
91222,-200,4,2,1,65,0,0
91833,-200,4,2,1,5,0,0
91920,-200,4,2,1,65,0,0
92094,-100,4,2,1,70,0,0
94449,-100,4,2,1,5,0,0
94536,-100,4,2,1,70,0,0
94798,-100,4,2,1,5,0,0
94885,-100,4,2,1,60,0,0
95583,-100,4,2,1,65,0,0
96280,-100,4,2,1,70,0,0
96629,-100,4,2,1,60,0,0
96978,-100,4,2,1,50,0,0
97327,-100,4,2,1,40,0,0
99071,-111.111111111111,4,2,1,60,0,0
99769,-200,4,2,1,60,0,0
100379,-200,4,2,1,5,0,0
100466,-57.1428571428571,4,2,1,90,0,1
100902,-57.1428571428571,4,2,1,5,0,1
100990,-57.1428571428571,4,2,1,90,0,1
101426,-57.1428571428571,4,2,1,5,0,1
101513,-57.1428571428571,4,2,1,90,0,0
101862,-57.1428571428571,4,2,1,90,0,1
101949,-57.1428571428571,4,2,1,90,0,0
103257,-57.1428571428571,4,2,1,90,0,1
103693,-57.1428571428571,4,2,1,5,0,1
103780,-57.1428571428571,4,2,1,90,0,1
104042,-57.1428571428571,4,2,1,5,0,1
104129,-57.1428571428571,4,2,1,90,0,1
104303,-57.1428571428571,4,2,1,90,0,0
104652,-57.1428571428571,4,2,1,90,0,1
104740,-57.1428571428571,4,2,1,90,0,0
106048,-57.1428571428571,4,2,1,90,0,1
106484,-57.1428571428571,4,2,1,5,0,1
106571,-57.1428571428571,4,2,1,90,0,1
107792,-57.1428571428571,4,2,1,90,0,0
107966,-57.1428571428571,4,2,1,90,0,1
108402,-57.1428571428571,4,2,1,5,0,1
108490,-57.1428571428571,4,2,1,90,0,0
108838,-44.4444444444445,4,2,1,90,0,1
109100,-44.4444444444445,4,2,1,5,0,1
109187,-66.6666666666667,4,2,1,90,0,1
109362,-44.4444444444445,4,2,1,90,0,1
109623,-44.4444444444445,4,2,1,5,0,1
109710,-44.4444444444445,4,2,1,90,0,0
109885,-66.6666666666667,4,2,1,90,0,0
110059,-50,4,2,1,90,0,1
110234,-50,4,2,1,90,0,0
110408,-50,4,2,1,90,0,1
110670,-50,4,2,1,5,0,1
110757,-50,4,2,1,90,0,1
111106,-57.1428571428571,4,2,1,90,0,1
111367,-57.1428571428571,4,2,1,90,0,1
111455,-57.1428571428571,4,2,1,90,0,0
111629,-50,4,2,1,90,0,1
112065,-50,4,2,1,5,0,1
112152,-50,4,2,1,90,0,1
112327,-50,4,2,1,90,0,0
112676,-133.333333333333,4,2,1,90,0,0
113024,-50,4,2,1,90,0,1
113722,-50,4,2,1,90,0,0
114071,-133.333333333333,4,2,1,90,0,0
114420,-50,4,2,1,90,0,1
114856,-50,4,2,1,5,0,1
114943,-50,4,2,1,90,0,1
115117,-57.1428571428571,4,2,1,90,0,0
115379,-57.1428571428571,4,2,1,5,0,0
115466,-133.333333333333,4,2,1,90,0,0
115815,-50,4,2,1,90,0,1
116513,-50,4,2,1,90,0,0
116862,-200,4,2,1,70,0,0
117123,-200,4,2,1,5,0,0
117210,-133.333333333333,4,2,1,80,0,0
117821,-133.333333333333,4,2,1,5,0,0
117908,-133.333333333333,4,2,1,80,0,0
118170,-133.333333333333,4,2,1,5,0,0
118257,-133.333333333333,4,2,1,80,0,0
118606,-100,4,2,1,80,0,0
120001,-80,4,2,1,85,0,0
120263,-80,4,2,1,5,0,0
120350,-66.6666666666667,4,2,1,90,0,0
120612,-66.6666666666667,4,2,1,5,0,0
120699,-57.1428571428571,4,2,1,95,0,0
122269,-100,4,2,1,65,0,0
122792,-100,4,2,1,70,0,0

[Colours]
Combo1 : 255,21,21
Combo2 : 210,210,210
Combo3 : 148,148,148
Combo4 : 36,239,255
Combo5 : 62,77,255

[HitObjects]
420,372,11164,6,0,P|489:360|473:284,1,157.500006008148,6|0,1:2|0:0,0:0:0:0:
469,291,11513,1,8,0:0:0:0:
432,213,11687,5,8,3:0:0:0:
421,211,11774,2,0,P|384:205|357:202,1,52.5000020027161,4|0,3:0|0:0,0:0:0:0:
299,274,11949,1,8,3:0:0:0:
310,276,12036,2,0,P|347:282|374:285,1,52.5000020027161,4|0,3:0|3:0,0:0:0:0:
418,132,12210,1,8,0:0:0:0:
92,372,12559,54,0,P|23:360|39:284,1,157.500006008148,6|0,1:2|0:0,0:0:0:0:
43,291,12908,1,8,0:0:0:0:
80,213,13082,5,8,3:0:0:0:
91,211,13169,2,0,P|128:205|155:202,1,52.5000020027161,4|0,3:0|0:0,0:0:0:0:
213,274,13344,1,8,3:0:0:0:
202,276,13431,2,0,P|165:282|138:285,1,52.5000020027161,4|0,3:0|3:0,0:0:0:0:
94,132,13605,1,8,0:0:0:0:
509,23,13955,53,0,1:0:0:0:
509,101,14129,1,2,3:0:0:0:
440,62,14303,1,8,0:0:0:0:
398,174,14478,5,8,3:0:0:0:
400,185,14565,2,0,P|406:222|409:249,1,52.5000020027161,4|0,3:0|0:0,0:0:0:0:
311,123,14769,53,8,3:0:0:0:
303,119,14827,1,4,3:0:0:0:
339,52,14943,5,8,3:0:0:0:
331,48,15001,1,8,3:2:0:0:
3,23,15350,53,0,1:0:0:0:
3,101,15524,1,2,3:0:0:0:
72,62,15698,1,8,0:0:0:0:
114,174,15873,5,8,3:0:0:0:
112,185,15960,2,0,P|106:222|103:249,1,52.5000020027161,4|0,3:0|0:0,0:0:0:0:
201,123,16164,53,8,3:0:0:0:
209,119,16222,1,4,3:0:0:0:
173,52,16338,5,8,3:0:0:0:
181,48,16397,1,8,3:2:0:0:
500,379,16745,53,0,1:0:0:0:
500,215,16919,1,2,3:0:0:0:
356,296,17094,1,8,0:0:0:0:
443,320,17269,5,8,3:0:0:0:
433,266,17356,1,4,3:0:0:0:
423,212,17443,1,10,3:2:0:0:
309,358,17559,53,8,3:0:0:0:
301,354,17617,1,4,3:0:0:0:
308,229,17734,5,8,3:0:0:0:
312,221,17792,1,8,3:2:0:0:
12,379,18141,53,0,1:0:0:0:
12,215,18315,1,2,3:0:0:0:
156,296,18490,1,8,0:0:0:0:
69,320,18665,5,8,3:0:0:0:
79,266,18752,1,4,3:0:0:0:
89,212,18839,1,10,3:2:0:0:
203,358,18955,53,8,3:0:0:0:
211,354,19013,1,4,3:0:0:0:
204,229,19130,5,8,3:0:0:0:
200,221,19188,1,8,3:2:0:0:
505,236,19536,5,6,0:0:0:0:
505,236,19885,38,0,L|450:226,1,52.5000020027161,10|0,0:0|0:0,0:0:0:0:
423,315,20059,2,0,P|387:297|383:263,1,70.0000026702882,2|8,0:3|3:0,0:0:0:0:
369,277,20234,2,0,L|307:267,2,52.5000020027161,4|4|8,3:0|3:0|3:0,0:0:0:0:
344,114,20583,6,0,L|287:104,1,52.5000020027161,2|2,0:3|0:3,0:0:0:0:
264,40,20757,2,0,L|207:30,1,52.5000020027161,2|2,3:0|0:3,0:0:0:0:
89,279,20931,6,2,B|63:230|0:236|0:236|62:222|69:167,1,210.000008010865,14|0,1:2|0:0,0:1:0:0:
219,146,21193,2,2,B|245:195|308:189|308:189|246:203|240:259,1,210.000008010865,14|0,1:2|0:0,0:1:0:0:
124,54,21455,38,2,P|153:207|181:373,1,315.000012016297,14|0,1:2|0:0,0:1:0:0:
85,288,21803,5,0,1:0:0:0:
472,56,21978,1,12,0:0:0:0:
472,56,22327,5,6,1:1:0:0:
405,284,22501,1,2,3:1:0:0:
399,14,22676,1,10,0:0:0:0:
490,267,22850,37,2,0:0:0:0:
494,255,22937,1,2,0:0:0:0:
497,242,23024,21,2,0:1:0:0:
459,199,23112,1,2,0:0:0:0:
406,179,23199,1,2,1:2:0:0:
352,194,23286,1,2,0:0:0:0:
316,237,23373,1,10,0:0:0:0:
298,290,23460,1,2,0:0:0:0:
262,334,23548,1,2,3:2:0:0:
211,357,23635,1,2,3:2:0:0:
155,350,23722,37,6,1:1:0:0:
405,284,23897,1,2,3:1:0:0:
93,176,24071,1,10,0:0:0:0:
331,43,24245,21,2,0:0:0:0:
324,37,24333,1,2,0:0:0:0:
316,30,24420,37,2,0:1:0:0:
304,84,24507,1,2,0:0:0:0:
292,138,24594,1,2,1:2:0:0:
280,192,24682,1,2,0:0:0:0:
268,246,24769,21,10,0:0:0:0:
272,184,24856,2,0,L|192:200,2,56,2|2|2,0:1|0:0|0:0,0:0:0:0:
348,231,25117,37,6,1:1:0:0:
79,314,25292,1,2,3:1:0:0:
377,122,25466,1,10,0:0:0:0:
58,52,25641,21,2,0:0:0:0:
56,43,25728,1,2,0:0:0:0:
54,33,25815,37,2,0:1:0:0:
16,76,25903,1,2,0:0:0:0:
1,131,25990,1,2,1:2:0:0:
22,183,26077,1,2,0:0:0:0:
68,214,26164,1,10,0:0:0:0:
123,226,26251,1,2,0:0:0:0:
165,262,26339,1,2,3:2:0:0:
179,315,26426,1,2,3:2:0:0:
156,366,26513,21,6,1:1:0:0:
96,129,26687,1,2,3:1:0:0:
385,301,26862,1,10,0:0:0:0:
16,313,27036,37,2,0:0:0:0:
10,306,27124,1,2,0:0:0:0:
3,298,27211,21,2,0:1:0:0:
57,286,27298,1,2,0:0:0:0:
111,274,27385,1,2,1:2:0:0:
165,262,27473,1,2,0:0:0:0:
219,250,27560,37,10,0:0:0:0:
157,254,27647,2,0,L|173:174,2,56,2|2|2,0:1|0:0|0:0,0:0:0:0:
139,346,27908,21,6,1:1:0:0:
88,98,28083,1,2,3:1:0:0:
223,332,28257,1,8,0:0:0:0:
39,37,28431,37,2,0:0:0:0:
30,33,28519,1,2,0:0:0:0:
21,29,28606,21,2,0:1:0:0:
71,5,28693,1,2,0:0:0:0:
126,13,28780,1,2,1:2:0:0:
164,53,28867,1,2,0:0:0:0:
185,105,28955,1,10,0:0:0:0:
231,135,29042,1,2,0:0:0:0:
286,132,29129,2,0,P|319:125|352:117,1,56,2|0,3:2|0:0,0:0:0:0:
385,47,29303,37,6,1:1:0:0:
56,202,29478,1,2,3:1:0:0:
398,262,29652,1,8,0:0:0:0:
122,308,29827,21,2,0:0:0:0:
129,314,29915,1,2,0:0:0:0:
137,321,30002,37,2,0:1:0:0:
149,267,30089,1,2,0:0:0:0:
161,213,30176,1,2,1:2:0:0:
173,159,30264,1,2,0:0:0:0:
185,105,30351,21,10,0:0:0:0:
181,167,30438,2,0,L|261:151,2,56,2|2|2,0:1|0:0|0:0,0:0:0:0:
105,112,30699,37,6,1:1:0:0:
473,251,30873,1,2,3:1:0:0:
149,267,31048,1,8,0:0:0:0:
442,346,31222,21,2,0:0:0:0:
446,355,31310,1,2,0:0:0:0:
450,364,31397,37,2,0:1:0:0:
474,314,31484,1,2,0:0:0:0:
466,259,31571,1,2,1:2:0:0:
426,221,31658,1,2,0:0:0:0:
374,200,31746,1,10,0:0:0:0:
344,154,31833,1,2,0:0:0:0:
347,99,31920,2,0,P|354:66|362:33,1,56,2|0,3:2|0:0,0:0:0:0:
434,10,32094,21,6,1:1:0:0:
364,296,32269,1,2,3:1:0:0:
105,112,32443,1,10,0:0:0:0:
473,109,32705,37,8,0:0:0:0:
467,122,32792,1,2,1:2:0:0:
239,161,32966,1,2,1:2:0:0:
12,200,33141,1,10,0:2:0:0:
12,200,33490,21,4,1:1:0:0:
245,360,33664,38,0,P|251:321|257:299,1,59.5000011348725,2|0,0:1|0:0,0:0:0:0:
81,143,33838,2,2,P|97:208|111:277,1,119.000002269745,10|2,0:0|0:3,0:1:0:0:
57,314,34100,1,2,0:3:0:0:
45,316,34187,2,0,P|10:302|-2:275,1,59.5000011348725,2|0,0:1|0:0,0:0:0:0:
162,152,34362,21,0,1:0:0:0:
431,359,34536,1,10,0:0:0:0:
364,290,34710,38,2,P|457:268|495:260,1,119.000002269745,2|0,0:0|1:0,0:1:0:0:
258,71,35059,2,0,P|215:80|200:84,1,59.5000011348725,2|0,0:1|0:0,0:0:0:0:
162,152,35234,1,8,0:0:0:0:
400,185,35408,21,2,3:1:0:0:
411,123,35495,1,8,3:0:0:0:
423,63,35583,1,4,3:0:0:0:
256,301,35757,37,0,1:0:0:0:
0,95,35931,1,8,0:0:0:0:
0,95,36280,21,4,1:1:0:0:
283,198,36454,38,0,P|262:168|271:131,1,59.5000011348725,2|0,0:1|0:0,0:0:0:0:
374,83,36628,2,2,P|411:131|385:199,1,119.000002269745,10|2,0:0|0:3,0:1:0:0:
422,267,36890,1,2,0:3:0:0:
433,268,36977,2,0,P|460:273|492:297,1,59.5000011348725,2|0,0:1|0:0,0:0:0:0:
512,181,37152,21,0,1:0:0:0:
204,377,37326,1,10,0:0:0:0:
79,196,37501,38,2,P|69:263|49:327,1,119.000002269745,2|0,0:0|1:0,0:1:0:0:
263,146,37850,2,0,P|267:109|276:80,1,59.5000011348725,2|0,0:1|0:0,0:0:0:0:
215,38,38024,1,8,0:0:0:0:
380,326,38199,21,8,3:0:0:0:
324,314,38286,1,8,3:0:0:0:
268,302,38373,1,4,3:0:0:0:
212,290,38461,1,4,3:0:0:0:
156,278,38548,1,0,1:2:0:0:
503,41,38722,37,8,0:0:0:0:
503,41,39071,21,4,1:1:0:0:
270,367,39245,38,0,P|264:328|258:306,1,59.5000011348725,2|0,0:1|0:0,0:0:0:0:
512,199,39419,2,2,P|453:211|422:282,1,119.000002269745,10|2,0:0|0:3,0:1:0:0:
357,359,39681,1,2,0:3:0:0:
355,347,39769,2,0,P|349:308|343:286,1,59.5000011348725,2|0,0:1|0:0,0:0:0:0:
478,318,39943,21,0,1:0:0:0:
106,176,40117,1,10,0:0:0:0:
165,44,40291,38,2,P|258:22|296:14,1,119.000002269745,2|0,0:0|1:0,0:1:0:0:
23,264,40640,2,0,P|51:256|81:250,1,59.5000011348725,2|0,0:1|0:0,0:0:0:0:
106,176,40815,1,8,0:0:0:0:
357,359,40989,21,2,3:1:0:0:
368,297,41076,1,8,3:0:0:0:
380,237,41164,37,2,3:1:0:0:
20,344,41338,1,0,1:0:0:0:
166,121,41512,21,10,0:2:0:0:
242,355,41687,1,0,0:0:0:0:
280,17,41862,37,4,1:0:0:0:
500,152,42036,2,0,P|506:113|512:91,1,59.5000011348725,2|0,0:1|0:0,0:0:0:0:
380,237,42210,2,2,P|396:302|410:371,1,119.000002269745,10|2,0:0|0:3,0:1:0:0:
482,367,42472,1,2,0:3:0:0:
492,361,42559,2,0,P|512:329|505:300,1,59.5000011348725,2|0,0:1|0:0,0:0:0:0:
286,278,42734,21,0,1:0:0:0:
411,104,42995,37,0,1:2:0:0:
402,112,43083,2,2,P|297:105|280:15,1,210,10|0,0:0|0:0,0:1:0:0:
287,25,43431,1,0,1:0:0:0:
73,141,43606,21,10,0:0:0:0:
460,220,43780,1,10,0:0:0:0:
292,383,43955,37,10,0:0:0:0:
365,15,44129,1,10,0:0:0:0:
149,158,44303,21,14,0:0:0:0:
354,336,44652,37,2,0:0:0:0:
46,86,45001,6,2,B|27:80|27:80|41:32|2:-13|2:-13|45:29|94:18|94:18|98:36,1,238.00000453949,10|2,0:0|0:3,0:1:0:0:
105,36,45263,1,2,0:3:0:0:
112,39,45350,1,2,0:3:0:0:
197,96,45524,54,2,B|183:82|183:82|219:47|209:-12|209:-12|224:46|272:61|272:61|267:79,1,238.00000453949,10|2,0:0|0:3,0:1:0:0:
271,82,45786,1,2,0:3:0:0:
274,89,45873,1,2,0:3:0:0:
322,180,46048,6,2,B|316:160|316:160|365:148|386:92|386:92|370:150|404:187|404:187|391:200,1,238.00000453949,10|2,0:0|0:3,0:1:0:0:
393,205,46310,1,2,0:3:0:0:
391,213,46397,2,0,L|438:197,2,45.4999979171754,8|8|8,0:0|0:0|0:0,0:0:0:0:
388,315,46571,54,2,B|393:295|393:295|441:309|487:271|487:271|444:313|455:362|455:362|437:367,1,238.00000453949,10|2,0:0|0:3,0:1:0:0:
437,372,46833,1,2,0:3:0:0:
432,377,46920,1,2,0:3:0:0:
231,170,47094,5,4,0:3:0:0:
231,170,47443,2,0,B|235:192|235:192|238:193|238:193|245:226,6,45.4999979171754,2|2|2|2|2|2|2,0:3|0:3|0:3|0:3|0:3|0:3|0:3,0:0:0:0:
10,366,47792,54,2,B|72:353|72:353|80:306|80:306|85:302|85:302|82:296|82:296|91:246|91:246|158:229,1,238.00000453949,10|2,0:0|0:3,0:1:0:0:
160,235,48053,1,2,0:3:0:0:
166,240,48140,1,2,0:3:0:0:
8,73,48315,6,2,B|59:85|59:85|61:88|61:88|100:96|100:96|147:69|147:69|178:74|178:74|180:78|180:78|246:92,1,238.00000453949,10|2,0:0|0:3,0:1:0:0:
237,84,48577,1,2,0:3:0:0:
243,79,48664,1,2,0:3:0:0:
299,30,48751,37,0,1:0:0:0:
360,76,48838,2,2,B|427:61|427:61|429:58|429:58|506:41|506:41|463:161|463:161|466:166|466:166|447:231|447:231|442:232|442:232|409:330,1,440.999986541749,10|0,0:0|0:0,0:1:0:0:
361,367,49187,6,0,B|332:343|332:343|342:293,2,73.4999977569581,8|8|8,3:0|3:0|3:0,0:0:0:0:
509,293,49362,1,10,0:0:0:0:
12,205,49710,5,0,1:0:0:0:
39,274,49798,2,2,B|127:256|127:256|100:126,1,210.000008010865,0|0,1:0|0:0,0:1:0:0:
93,132,50234,54,0,L|84:84,6,35,2|2|2|2|2|2|2,1:3|0:3|0:3|0:3|0:3|0:3|0:3,0:0:0:0:
146,28,50583,6,0,P|236:41|222:124,1,175,6|2,1:2|0:3,0:0:0:0:
227,116,50844,1,2,0:3:0:0:
218,123,50931,2,0,P|265:73|297:81,1,87.5,2|2,1:3|0:3,0:0:0:0:
462,123,51106,53,8,3:0:0:0:
398,135,51193,1,8,3:0:0:0:
338,149,51280,2,0,B|375:140|406:160|415:200|415:200|443:355,1,262.5,2|0,1:2|0:0,0:0:0:0:
370,377,51629,5,10,1:2:0:0:
322,368,51716,1,2,3:0:0:0:
275,360,51803,1,8,3:2:0:0:
284,312,51891,1,2,3:0:0:0:
292,265,51978,2,0,B|276:255|276:255|204:269,1,87.5,2|2,3:0|3:0,0:0:0:0:
0,362,52152,54,0,L|92:346,1,87.5,8|0,1:2|0:0,0:0:0:0:
218,123,52327,5,2,3:0:0:0:
170,132,52414,1,2,3:0:0:0:
123,140,52501,1,8,3:0:0:0:
132,188,52589,1,2,3:0:0:0:
140,235,52676,2,0,B|124:245|124:245|52:231,3,87.5,8|2|2|2,3:2|0:3|0:3|0:3,0:0:0:0:
275,68,53024,54,0,L|264:4,3,52.5000020027161,0|0|0|0,3:0|3:0|3:0|3:0,0:0:0:0:
222,208,53373,6,0,B|276:220|276:220|284:253|284:253|339:267,1,140,2|2,3:0|0:3,0:0:0:0:
342,264,53635,1,2,0:3:0:0:
350,261,53722,2,0,L|433:278,1,70,2|2,0:3|0:3,0:0:0:0:
499,39,53897,54,0,L|426:58,1,70,2|2,3:2|0:3,0:0:0:0:
362,127,54071,2,0,L|289:146,3,70,2|2|2|2,0:3|0:3|0:3|0:3,0:0:0:0:
418,275,54420,6,2,B|458:238|458:238|432:184,1,105,2|0,0:0|0:0,0:1:0:0:
425,190,54769,1,2,0:0:0:0:
499,39,54943,1,2,0:0:0:0:
124,215,55815,22,2,B|90:239|90:239|87:238|87:238|54:260|54:260|28:216|28:216|32:212|32:212|-5:147|-5:147|120:177|120:177|122:182|122:182|206:204|206:204|225:260|225:260|270:271|270:271|275:269|275:269|344:284,1,612.5,6|0,1:2|0:0,0:1:0:0:
455,174,56164,6,0,B|425:182|425:182|422:181|422:181|400:187,1,56,10|0,3:2|0:0,0:0:0:0:
400,186,56687,6,0,B|386:158|386:158|405:81,1,105.000004005432,2|0,1:2|0:0,0:0:0:0:
506,16,56862,38,2,B|466:185|466:185|365:208|365:208|341:295,1,350,10|0,3:2|0:0,0:1:0:0:
396,336,57123,21,2,0:1:0:0:
329,375,57210,2,0,L|259:359,1,70,0|0,1:0|0:0,0:0:0:0:
92,249,57385,37,8,3:0:0:0:
80,253,57472,1,8,3:0:0:0:
69,257,57559,22,2,B|29:201|74:159|80:163|84:166|126:140|107:37|107:37|126:140|175:150|178:146|182:140|238:165|220:225|220:225|201:279|201:279|197:279|197:279|160:384,1,630.000024032594,10|0,3:2|0:0,0:1:0:0:
166,366,58083,38,0,B|195:344|195:344|275:363,1,105.000004005432,2|0,1:2|0:0,0:0:0:0:
510,323,58257,22,2,L|-22:198,1,525,10|8,3:2|0:3,0:1:0:0:
92,249,58606,38,0,B|162:234|162:234|145:159,1,140,2|0,1:2|0:0,0:0:0:0:
134,49,58780,22,0,B|80:60|80:60|91:111,1,105.000004005432,2|0,0:0|0:0,0:0:0:0:
376,375,58955,54,0,B|384:345|384:345|383:342|383:342|389:320,1,56,10|0,3:2|0:0,0:0:0:0:
388,320,59478,6,0,B|360:306|360:306|283:325,1,105.000004005432,2|0,1:2|0:0,0:0:0:0:
134,382,59652,38,2,B|303:342|303:342|326:241|326:241|413:217,1,350,10|0,3:2|0:0,0:1:0:0:
469,249,59914,21,2,0:1:0:0:
508,182,60001,2,0,L|492:112,1,70,0|0,1:0|0:0,0:0:0:0:
300,13,60176,37,8,3:0:0:0:
302,25,60263,1,8,3:0:0:0:
304,37,60350,22,2,B|322:103|254:154|187:114|187:114|187:108|187:108|129:69|63:114|81:182|81:182|157:195|188:265|188:265|162:126,1,630.000024032594,10|0,3:2|0:0,0:1:0:0:
164,141,60873,38,0,B|180:157|180:157|200:256,1,105.000004005432,2|0,1:2|0:0,0:0:0:0:
94,320,61048,6,2,B|17:306|17:306|-26:298|-41:250|-11:209|33:217|33:217|167:240|167:240|212:248|227:297|227:297|241:346|286:354|286:354|332:359,1,551.25002102852,10|0,3:2|0:0,0:1:0:0:
190,383,61397,54,2,B|207:278|207:278|211:276|211:276|225:187|225:187|215:167|215:167|238:20|238:20|299:65|299:65|300:72|300:72|367:119|367:119|292:176,1,612.5,6|0,1:2|0:0,0:1:0:0:
30,136,61745,6,0,L|91:146,1,56,10|0,3:2|0:0,0:0:0:0:
85,145,62269,6,0,B|127:105|127:105|92:48,1,105.000004005432,2|0,1:2|0:0,0:0:0:0:
38,0,62443,38,2,B|86:225|86:225|135:242|135:242|150:315,1,350,10|0,3:2|0:0,0:1:0:0:
202,365,62705,21,2,0:1:0:0:
257,309,62792,2,0,L|327:293,1,70,0|0,1:0|0:0,0:0:0:0:
495,374,62966,37,8,3:0:0:0:
481,370,63053,1,8,3:0:0:0:
470,366,63141,22,2,B|430:363|406:331|412:293|412:293|421:242|421:242|425:240|425:240|436:178|436:178|432:174|432:174|439:131|439:131|447:96|425:56|381:48|381:48|273:28|273:28|356:59|344:131,1,630.000024032594,10|0,3:2|0:0,0:1:0:0:
344,125,63664,38,0,B|320:150|320:150|235:131,1,105.000004005432,2|0,1:2|0:0,0:0:0:0:
0,82,63838,22,0,B|47:72|47:72|50:75|50:75|107:63,1,105.000004005432,10|0,3:2|0:0,0:0:0:0:
199,8,64013,37,6,0:0:0:0:
109,374,64187,21,6,1:2:0:0:
161,168,64362,21,2,0:0:0:0:
118,199,64449,1,2,0:0:0:0:
120,251,64536,1,10,0:0:0:0:
158,286,64623,1,2,0:0:0:0:
207,268,64710,2,0,P|273:279|291:287,1,70,2|8,0:0|0:0,0:0:0:0:
381,370,64885,37,2,0:0:0:0:
367,301,64972,1,2,0:0:0:0:
354,232,65059,1,2,0:0:0:0:
341,163,65147,1,2,0:0:0:0:
328,94,65234,2,0,P|321:61|315:18,1,70,2|0,0:0|0:0,0:0:0:0:
488,22,65408,21,10,0:0:0:0:
469,81,65495,1,2,0:0:0:0:
408,100,65583,2,0,P|373:92|328:85,1,70,2|0,0:0|0:0,0:0:0:0:
140,103,65757,37,2,1:2:0:0:
161,168,65844,1,2,0:0:0:0:
229,189,65932,2,0,P|267:180|291:176,2,35,2|2|2,3:2|3:0|3:0,0:0:0:0:
162,281,66106,2,0,P|203:292|231:319,1,70,2|8,0:0|0:0,0:0:0:0:
384,358,66280,21,2,0:0:0:0:
448,334,66367,1,2,1:2:0:0:
482,273,66455,1,2,0:0:0:0:
467,206,66542,1,2,0:0:0:0:
401,177,66629,37,10,0:0:0:0:
361,191,66716,1,2,0:0:0:0:
340,229,66804,1,2,0:0:0:0:
349,270,66891,1,2,0:0:0:0:
349,270,67152,38,0,B|321:256|321:256|244:275,1,105.000004005432,2|0,1:2|0:0,0:0:0:0:
101,363,67327,22,2,B|147:352|147:352|151:355|151:355|189:344|189:344|204:276|204:276|202:275|202:275|217:205|217:205|221:203|221:203|233:145|233:145|230:141|230:141|255:41|255:41|341:93|341:93|340:98|340:98|434:154|434:154|473:143|473:143|475:140|475:140|521:127,1,700,10|0,3:2|0:0,0:1:0:0:
506,131,67850,38,0,B|491:184|491:184|494:190|494:190|479:243,1,105.000004005432,2|2,1:2|0:3,0:0:0:0:
493,373,68024,22,2,B|411:87|411:87|355:55,1,350,10|0,3:2|0:0,0:1:0:0:
316,0,68286,37,2,0:1:0:0:
256,41,68373,2,0,L|280:123,1,70,0|0,1:0|0:0,0:0:0:0:
404,311,68548,21,8,3:0:0:0:
418,315,68635,1,8,3:0:0:0:
431,319,68722,38,2,B|471:263|426:221|420:225|416:228|374:202|393:99|393:99|374:202|325:212|322:208|318:202|262:227|280:287|280:287,1,472.500018024445,10|0,3:2|0:0,0:1:0:0:
330,365,69071,21,2,3:0:0:0:
330,365,69158,1,2,3:0:0:0:
330,365,69245,2,0,B|299:377|299:377|203:359,1,105.000004005432,2|2,1:2|0:3,0:0:0:0:
145,219,69420,38,2,B|204:184|204:184|485:236,1,350,10|0,3:2|0:0,0:1:0:0:
423,169,69681,21,10,3:0:0:0:
413,172,69769,2,0,B|348:183|348:183|361:257,1,140,2|2,1:2|3:0,0:0:0:0:
440,374,69943,38,0,B|491:364|491:364|481:305,1,105.000004005432,2|2,0:2|3:0,0:0:0:0:
222,98,70117,6,0,L|273:107,3,52.5000020027161,10|2|2|2,3:2|3:0|3:0|3:0,0:0:0:0:
153,42,70466,5,2,3:0:0:0:
153,42,70553,1,2,3:0:0:0:
153,42,70641,2,0,B|114:82|114:82|141:130,1,105.000004005432,2|2,1:2|0:3,0:0:0:0:
413,172,70815,38,2,B|354:137|354:137|73:189,1,350,10|2,3:2|0:3,0:1:0:0:
34,248,71077,21,2,0:1:0:0:
94,296,71164,37,2,1:2:0:0:
141,286,71251,1,8,3:0:0:0:
172,323,71338,1,8,3:0:0:0:
219,310,71426,1,8,3:0:0:0:
279,363,71513,21,10,3:2:0:0:
329,314,71600,1,4,3:0:0:0:
396,338,71687,1,4,3:0:0:0:
445,286,71775,1,4,3:0:0:0:
445,286,72036,38,0,B|435:239|435:239|439:237|439:237|427:181,1,105.000004005432,2|0,1:2|0:0,0:0:0:0:
398,63,72210,6,2,B|475:77|475:77|518:85|533:133|503:174|459:166|459:166|325:143|325:143|280:135|265:86|265:86|251:37|206:29|206:29|169:23,1,551.25002102852,10|0,3:2|0:0,0:1:0:0:
328,6,72559,54,2,B|315:83|315:83|319:87|319:87|302:193|302:193|297:195|297:195|273:351|273:351|235:313|235:313|234:303|234:303|192:258|192:258|141:270|141:270|140:274|140:274|52:298,1,612.5,6|0,1:2|0:0,0:1:0:0:
0,125,72908,6,2,L|57:137,1,56,10|0,3:2|0:0,0:1:0:0:
54,136,73431,6,0,B|94:169|94:169|68:222,1,105.000004005432,2|0,1:2|0:0,0:0:0:0:
21,364,73606,38,2,B|74:83|74:83|149:54,1,350,10|0,3:2|0:0,0:1:0:0:
178,0,73867,21,2,0:1:0:0:
246,30,73954,37,2,1:2:0:0:
287,38,74041,1,8,3:0:0:0:
315,5,74128,1,8,3:0:0:0:
357,17,74216,1,8,3:0:0:0:
364,90,74303,21,10,3:2:0:0:
409,134,74390,1,4,3:0:0:0:
469,113,74477,1,4,3:0:0:0:
512,159,74565,1,4,3:0:0:0:
512,159,74827,38,0,B|478:182|478:182|461:263,1,105.000004005432,2|0,1:2|0:0,0:0:0:0:
512,334,75001,22,0,B|259:289|259:289|228:283|218:249|218:249|207:215|176:209|176:209|90:194|90:194|101:236|101:236|61:281,1,551.25002102852,10|0,3:2|0:0,0:0:0:0:
5,212,75350,53,4,1:3:0:0:
442,32,75524,1,4,1:3:0:0:
213,365,75873,6,0,P|213:301|204:279,1,84,2|0,0:0|0:0,0:0:0:0:
285,255,76222,2,0,P|306:196|359:137,1,140,6|0,0:0|0:0,0:0:0:0:
294,21,76745,6,0,L|282:85,1,52.5000020027161,10|0,0:0|0:0,0:0:0:0:
192,179,76920,2,0,L|207:94,1,70.0000026702882,2|2,3:3|3:3,0:3:0:0:
198,102,77094,1,2,3:0:0:0:
391,245,77269,53,2,3:2:0:0:
118,348,77443,5,8,0:3:0:0:
150,353,77530,1,8,0:3:0:0:
181,359,77617,1,4,0:3:0:0:
213,365,77705,1,4,0:3:0:0:
244,370,77792,1,0,1:0:0:0:
0,16,78141,5,6,1:2:0:0:
415,290,89303,38,0,P|515:289|454:215,1,245,6|0,1:2|0:0,0:0:0:0:
276,114,90001,6,0,P|373:101|321:184,1,245,6|0,1:2|0:0,0:0:0:0:
156,292,90699,54,0,P|246:300|225:237,1,175,6|0,1:2|0:0,0:0:0:0:
233,253,91222,1,2,3:0:0:0:
15,104,91397,6,0,P|105:96|84:159,1,175,6|0,1:2|0:0,0:0:0:0:
35,216,91920,53,8,3:3:0:0:
22,211,92007,1,4,3:0:0:0:
12,205,92094,2,0,P|124:177|224:167,1,210,14|0,1:2|0:0,0:0:0:0:
338,118,92443,6,0,P|300:109|265:77,1,70,10|0,1:2|0:0,0:0:0:0:
152,29,92617,2,0,P|184:67|188:109,1,70,0|0,3:2|0:0,0:0:0:0:
281,305,92792,53,8,1:2:0:0:
290,256,92879,1,8,3:0:0:0:
299,207,92966,1,8,3:0:0:0:
155,351,93141,5,10,1:2:0:0:
386,269,93315,1,0,0:0:0:0:
96,149,93490,53,10,1:2:0:0:
288,5,93664,2,0,P|277:55|263:118,1,93.3333333333333,2|8,3:0|3:0,3:0:0:0:
275,90,93838,1,8,1:3:0:0:
416,149,94013,1,8,3:0:0:0:
281,305,94187,6,0,B|179:281|179:281|202:179,1,210,4|0,1:3|0:0,0:0:0:0:
353,254,94536,2,0,B|454:277|454:277|431:379,1,210,4|0,1:3|0:0,0:0:0:0:
281,305,94885,53,2,3:0:0:0:
185,324,95059,1,2,3:0:0:0:
319,169,95234,5,2,3:0:0:0:
415,150,95408,1,2,3:0:0:0:
146,49,95583,53,2,3:0:0:0:
105,56,95670,1,2,3:0:0:0:
64,63,95757,1,2,3:0:0:0:
319,169,95931,5,2,3:0:0:0:
300,73,96105,1,2,3:0:0:0:
0,212,96280,53,2,3:0:0:0:
63,200,96367,1,2,3:0:0:0:
126,189,96455,1,2,3:0:0:0:
189,178,96542,1,2,3:0:0:0:
235,240,96629,5,2,3:0:0:0:
279,248,96716,1,2,3:0:0:0:
323,256,96804,1,2,3:0:0:0:
367,263,96891,1,2,3:0:0:0:
393,194,96978,53,2,3:0:0:0:
416,189,97065,1,2,3:0:0:0:
439,185,97153,1,2,3:0:0:0:
462,181,97240,1,2,3:0:0:0:
477,232,97327,5,2,3:0:0:0:
488,234,97414,1,2,3:0:0:0:
500,236,97502,1,2,3:0:0:0:
512,238,97589,1,2,3:0:0:0:
219,108,99071,54,0,B|208:89|208:89|253:63|255:1|255:1|258:63|303:90|303:90|294:106,1,251.999992309571,6|8,0:0|0:0,0:0:0:0:
464,237,99594,6,0,P|493:186|476:165,1,83.9999974365235,2|2,3:0|3:0,3:0:0:0:
480,160,99769,54,0,P|316:187|236:249,1,245,10|0,3:2|0:0,0:0:0:0:
221,369,100466,22,2,B|276:187|205:87|115:44|2:64|-63:149|17:279|113:210,1,612.500005841255,6|0,1:2|0:0,0:1:0:0:
121,299,100990,6,2,B|135:94|308:16|474:68|474:68|388:84|380:170,1,612.500005841255,6|0,1:2|0:0,0:1:0:0:
398,134,101513,21,6,0:0:0:0:
499,214,101687,1,2,0:0:0:0:
0,141,101862,53,8,3:2:0:0:
0,141,102908,5,2,0:0:0:0:
81,40,103082,1,2,0:0:0:0:
413,221,103257,22,2,B|492:247|554:140|450:38|351:52|290:212|297:214|303:215|330:340|209:390|121:355,1,612.500005841255,6|0,1:2|0:0,0:1:0:0:
18,277,103780,6,2,P|196:276|367:379,1,367.500003504753,6|0,1:2|0:0,0:1:0:0:
437,363,104129,2,0,P|493:339|487:275,1,122.500001168251,0|0,1:0|0:0,0:0:0:0:
390,96,104303,21,6,0:0:0:0:
413,221,104478,1,2,0:0:0:0:
16,16,104652,53,8,3:2:0:0:
16,16,105699,5,2,0:0:0:0:
141,39,105874,1,2,0:0:0:0:
406,220,106048,22,2,B|497:286|577:156|512:71|399:51|309:94|235:212|288:379,1,612.500005841255,6|0,1:2|0:0,0:1:0:0:
396,367,106571,6,2,B|423:201|267:18|15:72|15:72|183:152|139:269|139:269|96:185|10:200,1,980.000009346008,6|2,1:2|0:3,0:1:0:0:
14,301,107356,53,2,0:3:0:0:
18,291,107443,2,2,P|222:120|439:138,1,490.000004673004,10|0,3:2|0:0,0:1:0:0:
432,135,107966,6,2,B|511:161|573:54|469:-48|370:-34|309:126|316:128|322:129|349:254|228:304|140:269,1,612.500005841255,6|0,1:2|0:0,0:1:0:0:
147,263,108490,21,2,3:0:0:0:
0,188,108664,1,2,3:0:0:0:
4,176,108751,1,2,3:0:0:0:
8,165,108838,54,2,B|88:152|88:152|91:149|91:149|176:136|176:136|260:275|260:275|317:263|317:263|320:267|320:267|413:250,1,472.500018024445,6|0,1:2|0:0,0:1:0:0:
393,243,109187,6,0,B|419:192|419:192|375:149,1,105.000004005432,10|0,3:2|0:0,0:0:0:0:
74,307,109362,54,2,B|114:226|114:226|501:159,1,472.500018024445,6|0,1:2|0:0,0:1:0:0:
490,240,109710,5,2,0:0:0:0:
501,245,109798,1,2,0:0:0:0:
512,249,109885,2,0,B|530:296|530:296|493:337,1,105.000004005432,6|0,1:2|0:0,0:0:0:0:
197,319,110059,22,2,B|282:335|300:248|296:249|289:248|284:142|388:158,1,280,6|0,0:0|1:0,0:1:0:0:
7,182,110408,38,2,P|203:191|321:375,1,420,2|0,0:0|0:0,0:1:0:0:
149,382,110757,2,0,P|116:320|154:250,1,140,2|0,1:1|0:0,0:0:0:0:
256,64,110931,53,10,3:2:0:0:
23,277,111106,38,2,P|245:231|386:252,1,367.500003504753,6|0,1:2|0:0,0:1:0:0:
385,261,111455,1,2,0:1:0:0:
76,158,111629,6,2,B|-4:160|-34:75|-1:-45|110:-45|203:8|220:120|149:153|144:151|141:150|38:249|74:352|167:404|243:352|250:287|219:261,1,700,6|0,1:2|0:0,0:1:0:0:
14,358,112152,54,0,P|35:290|117:283,1,140,2|0,1:1|0:0,0:0:0:0:
424,177,112327,21,8,3:2:0:0:
424,177,112676,6,0,L|368:168,1,52.5000020027161,2|0,0:0|0:0,0:0:0:0:
358,167,112850,2,0,L|302:158,1,52.5000020027161,2|0,0:0|0:0,0:0:0:0:
138,79,113024,38,2,P|247:123|215:262,1,280,6|0,1:2|0:0,0:1:0:0:
14,358,113286,54,2,P|-2:241|133:199,1,280,2|0,1:2|0:0,0:1:0:0:
317,325,113548,6,0,P|246:379|194:373,1,140,2|0,1:1|0:0,0:0:0:0:
20,97,113722,5,10,3:2:0:0:
20,97,114071,6,0,L|76:88,1,52.5000020027161,2|0,0:0|0:0,0:0:0:0:
86,87,114245,2,0,L|142:78,1,52.5000020027161,2|0,0:0|0:0,0:0:0:0:
310,56,114420,38,2,B|117:-5|-18:80|-68:184|-45:314|52:389|202:297|126:192,1,700,6|0,1:2|0:0,0:1:0:0:
4,36,114943,54,0,P|74:59|155:83,1,140,2|0,1:1|0:0,0:0:0:0:
484,178,115117,22,2,B|426:200|426:200|425:206|425:206|374:227|374:227|368:225|368:225|310:247|310:247|362:285|362:285|367:284|367:284|419:324|419:324|446:284,1,367.500003504753,10|0,3:2|0:0,0:1:0:0:
433,286,115466,6,0,L|419:230,1,52.5000020027161,2|0,0:0|0:0,0:0:0:0:
417,221,115640,2,0,L|403:165,1,52.5000020027161,2|0,0:0|0:0,0:0:0:0:
266,83,115815,38,2,P|157:127|189:266,1,280,6|0,1:2|0:0,0:1:0:0:
390,362,116077,54,2,P|406:245|270:203,1,280,2|0,1:2|0:0,0:1:0:0:
87,329,116339,6,0,P|158:383|210:377,1,140,2|0,1:1|0:0,0:0:0:0:
489,26,116513,5,10,3:2:0:0:
489,26,116862,6,0,P|471:79|476:132,1,105,2|0,0:0|0:0,0:0:0:0:
366,180,117210,6,0,P|361:316|278:195,1,367.500014019013,6|0,1:2|0:0,0:0:0:0:
197,99,117908,54,0,P|183:18|117:31,1,157.500006008148,6|0,1:2|0:0,0:0:0:0:
117,32,118257,2,0,P|105:64|113:95,1,52.5000020027161,2|0,0:0|0:0,0:0:0:0:
137,157,118431,1,0,0:0:0:0:
13,364,118606,6,0,P|43:282|72:299,1,140,6|2,1:2|0:0,0:0:0:0:
142,302,118867,53,2,0:0:0:0:
144,289,118955,1,2,0:0:0:0:
149,278,119042,2,0,P|175:253|209:254,1,70,2|0,0:0|0:0,0:0:0:0:
273,200,119216,5,2,0:0:0:0:
284,198,119303,2,0,P|318:209|334:238,1,70,0|0,1:2|0:0,0:0:0:0:
394,299,119478,53,2,0:0:0:0:
432,259,119565,1,2,0:0:0:0:
489,265,119652,1,2,0:0:0:0:
381,78,119827,1,2,0:0:0:0:
0,241,120001,6,0,P|108:263|44:177,1,262.5,6|0,1:2|0:0,0:0:0:0:
118,80,120350,54,0,P|242:54|168:153,1,315.000012016297,6|0,1:2|0:0,0:0:0:0:
207,253,120699,6,0,P|265:253|299:315,1,122.500001168251,2|0,1:2|0:0,0:0:0:0:
487,371,120873,2,0,P|447:328|465:269,1,122.500001168251,0|0,1:2|0:0,0:0:0:0:
426,15,121048,53,0,1:0:0:0:
381,78,121135,1,0,1:0:0:0:
445,123,121222,1,0,1:0:0:0:
490,60,121309,1,0,1:0:0:0:
339,384,122269,54,0,B|376:376|376:376|382:379|382:379|388:375|388:375|417:369|417:369|429:315|429:315|427:311|427:311|441:250|441:250|470:244|470:244|474:239|474:239|481:242|481:242|516:234,1,280,2|2,0:0|0:0,1:0:0:0:
3,136,122792,5,6,1:2:0:0:
