osu file format v14

[General]
AudioFilename: audio.mp3
AudioLeadIn: 0
PreviewTime: 21854
Countdown: 0
SampleSet: Normal
StackLeniency: 0.7
Mode: 3
LetterboxInBreaks: 0
SpecialStyle: 0
WidescreenStoryboard: 0

[Editor]
DistanceSpacing: 0.8
BeatDivisor: 8
GridSize: 16
TimelineZoom: 2.899999

[Metadata]
Title:Your voice so...
TitleUnicode:Your voice so...
Artist:PSYQUI/Such
ArtistUnicode:PSYQUI/Such
Creator:AlexDunk
Version:nostalgic...
Source:FÜGENE
Tags:arcaea FÜGENE futurecore hardcore future bass M3 MRX-016 MEGAREX
BeatmapID:2016466
BeatmapSetID:963084

[Difficulty]
HPDrainRate:8.7
CircleSize:4
OverallDifficulty:8.3
ApproachRate:5
SliderMultiplier:1.4
SliderTickRate:1

[Events]
//Background and Video events
0,0,"please tellme.jpg",0,0
//Break Periods
//Storyboard Layer 0 (Background)
//Storyboard Layer 1 (Fail)
//Storyboard Layer 2 (Pass)
//Storyboard Layer 3 (Foreground)
//Storyboard Sound Samples

[TimingPoints]
1400,340.909090909091,4,1,1,20,1,0
12309,-100,4,1,1,30,0,0
23218,-50,4,1,1,40,0,0
23260,-66.6666666666667,4,1,1,40,0,0
23303,-83.3333333333333,4,1,1,40,0,0
23346,-100,4,1,1,40,0,0
23388,-125,4,1,1,40,0,0
23431,-142.857142857143,4,1,1,40,0,0
23473,-166.666666666667,4,1,1,40,0,0
23516,-200,4,1,1,40,0,0
23559,-250,4,1,1,40,0,0
23601,-166.666666666667,4,1,1,40,0,0
23644,-133.333333333333,4,1,1,40,0,0
23900,-66.6666666666667,4,1,1,40,0,0
23956,-142.857142857143,4,1,1,40,0,0
24155,-66.6666666666667,4,1,1,40,0,0
24212,-142.857142857143,4,1,1,40,0,0
24411,-66.6666666666667,4,1,1,40,0,0
24468,-142.857142857143,4,1,1,40,0,0
24581,-66.6666666666667,4,1,1,40,0,0
24638,-142.857142857143,4,1,1,40,0,0
24752,-100,4,1,1,40,0,0
24837,-66.6666666666667,4,1,1,40,0,0
24865,-200,4,1,1,40,0,0
24894,-142.857142857143,4,1,1,40,0,0
25007,-90.9090909090909,4,1,1,40,0,0
25093,-66.6666666666667,4,1,1,40,0,0
25150,-142.857142857143,4,1,1,40,0,0
25263,-500,4,1,1,40,0,0
25320,-333.333333333333,4,1,1,40,0,0
25377,-166.666666666667,4,1,1,40,0,0
25434,-100,4,1,1,40,0,0
25490,-71.4285714285714,4,1,1,40,0,0
25547,-83.3333333333333,4,1,1,40,0,0
25604,-100,4,1,1,40,0,0
25945,-100,4,1,1,30,0,1
34468,-66.6666666666667,4,1,1,30,0,1
34553,-100,4,1,1,30,0,1
34638,-133.333333333333,4,1,1,30,0,1
34723,-200,4,1,1,30,0,1
34809,-66.6666666666667,4,1,1,30,0,1
34894,-200,4,1,1,30,0,1
35064,-66.6666666666667,4,1,1,30,0,1
35150,-200,4,1,1,30,0,1
35320,-66.6666666666667,4,1,1,30,0,1
35405,-200,4,1,1,30,0,1
35490,-100,4,1,1,30,0,1
45036,-66.6666666666667,4,1,1,50,0,0
45078,-100,4,1,1,50,0,0
45121,-111.111111111111,4,1,1,50,0,0
45164,-125,4,1,1,50,0,0
45206,-166.666666666667,4,1,1,20,0,0
47081,-333.333333333333,4,1,1,50,0,0
47252,-142.857142857143,4,1,1,50,0,0
47294,-111.111111111111,4,1,1,50,0,0
47337,-66.6666666666667,4,1,1,50,0,0
47380,-50,4,1,1,50,0,0
47422,-66.6666666666667,4,1,1,50,0,0
47507,-200,4,1,1,50,0,0
47763,-100,4,1,1,30,0,0
55945,-1000,4,1,1,50,0,0
56030,-100,4,1,1,40,0,0
66854,-200,4,1,1,10,0,0
67072.2,-196.078,4,1,1,10,0,0
67290.4,-192.308,4,1,1,10,0,0
67508.5,-188.679,4,1,1,10,0,0
67726.7,-185.185,4,1,1,10,0,0
67944.9,-181.818,4,1,1,10,0,0
68163.1,-178.571,4,1,1,10,0,0
68381.3,-175.439,4,1,1,10,0,0
68599.4,-172.414,4,1,1,10,0,0
68817.6,-169.492,4,1,1,10,0,0
69035.8,-166.667,4,1,1,10,0,0
69254,-163.934,4,1,1,15,0,0
69472.2,-161.29,4,1,1,15,0,0
69690.3,-158.73,4,1,1,15,0,0
69908.5,-156.25,4,1,1,15,0,0
70126.7,-153.846,4,1,1,15,0,0
70344.9,-151.515,4,1,1,15,0,0
70563.1,-149.254,4,1,1,15,0,0
70781.2,-147.059,4,1,1,15,0,0
70999.4,-144.928,4,1,1,15,0,0
71217.6,-142.857,4,1,1,15,0,0
71435.8,-140.845,4,1,1,20,0,0
71654,-138.889,4,1,1,20,0,0
71872.1,-136.986,4,1,1,20,0,0
72090.3,-135.135,4,1,1,20,0,0
72308.5,-133.333,4,1,1,20,0,0
72526.7,-131.579,4,1,1,20,0,0
72744.9,-129.87,4,1,1,20,0,0
72963,-128.205,4,1,1,20,0,0
73181.2,-126.582,4,1,1,20,0,0
73399.4,-125,4,1,1,20,0,0
73617.6,-123.457,4,1,1,25,0,0
73835.8,-121.951,4,1,1,25,0,0
74053.9,-120.482,4,1,1,25,0,0
74272.1,-119.048,4,1,1,25,0,0
74490.3,-117.647,4,1,1,25,0,0
74708.5,-116.279,4,1,1,25,0,0
74926.7,-114.943,4,1,1,25,0,0
75144.8,-113.636,4,1,1,25,0,0
75363,-112.36,4,1,1,25,0,0
75581.2,-111.111,4,1,1,25,0,0
75799.4,-109.89,4,1,1,30,0,0
76017.6,-108.696,4,1,1,30,0,0
76235.7,-107.527,4,1,1,30,0,0
76453.9,-106.383,4,1,1,30,0,0
76672.1,-105.263,4,1,1,30,0,0
76890.3,-104.167,4,1,1,30,0,0
77108.5,-103.093,4,1,1,30,0,0
77326.6,-102.041,4,1,1,30,0,0
77544.8,-101.01,4,1,1,30,0,0
77763,-100,4,1,1,30,0,0
142195,-100,4,1,1,30,0,1
165036,-100,4,1,1,50,0,0
165078,-104.166666666667,4,1,1,50,0,0
165121,-108.695652173913,4,1,1,50,0,0
165164,-112.359550561798,4,1,1,50,0,0
165206,-117.647058823529,4,1,1,40,0,0
167081,-500,4,1,1,40,0,0
167124,-250.000000000001,4,1,1,50,0,0
167167,-200,4,1,1,50,0,0
167209,-166.666666666667,4,1,1,50,0,0
167252,-142.857142857143,4,1,1,50,0,0
167294,-111.111111111111,4,1,1,50,0,0
167337,-83.3333333333333,4,1,1,50,0,0
167380,-66.6666666666667,4,1,1,50,0,0
167422,-20,4,1,1,30,0,0
167465,-1000,4,1,1,50,0,0
167763,-40,4,1,1,50,0,0
167796,-1000,4,1,1,50,0,0
167934,-40,4,1,1,50,0,0
167966,-1000,4,1,1,50,0,0
168104,-76.9230769230769,4,1,1,50,0,0
168147,-500,4,1,1,50,0,0
168189,-250,4,1,1,50,0,0
168275,-142.857142857143,4,1,1,50,0,0
168360,-111.111111111111,4,1,1,50,0,0
168445,-50,4,1,1,50,0,0
168488,-200,4,1,1,50,0,0
168701,-50,4,1,1,50,0,0
168743,-200,4,1,1,50,0,0
168956,-66.6666666666667,4,1,1,50,0,0
168999,-200,4,1,1,50,0,0
169127,-66.6666666666667,4,1,1,50,0,0
169184,-333.333333333333,4,1,1,50,0,0
169240,-66.6666666666667,4,1,1,50,0,0
169297,-333.333333333333,4,1,1,50,0,0
169354,-66.6666666666667,4,1,1,50,0,0
169411,-333.333333333333,4,1,1,50,0,0
169468,-66.6666666666667,4,1,1,50,0,0
169525,-333.333333333333,4,1,1,50,0,0
169581,-66.6666666666667,4,1,1,50,0,0
169638,-333.333333333333,4,1,1,50,0,0
169695,-66.6666666666667,4,1,1,50,0,0
169752,-333.333333333333,4,1,1,50,0,0
169809,-83.3333333333333,4,1,1,50,0,0
169894,-125,4,1,1,50,0,0
169979,-83.3333333333333,4,1,1,50,0,0
170064,-125,4,1,1,50,0,0
170150,-100,4,1,1,40,0,0
189581,-108.695652173913,4,1,1,20,0,0
190945,-107.52688172043,4,1,1,20,0,0
192309,-106.382978723404,4,1,1,25,0,0
193672,-105.263157894737,4,1,1,25,0,0
195036,-104.166666666667,4,1,1,30,0,0
196400,-103.092783505155,4,1,1,30,0,0
197763,-102.040816326531,4,1,1,35,0,0
199127,-101.010101010101,4,1,1,35,0,0
200490,-100,4,1,1,30,0,0
216854,-50,4,1,1,40,0,0
216897,-76.9230769230769,4,1,1,40,0,0
216939,-83.3333333333333,4,1,1,40,0,0
216982,-90.9090909090909,4,1,1,40,0,0
217025,-100,4,1,1,40,0,0
217067,-125,4,1,1,40,0,0
217110,-200,4,1,1,40,0,0
217152,-250,4,1,1,40,0,0
217195,-222.222222222222,4,1,1,40,0,0
217238,-166.666666666667,4,1,1,40,0,0
217280,-133.333333333333,4,1,1,40,0,0
217536,-66.6666666666667,4,1,1,40,0,0
217593,-142.857142857143,4,1,1,40,0,0
217792,-66.6666666666667,4,1,1,40,0,0
217848,-142.857142857143,4,1,1,40,0,0
218047,-66.6666666666667,4,1,1,40,0,0
218104,-142.857142857143,4,1,1,40,0,0
218218,-66.6666666666667,4,1,1,40,0,0
218275,-142.857142857143,4,1,1,40,0,0
218388,-100,4,1,1,40,0,0
218473,-66.6666666666667,4,1,1,40,0,0
218502,-250,4,1,1,40,0,0
218530,-142.857142857143,4,1,1,40,0,0
218644,-90.9090909090909,4,1,1,40,0,0
218729,-66.6666666666667,4,1,1,40,0,0
218786,-142.857142857143,4,1,1,40,0,0
218900,-500,4,1,1,40,0,0
218942,-333.333333333333,4,1,1,40,0,0
218985,-200,4,1,1,40,0,0
219027,-166.666666666667,4,1,1,40,0,0
219070,-125,4,1,1,40,0,0
219113,-100,4,1,1,40,0,0
219155,-71.4285714285714,4,1,1,40,0,0
219198,-83.3333333333333,4,1,1,40,0,0
219240,-100,4,1,1,40,0,0
219581,-100,4,1,1,30,0,1
238672,-100,4,1,1,50,0,0
239354,-105.263157894737,4,1,1,50,0,0
240036,-111.111111111111,4,1,1,30,0,0
240718,-117.647058823529,4,1,1,30,0,0
241400,-125,4,1,1,30,0,0

[HitObjects]
64,192,1400,5,0,0:0:0:40:kick.wav
192,192,1400,1,0,0:0:0:0:
448,192,1400,1,0,0:0:0:30:crash.wav
192,192,2081,128,0,2763:0:0:0:0:
64,192,2763,1,0,0:0:0:0:
320,192,2763,128,0,3104:0:0:0:0:
64,192,3104,1,0,0:0:0:0:
192,192,3275,1,0,0:0:0:0:
448,192,3445,128,0,3786:0:0:0:0:
320,192,4127,1,0,0:0:0:0:
192,192,4127,128,0,4468:0:0:0:0:
64,192,4468,128,0,4809:0:0:0:0:
320,192,4809,128,0,5490:0:0:0:0:
192,192,5490,1,0,0:0:0:0:
448,192,5490,1,0,0:0:0:0:
192,192,5831,128,0,6172:0:0:0:0:
64,192,6172,1,0,0:0:0:0:
320,192,6172,128,0,6513:0:0:0:0:
192,192,6513,1,0,0:0:0:0:
320,192,6684,1,0,0:0:0:0:
192,192,6854,1,0,0:0:0:0:
448,192,6854,128,0,7408:0:0:0:0:
64,192,7408,128,0,7621:0:0:0:0:
192,192,7877,128,0,8218:0:0:0:0:
64,192,8218,1,0,0:0:0:0:
448,192,8218,128,0,8559:0:0:0:0:
320,192,8559,128,0,8900:0:0:0:0:
64,192,8900,128,0,9240:0:0:0:0:
448,192,9240,128,0,9581:0:0:0:0:
192,192,9581,1,0,0:0:0:0:
320,192,9581,128,0,9922:0:0:0:0:
64,192,9922,1,0,0:0:0:0:
192,192,10093,1,0,0:0:0:0:
320,192,10263,1,0,0:0:0:0:
64,192,10263,1,0,0:0:0:0:
448,192,10604,128,0,10945:0:0:0:0:
320,192,10945,1,0,0:0:0:0:
192,192,10945,128,0,11286:0:0:0:0:
64,192,11286,128,0,11627:0:0:0:0:
192,192,11627,1,0,0:0:0:0:
448,192,11627,128,0,11968:0:0:0:0:
320,192,11968,128,0,12309:0:0:0:0:
64,192,12309,1,0,0:0:0:40:snare2.wav
448,192,12309,1,0,0:0:0:40:kick.wav
192,192,12309,1,0,0:0:0:0:
320,192,12479,1,0,0:0:0:0:
64,192,12650,1,0,0:0:0:40:snare2.wav
448,192,12650,1,0,0:0:0:40:kick.wav
448,192,12820,1,0,0:0:0:40:snare2.wav
64,192,12990,1,0,0:0:0:40:snare2.wav
448,192,12990,1,0,0:0:0:40:kick.wav
192,192,13161,1,0,0:0:0:0:
64,192,13331,1,0,0:0:0:40:snare2.wav
320,192,13331,1,0,0:0:0:40:kick.wav
192,192,13502,1,0,0:0:0:0:
64,192,13672,1,0,0:0:0:40:snare2.wav
448,192,13672,1,0,0:0:0:40:kick.wav
320,192,13672,1,0,0:0:0:0:
320,192,13843,1,0,0:0:0:0:
64,192,14013,1,0,0:0:0:40:snare2.wav
448,192,14013,1,0,0:0:0:40:kick.wav
320,192,14184,1,0,0:0:0:0:
192,192,14354,1,0,0:0:0:40:snare2.wav
448,192,14354,1,0,0:0:0:40:kick.wav
320,192,14525,1,0,0:0:0:0:
64,192,14695,1,0,0:0:0:40:snare2.wav
448,192,14695,1,0,0:0:0:40:kick.wav
192,192,14865,1,0,0:0:0:0:
64,192,15036,1,0,0:0:0:40:snare2.wav
320,192,15036,1,0,0:0:0:40:kick.wav
448,192,15036,1,0,0:0:0:0:
192,192,15206,1,0,0:0:0:0:
64,192,15377,1,0,0:0:0:40:snare2.wav
448,192,15377,1,0,0:0:0:40:kick.wav
448,192,15547,1,0,0:0:0:40:snare2.wav
64,192,15718,1,0,0:0:0:40:snare2.wav
448,192,15718,1,0,0:0:0:40:kick.wav
320,192,15888,1,0,0:0:0:0:
192,192,16059,1,0,0:0:0:40:snare2.wav
448,192,16059,1,0,0:0:0:40:kick.wav
320,192,16229,1,0,0:0:0:0:
64,192,16400,1,0,0:0:0:40:snare2.wav
448,192,16400,1,0,0:0:0:40:kick.wav
192,192,16400,1,0,0:0:0:0:
192,192,16570,1,0,0:0:0:0:
64,192,16740,1,0,0:0:0:40:snare2.wav
320,192,16740,1,0,0:0:0:40:kick.wav
192,192,16911,1,0,0:0:0:0:
64,192,17081,1,0,0:0:0:40:snare2.wav
448,192,17081,1,0,0:0:0:40:kick.wav
320,192,17081,1,0,0:0:0:0:
320,192,17252,1,0,0:0:0:0:
192,192,17422,1,0,0:0:0:40:snare2.wav
448,192,17422,1,0,0:0:0:40:kick.wav
320,192,17593,1,0,0:0:0:0:
64,192,17763,1,0,0:0:0:40:snare2.wav
192,192,17763,1,0,0:0:0:40:kick.wav
448,192,17763,1,0,0:0:0:0:
192,192,17934,1,0,0:0:0:40:snare2.wav
320,192,17934,1,0,0:0:0:0:
64,192,18104,1,0,0:0:0:40:snare2.wav
448,192,18104,1,0,0:0:0:40:kick.wav
192,192,18275,1,0,0:0:0:40:snare2.wav
448,192,18275,1,0,0:0:0:0:
320,192,18445,1,0,0:0:0:40:snare2.wav
64,192,18445,1,0,0:0:0:40:kick.wav
192,192,18615,1,0,0:0:0:40:snare2.wav
320,192,18615,1,0,0:0:0:0:
448,192,18786,1,0,0:0:0:40:snare2.wav
192,192,18786,1,0,0:0:0:40:kick.wav
64,192,18956,1,0,0:0:0:40:snare2.wav
320,192,18956,1,0,0:0:0:0:
320,192,19042,1,0,0:0:0:0:
64,192,19127,1,0,0:0:0:40:snare2.wav
448,192,19127,1,0,0:0:0:40:kick.wav
192,192,19127,1,0,0:0:0:0:
192,192,19297,1,0,0:0:0:40:snare2.wav
320,192,19297,1,0,0:0:0:0:
64,192,19468,1,0,0:0:0:40:snare2.wav
448,192,19468,1,0,0:0:0:40:kick.wav
192,192,19638,1,0,0:0:0:40:snare2.wav
320,192,19638,1,0,0:0:0:0:
64,192,19809,1,0,0:0:0:40:snare2.wav
448,192,19809,1,0,0:0:0:40:kick.wav
192,192,19979,1,0,0:0:0:40:snare2.wav
448,192,19979,1,0,0:0:0:0:
64,192,20150,1,0,0:0:0:40:snare2.wav
320,192,20150,1,0,0:0:0:40:kick.wav
64,192,20320,1,0,0:0:0:40:snare2.wav
448,192,20320,1,0,0:0:0:0:
192,192,20490,1,0,0:0:0:40:snare2.wav
320,192,20490,1,0,0:0:0:40:kick.wav
448,192,20490,1,0,0:0:0:0:
64,192,20576,1,0,0:0:0:40:snare2.wav
192,192,20661,1,0,0:0:0:40:snare2.wav
320,192,20661,1,0,0:0:0:0:
448,192,20746,1,0,0:0:0:40:snare2.wav
64,192,20831,1,0,0:0:0:40:snare2.wav
320,192,20831,1,0,0:0:0:0:
192,192,20917,1,0,0:0:0:40:snare2.wav
64,192,21002,1,0,0:0:0:40:snare2.wav
448,192,21002,1,0,0:0:0:0:
320,192,21087,1,0,0:0:0:40:snare2.wav
192,192,21172,1,0,0:0:0:40:snare2.wav
448,192,21172,1,0,0:0:0:0:
64,192,21172,1,0,0:0:0:0:
320,192,21257,1,0,0:0:0:40:snare2.wav
64,192,21343,1,0,0:0:0:40:snare2.wav
192,192,21343,1,0,0:0:0:0:
320,192,21428,1,0,0:0:0:40:snare2.wav
64,192,21513,1,0,0:0:0:40:snare2.wav
448,192,21513,1,0,0:0:0:0:
192,192,21598,1,0,0:0:0:40:snare2.wav
320,192,21684,1,0,0:0:0:40:snare2.wav
448,192,21684,1,0,0:0:0:0:
192,192,21769,1,0,0:0:0:40:snare2.wav
448,192,21854,1,0,0:0:0:0:
64,192,21854,128,0,22110:0:0:0:0:
192,192,22110,1,0,0:0:0:0:
448,192,22365,1,0,0:0:0:0:
320,192,22408,1,0,0:0:0:0:
192,192,22451,1,0,0:0:0:0:
64,192,22493,1,0,0:0:0:0:
320,192,22536,1,0,0:0:0:0:
192,192,22706,1,0,0:0:0:0:
64,192,22792,1,0,0:0:0:0:
448,192,22877,128,0,23047:0:0:0:0:
192,192,23047,128,0,23218:0:0:0:0:
320,192,23218,128,0,23559:0:0:0:40:kick.wav
64,192,23218,128,0,23559:0:0:0:0:
448,192,23559,128,0,23900:0:0:0:0:
320,192,23900,1,0,0:0:0:50:crash.wav
192,192,23900,1,0,0:0:0:40:kick.wav
64,192,23900,1,0,0:0:0:0:
64,192,24155,1,0,0:0:0:50:crash.wav
192,192,24155,1,0,0:0:0:40:kick.wav
320,192,24155,1,0,0:0:0:0:
64,192,24411,1,0,0:0:0:50:crash.wav
192,192,24411,1,0,0:0:0:40:kick.wav
320,192,24411,1,0,0:0:0:0:
64,192,24581,1,0,0:0:0:50:crash.wav
320,192,24581,1,0,0:0:0:40:kick.wav
448,192,24581,1,0,0:0:0:0:
192,192,24752,1,0,0:0:0:0:
64,192,24837,1,0,0:0:0:50:crash.wav
320,192,24837,1,0,0:0:0:40:kick.wav
448,192,24837,1,0,0:0:0:0:
192,192,24922,128,0,25093:0:0:0:0:
448,192,25093,1,0,0:0:0:50:crash.wav
64,192,25093,1,0,0:0:0:40:kick.wav
320,192,25093,128,0,25263:0:0:0:0:
64,192,25263,128,0,25604:0:0:0:0:
448,192,25604,128,0,25860:0:0:0:0:
192,192,25604,1,0,0:0:0:0:
320,192,25689,1,0,0:0:0:0:
192,192,25775,1,0,0:0:0:0:
64,192,25860,1,0,0:0:0:0:
192,192,25945,1,0,0:0:0:50:finish.wav
320,192,25945,1,0,0:0:0:40:kick.wav
448,192,25945,1,0,0:0:0:0:
64,192,26030,1,0,0:0:0:0:
320,192,26115,1,0,0:0:0:0:
448,192,26201,1,0,0:0:0:0:
320,192,26286,1,0,0:0:0:40:kick.wav
192,192,26286,1,0,0:0:0:0:
64,192,26371,1,0,0:0:0:0:
320,192,26456,1,0,0:0:0:0:
192,192,26542,1,0,0:0:0:0:
64,192,26627,1,0,0:0:0:40:kick.wav
448,192,26627,1,0,0:0:0:0:
320,192,26712,1,0,0:0:0:0:
192,192,26797,1,0,0:0:0:0:
64,192,26882,1,0,0:0:0:40:kick.wav
448,192,26882,1,0,0:0:0:0:
320,192,26968,1,0,0:0:0:0:
64,192,27053,1,0,0:0:0:0:
192,192,27138,1,0,0:0:0:40:kick.wav
320,192,27138,1,0,0:0:0:0:
320,192,27223,1,0,0:0:0:0:
448,192,27309,1,0,0:0:0:40:kick.wav
64,192,27309,1,0,0:0:0:0:
192,192,27394,1,0,0:0:0:0:
320,192,27479,1,0,0:0:0:0:
64,192,27564,1,0,0:0:0:0:
448,192,27650,1,0,0:0:0:40:kick.wav
192,192,27650,1,0,0:0:0:0:
64,192,27735,1,0,0:0:0:0:
448,192,27820,1,0,0:0:0:0:
320,192,27905,1,0,0:0:0:0:
192,192,27990,1,0,0:0:0:40:kick.wav
320,192,27990,1,0,0:0:0:0:
64,192,28076,1,0,0:0:0:0:
448,192,28161,1,0,0:0:0:0:
320,192,28246,1,0,0:0:0:40:kick.wav
64,192,28246,1,0,0:0:0:0:
192,192,28331,1,0,0:0:0:0:
64,192,28417,1,0,0:0:0:0:
448,192,28502,1,0,0:0:0:40:kick.wav
320,192,28502,1,0,0:0:0:0:
192,192,28587,1,0,0:0:0:0:
448,192,28672,1,0,0:0:0:50:crash.wav
64,192,28672,1,0,0:0:0:40:kick.wav
320,192,28672,1,0,0:0:0:0:
192,192,28757,1,0,0:0:0:0:
448,192,28843,1,0,0:0:0:0:
320,192,28928,1,0,0:0:0:0:
448,192,29013,1,0,0:0:0:40:kick.wav
64,192,29013,1,0,0:0:0:0:
192,192,29098,1,0,0:0:0:0:
320,192,29184,1,0,0:0:0:0:
64,192,29269,1,0,0:0:0:0:
320,192,29354,1,0,0:0:0:40:kick.wav
448,192,29354,1,0,0:0:0:0:
192,192,29439,1,0,0:0:0:0:
64,192,29525,1,0,0:0:0:0:
192,192,29610,1,0,0:0:0:40:kick.wav
448,192,29610,1,0,0:0:0:0:
320,192,29695,1,0,0:0:0:0:
192,192,29780,1,0,0:0:0:0:
64,192,29865,1,0,0:0:0:40:kick.wav
320,192,29865,1,0,0:0:0:0:
192,192,29951,1,0,0:0:0:0:
64,192,30036,1,0,0:0:0:40:kick.wav
448,192,30036,1,0,0:0:0:0:
320,192,30121,1,0,0:0:0:0:
64,192,30206,1,0,0:0:0:0:
448,192,30292,1,0,0:0:0:0:
320,192,30377,1,0,0:0:0:40:kick.wav
192,192,30377,1,0,0:0:0:0:
64,192,30462,1,0,0:0:0:0:
192,192,30547,1,0,0:0:0:0:
448,192,30632,1,0,0:0:0:0:
448,192,30718,1,0,0:0:0:40:kick.wav
64,192,30718,1,0,0:0:0:0:
192,192,30803,1,0,0:0:0:0:
320,192,30888,1,0,0:0:0:0:
448,192,30973,1,0,0:0:0:40:kick.wav
192,192,30973,1,0,0:0:0:0:
64,192,31059,1,0,0:0:0:0:
192,192,31144,1,0,0:0:0:0:
320,192,31229,1,0,0:0:0:40:kick.wav
448,192,31229,1,0,0:0:0:0:
192,192,31314,1,0,0:0:0:0:
64,192,31400,1,0,0:0:0:40:kick.wav
448,192,31400,1,0,0:0:0:0:
320,192,31485,1,0,0:0:0:0:
192,192,31570,1,0,0:0:0:0:
448,192,31655,1,0,0:0:0:0:
64,192,31740,1,0,0:0:0:40:kick.wav
320,192,31740,1,0,0:0:0:0:
192,192,31826,1,0,0:0:0:0:
320,192,31911,1,0,0:0:0:0:
448,192,31996,1,0,0:0:0:0:
64,192,32081,1,0,0:0:0:40:kick.wav
192,192,32081,1,0,0:0:0:0:
320,192,32167,1,0,0:0:0:0:
64,192,32252,1,0,0:0:0:0:
192,192,32337,1,0,0:0:0:40:kick.wav
448,192,32337,1,0,0:0:0:0:
320,192,32422,1,0,0:0:0:0:
192,192,32507,1,0,0:0:0:0:
64,192,32593,1,0,0:0:0:40:kick.wav
320,192,32593,1,0,0:0:0:0:
192,192,32678,1,0,0:0:0:0:
64,192,32763,128,0,33019:0:0:0:50:crash.wav
448,192,32763,128,0,33019:0:0:0:40:kick.wav
320,192,32763,128,0,33019:0:0:0:0:
192,192,33104,128,0,33360:0:0:0:50:crash.wav
448,192,33104,128,0,33360:0:0:0:40:kick.wav
64,192,33104,128,0,33360:0:0:0:0:
320,192,33445,128,0,33701:0:0:0:50:crash.wav
448,192,33445,128,0,33701:0:0:0:40:kick.wav
192,192,33445,128,0,33701:0:0:0:0:
64,192,33786,1,0,0:0:0:50:crash.wav
320,192,33786,1,0,0:0:0:40:kick.wav
448,192,33786,128,0,33956:0:0:0:0:
192,192,33956,1,0,0:0:0:0:
320,192,33956,1,0,0:0:0:0:
64,192,34042,128,0,34127:0:0:0:0:
448,192,34127,128,0,34212:0:0:0:0:
64,192,34212,128,0,34468:0:0:0:0:
192,192,34212,1,0,0:0:0:0:
320,192,34297,1,0,0:0:0:0:
192,192,34382,1,0,0:0:0:0:
448,192,34468,128,0,34723:0:0:0:0:
320,192,34468,128,0,34723:0:0:0:0:
320,192,34809,1,0,0:0:0:20:crash.wav
64,192,34809,1,0,0:0:0:40:kick.wav
448,192,34809,1,0,0:0:0:0:
64,192,35064,1,0,0:0:0:20:crash.wav
448,192,35064,1,0,0:0:0:0:
320,192,35064,1,0,0:0:0:40:kick.wav
448,192,35320,1,0,0:0:0:20:crash.wav
64,192,35320,1,0,0:0:0:40:kick.wav
320,192,35320,1,0,0:0:0:0:
64,192,35490,1,0,0:0:0:50:finish.wav
192,192,35490,1,0,0:0:0:40:kick.wav
448,192,35490,1,0,0:0:0:0:
320,192,35576,1,0,0:0:0:0:
64,192,35661,1,0,0:0:0:0:
192,192,35746,1,0,0:0:0:0:
192,192,35831,1,0,0:0:0:40:kick.wav
448,192,35831,1,0,0:0:0:0:
320,192,35917,1,0,0:0:0:0:
64,192,36002,1,0,0:0:0:0:
192,192,36087,1,0,0:0:0:0:
320,192,36172,1,0,0:0:0:40:kick.wav
448,192,36172,1,0,0:0:0:0:
64,192,36257,1,0,0:0:0:0:
448,192,36343,1,0,0:0:0:0:
320,192,36428,1,0,0:0:0:40:kick.wav
192,192,36428,1,0,0:0:0:0:
64,192,36513,1,0,0:0:0:0:
448,192,36598,1,0,0:0:0:0:
192,192,36684,1,0,0:0:0:40:kick.wav
320,192,36684,1,0,0:0:0:0:
64,192,36769,1,0,0:0:0:0:
448,192,36854,1,0,0:0:0:40:kick.wav
320,192,36854,1,0,0:0:0:0:
64,192,36939,1,0,0:0:0:0:
448,192,37025,1,0,0:0:0:0:
192,192,37110,1,0,0:0:0:0:
320,192,37195,1,0,0:0:0:40:kick.wav
64,192,37195,1,0,0:0:0:0:
448,192,37280,1,0,0:0:0:0:
192,192,37365,1,0,0:0:0:0:
320,192,37451,1,0,0:0:0:0:
64,192,37536,1,0,0:0:0:40:kick.wav
448,192,37536,1,0,0:0:0:0:
192,192,37621,1,0,0:0:0:0:
320,192,37706,1,0,0:0:0:0:
448,192,37792,1,0,0:0:0:40:kick.wav
64,192,37792,1,0,0:0:0:0:
192,192,37877,1,0,0:0:0:0:
448,192,37962,1,0,0:0:0:0:
320,192,38047,1,0,0:0:0:40:kick.wav
192,192,38047,1,0,0:0:0:0:
192,192,38132,1,0,0:0:0:0:
320,192,38218,1,0,0:0:0:40:kick.wav
448,192,38218,1,0,0:0:0:0:
64,192,38303,1,0,0:0:0:0:
320,192,38388,1,0,0:0:0:0:
192,192,38473,1,0,0:0:0:0:
64,192,38559,1,0,0:0:0:40:kick.wav
448,192,38559,1,0,0:0:0:0:
320,192,38644,1,0,0:0:0:0:
192,192,38729,1,0,0:0:0:0:
64,192,38814,1,0,0:0:0:0:
192,192,38900,1,0,0:0:0:40:kick.wav
320,192,38900,1,0,0:0:0:0:
448,192,38985,1,0,0:0:0:0:
192,192,39070,1,0,0:0:0:0:
64,192,39155,1,0,0:0:0:40:kick.wav
320,192,39155,1,0,0:0:0:0:
448,192,39240,1,0,0:0:0:0:
192,192,39326,1,0,0:0:0:0:
320,192,39411,1,0,0:0:0:40:kick.wav
64,192,39411,1,0,0:0:0:0:
448,192,39496,1,0,0:0:0:0:
64,192,39581,1,0,0:0:0:50:finish.wav
320,192,39581,1,0,0:0:0:40:kick.wav
192,192,39581,1,0,0:0:0:0:
448,192,39667,1,0,0:0:0:0:
192,192,39752,1,0,0:0:0:0:
64,192,39837,1,0,0:0:0:40:kick.wav
448,192,39837,1,0,0:0:0:0:
320,192,39922,1,0,0:0:0:0:
192,192,40007,1,0,0:0:0:0:
448,192,40093,1,0,0:0:0:40:kick.wav
320,192,40093,1,0,0:0:0:0:
64,192,40178,1,0,0:0:0:0:
192,192,40263,1,0,0:0:0:40:snare.wav
320,192,40263,1,0,0:0:0:40:kick.wav
448,192,40263,1,0,0:0:0:0:
64,192,40348,1,0,0:0:0:0:
448,192,40434,1,0,0:0:0:0:
320,192,40519,1,0,0:0:0:40:kick.wav
192,192,40519,1,0,0:0:0:0:
64,192,40604,1,0,0:0:0:0:
448,192,40689,1,0,0:0:0:0:
64,192,40775,1,0,0:0:0:40:kick.wav
192,192,40775,1,0,0:0:0:0:
320,192,40860,1,0,0:0:0:0:
64,192,40945,1,0,0:0:0:0:
192,192,41030,1,0,0:0:0:0:
448,192,41115,1,0,0:0:0:40:kick.wav
320,192,41115,1,0,0:0:0:0:
64,192,41201,1,0,0:0:0:0:
192,192,41286,1,0,0:0:0:0:
448,192,41371,1,0,0:0:0:40:kick.wav
64,192,41371,1,0,0:0:0:0:
320,192,41456,1,0,0:0:0:40:kick.wav
192,192,41456,1,0,0:0:0:0:
448,192,41542,1,0,0:0:0:0:
64,192,41627,1,0,0:0:0:40:snare.wav
320,192,41627,1,0,0:0:0:40:kick.wav
192,192,41627,1,0,0:0:0:0:
448,192,41712,1,0,0:0:0:0:
192,192,41797,1,0,0:0:0:0:
320,192,41882,1,0,0:0:0:40:kick.wav
64,192,41882,1,0,0:0:0:0:
448,192,41968,1,0,0:0:0:40:kick.wav
192,192,41968,1,0,0:0:0:0:
320,192,42053,1,0,0:0:0:0:
64,192,42138,1,0,0:0:0:40:kick.wav
192,192,42138,1,0,0:0:0:0:
320,192,42223,1,0,0:0:0:0:
448,192,42309,1,0,0:0:0:40:kick.wav
64,192,42309,1,0,0:0:0:0:
320,192,42394,1,0,0:0:0:0:
192,192,42479,1,0,0:0:0:0:
448,192,42564,1,0,0:0:0:40:kick.wav
320,192,42564,1,0,0:0:0:0:
64,192,42650,1,0,0:0:0:0:
192,192,42735,1,0,0:0:0:0:
448,192,42820,1,0,0:0:0:40:kick.wav
64,192,42820,1,0,0:0:0:0:
320,192,42905,1,0,0:0:0:0:
64,192,42990,1,0,0:0:0:40:snare.wav
192,192,42990,1,0,0:0:0:40:kick.wav
448,192,42990,1,0,0:0:0:0:
320,192,43076,1,0,0:0:0:0:
64,192,43161,1,0,0:0:0:0:
448,192,43246,1,0,0:0:0:40:kick.wav
320,192,43246,1,0,0:0:0:0:
64,192,43331,1,0,0:0:0:0:
192,192,43417,1,0,0:0:0:0:
320,192,43502,1,0,0:0:0:40:kick.wav
448,192,43502,1,0,0:0:0:0:
192,192,43587,1,0,0:0:0:0:
64,192,43672,128,0,43928:0:0:0:40:kick.wav
320,192,43672,128,0,43928:0:0:0:0:
448,192,43672,128,0,43928:0:0:0:50:crash.wav
192,192,44013,128,0,44269:0:0:0:0:
64,192,44013,128,0,44269:0:0:0:40:kick.wav
448,192,44013,128,0,44269:0:0:0:50:crash.wav
320,192,44354,128,0,44610:0:0:0:0:
192,192,44354,128,0,44610:0:0:0:40:kick.wav
448,192,44354,128,0,44610:0:0:0:50:crash.wav
448,192,44695,128,0,44951:0:0:0:50:crash.wav
320,192,44695,128,0,44951:0:0:0:0:
64,192,44695,128,0,44951:0:0:0:40:kick.wav
448,192,45718,128,0,46400:0:0:0:0:
192,192,46400,128,0,46740:0:0:0:0:
320,192,46740,128,0,46911:0:0:0:0:
192,192,46911,128,0,47081:0:0:0:0:
64,192,47081,128,0,47422:0:0:0:0:
320,192,47422,1,0,0:0:0:0:
448,192,47422,1,0,0:0:0:0:
64,192,47763,1,0,0:0:0:50:finish.wav
192,192,47763,1,0,0:0:0:0:
448,192,47763,1,0,0:0:0:0:
192,192,48019,1,0,0:0:0:0:
448,192,48019,1,0,0:0:0:0:
448,192,48275,1,0,0:0:0:0:
192,192,48275,1,0,0:0:0:0:
192,192,48445,1,0,0:0:0:0:
448,192,48445,1,0,0:0:0:0:
192,192,48701,1,0,0:0:0:0:
448,192,48701,1,0,0:0:0:0:
192,192,48956,1,0,0:0:0:0:
320,192,48956,1,0,0:0:0:0:
320,192,49127,1,0,0:0:0:0:
64,192,49127,1,0,0:0:0:0:
320,192,49468,1,0,0:0:0:0:
64,192,49468,1,0,0:0:0:0:
192,192,49809,1,0,0:0:0:0:
320,192,49809,1,0,0:0:0:0:
192,192,50150,1,0,0:0:0:0:
320,192,50150,1,0,0:0:0:0:
64,192,50490,1,0,0:0:0:0:
448,192,50490,1,0,0:0:0:0:
64,192,50746,1,0,0:0:0:0:
448,192,50746,1,0,0:0:0:0:
64,192,51002,1,0,0:0:0:0:
448,192,51002,1,0,0:0:0:0:
64,192,51172,1,0,0:0:0:0:
448,192,51172,1,0,0:0:0:0:
448,192,51428,1,0,0:0:0:0:
64,192,51428,1,0,0:0:0:0:
448,192,51684,1,0,0:0:0:0:
64,192,51684,1,0,0:0:0:0:
192,192,51854,1,0,0:0:0:0:
320,192,51854,1,0,0:0:0:0:
192,192,52110,1,0,0:0:0:0:
320,192,52110,1,0,0:0:0:0:
192,192,52365,1,0,0:0:0:0:
320,192,52365,1,0,0:0:0:0:
64,192,52536,1,0,0:0:0:0:
320,192,52536,1,0,0:0:0:0:
64,192,52792,1,0,0:0:0:0:
320,192,52792,1,0,0:0:0:0:
64,192,53047,1,0,0:0:0:0:
320,192,53047,1,0,0:0:0:0:
448,192,53218,1,0,0:0:0:0:
192,192,53218,1,0,0:0:0:0:
448,192,53473,1,0,0:0:0:0:
192,192,53473,1,0,0:0:0:0:
192,192,53729,1,0,0:0:0:0:
448,192,53729,1,0,0:0:0:0:
192,192,53900,1,0,0:0:0:0:
448,192,53900,1,0,0:0:0:0:
192,192,54155,1,0,0:0:0:0:
448,192,54155,1,0,0:0:0:0:
192,192,54411,1,0,0:0:0:0:
448,192,54411,1,0,0:0:0:0:
64,192,54581,1,0,0:0:0:0:
448,192,54581,128,0,54922:0:0:0:0:
192,192,54752,128,0,54922:0:0:0:0:
64,192,54922,1,0,0:0:0:0:
320,192,54922,128,0,55263:0:0:0:0:
192,192,55093,128,0,55263:0:0:0:0:
448,192,55263,1,0,0:0:0:0:
64,192,55263,128,0,55604:0:0:0:0:
320,192,55434,128,0,55604:0:0:0:0:
448,192,55604,1,0,0:0:0:0:
192,192,55604,128,0,55945:0:0:0:0:
320,192,55775,128,0,55945:0:0:0:0:
64,192,56201,1,0,0:0:0:30:crash.wav
320,192,56201,1,0,0:0:0:40:kick.wav
448,192,56201,1,0,0:0:0:0:
192,192,56456,1,0,0:0:0:0:
448,192,56456,1,0,0:0:0:0:
320,192,56627,1,0,0:0:0:0:
64,192,56627,128,0,57309:0:0:0:0:
192,192,56882,1,0,0:0:0:0:
448,192,56882,1,0,0:0:0:0:
320,192,57138,1,0,0:0:0:0:
448,192,57138,1,0,0:0:0:0:
320,192,57309,128,0,57990:0:0:0:0:
192,192,57309,1,0,0:0:0:0:
64,192,57564,1,0,0:0:0:0:
448,192,57564,1,0,0:0:0:0:
192,192,57820,1,0,0:0:0:0:
64,192,57820,1,0,0:0:0:0:
192,192,57990,1,0,0:0:0:0:
448,192,57990,128,0,58502:0:0:0:0:
64,192,58246,1,0,0:0:0:0:
320,192,58246,1,0,0:0:0:0:
192,192,58502,1,0,0:0:0:0:
320,192,58502,1,0,0:0:0:0:
64,192,58672,128,0,59184:0:0:0:0:
448,192,58672,1,0,0:0:0:0:
192,192,58928,1,0,0:0:0:0:
320,192,58928,1,0,0:0:0:0:
192,192,59184,128,0,59695:0:0:0:0:
448,192,59184,1,0,0:0:0:0:
320,192,59354,1,0,0:0:0:0:
448,192,59354,1,0,0:0:0:0:
64,192,59610,1,0,0:0:0:0:
448,192,59610,1,0,0:0:0:0:
320,192,59695,128,0,60036:0:0:0:0:
192,192,59865,1,0,0:0:0:0:
64,192,59865,1,0,0:0:0:0:
448,192,60036,128,0,60377:0:0:0:0:
64,192,60036,1,0,0:0:0:0:
64,192,60377,1,0,0:0:0:0:
320,192,60377,1,0,0:0:0:0:
320,192,60718,128,0,61400:0:0:0:0:
192,192,60718,1,0,0:0:0:0:
192,192,61059,1,0,0:0:0:0:
448,192,61059,1,0,0:0:0:0:
64,192,61400,128,0,61740:0:0:0:0:
320,192,61740,1,0,0:0:0:30:crash.wav
448,192,61740,1,0,0:0:0:0:
64,192,61911,128,0,61996:0:0:0:0:
192,192,61996,128,0,62081:0:0:0:0:
320,192,62081,128,0,62252:0:0:0:0:
192,192,62252,128,0,62337:0:0:0:0:
320,192,62337,128,0,62422:0:0:0:0:
64,192,62422,1,0,0:0:0:30:crash.wav
448,192,62422,1,0,0:0:0:0:
192,192,62507,128,0,62593:0:0:0:0:
320,192,62593,128,0,62763:0:0:0:0:
192,192,62763,128,0,63019:0:0:0:0:
64,192,63019,1,0,0:0:0:30:crash.wav
448,192,63019,128,0,63275:0:0:0:0:
320,192,63275,1,0,0:0:0:30:crash.wav
192,192,63275,128,0,63445:0:0:0:0:
64,192,63445,128,0,63701:0:0:0:0:
448,192,63615,1,0,0:0:0:0:
192,192,63701,128,0,63786:0:0:0:0:
320,192,63786,128,0,63828:0:0:0:0:
192,192,63871,128,0,63914:0:0:0:0:
320,192,63956,1,0,0:0:0:0:
192,192,64042,1,0,0:0:0:0:
64,192,64127,1,0,0:0:0:50:finish.wav
320,192,64127,1,0,0:0:0:0:
448,192,64127,128,0,64809:0:0:0:0:
64,192,64382,1,0,0:0:0:0:
192,192,64382,1,0,0:0:0:0:
64,192,64638,1,0,0:0:0:0:
320,192,64638,1,0,0:0:0:0:
192,192,64809,1,0,0:0:0:0:
320,192,64809,1,0,0:0:0:0:
192,192,65064,1,0,0:0:0:0:
64,192,65064,1,0,0:0:0:0:
448,192,65150,128,0,65490:0:0:0:0:
192,192,65320,1,0,0:0:0:0:
64,192,65320,1,0,0:0:0:0:
64,192,65490,128,0,65831:0:0:0:40:crash.wav
320,192,65490,1,0,0:0:0:0:
192,192,65661,128,0,65831:0:0:0:0:
448,192,65831,1,0,0:0:0:40:crash.wav
320,192,65831,128,0,66172:0:0:0:0:
448,192,66002,128,0,66172:0:0:0:0:
64,192,66172,1,0,0:0:0:40:crash.wav
192,192,66172,128,0,66854:0:0:0:0:
64,192,66343,128,0,66513:0:0:0:0:
320,192,66513,1,0,0:0:0:40:crash.wav
448,192,66513,1,0,0:0:0:0:
320,192,66684,128,0,66854:0:0:0:0:
64,192,66854,1,0,0:0:0:40:finish.wav
448,192,66854,1,0,0:0:0:0:
64,192,67195,1,0,0:0:0:15:kick.wav
64,192,67536,1,0,0:0:0:15:kick.wav
64,192,67877,1,0,0:0:0:15:kick.wav
320,192,68218,1,0,0:0:0:15:kick.wav
320,192,68559,1,0,0:0:0:15:kick.wav
320,192,68900,1,0,0:0:0:15:kick.wav
320,192,69240,1,0,0:0:0:15:kick.wav
192,192,69581,1,0,0:0:0:20:kick.wav
192,192,69922,1,0,0:0:0:20:kick.wav
192,192,70263,1,0,0:0:0:20:kick.wav
192,192,70604,1,0,0:0:0:20:kick.wav
192,192,70945,1,0,0:0:0:20:kick.wav
448,192,70945,128,0,70988:0:0:0:70:nothing.wav
320,192,71286,1,0,0:0:0:20:kick.wav
448,192,71286,128,0,71371:0:0:0:70:nothing.wav
320,192,71627,1,0,0:0:0:20:kick.wav
448,192,71627,128,0,71755:0:0:0:70:nothing.wav
192,192,71968,1,0,0:0:0:20:kick.wav
448,192,71968,128,0,72138:0:0:0:70:nothing.wav
64,192,72309,1,0,0:0:0:25:kick.wav
448,192,72309,128,0,72479:0:0:0:70:nothing.wav
64,192,72650,1,0,0:0:0:25:kick.wav
448,192,72650,128,0,72863:0:0:0:70:nothing.wav
64,192,72990,1,0,0:0:0:25:kick.wav
448,192,72990,128,0,73203:0:0:0:70:nothing.wav
64,192,73331,1,0,0:0:0:25:kick.wav
448,192,73331,128,0,73544:0:0:0:70:nothing.wav
192,192,73672,1,0,0:0:0:25:kick.wav
448,192,73672,128,0,73928:0:0:0:70:nothing.wav
192,192,74013,1,0,0:0:0:25:kick.wav
448,192,74013,128,0,74269:0:0:0:70:nothing.wav
192,192,74354,1,0,0:0:0:25:kick.wav
448,192,74354,128,0,74610:0:0:0:70:nothing.wav
192,192,74695,1,0,0:0:0:25:kick.wav
448,192,74695,128,0,74951:0:0:0:70:nothing.wav
64,192,75036,1,0,0:0:0:30:kick.wav
448,192,75036,128,0,75292:0:0:0:70:nothing.wav
64,192,75377,1,0,0:0:0:30:kick.wav
448,192,75377,128,0,75632:0:0:0:70:nothing.wav
64,192,75718,1,0,0:0:0:30:kick.wav
448,192,75718,128,0,75973:0:0:0:70:nothing.wav
64,192,76059,1,0,0:0:0:30:kick.wav
192,192,76059,128,0,76314:0:0:0:70:nothing.wav
64,192,76400,1,0,0:0:0:30:kick.wav
448,192,76400,128,0,76655:0:0:0:70:nothing.wav
192,192,76740,1,0,0:0:0:30:kick.wav
320,192,76740,128,0,76826:0:0:0:70:nothing.wav
320,192,76911,128,0,76996:0:0:0:70:nothing.wav
448,192,76996,128,0,77081:0:0:0:70:nothing.wav
64,192,77081,1,0,0:0:0:30:kick.wav
320,192,77081,128,0,77337:0:0:0:70:nothing.wav
192,192,77422,1,0,0:0:0:30:kick.wav
320,192,77422,128,0,77678:0:0:0:70:nothing.wav
64,192,77763,1,0,0:0:0:40:snare2.wav
320,192,77763,1,0,0:0:0:40:kick.wav
448,192,77763,1,0,0:0:0:0:
192,192,77934,1,0,0:0:0:0:
64,192,78104,1,0,0:0:0:40:snare2.wav
192,192,78104,1,0,0:0:0:40:kick.wav
448,192,78104,1,0,0:0:0:0:
64,192,78275,1,0,0:0:0:40:snare2.wav
320,192,78275,1,0,0:0:0:0:
448,192,78275,1,0,0:0:0:0:
64,192,78445,1,0,0:0:0:40:snare2.wav
192,192,78445,1,0,0:0:0:40:kick.wav
448,192,78445,1,0,0:0:0:0:
320,192,78615,1,0,0:0:0:0:
192,192,78701,1,0,0:0:0:0:
64,192,78786,1,0,0:0:0:40:snare2.wav
448,192,78786,1,0,0:0:0:40:kick.wav
320,192,78786,1,0,0:0:0:0:
192,192,78871,1,0,0:0:0:0:
64,192,78956,1,0,0:0:0:0:
192,192,79127,1,0,0:0:0:40:snare2.wav
448,192,79127,1,0,0:0:0:40:kick.wav
320,192,79127,1,0,0:0:0:0:
320,192,79297,1,0,0:0:0:0:
192,192,79468,1,0,0:0:0:40:snare2.wav
448,192,79468,1,0,0:0:0:40:kick.wav
64,192,79468,1,0,0:0:0:0:
320,192,79638,1,0,0:0:0:0:
192,192,79723,1,0,0:0:0:0:
64,192,79809,1,0,0:0:0:40:snare2.wav
448,192,79809,1,0,0:0:0:40:kick.wav
320,192,79809,1,0,0:0:0:0:
448,192,79979,1,0,0:0:0:0:
192,192,80150,1,0,0:0:0:40:snare2.wav
320,192,80150,1,0,0:0:0:40:kick.wav
64,192,80150,1,0,0:0:0:0:
64,192,80320,1,0,0:0:0:0:
320,192,80490,1,0,0:0:0:40:snare2.wav
192,192,80490,1,0,0:0:0:40:kick.wav
448,192,80490,1,0,0:0:0:0:
192,192,80661,1,0,0:0:0:0:
64,192,80831,1,0,0:0:0:40:snare2.wav
320,192,80831,1,0,0:0:0:40:kick.wav
448,192,80831,1,0,0:0:0:0:
64,192,81002,1,0,0:0:0:40:snare2.wav
192,192,81002,1,0,0:0:0:0:
448,192,81002,1,0,0:0:0:0:
448,192,81172,1,0,0:0:0:40:snare2.wav
320,192,81172,1,0,0:0:0:40:kick.wav
64,192,81172,1,0,0:0:0:0:
192,192,81343,1,0,0:0:0:0:
320,192,81428,1,0,0:0:0:0:
64,192,81513,1,0,0:0:0:40:snare2.wav
448,192,81513,1,0,0:0:0:40:kick.wav
192,192,81513,1,0,0:0:0:0:
320,192,81598,1,0,0:0:0:0:
64,192,81684,1,0,0:0:0:0:
192,192,81769,1,0,0:0:0:0:
64,192,81854,1,0,0:0:0:40:snare2.wav
448,192,81854,1,0,0:0:0:40:kick.wav
320,192,81854,1,0,0:0:0:0:
320,192,82025,1,0,0:0:0:0:
64,192,82195,1,0,0:0:0:40:snare2.wav
192,192,82195,1,0,0:0:0:40:kick.wav
448,192,82195,1,0,0:0:0:0:
320,192,82365,1,0,0:0:0:0:
192,192,82451,1,0,0:0:0:0:
64,192,82536,1,0,0:0:0:40:snare2.wav
320,192,82536,1,0,0:0:0:40:kick.wav
448,192,82536,128,0,82877:0:0:0:0:
192,192,82706,1,0,0:0:0:0:
64,192,82877,1,0,0:0:0:40:snare2.wav
320,192,82877,1,0,0:0:0:40:kick.wav
192,192,82877,128,0,83218:0:0:0:0:
448,192,83047,1,0,0:0:0:0:
64,192,83218,1,0,0:0:0:40:snare2.wav
448,192,83218,1,0,0:0:0:40:kick.wav
320,192,83218,1,0,0:0:0:0:
192,192,83388,1,0,0:0:0:40:snare2.wav
64,192,83388,1,0,0:0:0:0:
192,192,83559,1,0,0:0:0:40:snare2.wav
448,192,83559,1,0,0:0:0:40:kick.wav
320,192,83559,1,0,0:0:0:0:
320,192,83729,1,0,0:0:0:40:snare2.wav
64,192,83729,1,0,0:0:0:0:
64,192,83900,1,0,0:0:0:40:snare2.wav
192,192,83900,1,0,0:0:0:40:kick.wav
448,192,83900,1,0,0:0:0:0:
320,192,84070,1,0,0:0:0:40:snare2.wav
192,192,84070,1,0,0:0:0:0:
448,192,84155,1,0,0:0:0:0:
64,192,84240,1,0,0:0:0:40:snare2.wav
192,192,84240,1,0,0:0:0:40:kick.wav
320,192,84240,1,0,0:0:0:0:
448,192,84326,1,0,0:0:0:0:
64,192,84411,1,0,0:0:0:40:snare2.wav
320,192,84411,1,0,0:0:0:0:
320,192,84581,1,0,0:0:0:40:snare2.wav
192,192,84581,1,0,0:0:0:40:kick.wav
448,192,84581,1,0,0:0:0:0:
64,192,84752,1,0,0:0:0:40:snare2.wav
448,192,84752,1,0,0:0:0:0:
64,192,84922,1,0,0:0:0:40:snare2.wav
320,192,84922,1,0,0:0:0:40:kick.wav
192,192,84922,1,0,0:0:0:0:
192,192,85093,1,0,0:0:0:40:snare2.wav
448,192,85093,1,0,0:0:0:0:
320,192,85178,1,0,0:0:0:0:
64,192,85263,1,0,0:0:0:40:snare2.wav
192,192,85263,1,0,0:0:0:40:kick.wav
448,192,85263,1,0,0:0:0:0:
320,192,85434,1,0,0:0:0:40:snare2.wav
192,192,85434,1,0,0:0:0:0:
320,192,85604,1,0,0:0:0:40:snare2.wav
448,192,85604,1,0,0:0:0:40:kick.wav
64,192,85604,1,0,0:0:0:0:
320,192,85775,1,0,0:0:0:40:snare2.wav
64,192,85775,1,0,0:0:0:0:
448,192,85945,1,0,0:0:0:40:snare2.wav
320,192,85945,1,0,0:0:0:40:kick.wav
192,192,85945,1,0,0:0:0:0:
64,192,86030,1,0,0:0:0:40:snare2.wav
192,192,86115,1,0,0:0:0:40:snare2.wav
448,192,86115,1,0,0:0:0:0:
320,192,86201,1,0,0:0:0:40:snare2.wav
448,192,86286,1,0,0:0:0:40:snare2.wav
192,192,86286,1,0,0:0:0:40:kick.wav
64,192,86286,1,0,0:0:0:0:
320,192,86371,1,0,0:0:0:40:snare2.wav
64,192,86456,1,0,0:0:0:40:snare2.wav
448,192,86456,1,0,0:0:0:0:
192,192,86542,1,0,0:0:0:40:snare2.wav
320,192,86627,1,0,0:0:0:40:snare2.wav
448,192,86627,1,0,0:0:0:40:kick.wav
64,192,86627,1,0,0:0:0:0:
192,192,86712,1,0,0:0:0:40:snare2.wav
320,192,86797,1,0,0:0:0:40:snare2.wav
448,192,86797,1,0,0:0:0:0:
192,192,86882,1,0,0:0:0:40:snare2.wav
64,192,86968,1,0,0:0:0:40:snare2.wav
320,192,86968,1,0,0:0:0:40:kick.wav
448,192,86968,1,0,0:0:0:0:
192,192,87053,1,0,0:0:0:40:snare2.wav
448,192,87138,1,0,0:0:0:40:snare2.wav
64,192,87138,1,0,0:0:0:0:
320,192,87223,1,0,0:0:0:40:snare2.wav
64,192,87309,128,0,87564:0:0:0:50:crash.wav
448,192,87309,128,0,87564:0:0:0:40:kick.wav
192,192,87309,1,0,0:0:0:0:
320,192,87394,1,0,0:0:0:0:
192,192,87479,1,0,0:0:0:0:
448,192,87650,128,0,87905:0:0:0:0:
64,192,87650,128,0,87905:0:0:0:0:
320,192,87735,1,0,0:0:0:0:
192,192,87905,1,0,0:0:0:0:
64,192,87990,128,0,88246:0:0:0:0:
448,192,87990,128,0,88246:0:0:0:0:
320,192,88161,1,0,0:0:0:0:
192,192,88246,1,0,0:0:0:0:
448,192,88331,128,0,88502:0:0:0:0:
320,192,88331,128,0,88502:0:0:0:0:
64,192,88502,128,0,88672:0:0:0:0:
192,192,88502,128,0,88672:0:0:0:0:
448,192,88672,128,0,88928:0:0:0:0:
320,192,88757,128,0,88928:0:0:0:0:
192,192,88843,128,0,88928:0:0:0:0:
320,192,89013,1,0,0:0:0:50:crash.wav
64,192,89013,128,0,89269:0:0:0:40:kick.wav
448,192,89013,128,0,89269:0:0:0:0:
192,192,89354,1,0,0:0:0:40:kick.wav
320,192,89354,1,0,0:0:0:0:
64,192,89525,1,0,0:0:0:0:
320,192,89525,1,0,0:0:0:0:
448,192,89695,1,0,0:0:0:40:kick.wav
64,192,89695,1,0,0:0:0:0:
192,192,89865,1,0,0:0:0:0:
320,192,89865,1,0,0:0:0:0:
192,192,90036,1,0,0:0:0:40:kick.wav
448,192,90036,1,0,0:0:0:0:
320,192,90206,1,0,0:0:0:0:
192,192,90292,1,0,0:0:0:0:
64,192,90377,1,0,0:0:0:40:kick.wav
320,192,90377,1,0,0:0:0:0:
448,192,90547,1,0,0:0:0:0:
64,192,90718,1,0,0:0:0:40:kick.wav
320,192,90718,1,0,0:0:0:0:
192,192,90803,1,0,0:0:0:0:
448,192,90888,1,0,0:0:0:0:
64,192,90973,1,0,0:0:0:0:
320,192,91059,1,0,0:0:0:40:kick.wav
192,192,91059,1,0,0:0:0:0:
64,192,91144,1,0,0:0:0:0:
448,192,91229,1,0,0:0:0:0:
192,192,91314,1,0,0:0:0:0:
320,192,91400,1,0,0:0:0:40:kick.wav
448,192,91400,128,0,91740:0:0:0:0:
192,192,91740,1,0,0:0:0:40:kick.wav
64,192,91740,128,0,91911:0:0:0:0:
320,192,91911,1,0,0:0:0:0:
64,192,92081,1,0,0:0:0:40:kick.wav
448,192,92081,128,0,92252:0:0:0:0:
192,192,92252,128,0,92593:0:0:0:0:
448,192,92422,1,0,0:0:0:40:kick.wav
320,192,92422,128,0,92763:0:0:0:0:
64,192,92593,128,0,92763:0:0:0:0:
192,192,92763,1,0,0:0:0:40:kick.wav
448,192,92763,128,0,92848:0:0:0:0:
320,192,92848,128,0,92934:0:0:0:0:
64,192,92934,128,0,93104:0:0:0:0:
448,192,93104,1,0,0:0:0:40:kick.wav
192,192,93104,128,0,93189:0:0:0:0:
320,192,93189,128,0,93275:0:0:0:0:
448,192,93275,128,0,93445:0:0:0:0:
64,192,93445,1,0,0:0:0:40:kick.wav
320,192,93445,128,0,93530:0:0:0:0:
192,192,93530,128,0,93615:0:0:0:0:
64,192,93615,128,0,93786:0:0:0:0:
448,192,93786,1,0,0:0:0:40:kick.wav
192,192,93786,128,0,93871:0:0:0:0:
320,192,93871,128,0,93956:0:0:0:0:
448,192,93956,128,0,94127:0:0:0:0:
320,192,94127,1,0,0:0:0:50:finish.wav
64,192,94127,128,0,94297:0:0:0:40:kick.wav
192,192,94127,128,0,94297:0:0:0:0:
320,192,94382,1,0,0:0:0:50:finish.wav
64,192,94382,128,0,94553:0:0:0:40:kick.wav
192,192,94382,128,0,94553:0:0:0:0:
320,192,94638,1,0,0:0:0:50:finish.wav
64,192,94638,128,0,94723:0:0:0:40:kick.wav
192,192,94638,128,0,94723:0:0:0:0:
64,192,94809,1,0,0:0:0:50:crash.wav
320,192,94809,1,0,0:0:0:40:kick.wav
448,192,94809,1,0,0:0:0:0:
192,192,94894,1,0,0:0:0:0:
448,192,94979,1,0,0:0:0:0:
320,192,95064,1,0,0:0:0:0:
64,192,95150,1,0,0:0:0:40:kick.wav
192,192,95150,1,0,0:0:0:0:
320,192,95320,1,0,0:0:0:0:
448,192,95490,1,0,0:0:0:40:kick.wav
64,192,95490,128,0,95576:0:0:0:0:
192,192,95576,128,0,95661:0:0:0:0:
320,192,95661,128,0,95746:0:0:0:0:
192,192,95831,1,0,0:0:0:40:kick.wav
448,192,95831,1,0,0:0:0:0:
320,192,95917,1,0,0:0:0:0:
64,192,96002,1,0,0:0:0:0:
320,192,96087,1,0,0:0:0:0:
448,192,96172,1,0,0:0:0:40:kick.wav
64,192,96172,128,0,96257:0:0:0:0:
192,192,96257,128,0,96343:0:0:0:0:
320,192,96343,128,0,96428:0:0:0:0:
448,192,96513,1,0,0:0:0:40:kick.wav
192,192,96513,128,0,96684:0:0:0:0:
320,192,96684,128,0,96854:0:0:0:0:
192,192,96854,1,0,0:0:0:50:crash.wav
64,192,96854,128,0,97025:0:0:0:40:kick.wav
448,192,96854,128,0,97025:0:0:0:0:
320,192,97025,1,0,0:0:0:0:
448,192,97110,1,0,0:0:0:0:
64,192,97195,1,0,0:0:0:0:
192,192,97280,1,0,0:0:0:40:kick.wav
320,192,97280,1,0,0:0:0:0:
320,192,97365,1,0,0:0:0:50:crash.wav
64,192,97365,128,0,97536:0:0:0:40:kick.wav
448,192,97365,128,0,97536:0:0:0:0:
192,192,97536,1,0,0:0:0:0:
320,192,97621,1,0,0:0:0:0:
64,192,97706,1,0,0:0:0:0:
448,192,97792,1,0,0:0:0:40:kick.wav
320,192,97792,1,0,0:0:0:0:
64,192,97877,128,0,98047:0:0:0:50:crash.wav
448,192,97877,128,0,98047:0:0:0:40:kick.wav
192,192,97877,1,0,0:0:0:0:
320,192,98047,128,0,98218:0:0:0:0:
64,192,98218,1,0,0:0:0:50:crash.wav
192,192,98218,128,0,98473:0:0:0:40:kick.wav
448,192,98218,128,0,98473:0:0:0:0:
192,192,98559,128,0,98814:0:0:0:0:
448,192,98559,128,0,98814:0:0:0:0:
320,192,98900,128,0,99155:0:0:0:0:
64,192,98900,128,0,99155:0:0:0:0:
64,192,99240,128,0,99581:0:0:0:0:
320,192,99240,128,0,99411:0:0:0:0:
192,192,99411,128,0,99581:0:0:0:0:
448,192,99581,128,0,99752:0:0:0:0:
64,192,99752,1,0,0:0:0:40:kick.wav
320,192,99752,1,0,0:0:0:0:
64,192,99922,1,0,0:0:0:50:finish.wav
192,192,99922,1,0,0:0:0:40:kick.wav
448,192,100007,128,0,100263:0:0:0:0:
320,192,100348,128,0,100604:0:0:0:0:
192,192,100689,128,0,100945:0:0:0:0:
64,192,101030,128,0,101286:0:0:0:0:
192,192,101371,128,0,101627:0:0:0:0:
320,192,101712,128,0,101968:0:0:0:0:
64,192,101968,1,0,0:0:0:40:snare2.wav
448,192,101968,128,0,102309:0:0:0:0:
192,192,102309,1,0,0:0:0:50:crash.wav
320,192,102309,1,0,0:0:0:40:kick.wav
64,192,102309,128,0,102564:0:0:0:0:
448,192,102479,1,0,0:0:0:0:
192,192,102564,1,0,0:0:0:40:kick.wav
320,192,102564,1,0,0:0:0:0:
64,192,102650,1,0,0:0:0:50:snare.wav
448,192,102650,1,0,0:0:0:0:
192,192,102820,1,0,0:0:0:40:kick.wav
448,192,102820,1,0,0:0:0:0:
320,192,102990,1,0,0:0:0:40:kick.wav
64,192,102990,1,0,0:0:0:0:
192,192,103161,1,0,0:0:0:0:
320,192,103246,1,0,0:0:0:40:kick.wav
448,192,103246,1,0,0:0:0:0:
64,192,103331,1,0,0:0:0:50:snare.wav
192,192,103331,1,0,0:0:0:0:
64,192,103502,1,0,0:0:0:40:kick.wav
448,192,103502,1,0,0:0:0:0:
192,192,103672,1,0,0:0:0:40:kick.wav
320,192,103672,1,0,0:0:0:0:
448,192,103843,1,0,0:0:0:0:
320,192,103928,1,0,0:0:0:40:kick.wav
64,192,103928,1,0,0:0:0:0:
192,192,104013,1,0,0:0:0:50:snare.wav
448,192,104013,1,0,0:0:0:0:
64,192,104184,1,0,0:0:0:40:kick.wav
320,192,104184,1,0,0:0:0:0:
64,192,104354,1,0,0:0:0:40:kick.wav
448,192,104354,1,0,0:0:0:0:
192,192,104525,1,0,0:0:0:0:
448,192,104610,1,0,0:0:0:40:kick.wav
320,192,104610,1,0,0:0:0:0:
64,192,104695,1,0,0:0:0:50:snare.wav
192,192,104695,1,0,0:0:0:0:
192,192,104865,1,0,0:0:0:40:kick.wav
448,192,104865,1,0,0:0:0:0:
64,192,105036,1,0,0:0:0:50:finish.wav
320,192,105036,1,0,0:0:0:40:kick.wav
448,192,105036,128,0,105377:0:0:0:0:
64,192,105377,1,0,0:0:0:50:snare.wav
192,192,105377,1,0,0:0:0:0:
320,192,105547,1,0,0:0:0:40:kick.wav
64,192,105547,1,0,0:0:0:0:
192,192,105718,1,0,0:0:0:40:kick.wav
448,192,105718,1,0,0:0:0:0:
320,192,105803,1,0,0:0:0:0:
64,192,105888,1,0,0:0:0:0:
320,192,105973,1,0,0:0:0:40:kick.wav
448,192,105973,1,0,0:0:0:0:
64,192,106059,1,0,0:0:0:50:snare.wav
192,192,106059,1,0,0:0:0:0:
320,192,106229,1,0,0:0:0:40:kick.wav
448,192,106229,1,0,0:0:0:0:
448,192,106400,128,0,106570:0:0:0:50:finish.wav
64,192,106400,128,0,106570:0:0:0:40:kick.wav
320,192,106655,128,0,106826:0:0:0:50:finish.wav
192,192,106655,128,0,106826:0:0:0:40:kick.wav
448,192,106740,1,0,0:0:0:50:snare.wav
64,192,106740,1,0,0:0:0:0:
64,192,106911,128,0,107081:0:0:0:50:finish.wav
320,192,106911,128,0,107081:0:0:0:40:kick.wav
192,192,107167,128,0,107337:0:0:0:50:finish.wav
448,192,107167,128,0,107337:0:0:0:40:kick.wav
64,192,107422,128,0,107507:0:0:0:50:finish.wav
448,192,107422,128,0,107507:0:0:0:50:snare.wav
320,192,107422,1,0,0:0:0:0:
320,192,107593,128,0,107678:0:0:0:40:kick.wav
64,192,107593,128,0,107678:0:0:0:0:
192,192,107763,128,0,107934:0:0:0:50:finish.wav
320,192,107763,128,0,107934:0:0:0:40:kick.wav
192,192,108019,128,0,108189:0:0:0:50:finish.wav
448,192,108019,128,0,108189:0:0:0:40:kick.wav
320,192,108104,1,0,0:0:0:50:snare.wav
64,192,108104,1,0,0:0:0:0:
64,192,108275,128,0,108445:0:0:0:50:finish.wav
448,192,108275,128,0,108445:0:0:0:40:kick.wav
320,192,108530,128,0,108701:0:0:0:50:finish.wav
64,192,108530,128,0,108701:0:0:0:40:kick.wav
192,192,108786,128,0,108871:0:0:0:50:finish.wav
320,192,108786,128,0,108871:0:0:0:50:snare.wav
448,192,108786,1,0,0:0:0:0:
64,192,108956,128,0,109042:0:0:0:40:kick.wav
448,192,108956,128,0,109042:0:0:0:0:
320,192,109127,128,0,109468:0:0:0:50:finish.wav
64,192,109127,128,0,109468:0:0:0:40:kick.wav
192,192,109127,1,0,0:0:0:0:
448,192,109468,128,0,109809:0:0:0:0:
64,192,109809,128,0,110150:0:0:0:50:finish.wav
192,192,109809,1,0,0:0:0:40:kick.wav
320,192,109809,128,0,110150:0:0:0:0:
192,192,110150,128,0,110490:0:0:0:0:
320,192,110490,1,0,0:0:0:50:finish.wav
448,192,110490,128,0,110831:0:0:0:40:kick.wav
64,192,110490,128,0,110831:0:0:0:0:
320,192,110831,128,0,111172:0:0:0:0:
192,192,111172,1,0,0:0:0:50:finish.wav
64,192,111172,128,0,111513:0:0:0:40:kick.wav
448,192,111172,128,0,111513:0:0:0:0:
192,192,111513,128,0,111854:0:0:0:0:
320,192,111854,128,0,112195:0:0:0:50:finish.wav
448,192,111854,128,0,112195:0:0:0:40:kick.wav
64,192,111854,1,0,0:0:0:0:
64,192,112195,128,0,112536:0:0:0:0:
448,192,112536,128,0,112877:0:0:0:50:finish.wav
320,192,112536,1,0,0:0:0:40:kick.wav
192,192,112536,128,0,112877:0:0:0:0:
320,192,112877,128,0,113218:0:0:0:0:
64,192,112877,128,0,113132:0:0:0:0:
192,192,113218,1,0,0:0:0:50:finish.wav
64,192,113218,128,0,113559:0:0:0:40:kick.wav
448,192,113218,128,0,113559:0:0:0:0:
192,192,113559,128,0,113900:0:0:0:0:
320,192,113559,128,0,113814:0:0:0:0:
448,192,113900,1,0,0:0:0:50:finish.wav
64,192,113900,128,0,114240:0:0:0:40:kick.wav
320,192,113900,128,0,114240:0:0:0:0:
448,192,114240,128,0,114581:0:0:0:0:
192,192,114240,128,0,114496:0:0:0:0:
320,192,114581,1,0,0:0:0:50:finish.wav
64,192,114581,128,0,114752:0:0:0:40:kick.wav
192,192,114581,128,0,114752:0:0:0:0:
320,192,114752,1,0,0:0:0:0:
448,192,114752,1,0,0:0:0:0:
448,192,114922,1,0,0:0:0:50:finish.wav
192,192,114922,128,0,115093:0:0:0:40:kick.wav
64,192,114922,128,0,115093:0:0:0:0:
320,192,115093,1,0,0:0:0:0:
448,192,115093,1,0,0:0:0:0:
64,192,115263,1,0,0:0:0:50:finish.wav
320,192,115263,128,0,115434:0:0:0:40:kick.wav
192,192,115263,128,0,115434:0:0:0:0:
64,192,115434,1,0,0:0:0:0:
448,192,115434,1,0,0:0:0:0:
192,192,115604,1,0,0:0:0:50:finish.wav
448,192,115604,128,0,115775:0:0:0:40:kick.wav
320,192,115604,128,0,115775:0:0:0:0:
64,192,115775,1,0,0:0:0:0:
192,192,115775,1,0,0:0:0:0:
448,192,115945,1,0,0:0:0:50:finish.wav
320,192,115945,128,0,116115:0:0:0:40:kick.wav
64,192,115945,128,0,116115:0:0:0:0:
192,192,116115,1,0,0:0:0:0:
448,192,116115,1,0,0:0:0:0:
64,192,116286,1,0,0:0:0:50:finish.wav
192,192,116286,128,0,116456:0:0:0:40:kick.wav
448,192,116286,128,0,116456:0:0:0:0:
64,192,116456,1,0,0:0:0:0:
320,192,116456,1,0,0:0:0:0:
448,192,116627,1,0,0:0:0:50:finish.wav
64,192,116627,128,0,116797:0:0:0:40:kick.wav
192,192,116627,128,0,116797:0:0:0:0:
320,192,116797,1,0,0:0:0:0:
448,192,116797,1,0,0:0:0:0:
64,192,116968,1,0,0:0:0:50:finish.wav
448,192,116968,128,0,117138:0:0:0:40:kick.wav
320,192,116968,128,0,117138:0:0:0:0:
64,192,117138,1,0,0:0:0:0:
192,192,117138,1,0,0:0:0:0:
64,192,117309,1,0,0:0:0:50:finish.wav
320,192,117309,1,0,0:0:0:40:kick.wav
448,192,117309,1,0,0:0:0:0:
192,192,117394,1,0,0:0:0:0:
64,192,117479,1,0,0:0:0:0:
448,192,117479,1,0,0:0:0:0:
320,192,117564,1,0,0:0:0:0:
64,192,117650,1,0,0:0:0:50:finish.wav
448,192,117650,1,0,0:0:0:40:kick.wav
192,192,117650,1,0,0:0:0:0:
320,192,117735,1,0,0:0:0:0:
64,192,117820,1,0,0:0:0:0:
448,192,117820,1,0,0:0:0:0:
192,192,117905,1,0,0:0:0:0:
64,192,117990,1,0,0:0:0:50:finish.wav
320,192,117990,1,0,0:0:0:40:kick.wav
448,192,117990,1,0,0:0:0:0:
192,192,118076,1,0,0:0:0:0:
64,192,118161,1,0,0:0:0:0:
448,192,118161,1,0,0:0:0:0:
320,192,118246,1,0,0:0:0:0:
448,192,118331,1,0,0:0:0:50:finish.wav
64,192,118331,1,0,0:0:0:40:kick.wav
192,192,118331,1,0,0:0:0:0:
320,192,118417,1,0,0:0:0:0:
64,192,118502,1,0,0:0:0:0:
448,192,118502,1,0,0:0:0:0:
192,192,118587,1,0,0:0:0:0:
320,192,118672,1,0,0:0:0:50:finish.wav
64,192,118672,128,0,119695:0:0:0:40:kick.wav
448,192,118672,128,0,119354:0:0:0:0:
192,192,118843,1,0,0:0:0:0:
320,192,118928,1,0,0:0:0:0:
192,192,119098,1,0,0:0:0:0:
320,192,119184,1,0,0:0:0:0:
192,192,119354,128,0,119695:0:0:0:0:
320,192,119695,1,0,0:0:0:0:
448,192,119695,1,0,0:0:0:0:
64,192,119780,1,0,0:0:0:0:
192,192,119865,1,0,0:0:0:0:
320,192,119951,1,0,0:0:0:0:
64,192,120036,1,0,0:0:0:50:finish.wav
448,192,120036,1,0,0:0:0:40:kick.wav
192,192,120036,1,0,0:0:0:0:
192,192,120206,1,0,0:0:0:0:
64,192,120377,1,0,0:0:0:40:kick.wav
320,192,120377,1,0,0:0:0:0:
448,192,120547,1,0,0:0:0:0:
192,192,120632,1,0,0:0:0:0:
64,192,120632,1,0,0:0:0:0:
320,192,120718,1,0,0:0:0:40:kick.wav
448,192,120718,1,0,0:0:0:0:
192,192,120888,1,0,0:0:0:0:
320,192,120888,1,0,0:0:0:0:
448,192,121059,1,0,0:0:0:40:kick.wav
64,192,121059,128,0,121400:0:0:0:0:
320,192,121229,1,0,0:0:0:0:
192,192,121400,1,0,0:0:0:40:kick.wav
448,192,121400,1,0,0:0:0:0:
64,192,121570,1,0,0:0:0:0:
320,192,121570,1,0,0:0:0:0:
320,192,121740,1,0,0:0:0:40:kick.wav
192,192,121740,128,0,122081:0:0:0:0:
448,192,121911,1,0,0:0:0:0:
64,192,122081,1,0,0:0:0:40:kick.wav
320,192,122081,128,0,122422:0:0:0:0:
192,192,122252,1,0,0:0:0:0:
64,192,122422,1,0,0:0:0:40:kick.wav
448,192,122422,128,0,122763:0:0:0:0:
320,192,122593,1,0,0:0:0:0:
64,192,122763,1,0,0:0:0:40:kick.wav
192,192,122763,128,0,123104:0:0:0:0:
448,192,122934,1,0,0:0:0:0:
320,192,123104,1,0,0:0:0:40:kick.wav
64,192,123104,1,0,0:0:0:0:
192,192,123275,1,0,0:0:0:0:
320,192,123360,1,0,0:0:0:0:
448,192,123360,1,0,0:0:0:0:
192,192,123445,1,0,0:0:0:40:kick.wav
64,192,123445,1,0,0:0:0:0:
320,192,123615,1,0,0:0:0:0:
192,192,123615,1,0,0:0:0:0:
64,192,123786,1,0,0:0:0:40:kick.wav
448,192,123786,128,0,124127:0:0:0:0:
192,192,123956,1,0,0:0:0:0:
64,192,124127,1,0,0:0:0:40:kick.wav
320,192,124127,1,0,0:0:0:0:
192,192,124297,1,0,0:0:0:0:
320,192,124297,1,0,0:0:0:0:
448,192,124468,1,0,0:0:0:40:kick.wav
192,192,124468,1,0,0:0:0:0:
192,192,124638,1,0,0:0:0:0:
64,192,124638,1,0,0:0:0:0:
448,192,124809,1,0,0:0:0:40:kick.wav
64,192,124809,1,0,0:0:0:0:
320,192,124979,1,0,0:0:0:0:
192,192,124979,1,0,0:0:0:0:
64,192,125150,1,0,0:0:0:40:kick.wav
320,192,125150,1,0,0:0:0:0:
192,192,125320,1,0,0:0:0:0:
64,192,125320,1,0,0:0:0:0:
192,192,125490,1,0,0:0:0:40:kick.wav
448,192,125490,128,0,125831:0:0:0:0:
320,192,125661,1,0,0:0:0:0:
192,192,125831,1,0,0:0:0:40:kick.wav
64,192,125831,1,0,0:0:0:0:
320,192,126002,1,0,0:0:0:0:
192,192,126087,1,0,0:0:0:0:
64,192,126087,1,0,0:0:0:0:
320,192,126172,1,0,0:0:0:40:kick.wav
448,192,126172,1,0,0:0:0:0:
192,192,126343,1,0,0:0:0:0:
320,192,126343,1,0,0:0:0:0:
64,192,126513,1,0,0:0:0:40:kick.wav
448,192,126513,128,0,126854:0:0:0:0:
320,192,126684,1,0,0:0:0:0:
64,192,126854,1,0,0:0:0:40:kick.wav
192,192,126854,1,0,0:0:0:0:
448,192,127025,1,0,0:0:0:0:
320,192,127025,1,0,0:0:0:0:
320,192,127195,1,0,0:0:0:40:kick.wav
64,192,127195,128,0,127536:0:0:0:0:
192,192,127365,1,0,0:0:0:0:
448,192,127536,1,0,0:0:0:40:kick.wav
320,192,127536,128,0,127877:0:0:0:0:
64,192,127706,1,0,0:0:0:0:
448,192,127877,1,0,0:0:0:40:kick.wav
192,192,127877,128,0,128218:0:0:0:0:
320,192,128047,1,0,0:0:0:0:
448,192,128218,1,0,0:0:0:40:kick.wav
64,192,128218,128,0,128559:0:0:0:0:
192,192,128388,1,0,0:0:0:0:
320,192,128559,1,0,0:0:0:40:kick.wav
448,192,128559,1,0,0:0:0:0:
64,192,128729,1,0,0:0:0:0:
192,192,128814,1,0,0:0:0:0:
448,192,128814,1,0,0:0:0:0:
64,192,128900,1,0,0:0:0:40:kick.wav
320,192,128900,1,0,0:0:0:0:
192,192,129070,1,0,0:0:0:0:
320,192,129070,1,0,0:0:0:0:
448,192,129240,1,0,0:0:0:40:kick.wav
64,192,129240,128,0,129581:0:0:0:0:
320,192,129411,1,0,0:0:0:0:
448,192,129581,1,0,0:0:0:40:kick.wav
192,192,129581,128,0,129922:0:0:0:0:
320,192,129752,1,0,0:0:0:0:
64,192,129922,1,0,0:0:0:40:kick.wav
448,192,129922,128,0,130263:0:0:0:0:
192,192,130093,1,0,0:0:0:0:
320,192,130263,1,0,0:0:0:40:kick.wav
64,192,130263,128,0,130604:0:0:0:0:
192,192,130434,1,0,0:0:0:0:
448,192,130604,1,0,0:0:0:40:kick.wav
320,192,130604,128,0,130945:0:0:0:0:
192,192,130775,1,0,0:0:0:0:
64,192,130945,1,0,0:0:0:50:finish.wav
448,192,130945,1,0,0:0:0:40:kick.wav
192,192,130945,1,0,0:0:0:0:
320,192,131115,1,0,0:0:0:0:
64,192,131286,1,0,0:0:0:40:kick.wav
448,192,131286,1,0,0:0:0:0:
320,192,131456,1,0,0:0:0:0:
64,192,131542,1,0,0:0:0:0:
448,192,131542,1,0,0:0:0:0:
320,192,131627,1,0,0:0:0:40:kick.wav
192,192,131627,1,0,0:0:0:0:
320,192,131797,1,0,0:0:0:0:
64,192,131797,1,0,0:0:0:0:
64,192,131968,1,0,0:0:0:40:kick.wav
448,192,131968,128,0,132309:0:0:0:0:
192,192,132138,1,0,0:0:0:0:
64,192,132309,1,0,0:0:0:40:kick.wav
320,192,132309,1,0,0:0:0:0:
192,192,132479,1,0,0:0:0:0:
448,192,132479,1,0,0:0:0:0:
320,192,132650,1,0,0:0:0:40:kick.wav
64,192,132650,128,0,132990:0:0:0:0:
448,192,132820,1,0,0:0:0:0:
192,192,132990,1,0,0:0:0:40:kick.wav
320,192,132990,128,0,133331:0:0:0:0:
64,192,133161,1,0,0:0:0:0:
448,192,133331,1,0,0:0:0:40:kick.wav
192,192,133331,128,0,133672:0:0:0:0:
320,192,133502,1,0,0:0:0:0:
448,192,133672,1,0,0:0:0:40:kick.wav
64,192,133672,128,0,134013:0:0:0:0:
192,192,133843,1,0,0:0:0:0:
320,192,134013,1,0,0:0:0:40:kick.wav
448,192,134013,1,0,0:0:0:0:
192,192,134184,1,0,0:0:0:0:
448,192,134269,1,0,0:0:0:0:
64,192,134269,1,0,0:0:0:0:
320,192,134354,1,0,0:0:0:40:kick.wav
192,192,134354,1,0,0:0:0:0:
64,192,134525,1,0,0:0:0:0:
320,192,134525,1,0,0:0:0:0:
448,192,134695,1,0,0:0:0:40:kick.wav
192,192,134695,128,0,135036:0:0:0:0:
320,192,134865,1,0,0:0:0:0:
64,192,135036,1,0,0:0:0:40:kick.wav
448,192,135036,1,0,0:0:0:0:
192,192,135206,1,0,0:0:0:0:
320,192,135206,1,0,0:0:0:0:
192,192,135377,1,0,0:0:0:40:kick.wav
448,192,135377,1,0,0:0:0:0:
64,192,135547,1,0,0:0:0:0:
320,192,135547,1,0,0:0:0:0:
64,192,135718,1,0,0:0:0:40:kick.wav
448,192,135718,1,0,0:0:0:0:
320,192,135888,1,0,0:0:0:0:
448,192,135888,1,0,0:0:0:0:
64,192,136059,1,0,0:0:0:40:kick.wav
320,192,136059,1,0,0:0:0:0:
192,192,136229,1,0,0:0:0:0:
64,192,136229,1,0,0:0:0:0:
448,192,136400,1,0,0:0:0:40:kick.wav
192,192,136400,128,0,136740:0:0:0:0:
320,192,136570,1,0,0:0:0:0:
64,192,136740,1,0,0:0:0:40:kick.wav
448,192,136740,1,0,0:0:0:0:
192,192,136911,1,0,0:0:0:0:
320,192,136996,1,0,0:0:0:0:
448,192,136996,1,0,0:0:0:0:
192,192,137081,1,0,0:0:0:40:kick.wav
64,192,137081,1,0,0:0:0:0:
64,192,137252,1,0,0:0:0:0:
320,192,137252,1,0,0:0:0:0:
448,192,137422,1,0,0:0:0:40:kick.wav
192,192,137422,128,0,137763:0:0:0:0:
320,192,137593,1,0,0:0:0:0:
64,192,137763,1,0,0:0:0:40:kick.wav
448,192,137763,1,0,0:0:0:0:
192,192,137934,1,0,0:0:0:0:
320,192,137934,1,0,0:0:0:0:
448,192,138104,1,0,0:0:0:40:kick.wav
64,192,138104,128,0,138445:0:0:0:0:
192,192,138275,1,0,0:0:0:0:
320,192,138445,1,0,0:0:0:40:kick.wav
448,192,138445,128,0,138786:0:0:0:0:
64,192,138615,1,0,0:0:0:0:
320,192,138786,1,0,0:0:0:40:kick.wav
192,192,138786,128,0,139127:0:0:0:0:
448,192,138956,1,0,0:0:0:0:
64,192,139127,1,0,0:0:0:40:kick.wav
320,192,139127,128,0,139468:0:0:0:0:
192,192,139297,1,0,0:0:0:0:
64,192,139468,1,0,0:0:0:40:kick.wav
448,192,139468,1,0,0:0:0:0:
320,192,139638,1,0,0:0:0:0:
64,192,139723,1,0,0:0:0:0:
192,192,139723,1,0,0:0:0:0:
448,192,139809,1,0,0:0:0:40:kick.wav
320,192,139809,1,0,0:0:0:0:
192,192,139979,1,0,0:0:0:0:
448,192,139979,1,0,0:0:0:0:
64,192,140150,1,0,0:0:0:40:kick.wav
320,192,140150,128,0,140490:0:0:0:0:
192,192,140320,1,0,0:0:0:0:
64,192,140490,1,0,0:0:0:50:crash.wav
448,192,140490,128,0,140831:0:0:0:40:kick.wav
320,192,140831,1,0,0:0:0:50:crash.wav
192,192,140831,128,0,141172:0:0:0:0:
320,192,141172,1,0,0:0:0:50:crash.wav
64,192,141172,128,0,141513:0:0:0:0:
448,192,141513,1,0,0:0:0:50:crash.wav
192,192,141513,128,0,141684:0:0:0:0:
320,192,141684,1,0,0:0:0:40:kick.wav
448,192,141684,1,0,0:0:0:0:
64,192,141854,128,0,142110:0:0:0:40:kick.wav
320,192,141854,1,0,0:0:0:0:
192,192,141939,128,0,142110:0:0:0:0:
320,192,142025,128,0,142110:0:0:0:0:
192,192,142195,1,0,0:0:0:50:finish.wav
320,192,142195,1,0,0:0:0:40:kick.wav
448,192,142195,128,0,142365:0:0:0:0:
64,192,142365,1,0,0:0:0:0:
192,192,142451,1,0,0:0:0:0:
320,192,142451,1,0,0:0:0:0:
448,192,142536,1,0,0:0:0:40:kick.wav
64,192,142536,128,0,142706:0:0:0:0:
192,192,142706,1,0,0:0:0:0:
320,192,142706,128,0,142877:0:0:0:0:
64,192,142877,1,0,0:0:0:40:kick.wav
448,192,142877,128,0,143218:0:0:0:0:
320,192,143047,1,0,0:0:0:0:
192,192,143218,1,0,0:0:0:40:kick.wav
64,192,143218,128,0,143388:0:0:0:0:
448,192,143388,128,0,143559:0:0:0:0:
320,192,143388,1,0,0:0:0:0:
320,192,143559,128,0,143900:0:0:0:40:kick.wav
192,192,143559,1,0,0:0:0:0:
64,192,143729,1,0,0:0:0:0:
448,192,143900,1,0,0:0:0:40:kick.wav
192,192,143900,128,0,144240:0:0:0:0:
320,192,144070,1,0,0:0:0:0:
64,192,144240,1,0,0:0:0:40:kick.wav
448,192,144240,128,0,144581:0:0:0:0:
192,192,144411,1,0,0:0:0:0:
320,192,144581,1,0,0:0:0:40:kick.wav
64,192,144581,128,0,144922:0:0:0:0:
448,192,144752,1,0,0:0:0:0:
192,192,144922,128,0,145093:0:0:0:40:kick.wav
320,192,144922,1,0,0:0:0:0:
448,192,145093,1,0,0:0:0:0:
64,192,145178,1,0,0:0:0:0:
192,192,145178,1,0,0:0:0:0:
320,192,145263,1,0,0:0:0:40:kick.wav
448,192,145263,128,0,145434:0:0:0:0:
320,192,145434,1,0,0:0:0:0:
64,192,145434,128,0,145604:0:0:0:0:
192,192,145604,1,0,0:0:0:40:kick.wav
448,192,145604,128,0,145945:0:0:0:0:
320,192,145775,1,0,0:0:0:0:
192,192,145945,1,0,0:0:0:40:kick.wav
64,192,145945,1,0,0:0:0:0:
64,192,146115,1,0,0:0:0:0:
320,192,146115,1,0,0:0:0:0:
448,192,146286,1,0,0:0:0:40:kick.wav
192,192,146286,1,0,0:0:0:0:
320,192,146456,1,0,0:0:0:0:
192,192,146456,1,0,0:0:0:0:
448,192,146627,1,0,0:0:0:40:kick.wav
64,192,146627,1,0,0:0:0:0:
64,192,146797,1,0,0:0:0:0:
192,192,146797,1,0,0:0:0:0:
192,192,146968,1,0,0:0:0:40:kick.wav
448,192,146968,1,0,0:0:0:0:
448,192,147138,1,0,0:0:0:0:
320,192,147138,1,0,0:0:0:0:
448,192,147309,1,0,0:0:0:40:kick.wav
64,192,147309,128,0,147650:0:0:0:0:
320,192,147479,1,0,0:0:0:0:
192,192,147650,1,0,0:0:0:40:kick.wav
448,192,147650,128,0,147820:0:0:0:0:
320,192,147820,1,0,0:0:0:0:
64,192,147905,1,0,0:0:0:0:
192,192,147905,1,0,0:0:0:0:
320,192,147990,1,0,0:0:0:40:kick.wav
448,192,147990,128,0,148161:0:0:0:0:
64,192,148161,128,0,148331:0:0:0:0:
192,192,148161,1,0,0:0:0:0:
192,192,148331,1,0,0:0:0:40:kick.wav
448,192,148331,128,0,148672:0:0:0:0:
320,192,148502,1,0,0:0:0:0:
192,192,148672,1,0,0:0:0:40:kick.wav
64,192,148672,128,0,148843:0:0:0:0:
448,192,148843,1,0,0:0:0:0:
320,192,148843,128,0,149013:0:0:0:0:
448,192,149013,1,0,0:0:0:40:kick.wav
64,192,149013,128,0,149354:0:0:0:0:
192,192,149184,1,0,0:0:0:0:
320,192,149354,1,0,0:0:0:40:kick.wav
448,192,149354,128,0,149695:0:0:0:0:
192,192,149525,1,0,0:0:0:0:
320,192,149695,1,0,0:0:0:40:kick.wav
64,192,149695,128,0,150036:0:0:0:0:
192,192,149865,1,0,0:0:0:0:
320,192,150036,1,0,0:0:0:40:kick.wav
448,192,150036,128,0,150377:0:0:0:0:
192,192,150206,1,0,0:0:0:0:
64,192,150377,1,0,0:0:0:40:kick.wav
320,192,150377,128,0,150547:0:0:0:0:
192,192,150547,1,0,0:0:0:0:
320,192,150632,1,0,0:0:0:0:
448,192,150632,1,0,0:0:0:0:
192,192,150718,1,0,0:0:0:40:kick.wav
64,192,150718,128,0,150888:0:0:0:0:
448,192,150888,1,0,0:0:0:0:
320,192,150888,128,0,151059:0:0:0:0:
448,192,151059,1,0,0:0:0:40:kick.wav
192,192,151059,128,0,151400:0:0:0:0:
64,192,151229,1,0,0:0:0:0:
448,192,151400,1,0,0:0:0:40:kick.wav
320,192,151400,128,0,151740:0:0:0:0:
64,192,151570,1,0,0:0:0:0:
448,192,151740,1,0,0:0:0:40:kick.wav
192,192,151740,128,0,152081:0:0:0:0:
320,192,151911,1,0,0:0:0:0:
448,192,152081,1,0,0:0:0:40:kick.wav
64,192,152081,128,0,152422:0:0:0:0:
192,192,152252,1,0,0:0:0:0:
448,192,152422,1,0,0:0:0:40:kick.wav
320,192,152422,128,0,152593:0:0:0:0:
192,192,152593,128,0,152763:0:0:0:0:
64,192,152763,1,0,0:0:0:40:snare2.wav
320,192,152763,1,0,0:0:0:50:finish.wav
448,192,152763,128,0,153104:0:0:0:40:kick.wav
192,192,152934,1,0,0:0:0:0:
64,192,153104,1,0,0:0:0:40:snare2.wav
320,192,153104,1,0,0:0:0:40:kick.wav
192,192,153104,1,0,0:0:0:0:
64,192,153275,1,0,0:0:0:40:snare2.wav
320,192,153275,1,0,0:0:0:0:
448,192,153275,1,0,0:0:0:0:
192,192,153360,1,0,0:0:0:0:
64,192,153445,1,0,0:0:0:40:snare2.wav
320,192,153445,1,0,0:0:0:40:kick.wav
448,192,153445,1,0,0:0:0:0:
192,192,153615,1,0,0:0:0:0:
320,192,153615,1,0,0:0:0:0:
192,192,153786,1,0,0:0:0:40:snare2.wav
448,192,153786,1,0,0:0:0:40:kick.wav
64,192,153786,128,0,154127:0:0:0:0:
320,192,153956,1,0,0:0:0:0:
320,192,154127,1,0,0:0:0:40:snare2.wav
448,192,154127,1,0,0:0:0:40:kick.wav
192,192,154127,128,0,154297:0:0:0:0:
64,192,154297,1,0,0:0:0:0:
448,192,154297,128,0,154468:0:0:0:0:
64,192,154468,1,0,0:0:0:40:snare2.wav
192,192,154468,1,0,0:0:0:40:kick.wav
320,192,154468,128,0,154809:0:0:0:0:
192,192,154638,1,0,0:0:0:0:
64,192,154809,1,0,0:0:0:40:snare2.wav
192,192,154809,1,0,0:0:0:40:kick.wav
448,192,154809,128,0,155150:0:0:0:0:
320,192,154979,1,0,0:0:0:0:
192,192,155150,1,0,0:0:0:40:snare2.wav
320,192,155150,1,0,0:0:0:40:kick.wav
64,192,155150,128,0,155490:0:0:0:0:
448,192,155320,1,0,0:0:0:0:
192,192,155490,1,0,0:0:0:40:snare2.wav
320,192,155490,1,0,0:0:0:40:kick.wav
448,192,155490,128,0,155831:0:0:0:0:
192,192,155661,1,0,0:0:0:0:
64,192,155831,1,0,0:0:0:40:snare2.wav
320,192,155831,1,0,0:0:0:40:kick.wav
192,192,155831,1,0,0:0:0:0:
448,192,156002,1,0,0:0:0:40:snare2.wav
320,192,156002,1,0,0:0:0:0:
64,192,156002,1,0,0:0:0:0:
192,192,156087,1,0,0:0:0:0:
448,192,156172,1,0,0:0:0:40:snare2.wav
64,192,156172,1,0,0:0:0:40:kick.wav
320,192,156172,1,0,0:0:0:0:
192,192,156343,1,0,0:0:0:0:
320,192,156343,1,0,0:0:0:0:
192,192,156513,1,0,0:0:0:40:snare2.wav
448,192,156513,1,0,0:0:0:40:kick.wav
64,192,156513,128,0,156854:0:0:0:0:
320,192,156684,1,0,0:0:0:0:
192,192,156854,1,0,0:0:0:40:snare2.wav
320,192,156854,1,0,0:0:0:40:kick.wav
448,192,156854,1,0,0:0:0:0:
64,192,157025,1,0,0:0:0:0:
192,192,157025,1,0,0:0:0:0:
64,192,157195,1,0,0:0:0:40:snare2.wav
320,192,157195,1,0,0:0:0:40:kick.wav
448,192,157195,1,0,0:0:0:0:
192,192,157365,1,0,0:0:0:0:
448,192,157365,1,0,0:0:0:0:
64,192,157536,1,0,0:0:0:40:snare2.wav
192,192,157536,1,0,0:0:0:40:kick.wav
320,192,157536,1,0,0:0:0:0:
448,192,157706,1,0,0:0:0:0:
320,192,157706,1,0,0:0:0:0:
192,192,157877,1,0,0:0:0:40:snare2.wav
448,192,157877,1,0,0:0:0:40:kick.wav
64,192,157877,1,0,0:0:0:0:
64,192,158047,1,0,0:0:0:0:
320,192,158047,1,0,0:0:0:0:
192,192,158218,1,0,0:0:0:40:snare2.wav
448,192,158218,1,0,0:0:0:40:kick.wav
320,192,158218,1,0,0:0:0:0:
64,192,158388,1,0,0:0:0:40:snare2.wav
192,192,158388,1,0,0:0:0:0:
64,192,158559,1,0,0:0:0:40:snare2.wav
320,192,158559,1,0,0:0:0:40:kick.wav
448,192,158559,1,0,0:0:0:0:
448,192,158729,1,0,0:0:0:40:snare2.wav
192,192,158729,1,0,0:0:0:0:
64,192,158729,1,0,0:0:0:0:
320,192,158814,1,0,0:0:0:0:
448,192,158900,1,0,0:0:0:40:snare2.wav
64,192,158900,1,0,0:0:0:40:kick.wav
192,192,158900,1,0,0:0:0:0:
320,192,159070,1,0,0:0:0:40:snare2.wav
192,192,159070,1,0,0:0:0:0:
64,192,159240,1,0,0:0:0:40:snare2.wav
448,192,159240,1,0,0:0:0:40:kick.wav
320,192,159240,1,0,0:0:0:0:
192,192,159411,1,0,0:0:0:40:snare2.wav
64,192,159411,1,0,0:0:0:0:
192,192,159581,1,0,0:0:0:40:snare2.wav
320,192,159581,1,0,0:0:0:40:kick.wav
448,192,159581,1,0,0:0:0:0:
64,192,159752,1,0,0:0:0:40:snare2.wav
320,192,159752,1,0,0:0:0:0:
192,192,159922,1,0,0:0:0:40:snare2.wav
320,192,159922,1,0,0:0:0:40:kick.wav
448,192,159922,1,0,0:0:0:0:
64,192,160093,1,0,0:0:0:40:snare2.wav
192,192,160093,1,0,0:0:0:0:
64,192,160263,1,0,0:0:0:40:snare2.wav
320,192,160263,1,0,0:0:0:40:kick.wav
448,192,160263,1,0,0:0:0:0:
192,192,160434,1,0,0:0:0:40:snare2.wav
448,192,160434,1,0,0:0:0:0:
64,192,160604,1,0,0:0:0:40:snare2.wav
192,192,160604,1,0,0:0:0:40:kick.wav
320,192,160604,1,0,0:0:0:0:
64,192,160775,1,0,0:0:0:40:snare2.wav
448,192,160775,1,0,0:0:0:0:
192,192,160945,1,0,0:0:0:40:snare2.wav
320,192,160945,1,0,0:0:0:40:kick.wav
448,192,160945,1,0,0:0:0:0:
64,192,161030,1,0,0:0:0:40:snare2.wav
192,192,161115,1,0,0:0:0:40:snare2.wav
320,192,161115,1,0,0:0:0:0:
448,192,161201,1,0,0:0:0:40:snare2.wav
64,192,161286,1,0,0:0:0:40:snare2.wav
192,192,161286,1,0,0:0:0:40:kick.wav
320,192,161286,1,0,0:0:0:0:
448,192,161371,1,0,0:0:0:40:snare2.wav
64,192,161456,1,0,0:0:0:40:snare2.wav
320,192,161456,1,0,0:0:0:0:
192,192,161542,1,0,0:0:0:40:snare2.wav
64,192,161627,1,0,0:0:0:40:snare2.wav
320,192,161627,1,0,0:0:0:40:kick.wav
448,192,161627,1,0,0:0:0:0:
192,192,161712,1,0,0:0:0:40:snare2.wav
64,192,161797,1,0,0:0:0:40:snare2.wav
448,192,161797,1,0,0:0:0:0:
192,192,161882,1,0,0:0:0:40:snare2.wav
64,192,161968,1,0,0:0:0:40:snare2.wav
448,192,161968,1,0,0:0:0:40:kick.wav
320,192,161968,1,0,0:0:0:0:
192,192,162053,1,0,0:0:0:40:snare2.wav
64,192,162138,1,0,0:0:0:40:snare2.wav
448,192,162138,1,0,0:0:0:0:
320,192,162223,1,0,0:0:0:40:snare2.wav
64,192,162309,1,0,0:0:0:50:crash.wav
192,192,162309,1,0,0:0:0:40:kick.wav
448,192,162309,1,0,0:0:0:0:
320,192,162394,1,0,0:0:0:0:
192,192,162479,1,0,0:0:0:0:
64,192,162564,1,0,0:0:0:50:crash.wav
320,192,162564,1,0,0:0:0:40:kick.wav
448,192,162564,1,0,0:0:0:0:
192,192,162650,1,0,0:0:0:0:
320,192,162735,1,0,0:0:0:0:
64,192,162820,1,0,0:0:0:50:crash.wav
192,192,162820,1,0,0:0:0:40:kick.wav
448,192,162820,1,0,0:0:0:0:
320,192,162905,1,0,0:0:0:0:
64,192,162990,1,0,0:0:0:0:
192,192,163076,1,0,0:0:0:50:crash.wav
320,192,163076,1,0,0:0:0:40:kick.wav
448,192,163076,1,0,0:0:0:0:
64,192,163161,1,0,0:0:0:0:
320,192,163246,1,0,0:0:0:0:
64,192,163331,1,0,0:0:0:50:crash.wav
192,192,163331,1,0,0:0:0:40:kick.wav
448,192,163331,1,0,0:0:0:0:
192,192,163502,1,0,0:0:0:50:crash.wav
320,192,163502,1,0,0:0:0:40:kick.wav
448,192,163502,1,0,0:0:0:0:
320,192,163672,1,0,0:0:0:50:crash.wav
192,192,163672,1,0,0:0:0:40:kick.wav
64,192,163672,1,0,0:0:0:0:
448,192,163757,1,0,0:0:0:0:
192,192,163843,1,0,0:0:0:0:
64,192,163928,1,0,0:0:0:50:crash.wav
320,192,163928,1,0,0:0:0:40:kick.wav
448,192,163928,1,0,0:0:0:0:
192,192,164013,1,0,0:0:0:0:
320,192,164098,1,0,0:0:0:0:
192,192,164184,1,0,0:0:0:50:crash.wav
64,192,164184,1,0,0:0:0:40:kick.wav
448,192,164184,1,0,0:0:0:0:
320,192,164269,1,0,0:0:0:0:
64,192,164354,1,0,0:0:0:0:
192,192,164439,1,0,0:0:0:50:crash.wav
320,192,164439,1,0,0:0:0:40:kick.wav
448,192,164439,1,0,0:0:0:0:
64,192,164525,1,0,0:0:0:0:
448,192,164610,1,0,0:0:0:0:
320,192,164695,1,0,0:0:0:50:crash.wav
192,192,164695,1,0,0:0:0:40:kick.wav
64,192,164695,1,0,0:0:0:0:
64,192,164865,1,0,0:0:0:50:crash.wav
320,192,164865,1,0,0:0:0:40:kick.wav
448,192,164865,1,0,0:0:0:0:
192,192,165036,1,0,0:0:0:50:finish.wav
448,192,165036,128,0,167422:0:0:0:40:kick.wav
64,192,165036,128,0,165292:0:0:0:0:
64,192,165377,1,0,0:0:0:0:
64,192,165547,1,0,0:0:0:0:
64,192,165718,1,0,0:0:0:0:
320,192,165888,1,0,0:0:0:0:
192,192,165973,1,0,0:0:0:0:
320,192,166144,1,0,0:0:0:0:
192,192,166229,1,0,0:0:0:0:
64,192,166400,1,0,0:0:0:0:
192,192,166570,1,0,0:0:0:0:
320,192,166655,1,0,0:0:0:0:
192,192,166826,1,0,0:0:0:0:
320,192,166911,1,0,0:0:0:0:
64,192,167081,128,0,167422:0:0:0:0:
192,192,167422,1,0,0:0:0:0:
320,192,167422,1,0,0:0:0:0:
64,192,168445,1,0,0:0:0:40:crash.wav
448,192,168445,1,0,0:0:0:0:
64,192,168701,1,0,0:0:0:40:crash.wav
448,192,168701,1,0,0:0:0:0:
64,192,168956,1,0,0:0:0:40:crash.wav
448,192,168956,1,0,0:0:0:0:
320,192,169127,1,0,0:0:0:0:
192,192,169240,1,0,0:0:0:0:
320,192,169354,1,0,0:0:0:0:
64,192,169468,1,0,0:0:0:0:
320,192,169581,1,0,0:0:0:0:
64,192,169695,1,0,0:0:0:0:
448,192,169809,1,0,0:0:0:0:
192,192,169979,1,0,0:0:0:0:
64,192,170150,128,0,170320:0:0:0:0:
320,192,170320,1,0,0:0:0:0:
192,192,170405,1,0,0:0:0:0:
320,192,170490,1,0,0:0:0:50:finish.wav
448,192,170490,128,0,170831:0:0:0:40:kick.wav
192,192,170661,1,0,0:0:0:0:
320,192,170831,1,0,0:0:0:40:kick.wav
64,192,170831,128,0,171172:0:0:0:0:
192,192,171002,1,0,0:0:0:0:
320,192,171172,1,0,0:0:0:40:kick.wav
448,192,171172,128,0,171428:0:0:0:0:
192,192,171343,1,0,0:0:0:0:
320,192,171428,128,0,171598:0:0:0:0:
64,192,171513,1,0,0:0:0:40:kick.wav
448,192,171513,1,0,0:0:0:0:
192,192,171598,128,0,171684:0:0:0:0:
64,192,171684,128,0,171769:0:0:0:0:
320,192,171769,128,0,171854:0:0:0:0:
192,192,171854,1,0,0:0:0:40:kick.wav
448,192,171854,128,0,172025:0:0:0:0:
64,192,172025,128,0,172195:0:0:0:0:
192,192,172195,1,0,0:0:0:40:kick.wav
448,192,172195,128,0,172365:0:0:0:0:
192,192,172365,128,0,172451:0:0:0:0:
320,192,172451,128,0,172536:0:0:0:0:
448,192,172536,1,0,0:0:0:40:kick.wav
64,192,172536,128,0,172877:0:0:0:0:
192,192,172706,1,0,0:0:0:0:
192,192,172877,1,0,0:0:0:40:kick.wav
320,192,172877,128,0,173218:0:0:0:0:
448,192,173047,1,0,0:0:0:0:
64,192,173218,128,0,173303:0:0:0:50:finish.wav
192,192,173218,128,0,173303:0:0:0:40:kick.wav
448,192,173218,128,0,173303:0:0:0:0:
448,192,173473,128,0,173559:0:0:0:50:finish.wav
192,192,173473,128,0,173559:0:0:0:40:kick.wav
64,192,173473,128,0,173559:0:0:0:0:
192,192,173729,128,0,173814:0:0:0:50:finish.wav
448,192,173729,128,0,173814:0:0:0:40:kick.wav
64,192,173729,128,0,173814:0:0:0:0:
64,192,173900,1,0,0:0:0:40:kick.wav
320,192,173900,1,0,0:0:0:0:
448,192,173900,1,0,0:0:0:0:
192,192,174070,1,0,0:0:0:0:
448,192,174155,1,0,0:0:0:0:
64,192,174240,1,0,0:0:0:40:kick.wav
320,192,174240,1,0,0:0:0:0:
448,192,174326,1,0,0:0:0:0:
192,192,174411,128,0,174581:0:0:0:0:
64,192,174581,1,0,0:0:0:40:kick.wav
320,192,174581,128,0,174752:0:0:0:0:
192,192,174752,128,0,174922:0:0:0:0:
320,192,174922,1,0,0:0:0:40:kick.wav
448,192,174922,128,0,175093:0:0:0:0:
64,192,175093,1,0,0:0:0:0:
320,192,175178,1,0,0:0:0:0:
192,192,175263,1,0,0:0:0:40:kick.wav
64,192,175263,128,0,175434:0:0:0:0:
448,192,175434,1,0,0:0:0:0:
192,192,175519,1,0,0:0:0:0:
320,192,175604,1,0,0:0:0:40:kick.wav
448,192,175604,128,0,175945:0:0:0:0:
192,192,175775,1,0,0:0:0:0:
320,192,175945,1,0,0:0:0:50:crash.wav
64,192,175945,1,0,0:0:0:40:kick.wav
192,192,175945,1,0,0:0:0:0:
448,192,176115,1,0,0:0:0:0:
320,192,176201,1,0,0:0:0:0:
64,192,176286,1,0,0:0:0:0:
448,192,176371,1,0,0:0:0:0:
192,192,176371,1,0,0:0:0:40:kick.wav
448,192,176456,1,0,0:0:0:50:crash.wav
64,192,176456,1,0,0:0:0:40:kick.wav
320,192,176456,1,0,0:0:0:0:
192,192,176627,1,0,0:0:0:0:
448,192,176712,1,0,0:0:0:0:
192,192,176797,1,0,0:0:0:0:
64,192,176882,1,0,0:0:0:40:kick.wav
320,192,176882,1,0,0:0:0:0:
192,192,176968,1,0,0:0:0:50:crash.wav
448,192,176968,1,0,0:0:0:40:kick.wav
320,192,176968,128,0,177138:0:0:0:0:
192,192,177138,128,0,177309:0:0:0:0:
448,192,177309,128,0,177564:0:0:0:50:crash.wav
64,192,177309,128,0,177564:0:0:0:40:kick.wav
320,192,177650,128,0,177905:0:0:0:50:crash.wav
64,192,177650,128,0,177905:0:0:0:0:
192,192,177990,128,0,178246:0:0:0:50:crash.wav
448,192,177990,128,0,178246:0:0:0:0:
448,192,178331,128,0,178587:0:0:0:50:crash.wav
320,192,178331,128,0,178587:0:0:0:0:
64,192,178502,128,0,178672:0:0:0:0:
448,192,178672,128,0,178843:0:0:0:0:
192,192,178843,1,0,0:0:0:40:kick.wav
320,192,178843,1,0,0:0:0:0:
448,192,179013,1,0,0:0:0:50:finish.wav
192,192,179013,1,0,0:0:0:40:kick.wav
64,192,179013,128,0,179354:0:0:0:0:
320,192,179354,128,0,179439:0:0:0:40:kick.wav
448,192,179354,128,0,179439:0:0:0:0:
320,192,179525,1,0,0:0:0:0:
64,192,179610,128,0,179695:0:0:0:40:kick.wav
192,192,179610,128,0,179695:0:0:0:0:
320,192,179695,1,0,0:0:0:40:kick.wav
448,192,179695,1,0,0:0:0:0:
64,192,179865,128,0,179951:0:0:0:0:
192,192,179865,128,0,179951:0:0:0:0:
448,192,179951,1,0,0:0:0:40:kick.wav
320,192,179951,1,0,0:0:0:0:
64,192,180036,1,0,0:0:0:40:kick.wav
192,192,180036,1,0,0:0:0:0:
320,192,180121,128,0,180206:0:0:0:0:
448,192,180121,128,0,180206:0:0:0:0:
192,192,180292,1,0,0:0:0:40:kick.wav
64,192,180292,1,0,0:0:0:0:
320,192,180377,128,0,180462:0:0:0:40:kick.wav
448,192,180377,128,0,180462:0:0:0:0:
320,192,180547,1,0,0:0:0:0:
64,192,180632,128,0,180718:0:0:0:40:kick.wav
192,192,180632,128,0,180718:0:0:0:0:
320,192,180718,1,0,0:0:0:40:kick.wav
448,192,180718,1,0,0:0:0:0:
64,192,180888,128,0,180973:0:0:0:0:
192,192,180888,128,0,180973:0:0:0:0:
448,192,180973,1,0,0:0:0:40:kick.wav
320,192,180973,1,0,0:0:0:0:
64,192,181059,1,0,0:0:0:0:
448,192,181059,1,0,0:0:0:35:snare.wav
192,192,181059,1,0,0:0:0:0:
192,192,181229,1,0,0:0:0:40:kick.wav
320,192,181229,1,0,0:0:0:0:
320,192,181400,1,0,0:0:0:50:finish.wav
64,192,181400,128,0,181740:0:0:0:40:kick.wav
448,192,181400,128,0,181655:0:0:0:0:
320,192,181740,1,0,0:0:0:35:snare.wav
448,192,181740,1,0,0:0:0:0:
192,192,181740,128,0,182081:0:0:0:0:
448,192,181911,1,0,0:0:0:40:kick.wav
320,192,181911,1,0,0:0:0:0:
64,192,182081,1,0,0:0:0:40:kick.wav
320,192,182081,128,0,182337:0:0:0:0:
64,192,182337,1,0,0:0:0:40:kick.wav
192,192,182337,1,0,0:0:0:0:
320,192,182422,1,0,0:0:0:35:snare.wav
448,192,182422,1,0,0:0:0:0:
64,192,182507,1,0,0:0:0:0:
448,192,182593,1,0,0:0:0:40:kick.wav
192,192,182593,1,0,0:0:0:0:
320,192,182678,1,0,0:0:0:0:
64,192,182763,128,0,182934:0:0:0:50:crash.wav
448,192,182763,128,0,182934:0:0:0:40:kick.wav
192,192,182934,1,0,0:0:0:0:
320,192,183019,1,0,0:0:0:0:
64,192,183104,1,0,0:0:0:35:snare.wav
448,192,183104,1,0,0:0:0:0:
192,192,183189,1,0,0:0:0:40:kick.wav
320,192,183189,1,0,0:0:0:0:
64,192,183275,128,0,183445:0:0:0:50:crash.wav
448,192,183275,128,0,183445:0:0:0:40:kick.wav
320,192,183445,1,0,0:0:0:0:
192,192,183530,1,0,0:0:0:0:
64,192,183615,1,0,0:0:0:35:snare.wav
448,192,183615,1,0,0:0:0:0:
320,192,183701,1,0,0:0:0:40:kick.wav
192,192,183701,1,0,0:0:0:0:
64,192,183786,128,0,183871:0:0:0:50:crash.wav
448,192,183786,128,0,183871:0:0:0:40:kick.wav
192,192,183956,1,0,0:0:0:35:snare.wav
320,192,183956,1,0,0:0:0:0:
448,192,183956,1,0,0:0:0:0:
64,192,184042,1,0,0:0:0:0:
320,192,184127,1,0,0:0:0:50:finish.wav
448,192,184127,128,0,184382:0:0:0:40:kick.wav
320,192,184382,1,0,0:0:0:40:kick.wav
192,192,184382,1,0,0:0:0:0:
448,192,184468,1,0,0:0:0:35:snare.wav
64,192,184468,128,0,184638:0:0:0:0:
320,192,184553,1,0,0:0:0:0:
192,192,184638,1,0,0:0:0:40:kick.wav
448,192,184638,1,0,0:0:0:0:
64,192,184723,1,0,0:0:0:0:
320,192,184809,1,0,0:0:0:40:kick.wav
192,192,184809,128,0,184979:0:0:0:0:
64,192,184979,128,0,185064:0:0:0:0:
320,192,185064,1,0,0:0:0:40:kick.wav
448,192,185064,128,0,185150:0:0:0:0:
64,192,185150,1,0,0:0:0:35:snare.wav
192,192,185150,1,0,0:0:0:0:
320,192,185235,128,0,185320:0:0:0:0:
192,192,185320,128,0,185490:0:0:0:40:kick.wav
448,192,185320,1,0,0:0:0:0:
64,192,185490,1,0,0:0:0:40:kick.wav
320,192,185490,128,0,185661:0:0:0:0:
448,192,185661,128,0,185746:0:0:0:0:
64,192,185746,1,0,0:0:0:40:kick.wav
320,192,185746,1,0,0:0:0:0:
448,192,185831,1,0,0:0:0:35:snare.wav
192,192,185831,128,0,186002:0:0:0:0:
64,192,186002,1,0,0:0:0:40:kick.wav
320,192,186002,1,0,0:0:0:0:
192,192,186087,1,0,0:0:0:0:
64,192,186172,1,0,0:0:0:40:kick.wav
448,192,186172,128,0,186343:0:0:0:0:
320,192,186343,1,0,0:0:0:0:
192,192,186428,1,0,0:0:0:40:kick.wav
448,192,186428,1,0,0:0:0:0:
320,192,186513,1,0,0:0:0:35:snare.wav
64,192,186513,128,0,186854:0:0:0:0:
320,192,186684,1,0,0:0:0:40:kick.wav
192,192,186684,1,0,0:0:0:0:
192,192,186854,1,0,0:0:0:40:kick.wav
320,192,186854,128,0,187025:0:0:0:0:
448,192,186854,128,0,187110:0:0:0:0:
320,192,187110,1,0,0:0:0:40:kick.wav
192,192,187110,1,0,0:0:0:0:
448,192,187195,1,0,0:0:0:35:snare.wav
64,192,187195,128,0,187536:0:0:0:0:
192,192,187365,1,0,0:0:0:40:kick.wav
320,192,187365,1,0,0:0:0:0:
192,192,187536,1,0,0:0:0:40:kick.wav
448,192,187536,128,0,187792:0:0:0:0:
64,192,187706,1,0,0:0:0:0:
192,192,187792,1,0,0:0:0:40:kick.wav
320,192,187792,1,0,0:0:0:0:
64,192,187877,1,0,0:0:0:35:snare.wav
448,192,187877,1,0,0:0:0:0:
320,192,187962,1,0,0:0:0:0:
64,192,188047,128,0,188218:0:0:0:40:kick.wav
192,192,188047,1,0,0:0:0:0:
320,192,188218,128,0,188388:0:0:0:30:crash.wav
448,192,188218,128,0,188388:0:0:0:40:kick.wav
192,192,188218,128,0,188388:0:0:0:0:
192,192,188473,128,0,188644:0:0:0:30:crash.wav
320,192,188473,128,0,188644:0:0:0:40:kick.wav
448,192,188473,128,0,188644:0:0:0:0:
64,192,188559,1,0,0:0:0:35:snare.wav
64,192,188729,128,0,188900:0:0:0:30:crash.wav
192,192,188729,128,0,188900:0:0:0:40:kick.wav
448,192,188729,128,0,188900:0:0:0:0:
320,192,188900,1,0,0:0:0:0:
64,192,188985,128,0,189155:0:0:0:30:crash.wav
192,192,188985,128,0,189155:0:0:0:40:kick.wav
448,192,188985,128,0,189155:0:0:0:0:
64,192,189240,128,0,189496:0:0:0:35:snare.wav
320,192,189240,128,0,189326:0:0:0:30:crash.wav
448,192,189240,128,0,189326:0:0:0:0:
192,192,189411,128,0,189496:0:0:0:30:crash.wav
320,192,189411,128,0,189496:0:0:0:40:kick.wav
64,192,189581,1,0,0:0:0:50:finish.wav
448,192,189581,1,0,0:0:0:40:kick.wav
320,192,189752,1,0,0:0:0:0:
64,192,189922,1,0,0:0:0:20:kick.wav
192,192,190093,1,0,0:0:0:0:
320,192,190263,1,0,0:0:0:20:kick.wav
192,192,190434,1,0,0:0:0:0:
448,192,190519,1,0,0:0:0:0:
64,192,190604,1,0,0:0:0:20:kick.wav
192,192,190775,1,0,0:0:0:0:
320,192,190945,1,0,0:0:0:20:kick.wav
448,192,191115,1,0,0:0:0:0:
64,192,191286,1,0,0:0:0:20:kick.wav
320,192,191456,1,0,0:0:0:0:
448,192,191627,1,0,0:0:0:20:kick.wav
192,192,191797,1,0,0:0:0:0:
320,192,191882,1,0,0:0:0:0:
64,192,191968,1,0,0:0:0:20:kick.wav
192,192,192138,1,0,0:0:0:0:
320,192,192309,1,0,0:0:0:25:kick.wav
192,192,192479,1,0,0:0:0:0:
448,192,192650,1,0,0:0:0:25:kick.wav
320,192,192820,1,0,0:0:0:0:
192,192,192990,1,0,0:0:0:25:kick.wav
448,192,192990,1,0,0:0:0:0:
64,192,193161,1,0,0:0:0:0:
320,192,193246,1,0,0:0:0:0:
448,192,193246,1,0,0:0:0:0:
192,192,193331,1,0,0:0:0:25:kick.wav
64,192,193502,1,0,0:0:0:0:
320,192,193502,1,0,0:0:0:0:
448,192,193672,1,0,0:0:0:25:kick.wav
320,192,193843,1,0,0:0:0:0:
64,192,193843,1,0,0:0:0:0:
320,192,194013,1,0,0:0:0:25:kick.wav
64,192,194013,1,0,0:0:0:0:
192,192,194184,1,0,0:0:0:0:
320,192,194354,1,0,0:0:0:25:kick.wav
448,192,194354,1,0,0:0:0:0:
64,192,194525,1,0,0:0:0:0:
192,192,194610,1,0,0:0:0:0:
320,192,194610,1,0,0:0:0:0:
64,192,194695,1,0,0:0:0:25:kick.wav
192,192,194865,1,0,0:0:0:0:
448,192,194865,1,0,0:0:0:0:
64,192,195036,1,0,0:0:0:30:kick.wav
448,192,195036,1,0,0:0:0:0:
320,192,195206,1,0,0:0:0:0:
192,192,195377,1,0,0:0:0:30:kick.wav
448,192,195377,1,0,0:0:0:0:
64,192,195547,1,0,0:0:0:0:
192,192,195718,1,0,0:0:0:30:kick.wav
448,192,195718,1,0,0:0:0:0:
320,192,195888,1,0,0:0:0:0:
64,192,195973,1,0,0:0:0:0:
192,192,195973,1,0,0:0:0:0:
448,192,196059,1,0,0:0:0:30:kick.wav
64,192,196229,1,0,0:0:0:0:
320,192,196229,1,0,0:0:0:0:
448,192,196400,1,0,0:0:0:30:kick.wav
320,192,196570,1,0,0:0:0:0:
64,192,196570,1,0,0:0:0:0:
64,192,196740,1,0,0:0:0:0:
448,192,196740,1,0,0:0:0:30:kick.wav
192,192,196911,1,0,0:0:0:0:
320,192,197081,1,0,0:0:0:30:kick.wav
448,192,197081,1,0,0:0:0:0:
64,192,197252,1,0,0:0:0:0:
192,192,197337,1,0,0:0:0:0:
448,192,197337,1,0,0:0:0:0:
64,192,197422,1,0,0:0:0:30:kick.wav
192,192,197593,1,0,0:0:0:0:
320,192,197593,1,0,0:0:0:0:
64,192,197763,1,0,0:0:0:0:
320,192,197763,1,0,0:0:0:35:kick.wav
448,192,197934,1,0,0:0:0:0:
192,192,198104,1,0,0:0:0:25:kick.wav
320,192,198104,1,0,0:0:0:35:kick.wav
64,192,198275,1,0,0:0:0:0:
192,192,198445,1,0,0:0:0:35:kick.wav
448,192,198445,1,0,0:0:0:0:
320,192,198615,1,0,0:0:0:0:
64,192,198701,1,0,0:0:0:0:
192,192,198701,1,0,0:0:0:0:
448,192,198786,1,0,0:0:0:35:kick.wav
192,192,198956,1,0,0:0:0:0:
320,192,198956,1,0,0:0:0:0:
64,192,199127,1,0,0:0:0:35:kick.wav
320,192,199297,1,0,0:0:0:0:
448,192,199297,1,0,0:0:0:0:
64,192,199468,1,0,0:0:0:35:kick.wav
448,192,199468,1,0,0:0:0:0:
192,192,199638,1,0,0:0:0:0:
320,192,199809,1,0,0:0:0:35:kick.wav
448,192,199809,1,0,0:0:0:0:
64,192,199979,1,0,0:0:0:0:
448,192,200064,1,0,0:0:0:0:
320,192,200064,1,0,0:0:0:0:
192,192,200150,1,0,0:0:0:35:kick.wav
64,192,200320,1,0,0:0:0:0:
320,192,200320,1,0,0:0:0:0:
64,192,200490,1,0,0:0:0:40:snare2.wav
448,192,200490,1,0,0:0:0:40:kick.wav
192,192,200490,1,0,0:0:0:0:
320,192,200661,1,0,0:0:0:0:
64,192,200831,1,0,0:0:0:40:snare2.wav
320,192,200831,1,0,0:0:0:40:kick.wav
448,192,200831,1,0,0:0:0:0:
64,192,201002,1,0,0:0:0:40:snare2.wav
192,192,201002,1,0,0:0:0:0:
448,192,201002,1,0,0:0:0:0:
64,192,201172,1,0,0:0:0:40:snare2.wav
320,192,201172,1,0,0:0:0:40:kick.wav
448,192,201172,1,0,0:0:0:0:
192,192,201343,1,0,0:0:0:0:
320,192,201428,1,0,0:0:0:0:
448,192,201428,1,0,0:0:0:0:
64,192,201513,1,0,0:0:0:40:snare2.wav
192,192,201513,1,0,0:0:0:40:kick.wav
448,192,201513,1,0,0:0:0:0:
64,192,201684,1,0,0:0:0:0:
320,192,201684,1,0,0:0:0:0:
192,192,201854,1,0,0:0:0:40:snare2.wav
448,192,201854,1,0,0:0:0:40:kick.wav
64,192,202025,1,0,0:0:0:0:
320,192,202025,1,0,0:0:0:0:
448,192,202025,1,0,0:0:0:0:
64,192,202195,1,0,0:0:0:40:snare2.wav
192,192,202195,1,0,0:0:0:40:kick.wav
448,192,202195,1,0,0:0:0:0:
320,192,202365,1,0,0:0:0:0:
64,192,202536,1,0,0:0:0:40:snare2.wav
320,192,202536,1,0,0:0:0:40:kick.wav
448,192,202536,1,0,0:0:0:0:
192,192,202706,1,0,0:0:0:0:
448,192,202706,1,0,0:0:0:0:
320,192,202792,1,0,0:0:0:0:
64,192,202877,1,0,0:0:0:0:
192,192,202877,1,0,0:0:0:40:snare2.wav
448,192,202877,1,0,0:0:0:40:kick.wav
64,192,203047,1,0,0:0:0:0:
320,192,203047,1,0,0:0:0:0:
448,192,203047,1,0,0:0:0:0:
192,192,203218,1,0,0:0:0:40:snare2.wav
320,192,203218,1,0,0:0:0:40:kick.wav
448,192,203218,1,0,0:0:0:0:
64,192,203388,1,0,0:0:0:0:
64,192,203559,1,0,0:0:0:40:snare2.wav
192,192,203559,1,0,0:0:0:40:kick.wav
448,192,203559,1,0,0:0:0:0:
320,192,203729,1,0,0:0:0:40:snare2.wav
448,192,203729,1,0,0:0:0:0:
64,192,203729,1,0,0:0:0:0:
192,192,203900,1,0,0:0:0:40:snare2.wav
448,192,203900,1,0,0:0:0:40:kick.wav
64,192,203900,1,0,0:0:0:0:
320,192,204070,1,0,0:0:0:0:
448,192,204155,1,0,0:0:0:0:
192,192,204155,1,0,0:0:0:0:
64,192,204240,1,0,0:0:0:40:snare2.wav
320,192,204240,1,0,0:0:0:40:kick.wav
448,192,204240,1,0,0:0:0:0:
192,192,204411,1,0,0:0:0:0:
448,192,204411,1,0,0:0:0:0:
320,192,204496,1,0,0:0:0:0:
192,192,204581,1,0,0:0:0:0:
64,192,204581,1,0,0:0:0:40:snare2.wav
448,192,204581,1,0,0:0:0:40:kick.wav
320,192,204752,1,0,0:0:0:0:
192,192,204752,1,0,0:0:0:0:
64,192,204922,1,0,0:0:0:40:snare2.wav
320,192,204922,1,0,0:0:0:40:kick.wav
448,192,204922,1,0,0:0:0:0:
64,192,205093,1,0,0:0:0:0:
192,192,205263,1,0,0:0:0:40:snare2.wav
320,192,205263,1,0,0:0:0:40:kick.wav
448,192,205263,1,0,0:0:0:0:
64,192,205434,1,0,0:0:0:0:
192,192,205519,1,0,0:0:0:0:
320,192,205519,1,0,0:0:0:0:
448,192,205604,1,0,0:0:0:0:
64,192,205604,1,0,0:0:0:40:snare2.wav
320,192,205604,1,0,0:0:0:40:kick.wav
64,192,205775,1,0,0:0:0:0:
192,192,205775,1,0,0:0:0:0:
448,192,205775,1,0,0:0:0:0:
64,192,205945,1,0,0:0:0:40:snare2.wav
320,192,205945,1,0,0:0:0:40:kick.wav
448,192,205945,1,0,0:0:0:0:
192,192,206115,1,0,0:0:0:40:snare2.wav
320,192,206115,1,0,0:0:0:0:
64,192,206286,1,0,0:0:0:40:snare2.wav
192,192,206286,1,0,0:0:0:40:kick.wav
448,192,206286,1,0,0:0:0:0:
64,192,206456,1,0,0:0:0:40:snare2.wav
320,192,206456,1,0,0:0:0:0:
192,192,206627,1,0,0:0:0:40:snare2.wav
320,192,206627,1,0,0:0:0:40:kick.wav
448,192,206627,1,0,0:0:0:0:
64,192,206797,1,0,0:0:0:0:
448,192,206797,1,0,0:0:0:40:snare2.wav
192,192,206882,1,0,0:0:0:0:
64,192,206968,1,0,0:0:0:40:snare2.wav
320,192,206968,1,0,0:0:0:40:kick.wav
448,192,206968,1,0,0:0:0:0:
192,192,207138,1,0,0:0:0:40:snare2.wav
448,192,207138,1,0,0:0:0:0:
64,192,207309,1,0,0:0:0:40:snare2.wav
320,192,207309,1,0,0:0:0:40:kick.wav
448,192,207309,1,0,0:0:0:0:
64,192,207479,1,0,0:0:0:40:snare2.wav
192,192,207479,1,0,0:0:0:0:
320,192,207479,1,0,0:0:0:0:
64,192,207650,1,0,0:0:0:40:snare2.wav
192,192,207650,1,0,0:0:0:40:kick.wav
448,192,207650,1,0,0:0:0:0:
320,192,207820,1,0,0:0:0:40:snare2.wav
192,192,207820,1,0,0:0:0:0:
64,192,207990,1,0,0:0:0:40:snare2.wav
320,192,207990,1,0,0:0:0:40:kick.wav
448,192,207990,1,0,0:0:0:0:
192,192,208161,1,0,0:0:0:0:
320,192,208161,1,0,0:0:0:0:
64,192,208246,1,0,0:0:0:40:snare2.wav
448,192,208331,1,0,0:0:0:40:snare2.wav
192,192,208331,1,0,0:0:0:40:kick.wav
320,192,208331,1,0,0:0:0:0:
64,192,208502,1,0,0:0:0:40:snare2.wav
448,192,208502,1,0,0:0:0:0:
192,192,208502,1,0,0:0:0:0:
448,192,208672,1,0,0:0:0:40:snare2.wav
192,192,208672,1,0,0:0:0:40:kick.wav
320,192,208672,1,0,0:0:0:0:
64,192,208757,1,0,0:0:0:40:snare2.wav
192,192,208843,1,0,0:0:0:40:snare2.wav
448,192,208843,1,0,0:0:0:0:
320,192,208928,1,0,0:0:0:40:snare2.wav
64,192,209013,1,0,0:0:0:40:snare2.wav
192,192,209013,1,0,0:0:0:40:kick.wav
448,192,209013,1,0,0:0:0:0:
320,192,209098,1,0,0:0:0:40:snare2.wav
64,192,209184,1,0,0:0:0:0:
192,192,209184,1,0,0:0:0:40:snare2.wav
320,192,209269,1,0,0:0:0:40:snare2.wav
64,192,209354,1,0,0:0:0:40:snare2.wav
448,192,209354,1,0,0:0:0:40:kick.wav
192,192,209354,1,0,0:0:0:0:
320,192,209439,1,0,0:0:0:40:snare2.wav
64,192,209525,1,0,0:0:0:40:snare2.wav
448,192,209525,1,0,0:0:0:0:
192,192,209610,1,0,0:0:0:40:snare2.wav
64,192,209695,1,0,0:0:0:40:snare2.wav
320,192,209695,1,0,0:0:0:40:kick.wav
448,192,209695,1,0,0:0:0:0:
192,192,209780,1,0,0:0:0:40:snare2.wav
320,192,209865,1,0,0:0:0:40:snare2.wav
448,192,209865,1,0,0:0:0:0:
192,192,209951,1,0,0:0:0:40:snare2.wav
64,192,210036,1,0,0:0:0:50:crash.wav
448,192,210036,1,0,0:0:0:40:kick.wav
192,192,210121,128,0,210206:0:0:0:0:
320,192,210206,128,0,210292:0:0:0:0:
192,192,210292,128,0,210377:0:0:0:0:
64,192,210377,128,0,210547:0:0:0:0:
320,192,210377,128,0,210547:0:0:0:0:
192,192,210547,128,0,210632:0:0:0:0:
320,192,210632,128,0,210718:0:0:0:0:
192,192,210718,128,0,210888:0:0:0:0:
448,192,210718,128,0,210888:0:0:0:0:
320,192,210888,128,0,211059:0:0:0:0:
192,192,211059,1,0,0:0:0:0:
64,192,211059,128,0,211229:0:0:0:0:
448,192,211229,1,0,0:0:0:0:
448,192,211314,128,0,211400:0:0:0:0:
320,192,211400,1,0,0:0:0:50:finish.wav
64,192,211400,1,0,0:0:0:50:kick.wav
192,192,211400,1,0,0:0:0:0:
192,192,214127,1,0,0:0:0:40:kick.wav
448,192,214127,1,0,0:0:0:0:
192,192,214297,1,0,0:0:0:40:kick.wav
448,192,214297,1,0,0:0:0:0:
64,192,214468,1,0,0:0:0:30:snare2.wav
320,192,214468,1,0,0:0:0:0:
448,192,214468,1,0,0:0:0:0:
192,192,214638,1,0,0:0:0:0:
64,192,214723,1,0,0:0:0:30:snare2.wav
448,192,214723,1,0,0:0:0:0:
192,192,214809,1,0,0:0:0:0:
64,192,214894,1,0,0:0:0:30:snare2.wav
448,192,214894,1,0,0:0:0:0:
320,192,214979,1,0,0:0:0:40:kick.wav
192,192,214979,1,0,0:0:0:0:
64,192,215150,1,0,0:0:0:30:snare2.wav
320,192,215150,1,0,0:0:0:0:
448,192,215150,1,0,0:0:0:0:
192,192,215320,1,0,0:0:0:0:
448,192,215405,1,0,0:0:0:30:snare2.wav
64,192,215405,1,0,0:0:0:0:
320,192,215490,1,0,0:0:0:40:kick.wav
192,192,215490,1,0,0:0:0:0:
64,192,215661,1,0,0:0:0:30:snare2.wav
448,192,215661,1,0,0:0:0:0:
320,192,215661,1,0,0:0:0:0:
192,192,215831,1,0,0:0:0:0:
448,192,215917,1,0,0:0:0:30:snare2.wav
64,192,215917,1,0,0:0:0:0:
192,192,216002,1,0,0:0:0:40:kick.wav
320,192,216002,1,0,0:0:0:0:
64,192,216172,1,0,0:0:0:30:snare2.wav
448,192,216172,1,0,0:0:0:0:
320,192,216172,1,0,0:0:0:0:
192,192,216343,1,0,0:0:0:0:
448,192,216428,1,0,0:0:0:30:snare2.wav
320,192,216428,1,0,0:0:0:0:
64,192,216513,1,0,0:0:0:30:snare2.wav
320,192,216513,1,0,0:0:0:0:
448,192,216513,1,0,0:0:0:0:
448,192,216684,1,0,0:0:0:30:snare2.wav
64,192,216684,1,0,0:0:0:0:
320,192,216684,1,0,0:0:0:0:
192,192,216854,128,0,217195:0:0:0:40:kick.wav
320,192,216854,128,0,217195:0:0:0:0:
448,192,217195,128,0,217536:0:0:0:0:
64,192,217536,1,0,0:0:0:50:crash.wav
192,192,217536,1,0,0:0:0:40:kick.wav
320,192,217536,1,0,0:0:0:0:
64,192,217792,1,0,0:0:0:50:crash.wav
320,192,217792,1,0,0:0:0:40:kick.wav
192,192,217792,1,0,0:0:0:0:
320,192,218047,1,0,0:0:0:50:crash.wav
192,192,218047,1,0,0:0:0:40:kick.wav
64,192,218047,1,0,0:0:0:0:
64,192,218218,1,0,0:0:0:50:crash.wav
320,192,218218,1,0,0:0:0:40:kick.wav
448,192,218218,1,0,0:0:0:0:
192,192,218388,1,0,0:0:0:0:
320,192,218473,1,0,0:0:0:50:crash.wav
448,192,218473,1,0,0:0:0:40:kick.wav
64,192,218473,1,0,0:0:0:0:
192,192,218559,128,0,218729:0:0:0:0:
64,192,218729,1,0,0:0:0:50:crash.wav
448,192,218729,1,0,0:0:0:40:kick.wav
320,192,218729,128,0,218900:0:0:0:0:
448,192,218900,128,0,219240:0:0:0:0:
64,192,219240,128,0,219496:0:0:0:40:kick.wav
192,192,219240,1,0,0:0:0:0:
320,192,219326,1,0,0:0:0:0:
448,192,219411,1,0,0:0:0:0:
192,192,219496,1,0,0:0:0:0:
64,192,219581,1,0,0:0:0:50:finish.wav
448,192,219581,1,0,0:0:0:40:kick.wav
320,192,219581,1,0,0:0:0:0:
192,192,219667,1,0,0:0:0:0:
320,192,219752,1,0,0:0:0:0:
448,192,219752,1,0,0:0:0:0:
64,192,219837,1,0,0:0:0:0:
192,192,219922,1,0,0:0:0:40:kick.wav
448,192,219922,1,0,0:0:0:0:
320,192,220007,1,0,0:0:0:0:
448,192,220093,1,0,0:0:0:0:
192,192,220178,1,0,0:0:0:0:
64,192,220178,1,0,0:0:0:0:
320,192,220263,1,0,0:0:0:40:kick.wav
448,192,220263,1,0,0:0:0:0:
192,192,220348,1,0,0:0:0:0:
64,192,220434,1,0,0:0:0:0:
448,192,220434,1,0,0:0:0:0:
192,192,220519,1,0,0:0:0:40:kick.wav
320,192,220519,1,0,0:0:0:0:
64,192,220604,1,0,0:0:0:0:
448,192,220689,1,0,0:0:0:0:
192,192,220775,1,0,0:0:0:40:kick.wav
320,192,220775,1,0,0:0:0:0:
192,192,220860,1,0,0:0:0:0:
448,192,220945,1,0,0:0:0:40:kick.wav
320,192,220945,1,0,0:0:0:0:
64,192,221030,1,0,0:0:0:0:
192,192,221115,1,0,0:0:0:0:
448,192,221115,1,0,0:0:0:0:
320,192,221201,1,0,0:0:0:0:
64,192,221286,1,0,0:0:0:40:kick.wav
448,192,221286,1,0,0:0:0:0:
192,192,221371,1,0,0:0:0:0:
320,192,221456,1,0,0:0:0:0:
448,192,221456,1,0,0:0:0:0:
192,192,221542,1,0,0:0:0:0:
64,192,221627,1,0,0:0:0:40:kick.wav
448,192,221627,1,0,0:0:0:0:
192,192,221712,1,0,0:0:0:0:
320,192,221797,1,0,0:0:0:0:
448,192,221797,1,0,0:0:0:0:
64,192,221882,1,0,0:0:0:40:kick.wav
192,192,221882,1,0,0:0:0:0:
320,192,221968,1,0,0:0:0:0:
448,192,221968,1,0,0:0:0:0:
192,192,222053,1,0,0:0:0:0:
64,192,222138,1,0,0:0:0:40:kick.wav
320,192,222138,1,0,0:0:0:0:
448,192,222223,1,0,0:0:0:0:
320,192,222309,1,0,0:0:0:50:crash.wav
192,192,222309,1,0,0:0:0:40:kick.wav
64,192,222309,1,0,0:0:0:0:
448,192,222394,1,0,0:0:0:0:
64,192,222479,1,0,0:0:0:0:
320,192,222479,1,0,0:0:0:0:
192,192,222564,1,0,0:0:0:0:
64,192,222650,1,0,0:0:0:40:kick.wav
448,192,222650,1,0,0:0:0:0:
320,192,222735,1,0,0:0:0:0:
64,192,222820,1,0,0:0:0:0:
192,192,222820,1,0,0:0:0:0:
320,192,222905,1,0,0:0:0:0:
64,192,222990,1,0,0:0:0:40:kick.wav
448,192,222990,1,0,0:0:0:0:
192,192,223076,1,0,0:0:0:0:
320,192,223161,1,0,0:0:0:0:
448,192,223161,1,0,0:0:0:0:
192,192,223246,1,0,0:0:0:40:kick.wav
64,192,223246,1,0,0:0:0:0:
320,192,223331,1,0,0:0:0:0:
448,192,223331,1,0,0:0:0:0:
64,192,223417,1,0,0:0:0:0:
448,192,223502,1,0,0:0:0:40:kick.wav
192,192,223502,1,0,0:0:0:0:
320,192,223587,1,0,0:0:0:0:
64,192,223672,1,0,0:0:0:40:kick.wav
448,192,223672,1,0,0:0:0:0:
192,192,223757,1,0,0:0:0:0:
448,192,223843,1,0,0:0:0:0:
64,192,223843,1,0,0:0:0:0:
320,192,223928,1,0,0:0:0:0:
64,192,224013,1,0,0:0:0:40:kick.wav
192,192,224013,1,0,0:0:0:0:
448,192,224098,1,0,0:0:0:0:
192,192,224184,1,0,0:0:0:0:
320,192,224184,1,0,0:0:0:0:
64,192,224269,1,0,0:0:0:0:
192,192,224354,1,0,0:0:0:40:kick.wav
448,192,224354,1,0,0:0:0:0:
320,192,224439,1,0,0:0:0:0:
64,192,224525,1,0,0:0:0:0:
448,192,224525,1,0,0:0:0:0:
192,192,224610,1,0,0:0:0:40:kick.wav
320,192,224610,1,0,0:0:0:0:
64,192,224695,1,0,0:0:0:0:
192,192,224780,1,0,0:0:0:0:
320,192,224865,1,0,0:0:0:40:kick.wav
448,192,224865,1,0,0:0:0:0:
192,192,224951,1,0,0:0:0:0:
64,192,225036,1,0,0:0:0:40:kick.wav
448,192,225036,1,0,0:0:0:0:
320,192,225121,1,0,0:0:0:0:
64,192,225206,1,0,0:0:0:0:
192,192,225206,1,0,0:0:0:0:
320,192,225292,1,0,0:0:0:0:
64,192,225377,1,0,0:0:0:40:kick.wav
448,192,225377,1,0,0:0:0:0:
192,192,225462,1,0,0:0:0:0:
448,192,225547,1,0,0:0:0:0:
320,192,225547,1,0,0:0:0:0:
320,192,225632,1,0,0:0:0:0:
448,192,225718,1,0,0:0:0:40:kick.wav
64,192,225718,1,0,0:0:0:0:
192,192,225803,1,0,0:0:0:0:
320,192,225888,1,0,0:0:0:0:
192,192,225973,1,0,0:0:0:40:kick.wav
64,192,225973,1,0,0:0:0:0:
448,192,226059,1,0,0:0:0:0:
320,192,226059,1,0,0:0:0:0:
64,192,226144,1,0,0:0:0:0:
192,192,226229,1,0,0:0:0:40:kick.wav
448,192,226229,1,0,0:0:0:0:
320,192,226314,1,0,0:0:0:0:
192,192,226400,1,0,0:0:0:50:crash.wav
448,192,226400,128,0,226570:0:0:0:40:kick.wav
64,192,226400,128,0,226570:0:0:0:0:
192,192,226570,1,0,0:0:0:0:
320,192,226655,1,0,0:0:0:0:
64,192,226740,128,0,226826:0:0:0:50:crash.wav
192,192,226740,1,0,0:0:0:0:
448,192,226740,128,0,226826:0:0:0:40:kick.wav
64,192,226911,128,0,226996:0:0:0:0:
448,192,227081,1,0,0:0:0:50:crash.wav
320,192,227081,128,0,227167:0:0:0:0:
192,192,227081,128,0,227167:0:0:0:40:kick.wav
320,192,227252,128,0,227337:0:0:0:0:
320,192,227422,1,0,0:0:0:50:crash.wav
64,192,227422,128,0,227507:0:0:0:40:kick.wav
448,192,227422,128,0,227507:0:0:0:0:
192,192,227593,1,0,0:0:0:0:
320,192,227678,1,0,0:0:0:0:
192,192,227763,1,0,0:0:0:0:
320,192,228019,1,0,0:0:0:0:
320,192,228275,1,0,0:0:0:0:
64,192,228360,1,0,0:0:0:0:
320,192,228445,1,0,0:0:0:0:
64,192,228530,1,0,0:0:0:0:
448,192,228615,1,0,0:0:0:0:
448,192,228701,1,0,0:0:0:0:
192,192,228786,1,0,0:0:0:0:
320,192,228871,1,0,0:0:0:0:
448,192,228956,128,0,229127:0:0:0:0:
64,192,229127,1,0,0:0:0:50:finish.wav
192,192,229127,1,0,0:0:0:40:kick.wav
320,192,229127,1,0,0:0:0:0:
448,192,229297,1,0,0:0:0:0:
192,192,229297,1,0,0:0:0:0:
448,192,229382,1,0,0:0:0:0:
64,192,229468,1,0,0:0:0:40:kick.wav
320,192,229468,1,0,0:0:0:0:
192,192,229553,1,0,0:0:0:0:
320,192,229638,1,0,0:0:0:0:
448,192,229638,1,0,0:0:0:0:
192,192,229723,1,0,0:0:0:0:
64,192,229809,1,0,0:0:0:40:kick.wav
448,192,229809,1,0,0:0:0:0:
320,192,229894,1,0,0:0:0:0:
192,192,229979,1,0,0:0:0:0:
320,192,230064,1,0,0:0:0:40:kick.wav
448,192,230064,1,0,0:0:0:0:
64,192,230150,1,0,0:0:0:0:
192,192,230150,1,0,0:0:0:0:
320,192,230235,1,0,0:0:0:0:
64,192,230320,1,0,0:0:0:40:kick.wav
448,192,230320,1,0,0:0:0:0:
192,192,230405,1,0,0:0:0:0:
320,192,230490,1,0,0:0:0:40:kick.wav
448,192,230490,1,0,0:0:0:0:
64,192,230576,1,0,0:0:0:0:
192,192,230661,1,0,0:0:0:0:
448,192,230661,1,0,0:0:0:0:
320,192,230746,1,0,0:0:0:0:
448,192,230831,1,0,0:0:0:40:kick.wav
64,192,230831,1,0,0:0:0:0:
192,192,230917,1,0,0:0:0:0:
320,192,231002,1,0,0:0:0:0:
192,192,231087,1,0,0:0:0:0:
64,192,231172,1,0,0:0:0:40:kick.wav
448,192,231172,1,0,0:0:0:0:
320,192,231257,1,0,0:0:0:0:
192,192,231343,1,0,0:0:0:0:
64,192,231428,1,0,0:0:0:40:kick.wav
448,192,231428,1,0,0:0:0:0:
192,192,231513,1,0,0:0:0:0:
64,192,231598,1,0,0:0:0:0:
448,192,231684,1,0,0:0:0:40:kick.wav
320,192,231684,1,0,0:0:0:0:
320,192,231769,1,0,0:0:0:0:
192,192,231854,1,0,0:0:0:40:kick.wav
448,192,231854,1,0,0:0:0:0:
64,192,231939,1,0,0:0:0:0:
320,192,232025,1,0,0:0:0:0:
192,192,232025,1,0,0:0:0:0:
448,192,232110,1,0,0:0:0:0:
320,192,232195,1,0,0:0:0:40:kick.wav
64,192,232195,1,0,0:0:0:0:
192,192,232280,1,0,0:0:0:0:
320,192,232365,1,0,0:0:0:0:
448,192,232365,1,0,0:0:0:0:
64,192,232451,1,0,0:0:0:0:
192,192,232451,1,0,0:0:0:0:
320,192,232536,1,0,0:0:0:40:kick.wav
448,192,232536,1,0,0:0:0:0:
64,192,232621,1,0,0:0:0:0:
192,192,232706,1,0,0:0:0:0:
448,192,232792,1,0,0:0:0:0:
320,192,232792,1,0,0:0:0:0:
192,192,232877,1,0,0:0:0:0:
64,192,232877,1,0,0:0:0:0:
320,192,232962,1,0,0:0:0:0:
64,192,233047,1,0,0:0:0:40:kick.wav
448,192,233047,1,0,0:0:0:0:
320,192,233132,1,0,0:0:0:0:
192,192,233218,1,0,0:0:0:50:finish.wav
64,192,233218,1,0,0:0:0:40:kick.wav
448,192,233218,128,0,233388:0:0:0:0:
64,192,233388,1,0,0:0:0:0:
320,192,233473,1,0,0:0:0:40:kick.wav
192,192,233473,1,0,0:0:0:0:
448,192,233559,1,0,0:0:0:0:
64,192,233559,1,0,0:0:0:0:
192,192,233644,1,0,0:0:0:0:
320,192,233729,1,0,0:0:0:40:kick.wav
448,192,233729,1,0,0:0:0:0:
192,192,233814,1,0,0:0:0:0:
64,192,233900,1,0,0:0:0:40:snare.wav
320,192,233900,1,0,0:0:0:40:kick.wav
448,192,233900,1,0,0:0:0:0:
192,192,233985,1,0,0:0:0:0:
320,192,234070,1,0,0:0:0:0:
448,192,234070,1,0,0:0:0:0:
192,192,234155,1,0,0:0:0:40:kick.wav
64,192,234155,1,0,0:0:0:0:
448,192,234240,1,0,0:0:0:0:
192,192,234326,1,0,0:0:0:0:
64,192,234326,1,0,0:0:0:0:
320,192,234411,1,0,0:0:0:40:kick.wav
448,192,234411,1,0,0:0:0:0:
192,192,234496,1,0,0:0:0:0:
448,192,234581,128,0,234752:0:0:0:0:
64,192,234667,1,0,0:0:0:0:
192,192,234752,1,0,0:0:0:40:kick.wav
320,192,234752,1,0,0:0:0:0:
448,192,234837,1,0,0:0:0:40:kick.wav
64,192,234922,1,0,0:0:0:0:
448,192,235007,1,0,0:0:0:40:kick.wav
320,192,235007,1,0,0:0:0:0:
64,192,235093,1,0,0:0:0:0:
192,192,235093,1,0,0:0:0:40:kick.wav
192,192,235178,1,0,0:0:0:0:
64,192,235263,1,0,0:0:0:40:snare.wav
320,192,235263,1,0,0:0:0:40:kick.wav
448,192,235263,1,0,0:0:0:0:
192,192,235348,1,0,0:0:0:0:
448,192,235434,1,0,0:0:0:0:
64,192,235519,1,0,0:0:0:40:kick.wav
320,192,235519,1,0,0:0:0:0:
192,192,235604,1,0,0:0:0:40:kick.wav
448,192,235604,1,0,0:0:0:0:
320,192,235689,1,0,0:0:0:0:
64,192,235775,1,0,0:0:0:40:kick.wav
192,192,235775,1,0,0:0:0:0:
320,192,235860,1,0,0:0:0:0:
448,192,235945,1,0,0:0:0:40:kick.wav
64,192,235945,128,0,236115:0:0:0:0:
320,192,236030,1,0,0:0:0:0:
192,192,236115,1,0,0:0:0:0:
448,192,236201,1,0,0:0:0:40:kick.wav
320,192,236201,1,0,0:0:0:0:
192,192,236286,1,0,0:0:0:0:
64,192,236371,1,0,0:0:0:0:
448,192,236456,1,0,0:0:0:40:kick.wav
192,192,236456,1,0,0:0:0:0:
320,192,236542,1,0,0:0:0:0:
64,192,236627,1,0,0:0:0:40:snare.wav
192,192,236627,1,0,0:0:0:40:kick.wav
448,192,236627,1,0,0:0:0:0:
320,192,236712,1,0,0:0:0:0:
64,192,236797,1,0,0:0:0:0:
192,192,236882,1,0,0:0:0:40:kick.wav
320,192,236882,1,0,0:0:0:0:
448,192,236968,1,0,0:0:0:0:
64,192,237053,1,0,0:0:0:0:
192,192,237053,1,0,0:0:0:0:
448,192,237138,1,0,0:0:0:40:kick.wav
320,192,237138,1,0,0:0:0:0:
192,192,237223,1,0,0:0:0:0:
64,192,237309,128,0,237564:0:0:0:50:finish.wav
320,192,237309,128,0,237564:0:0:0:40:kick.wav
448,192,237309,128,0,237564:0:0:0:0:
320,192,237650,128,0,237905:0:0:0:50:finish.wav
192,192,237650,128,0,237905:0:0:0:40:kick.wav
448,192,237650,128,0,237905:0:0:0:0:
64,192,237990,128,0,238246:0:0:0:50:finish.wav
192,192,237990,128,0,238246:0:0:0:40:kick.wav
448,192,237990,128,0,238246:0:0:0:0:
192,192,238331,128,0,238587:0:0:0:50:finish.wav
320,192,238331,128,0,238587:0:0:0:40:kick.wav
64,192,238331,128,0,238587:0:0:0:0:
64,192,238672,1,0,0:0:0:50:finish.wav
192,192,238672,1,0,0:0:0:40:kick.wav
448,192,238672,128,0,238757:0:0:0:0:
320,192,240036,128,0,240121:0:0:0:0:
192,192,241400,128,0,241485:0:0:0:0:
64,192,242763,128,0,242848:0:0:0:0:
448,192,243445,128,0,244127:0:0:0:0:
192,192,243445,128,0,243530:0:0:0:0:
320,192,244127,128,0,244212:0:0:0:0:
64,192,244127,128,0,244638:0:0:0:0:
192,192,244638,128,0,244809:0:0:0:0:
448,192,244809,128,0,246854:0:0:0:0:
64,192,245490,128,0,245576:0:0:0:0:
320,192,246854,128,0,250945:0:0:0:0:
192,192,247536,128,0,250945:0:0:0:0:
64,192,248218,128,0,250945:0:0:0:0:
448,192,248900,128,0,250945:0:0:0:0:
