osu file format v14

[General]
AudioFilename: audio.mp3
AudioLeadIn: 0
PreviewTime: 21854
Countdown: 0
SampleSet: Normal
StackLeniency: 0.7
Mode: 3
LetterboxInBreaks: 0
SpecialStyle: 0
WidescreenStoryboard: 1

[Editor]
DistanceSpacing: 0.8
BeatDivisor: 8
GridSize: 16
TimelineZoom: 1

[Metadata]
Title:Your voice so...
TitleUnicode:Your voice so...
Artist:PSYQUI/Such
ArtistUnicode:PSYQUI/Such
Creator:AlexDunk
Version:Ecchi (its actually H itsound)...
Source:FÜGENE
Tags:arcaea FÜGENE futurecore hardcore future bass M3 MRX-016 MEGAREX
BeatmapID:2016465
BeatmapSetID:963084

[Difficulty]
HPDrainRate:8.7
CircleSize:7
OverallDifficulty:8.3
ApproachRate:5
SliderMultiplier:1.4
SliderTickRate:1

[Events]
//Background and Video events
0,0,"please tellme.jpg",0,0
//Break Periods
2,1600,11109
2,47963,55001
2,56401,60540
//Storyboard Layer 0 (Background)
//Storyboard Layer 1 (Fail)
//Storyboard Layer 2 (Pass)
//Storyboard Layer 3 (Foreground)
//Storyboard Sound Samples

[TimingPoints]
1400,340.909090909091,4,1,1,20,1,0
12309,-100,4,1,1,30,0,0
23218,-50,4,1,1,40,0,0
23260,-66.6666666666667,4,1,1,40,0,0
23303,-83.3333333333333,4,1,1,40,0,0
23346,-100,4,1,1,40,0,0
23388,-125,4,1,1,40,0,0
23431,-142.857142857143,4,1,1,40,0,0
23473,-166.666666666667,4,1,1,40,0,0
23516,-200,4,1,1,40,0,0
23559,-250,4,1,1,40,0,0
23601,-166.666666666667,4,1,1,40,0,0
23644,-133.333333333333,4,1,1,40,0,0
23900,-66.6666666666667,4,1,1,40,0,0
23956,-142.857142857143,4,1,1,40,0,0
24155,-66.6666666666667,4,1,1,40,0,0
24212,-142.857142857143,4,1,1,40,0,0
24411,-66.6666666666667,4,1,1,40,0,0
24468,-142.857142857143,4,1,1,40,0,0
24581,-66.6666666666667,4,1,1,40,0,0
24638,-142.857142857143,4,1,1,40,0,0
24752,-100,4,1,1,40,0,0
24837,-66.6666666666667,4,1,1,40,0,0
24865,-200,4,1,1,40,0,0
24894,-142.857142857143,4,1,1,40,0,0
25007,-90.9090909090909,4,1,1,40,0,0
25093,-66.6666666666667,4,1,1,40,0,0
25150,-142.857142857143,4,1,1,40,0,0
25263,-500,4,1,1,40,0,0
25320,-333.333333333333,4,1,1,40,0,0
25377,-166.666666666667,4,1,1,40,0,0
25434,-100,4,1,1,40,0,0
25490,-71.4285714285714,4,1,1,40,0,0
25547,-83.3333333333333,4,1,1,40,0,0
25604,-100,4,1,1,40,0,0
25945,-100,4,1,1,30,0,1
34468,-66.6666666666667,4,1,1,30,0,1
34553,-100,4,1,1,30,0,1
34638,-133.333333333333,4,1,1,30,0,1
34723,-200,4,1,1,30,0,1
34809,-66.6666666666667,4,1,1,30,0,1
34894,-200,4,1,1,30,0,1
35064,-66.6666666666667,4,1,1,30,0,1
35150,-200,4,1,1,30,0,1
35320,-66.6666666666667,4,1,1,30,0,1
35405,-200,4,1,1,30,0,1
35490,-100,4,1,1,30,0,1
45036,-66.6666666666667,4,1,1,50,0,0
45078,-100,4,1,1,50,0,0
45121,-111.111111111111,4,1,1,50,0,0
45164,-125,4,1,1,50,0,0
45206,-166.666666666667,4,1,1,20,0,0
47081,-333.333333333333,4,1,1,50,0,0
47252,-142.857142857143,4,1,1,50,0,0
47294,-111.111111111111,4,1,1,50,0,0
47337,-66.6666666666667,4,1,1,50,0,0
47380,-50,4,1,1,50,0,0
47422,-66.6666666666667,4,1,1,50,0,0
47507,-200,4,1,1,50,0,0
47763,-100,4,1,1,30,0,0
55945,-1000,4,1,1,50,0,0
56030,-100,4,1,1,40,0,0
66854,-200,4,1,1,10,0,0
67072.2,-196.078,4,1,1,10,0,0
67290.4,-192.308,4,1,1,10,0,0
67508.5,-188.679,4,1,1,10,0,0
67726.7,-185.185,4,1,1,10,0,0
67944.9,-181.818,4,1,1,10,0,0
68163.1,-178.571,4,1,1,10,0,0
68381.3,-175.439,4,1,1,10,0,0
68599.4,-172.414,4,1,1,10,0,0
68817.6,-169.492,4,1,1,10,0,0
69035.8,-166.667,4,1,1,10,0,0
69254,-163.934,4,1,1,15,0,0
69472.2,-161.29,4,1,1,15,0,0
69690.3,-158.73,4,1,1,15,0,0
69908.5,-156.25,4,1,1,15,0,0
70126.7,-153.846,4,1,1,15,0,0
70344.9,-151.515,4,1,1,15,0,0
70563.1,-149.254,4,1,1,15,0,0
70781.2,-147.059,4,1,1,15,0,0
70999.4,-144.928,4,1,1,15,0,0
71217.6,-142.857,4,1,1,15,0,0
71435.8,-140.845,4,1,1,20,0,0
71654,-138.889,4,1,1,20,0,0
71872.1,-136.986,4,1,1,20,0,0
72090.3,-135.135,4,1,1,20,0,0
72308.5,-133.333,4,1,1,20,0,0
72526.7,-131.579,4,1,1,20,0,0
72744.9,-129.87,4,1,1,20,0,0
72963,-128.205,4,1,1,20,0,0
73181.2,-126.582,4,1,1,20,0,0
73399.4,-125,4,1,1,20,0,0
73617.6,-123.457,4,1,1,25,0,0
73835.8,-121.951,4,1,1,25,0,0
74053.9,-120.482,4,1,1,25,0,0
74272.1,-119.048,4,1,1,25,0,0
74490.3,-117.647,4,1,1,25,0,0
74708.5,-116.279,4,1,1,25,0,0
74926.7,-114.943,4,1,1,25,0,0
75144.8,-113.636,4,1,1,25,0,0
75363,-112.36,4,1,1,25,0,0
75581.2,-111.111,4,1,1,25,0,0
75799.4,-109.89,4,1,1,30,0,0
76017.6,-108.696,4,1,1,30,0,0
76235.7,-107.527,4,1,1,30,0,0
76453.9,-106.383,4,1,1,30,0,0
76672.1,-105.263,4,1,1,30,0,0
76890.3,-104.167,4,1,1,30,0,0
77108.5,-103.093,4,1,1,30,0,0
77326.6,-102.041,4,1,1,30,0,0
77544.8,-101.01,4,1,1,30,0,0
77763,-100,4,1,1,30,0,0
142195,-100,4,1,1,30,0,1
165036,-100,4,1,1,50,0,0
165078,-104.166666666667,4,1,1,50,0,0
165121,-108.695652173913,4,1,1,50,0,0
165164,-112.359550561798,4,1,1,50,0,0
165206,-117.647058823529,4,1,1,40,0,0
167081,-500,4,1,1,40,0,0
167124,-250.000000000001,4,1,1,50,0,0
167167,-200,4,1,1,50,0,0
167209,-166.666666666667,4,1,1,50,0,0
167252,-142.857142857143,4,1,1,50,0,0
167294,-111.111111111111,4,1,1,50,0,0
167337,-83.3333333333333,4,1,1,50,0,0
167380,-66.6666666666667,4,1,1,50,0,0
167422,-20,4,1,1,30,0,0
167465,-1000,4,1,1,50,0,0
167763,-40,4,1,1,50,0,0
167796,-1000,4,1,1,50,0,0
167934,-40,4,1,1,50,0,0
167966,-1000,4,1,1,50,0,0
168104,-76.9230769230769,4,1,1,50,0,0
168147,-500,4,1,1,50,0,0
168189,-250,4,1,1,50,0,0
168275,-142.857142857143,4,1,1,50,0,0
168360,-111.111111111111,4,1,1,50,0,0
168445,-50,4,1,1,50,0,0
168488,-200,4,1,1,50,0,0
168701,-50,4,1,1,50,0,0
168743,-200,4,1,1,50,0,0
168956,-66.6666666666667,4,1,1,50,0,0
168999,-200,4,1,1,50,0,0
169127,-66.6666666666667,4,1,1,50,0,0
169184,-333.333333333333,4,1,1,50,0,0
169240,-66.6666666666667,4,1,1,50,0,0
169297,-333.333333333333,4,1,1,50,0,0
169354,-66.6666666666667,4,1,1,50,0,0
169411,-333.333333333333,4,1,1,50,0,0
169468,-66.6666666666667,4,1,1,50,0,0
169525,-333.333333333333,4,1,1,50,0,0
169581,-66.6666666666667,4,1,1,50,0,0
169638,-333.333333333333,4,1,1,50,0,0
169695,-66.6666666666667,4,1,1,50,0,0
169752,-333.333333333333,4,1,1,50,0,0
169809,-83.3333333333333,4,1,1,50,0,0
169894,-125,4,1,1,50,0,0
169979,-83.3333333333333,4,1,1,50,0,0
170064,-125,4,1,1,50,0,0
170150,-100,4,1,1,40,0,0
189581,-108.695652173913,4,1,1,20,0,0
190945,-107.52688172043,4,1,1,20,0,0
192309,-106.382978723404,4,1,1,25,0,0
193672,-105.263157894737,4,1,1,25,0,0
195036,-104.166666666667,4,1,1,30,0,0
196400,-103.092783505155,4,1,1,30,0,0
197763,-102.040816326531,4,1,1,35,0,0
199127,-101.010101010101,4,1,1,35,0,0
200490,-100,4,1,1,30,0,0
216854,-50,4,1,1,40,0,0
216897,-76.9230769230769,4,1,1,40,0,0
216939,-83.3333333333333,4,1,1,40,0,0
216982,-90.9090909090909,4,1,1,40,0,0
217025,-100,4,1,1,40,0,0
217067,-125,4,1,1,40,0,0
217110,-200,4,1,1,40,0,0
217152,-250,4,1,1,40,0,0
217195,-222.222222222222,4,1,1,40,0,0
217238,-166.666666666667,4,1,1,40,0,0
217280,-133.333333333333,4,1,1,40,0,0
217536,-66.6666666666667,4,1,1,40,0,0
217593,-142.857142857143,4,1,1,40,0,0
217792,-66.6666666666667,4,1,1,40,0,0
217848,-142.857142857143,4,1,1,40,0,0
218047,-66.6666666666667,4,1,1,40,0,0
218104,-142.857142857143,4,1,1,40,0,0
218218,-66.6666666666667,4,1,1,40,0,0
218275,-142.857142857143,4,1,1,40,0,0
218388,-100,4,1,1,40,0,0
218473,-66.6666666666667,4,1,1,40,0,0
218502,-250,4,1,1,40,0,0
218530,-142.857142857143,4,1,1,40,0,0
218644,-90.9090909090909,4,1,1,40,0,0
218729,-66.6666666666667,4,1,1,40,0,0
218786,-142.857142857143,4,1,1,40,0,0
218900,-500,4,1,1,40,0,0
218942,-333.333333333333,4,1,1,40,0,0
218985,-200,4,1,1,40,0,0
219027,-166.666666666667,4,1,1,40,0,0
219070,-125,4,1,1,40,0,0
219113,-100,4,1,1,40,0,0
219155,-71.4285714285714,4,1,1,40,0,0
219198,-83.3333333333333,4,1,1,40,0,0
219240,-100,4,1,1,40,0,0
219581,-100,4,1,1,30,0,1
238672,-100,4,1,1,50,0,0
239354,-105.263157894737,4,1,1,50,0,0
240036,-111.111111111111,4,1,1,30,0,0
240718,-117.647058823529,4,1,1,30,0,0
241400,-125,4,1,1,30,0,0

[HitObjects]
36,192,1400,5,0,0:0:0:40:kick.wav
402,192,1400,1,0,0:0:0:30:crash.wav
182,192,12309,5,0,0:0:0:40:snare2.wav
36,192,12309,1,0,0:0:0:40:kick.wav
182,192,12650,1,0,0:0:0:40:snare2.wav
36,192,12650,1,0,0:0:0:40:kick.wav
182,192,12820,1,0,0:0:0:40:snare2.wav
182,192,12990,1,0,0:0:0:40:snare2.wav
36,192,12990,1,0,0:0:0:40:kick.wav
182,192,13331,1,0,0:0:0:40:snare2.wav
36,192,13331,1,0,0:0:0:40:kick.wav
182,192,13672,1,0,0:0:0:40:snare2.wav
36,192,13672,1,0,0:0:0:40:kick.wav
182,192,14013,1,0,0:0:0:40:snare2.wav
36,192,14013,1,0,0:0:0:40:kick.wav
182,192,14354,1,0,0:0:0:40:snare2.wav
36,192,14354,1,0,0:0:0:40:kick.wav
182,192,14695,1,0,0:0:0:40:snare2.wav
36,192,14695,1,0,0:0:0:40:kick.wav
182,192,15036,1,0,0:0:0:40:snare2.wav
36,192,15036,1,0,0:0:0:40:kick.wav
182,192,15377,1,0,0:0:0:40:snare2.wav
36,192,15377,1,0,0:0:0:40:kick.wav
182,192,15547,1,0,0:0:0:40:snare2.wav
182,192,15718,1,0,0:0:0:40:snare2.wav
36,192,15718,1,0,0:0:0:40:kick.wav
182,192,16059,1,0,0:0:0:40:snare2.wav
36,192,16059,1,0,0:0:0:40:kick.wav
182,192,16400,1,0,0:0:0:40:snare2.wav
36,192,16400,1,0,0:0:0:40:kick.wav
182,192,16740,1,0,0:0:0:40:snare2.wav
36,192,16740,1,0,0:0:0:40:kick.wav
182,192,17081,1,0,0:0:0:40:snare2.wav
36,192,17081,1,0,0:0:0:40:kick.wav
182,192,17422,1,0,0:0:0:40:snare2.wav
36,192,17422,1,0,0:0:0:40:kick.wav
36,192,17763,1,0,0:0:0:40:kick.wav
182,192,17763,1,0,0:0:0:40:snare2.wav
182,192,17934,1,0,0:0:0:40:snare2.wav
182,192,18104,1,0,0:0:0:40:snare2.wav
36,192,18104,1,0,0:0:0:40:kick.wav
182,192,18275,1,0,0:0:0:40:snare2.wav
182,192,18445,1,0,0:0:0:40:snare2.wav
36,192,18445,1,0,0:0:0:40:kick.wav
182,192,18615,1,0,0:0:0:40:snare2.wav
182,192,18786,1,0,0:0:0:40:snare2.wav
36,192,18786,1,0,0:0:0:40:kick.wav
182,192,18956,1,0,0:0:0:40:snare2.wav
182,192,19127,1,0,0:0:0:40:snare2.wav
36,192,19127,1,0,0:0:0:40:kick.wav
182,192,19297,1,0,0:0:0:40:snare2.wav
182,192,19468,1,0,0:0:0:40:snare2.wav
36,192,19468,1,0,0:0:0:40:kick.wav
182,192,19638,1,0,0:0:0:40:snare2.wav
182,192,19809,1,0,0:0:0:40:snare2.wav
36,192,19809,1,0,0:0:0:40:kick.wav
182,192,19979,1,0,0:0:0:40:snare2.wav
182,192,20150,1,0,0:0:0:40:snare2.wav
36,192,20150,1,0,0:0:0:40:kick.wav
182,192,20320,1,0,0:0:0:40:snare2.wav
182,192,20490,1,0,0:0:0:40:snare2.wav
36,192,20490,1,0,0:0:0:40:kick.wav
182,192,20576,1,0,0:0:0:40:snare2.wav
182,192,20661,1,0,0:0:0:40:snare2.wav
182,192,20746,1,0,0:0:0:40:snare2.wav
182,192,20831,1,0,0:0:0:40:snare2.wav
182,192,20917,1,0,0:0:0:40:snare2.wav
182,192,21002,1,0,0:0:0:40:snare2.wav
182,192,21087,1,0,0:0:0:40:snare2.wav
182,192,21172,1,0,0:0:0:40:snare2.wav
182,192,21257,1,0,0:0:0:40:snare2.wav
182,192,21343,1,0,0:0:0:40:snare2.wav
182,192,21428,1,0,0:0:0:40:snare2.wav
182,192,21513,1,0,0:0:0:40:snare2.wav
182,192,21598,1,0,0:0:0:40:snare2.wav
182,192,21684,1,0,0:0:0:40:snare2.wav
182,192,21769,1,0,0:0:0:40:snare2.wav
36,192,23218,1,0,0:0:0:40:kick.wav
36,192,23900,1,0,0:0:0:40:kick.wav
402,192,23900,1,0,0:0:0:50:crash.wav
402,192,24155,1,0,0:0:0:50:crash.wav
36,192,24155,1,0,0:0:0:40:kick.wav
36,192,24411,1,0,0:0:0:40:kick.wav
402,192,24411,1,0,0:0:0:50:crash.wav
402,192,24581,1,0,0:0:0:50:crash.wav
36,192,24581,1,0,0:0:0:40:kick.wav
36,192,24837,1,0,0:0:0:40:kick.wav
402,192,24837,1,0,0:0:0:50:crash.wav
402,192,25093,1,0,0:0:0:50:crash.wav
36,192,25093,1,0,0:0:0:40:kick.wav
36,192,25945,1,0,0:0:0:40:kick.wav
329,192,25945,1,0,0:0:0:50:finish.wav
36,192,26286,1,0,0:0:0:40:kick.wav
36,192,26627,1,0,0:0:0:40:kick.wav
36,192,26882,1,0,0:0:0:40:kick.wav
36,192,27138,1,0,0:0:0:40:kick.wav
36,192,27309,1,0,0:0:0:40:kick.wav
36,192,27650,1,0,0:0:0:40:kick.wav
36,192,27990,1,0,0:0:0:40:kick.wav
36,192,28246,1,0,0:0:0:40:kick.wav
36,192,28502,1,0,0:0:0:40:kick.wav
36,192,28672,1,0,0:0:0:40:kick.wav
402,192,28672,1,0,0:0:0:50:crash.wav
36,192,29013,1,0,0:0:0:40:kick.wav
36,192,29354,1,0,0:0:0:40:kick.wav
36,192,29610,1,0,0:0:0:40:kick.wav
36,192,29865,1,0,0:0:0:40:kick.wav
36,192,30036,1,0,0:0:0:40:kick.wav
36,192,30377,1,0,0:0:0:40:kick.wav
36,192,30718,1,0,0:0:0:40:kick.wav
36,192,30973,1,0,0:0:0:40:kick.wav
36,192,31229,1,0,0:0:0:40:kick.wav
36,192,31400,1,0,0:0:0:40:kick.wav
36,192,31740,1,0,0:0:0:40:kick.wav
36,192,32081,1,0,0:0:0:40:kick.wav
36,192,32337,1,0,0:0:0:40:kick.wav
36,192,32593,1,0,0:0:0:40:kick.wav
36,192,32763,1,0,0:0:0:40:kick.wav
402,192,32763,1,0,0:0:0:50:crash.wav
402,192,33104,1,0,0:0:0:50:crash.wav
36,192,33104,1,0,0:0:0:40:kick.wav
36,192,33445,1,0,0:0:0:40:kick.wav
402,192,33445,1,0,0:0:0:50:crash.wav
402,192,33786,1,0,0:0:0:50:crash.wav
36,192,33786,1,0,0:0:0:40:kick.wav
36,192,34809,1,0,0:0:0:40:kick.wav
402,192,34809,1,0,0:0:0:50:crash.wav
36,192,35064,1,0,0:0:0:40:kick.wav
402,192,35064,1,0,0:0:0:50:crash.wav
36,192,35320,1,0,0:0:0:40:kick.wav
402,192,35320,1,0,0:0:0:50:crash.wav
36,192,35490,1,0,0:0:0:40:kick.wav
329,192,35490,1,0,0:0:0:50:finish.wav
36,192,35831,1,0,0:0:0:40:kick.wav
36,192,36172,1,0,0:0:0:40:kick.wav
36,192,36428,1,0,0:0:0:40:kick.wav
36,192,36684,1,0,0:0:0:40:kick.wav
36,192,36854,1,0,0:0:0:40:kick.wav
36,192,37195,1,0,0:0:0:40:kick.wav
36,192,37536,1,0,0:0:0:40:kick.wav
36,192,37792,1,0,0:0:0:40:kick.wav
36,192,38047,1,0,0:0:0:40:kick.wav
36,192,38218,1,0,0:0:0:40:kick.wav
36,192,38559,1,0,0:0:0:40:kick.wav
36,192,38900,1,0,0:0:0:40:kick.wav
36,192,39155,1,0,0:0:0:40:kick.wav
36,192,39411,1,0,0:0:0:40:kick.wav
36,192,39581,1,0,0:0:0:40:kick.wav
329,192,39581,1,0,0:0:0:50:finish.wav
36,192,39837,1,0,0:0:0:40:kick.wav
36,192,40093,1,0,0:0:0:40:kick.wav
36,192,40263,1,0,0:0:0:40:kick.wav
475,192,40263,1,0,0:0:0:40:snare.wav
36,192,40519,1,0,0:0:0:40:kick.wav
36,192,40775,1,0,0:0:0:40:kick.wav
36,192,41115,1,0,0:0:0:40:kick.wav
36,192,41371,1,0,0:0:0:40:kick.wav
36,192,41627,1,0,0:0:0:40:kick.wav
475,192,41627,1,0,0:0:0:40:snare.wav
36,192,41882,1,0,0:0:0:40:kick.wav
36,192,41968,1,0,0:0:0:40:kick.wav
36,192,42138,1,0,0:0:0:40:kick.wav
36,192,42309,1,0,0:0:0:40:kick.wav
36,192,42564,1,0,0:0:0:40:kick.wav
36,192,42820,1,0,0:0:0:40:kick.wav
475,192,42990,1,0,0:0:0:40:snare.wav
36,192,42990,1,0,0:0:0:40:kick.wav
36,192,43246,1,0,0:0:0:40:kick.wav
36,192,43502,1,0,0:0:0:40:kick.wav
36,192,43672,1,0,0:0:0:40:kick.wav
402,192,43672,1,0,0:0:0:50:crash.wav
402,192,44013,1,0,0:0:0:50:crash.wav
36,192,44013,1,0,0:0:0:40:kick.wav
36,192,44354,1,0,0:0:0:40:kick.wav
402,192,44354,1,0,0:0:0:50:crash.wav
402,192,44695,1,0,0:0:0:50:crash.wav
36,192,44695,1,0,0:0:0:40:kick.wav
329,192,47763,1,0,0:0:0:50:finish.wav
36,192,56201,5,0,0:0:0:40:kick.wav
402,192,56201,1,0,0:0:0:30:crash.wav
402,192,61740,5,0,0:0:0:30:crash.wav
402,192,62422,1,0,0:0:0:30:crash.wav
402,192,63019,1,0,0:0:0:30:crash.wav
402,192,63275,1,0,0:0:0:30:crash.wav
329,192,64127,1,0,0:0:0:50:finish.wav
402,192,65490,1,0,0:0:0:40:crash.wav
402,192,65831,1,0,0:0:0:40:crash.wav
402,192,66172,1,0,0:0:0:40:crash.wav
402,192,66513,1,0,0:0:0:40:crash.wav
329,192,66854,1,0,0:0:0:40:finish.wav
36,192,66854,1,0,0:0:0:15:kick.wav
36,192,67195,1,0,0:0:0:15:kick.wav
36,192,67536,1,0,0:0:0:15:kick.wav
36,192,67877,1,0,0:0:0:15:kick.wav
36,192,68218,1,0,0:0:0:15:kick.wav
36,192,68559,1,0,0:0:0:15:kick.wav
36,192,68900,1,0,0:0:0:15:kick.wav
36,192,69240,1,0,0:0:0:15:kick.wav
36,192,69581,1,0,0:0:0:20:kick.wav
36,192,69922,1,0,0:0:0:20:kick.wav
36,192,70263,1,0,0:0:0:20:kick.wav
36,192,70604,1,0,0:0:0:20:kick.wav
36,192,70945,1,0,0:0:0:20:kick.wav
36,192,71286,1,0,0:0:0:20:kick.wav
36,192,71627,1,0,0:0:0:20:kick.wav
36,192,71968,1,0,0:0:0:20:kick.wav
36,192,72309,1,0,0:0:0:25:kick.wav
36,192,72650,1,0,0:0:0:25:kick.wav
36,192,72990,1,0,0:0:0:25:kick.wav
36,192,73331,1,0,0:0:0:25:kick.wav
36,192,73672,1,0,0:0:0:25:kick.wav
36,192,74013,1,0,0:0:0:25:kick.wav
36,192,74354,1,0,0:0:0:25:kick.wav
36,192,74695,1,0,0:0:0:25:kick.wav
36,192,75036,1,0,0:0:0:30:kick.wav
36,192,75377,1,0,0:0:0:30:kick.wav
36,192,75718,1,0,0:0:0:30:kick.wav
36,192,76059,1,0,0:0:0:30:kick.wav
36,192,76400,1,0,0:0:0:30:kick.wav
36,192,76740,5,0,0:0:0:30:kick.wav
36,192,77081,1,0,0:0:0:30:kick.wav
36,192,77422,1,0,0:0:0:30:kick.wav
182,192,77763,5,0,0:0:0:40:snare2.wav
36,192,77763,1,0,0:0:0:40:kick.wav
182,192,78104,1,0,0:0:0:40:snare2.wav
36,192,78104,1,0,0:0:0:40:kick.wav
182,192,78275,1,0,0:0:0:40:snare2.wav
182,192,78445,1,0,0:0:0:40:snare2.wav
36,192,78445,1,0,0:0:0:40:kick.wav
182,192,78786,1,0,0:0:0:40:snare2.wav
36,192,78786,1,0,0:0:0:40:kick.wav
182,192,79127,1,0,0:0:0:40:snare2.wav
36,192,79127,1,0,0:0:0:40:kick.wav
182,192,79468,1,0,0:0:0:40:snare2.wav
36,192,79468,1,0,0:0:0:40:kick.wav
182,192,79809,1,0,0:0:0:40:snare2.wav
36,192,79809,1,0,0:0:0:40:kick.wav
182,192,80150,1,0,0:0:0:40:snare2.wav
36,192,80150,1,0,0:0:0:40:kick.wav
182,192,80490,1,0,0:0:0:40:snare2.wav
36,192,80490,1,0,0:0:0:40:kick.wav
182,192,80831,1,0,0:0:0:40:snare2.wav
36,192,80831,1,0,0:0:0:40:kick.wav
182,192,81002,1,0,0:0:0:40:snare2.wav
182,192,81172,1,0,0:0:0:40:snare2.wav
36,192,81172,1,0,0:0:0:40:kick.wav
182,192,81513,1,0,0:0:0:40:snare2.wav
36,192,81513,1,0,0:0:0:40:kick.wav
182,192,81854,1,0,0:0:0:40:snare2.wav
36,192,81854,1,0,0:0:0:40:kick.wav
182,192,82195,1,0,0:0:0:40:snare2.wav
36,192,82195,1,0,0:0:0:40:kick.wav
182,192,82536,1,0,0:0:0:40:snare2.wav
36,192,82536,1,0,0:0:0:40:kick.wav
182,192,82877,1,0,0:0:0:40:snare2.wav
36,192,82877,1,0,0:0:0:40:kick.wav
182,192,83218,1,0,0:0:0:40:snare2.wav
36,192,83218,1,0,0:0:0:40:kick.wav
182,192,83388,1,0,0:0:0:40:snare2.wav
182,192,83559,1,0,0:0:0:40:snare2.wav
36,192,83559,1,0,0:0:0:40:kick.wav
182,192,83729,1,0,0:0:0:40:snare2.wav
182,192,83900,1,0,0:0:0:40:snare2.wav
36,192,83900,1,0,0:0:0:40:kick.wav
182,192,84070,1,0,0:0:0:40:snare2.wav
182,192,84240,1,0,0:0:0:40:snare2.wav
36,192,84240,1,0,0:0:0:40:kick.wav
182,192,84411,1,0,0:0:0:40:snare2.wav
182,192,84581,1,0,0:0:0:40:snare2.wav
36,192,84581,1,0,0:0:0:40:kick.wav
182,192,84752,1,0,0:0:0:40:snare2.wav
182,192,84922,1,0,0:0:0:40:snare2.wav
36,192,84922,1,0,0:0:0:40:kick.wav
182,192,85093,1,0,0:0:0:40:snare2.wav
182,192,85263,1,0,0:0:0:40:snare2.wav
36,192,85263,1,0,0:0:0:40:kick.wav
182,192,85434,1,0,0:0:0:40:snare2.wav
182,192,85604,1,0,0:0:0:40:snare2.wav
36,192,85604,1,0,0:0:0:40:kick.wav
182,192,85775,1,0,0:0:0:40:snare2.wav
182,192,85945,1,0,0:0:0:40:snare2.wav
36,192,85945,1,0,0:0:0:40:kick.wav
182,192,86030,1,0,0:0:0:40:snare2.wav
182,192,86115,1,0,0:0:0:40:snare2.wav
182,192,86201,1,0,0:0:0:40:snare2.wav
182,192,86286,1,0,0:0:0:40:snare2.wav
36,192,86286,1,0,0:0:0:40:kick.wav
182,192,86371,1,0,0:0:0:40:snare2.wav
182,192,86456,1,0,0:0:0:40:snare2.wav
182,192,86542,1,0,0:0:0:40:snare2.wav
182,192,86627,1,0,0:0:0:40:snare2.wav
36,192,86627,1,0,0:0:0:40:kick.wav
182,192,86712,1,0,0:0:0:40:snare2.wav
182,192,86797,1,0,0:0:0:40:snare2.wav
182,192,86882,1,0,0:0:0:40:snare2.wav
182,192,86968,1,0,0:0:0:40:snare2.wav
36,192,86968,1,0,0:0:0:40:kick.wav
182,192,87053,1,0,0:0:0:40:snare2.wav
182,192,87138,1,0,0:0:0:40:snare2.wav
182,192,87223,1,0,0:0:0:40:snare2.wav
36,192,87309,1,0,0:0:0:40:kick.wav
402,192,87309,1,0,0:0:0:50:crash.wav
402,192,89013,1,0,0:0:0:50:crash.wav
36,192,89013,1,0,0:0:0:40:kick.wav
36,192,89354,1,0,0:0:0:40:kick.wav
36,192,89695,1,0,0:0:0:40:kick.wav
36,192,90036,1,0,0:0:0:40:kick.wav
36,192,90377,1,0,0:0:0:40:kick.wav
36,192,90718,1,0,0:0:0:40:kick.wav
36,192,91059,1,0,0:0:0:40:kick.wav
36,192,91400,1,0,0:0:0:40:kick.wav
36,192,91740,1,0,0:0:0:40:kick.wav
36,192,92081,1,0,0:0:0:40:kick.wav
36,192,92422,1,0,0:0:0:40:kick.wav
36,192,92763,1,0,0:0:0:40:kick.wav
36,192,93104,1,0,0:0:0:40:kick.wav
36,192,93445,1,0,0:0:0:40:kick.wav
36,192,93786,1,0,0:0:0:40:kick.wav
36,192,94127,1,0,0:0:0:40:kick.wav
329,192,94127,1,0,0:0:0:50:finish.wav
329,192,94382,1,0,0:0:0:50:finish.wav
36,192,94382,1,0,0:0:0:40:kick.wav
329,192,94638,1,0,0:0:0:50:finish.wav
36,192,94638,1,0,0:0:0:40:kick.wav
36,192,94809,1,0,0:0:0:40:kick.wav
402,192,94809,1,0,0:0:0:50:crash.wav
36,192,95150,1,0,0:0:0:40:kick.wav
36,192,95490,1,0,0:0:0:40:kick.wav
36,192,95831,1,0,0:0:0:40:kick.wav
36,192,96172,1,0,0:0:0:40:kick.wav
36,192,96513,1,0,0:0:0:40:kick.wav
36,192,96854,1,0,0:0:0:40:kick.wav
402,192,96854,1,0,0:0:0:50:crash.wav
36,192,97280,1,0,0:0:0:40:kick.wav
36,192,97365,1,0,0:0:0:40:kick.wav
402,192,97365,1,0,0:0:0:50:crash.wav
36,192,97792,1,0,0:0:0:40:kick.wav
36,192,97877,1,0,0:0:0:40:kick.wav
402,192,97877,1,0,0:0:0:50:crash.wav
402,192,98218,1,0,0:0:0:50:crash.wav
36,192,98218,1,0,0:0:0:40:kick.wav
36,192,99752,1,0,0:0:0:40:kick.wav
36,192,99922,1,0,0:0:0:40:kick.wav
329,192,99922,1,0,0:0:0:50:finish.wav
182,192,101968,1,0,0:0:0:40:snare2.wav
36,192,102309,1,0,0:0:0:40:kick.wav
402,192,102309,1,0,0:0:0:50:crash.wav
36,192,102564,1,0,0:0:0:40:kick.wav
475,192,102650,1,0,0:0:0:50:snare.wav
36,192,102820,1,0,0:0:0:40:kick.wav
36,192,102990,1,0,0:0:0:40:kick.wav
36,192,103246,1,0,0:0:0:40:kick.wav
475,192,103331,1,0,0:0:0:50:snare.wav
36,192,103502,1,0,0:0:0:40:kick.wav
36,192,103672,1,0,0:0:0:40:kick.wav
36,192,103928,1,0,0:0:0:40:kick.wav
475,192,104013,1,0,0:0:0:50:snare.wav
36,192,104184,1,0,0:0:0:40:kick.wav
36,192,104354,1,0,0:0:0:40:kick.wav
36,192,104610,1,0,0:0:0:40:kick.wav
475,192,104695,1,0,0:0:0:50:snare.wav
36,192,104865,1,0,0:0:0:40:kick.wav
36,192,105036,1,0,0:0:0:40:kick.wav
329,192,105036,1,0,0:0:0:50:finish.wav
475,192,105377,1,0,0:0:0:50:snare.wav
36,192,105547,1,0,0:0:0:40:kick.wav
36,192,105718,1,0,0:0:0:40:kick.wav
36,192,105973,1,0,0:0:0:40:kick.wav
475,192,106059,1,0,0:0:0:50:snare.wav
36,192,106229,1,0,0:0:0:40:kick.wav
36,192,106400,1,0,0:0:0:40:kick.wav
329,192,106400,1,0,0:0:0:50:finish.wav
329,192,106655,1,0,0:0:0:50:finish.wav
36,192,106655,1,0,0:0:0:40:kick.wav
475,192,106740,1,0,0:0:0:50:snare.wav
329,192,106911,1,0,0:0:0:50:finish.wav
36,192,106911,1,0,0:0:0:40:kick.wav
329,192,107167,1,0,0:0:0:50:finish.wav
36,192,107167,1,0,0:0:0:40:kick.wav
329,192,107422,1,0,0:0:0:50:finish.wav
475,192,107422,1,0,0:0:0:50:snare.wav
36,192,107593,1,0,0:0:0:40:kick.wav
329,192,107763,1,0,0:0:0:50:finish.wav
36,192,107763,1,0,0:0:0:40:kick.wav
36,192,108019,1,0,0:0:0:40:kick.wav
329,192,108019,1,0,0:0:0:50:finish.wav
475,192,108104,1,0,0:0:0:50:snare.wav
36,192,108275,1,0,0:0:0:40:kick.wav
329,192,108275,1,0,0:0:0:50:finish.wav
329,192,108530,1,0,0:0:0:50:finish.wav
36,192,108530,1,0,0:0:0:40:kick.wav
329,192,108786,1,0,0:0:0:50:finish.wav
475,192,108786,1,0,0:0:0:50:snare.wav
36,192,108956,1,0,0:0:0:40:kick.wav
36,192,109127,1,0,0:0:0:40:kick.wav
329,192,109127,1,0,0:0:0:50:finish.wav
256,192,109468,1,0,0:0:0:0:
329,192,109809,1,0,0:0:0:50:finish.wav
36,192,109809,1,0,0:0:0:40:kick.wav
256,192,110150,1,0,0:0:0:0:
36,192,110490,1,0,0:0:0:40:kick.wav
329,192,110490,1,0,0:0:0:50:finish.wav
256,192,110831,1,0,0:0:0:0:
329,192,111172,1,0,0:0:0:50:finish.wav
36,192,111172,1,0,0:0:0:40:kick.wav
256,192,111513,1,0,0:0:0:0:
36,192,111854,1,0,0:0:0:40:kick.wav
329,192,111854,1,0,0:0:0:50:finish.wav
256,192,111854,1,0,0:0:0:0:
256,192,112195,1,0,0:0:0:0:
329,192,112536,1,0,0:0:0:50:finish.wav
36,192,112536,1,0,0:0:0:40:kick.wav
256,192,112536,1,0,0:0:0:0:
256,192,112877,1,0,0:0:0:0:
36,192,113218,1,0,0:0:0:40:kick.wav
329,192,113218,1,0,0:0:0:50:finish.wav
256,192,113218,1,0,0:0:0:0:
256,192,113559,1,0,0:0:0:0:
329,192,113900,1,0,0:0:0:50:finish.wav
36,192,113900,1,0,0:0:0:40:kick.wav
256,192,113900,1,0,0:0:0:0:
256,192,114240,1,0,0:0:0:0:
36,192,114581,1,0,0:0:0:40:kick.wav
329,192,114581,1,0,0:0:0:50:finish.wav
256,192,114581,1,0,0:0:0:0:
256,192,114752,1,0,0:0:0:0:
329,192,114922,1,0,0:0:0:50:finish.wav
36,192,114922,1,0,0:0:0:40:kick.wav
256,192,114922,1,0,0:0:0:0:
256,192,115093,1,0,0:0:0:0:
36,192,115263,1,0,0:0:0:40:kick.wav
329,192,115263,1,0,0:0:0:50:finish.wav
256,192,115263,1,0,0:0:0:0:
256,192,115434,1,0,0:0:0:0:
329,192,115604,1,0,0:0:0:50:finish.wav
36,192,115604,1,0,0:0:0:40:kick.wav
256,192,115604,1,0,0:0:0:0:
256,192,115775,1,0,0:0:0:0:
36,192,115945,1,0,0:0:0:40:kick.wav
329,192,115945,1,0,0:0:0:50:finish.wav
256,192,115945,1,0,0:0:0:0:
256,192,116115,1,0,0:0:0:0:
329,192,116286,1,0,0:0:0:50:finish.wav
36,192,116286,1,0,0:0:0:40:kick.wav
256,192,116286,1,0,0:0:0:0:
256,192,116456,1,0,0:0:0:0:
36,192,116627,1,0,0:0:0:40:kick.wav
329,192,116627,1,0,0:0:0:50:finish.wav
256,192,116627,1,0,0:0:0:0:
256,192,116797,1,0,0:0:0:0:
329,192,116968,1,0,0:0:0:50:finish.wav
36,192,116968,1,0,0:0:0:40:kick.wav
256,192,116968,1,0,0:0:0:0:
256,192,117138,1,0,0:0:0:0:
36,192,117309,1,0,0:0:0:40:kick.wav
329,192,117309,1,0,0:0:0:50:finish.wav
256,192,117309,1,0,0:0:0:0:
256,192,117394,1,0,0:0:0:0:
256,192,117479,1,0,0:0:0:0:
256,192,117564,1,0,0:0:0:0:
329,192,117650,1,0,0:0:0:50:finish.wav
256,192,117650,1,0,0:0:0:0:
36,192,117650,1,0,0:0:0:40:kick.wav
256,192,117735,1,0,0:0:0:0:
256,192,117820,1,0,0:0:0:0:
256,192,117905,1,0,0:0:0:0:
256,192,117990,1,0,0:0:0:0:
329,192,117990,1,0,0:0:0:50:finish.wav
36,192,117990,1,0,0:0:0:40:kick.wav
256,192,118076,1,0,0:0:0:0:
256,192,118161,1,0,0:0:0:0:
256,192,118246,1,0,0:0:0:0:
256,192,118331,1,0,0:0:0:0:
36,192,118331,1,0,0:0:0:40:kick.wav
329,192,118331,1,0,0:0:0:50:finish.wav
256,192,118417,1,0,0:0:0:0:
256,192,118502,1,0,0:0:0:0:
256,192,118587,1,0,0:0:0:0:
36,192,118672,1,0,0:0:0:40:kick.wav
329,192,118672,1,0,0:0:0:50:finish.wav
256,192,118672,1,0,0:0:0:0:
182,192,119695,1,0,0:0:0:0:
36,192,120036,1,0,0:0:0:40:kick.wav
329,192,120036,1,0,0:0:0:50:finish.wav
36,192,120377,1,0,0:0:0:40:kick.wav
36,192,120718,1,0,0:0:0:40:kick.wav
36,192,121059,1,0,0:0:0:40:kick.wav
36,192,121400,1,0,0:0:0:40:kick.wav
36,192,121740,1,0,0:0:0:40:kick.wav
36,192,122081,1,0,0:0:0:40:kick.wav
36,192,122422,1,0,0:0:0:40:kick.wav
36,192,122763,1,0,0:0:0:40:kick.wav
36,192,123104,1,0,0:0:0:40:kick.wav
36,192,123445,1,0,0:0:0:40:kick.wav
36,192,123786,1,0,0:0:0:40:kick.wav
36,192,124127,1,0,0:0:0:40:kick.wav
36,192,124468,1,0,0:0:0:40:kick.wav
36,192,124809,1,0,0:0:0:40:kick.wav
36,192,125150,1,0,0:0:0:40:kick.wav
36,192,125490,1,0,0:0:0:40:kick.wav
36,192,125831,1,0,0:0:0:40:kick.wav
36,192,126172,1,0,0:0:0:40:kick.wav
36,192,126513,1,0,0:0:0:40:kick.wav
36,192,126854,1,0,0:0:0:40:kick.wav
36,192,127195,1,0,0:0:0:40:kick.wav
36,192,127536,1,0,0:0:0:40:kick.wav
36,192,127877,1,0,0:0:0:40:kick.wav
36,192,128218,1,0,0:0:0:40:kick.wav
36,192,128559,1,0,0:0:0:40:kick.wav
36,192,128900,1,0,0:0:0:40:kick.wav
36,192,129240,1,0,0:0:0:40:kick.wav
36,192,129581,1,0,0:0:0:40:kick.wav
36,192,129922,1,0,0:0:0:40:kick.wav
36,192,130263,1,0,0:0:0:40:kick.wav
36,192,130604,1,0,0:0:0:40:kick.wav
36,192,130945,1,0,0:0:0:40:kick.wav
329,192,130945,1,0,0:0:0:50:finish.wav
36,192,131286,1,0,0:0:0:40:kick.wav
36,192,131627,1,0,0:0:0:40:kick.wav
36,192,131968,1,0,0:0:0:40:kick.wav
36,192,132309,1,0,0:0:0:40:kick.wav
36,192,132650,1,0,0:0:0:40:kick.wav
36,192,132990,1,0,0:0:0:40:kick.wav
36,192,133331,1,0,0:0:0:40:kick.wav
36,192,133672,1,0,0:0:0:40:kick.wav
36,192,134013,1,0,0:0:0:40:kick.wav
36,192,134354,1,0,0:0:0:40:kick.wav
36,192,134695,1,0,0:0:0:40:kick.wav
36,192,135036,1,0,0:0:0:40:kick.wav
36,192,135377,1,0,0:0:0:40:kick.wav
36,192,135718,1,0,0:0:0:40:kick.wav
36,192,136059,1,0,0:0:0:40:kick.wav
36,192,136400,1,0,0:0:0:40:kick.wav
36,192,136740,1,0,0:0:0:40:kick.wav
36,192,137081,1,0,0:0:0:40:kick.wav
36,192,137422,1,0,0:0:0:40:kick.wav
36,192,137763,1,0,0:0:0:40:kick.wav
36,192,138104,1,0,0:0:0:40:kick.wav
36,192,138445,1,0,0:0:0:40:kick.wav
36,192,138786,1,0,0:0:0:40:kick.wav
36,192,139127,1,0,0:0:0:40:kick.wav
36,192,139468,1,0,0:0:0:40:kick.wav
36,192,139809,1,0,0:0:0:40:kick.wav
36,192,140150,1,0,0:0:0:40:kick.wav
36,192,140490,1,0,0:0:0:40:kick.wav
402,192,140490,1,0,0:0:0:50:crash.wav
402,192,140831,1,0,0:0:0:50:crash.wav
402,192,141172,1,0,0:0:0:50:crash.wav
402,192,141513,1,0,0:0:0:50:crash.wav
36,192,141684,1,0,0:0:0:40:kick.wav
36,192,141854,1,0,0:0:0:40:kick.wav
36,192,142195,1,0,0:0:0:40:kick.wav
329,192,142195,1,0,0:0:0:50:finish.wav
36,192,142536,1,0,0:0:0:40:kick.wav
36,192,142877,1,0,0:0:0:40:kick.wav
36,192,143218,1,0,0:0:0:40:kick.wav
36,192,143559,1,0,0:0:0:40:kick.wav
36,192,143900,1,0,0:0:0:40:kick.wav
36,192,144240,1,0,0:0:0:40:kick.wav
36,192,144581,1,0,0:0:0:40:kick.wav
36,192,144922,1,0,0:0:0:40:kick.wav
36,192,145263,1,0,0:0:0:40:kick.wav
36,192,145604,1,0,0:0:0:40:kick.wav
36,192,145945,1,0,0:0:0:40:kick.wav
36,192,146286,1,0,0:0:0:40:kick.wav
36,192,146627,1,0,0:0:0:40:kick.wav
36,192,146968,1,0,0:0:0:40:kick.wav
36,192,147309,1,0,0:0:0:40:kick.wav
36,192,147650,1,0,0:0:0:40:kick.wav
36,192,147990,1,0,0:0:0:40:kick.wav
36,192,148331,1,0,0:0:0:40:kick.wav
36,192,148672,1,0,0:0:0:40:kick.wav
36,192,149013,1,0,0:0:0:40:kick.wav
36,192,149354,1,0,0:0:0:40:kick.wav
36,192,149695,1,0,0:0:0:40:kick.wav
36,192,150036,1,0,0:0:0:40:kick.wav
36,192,150377,1,0,0:0:0:40:kick.wav
36,192,150718,1,0,0:0:0:40:kick.wav
36,192,151059,1,0,0:0:0:40:kick.wav
36,192,151400,1,0,0:0:0:40:kick.wav
36,192,151740,1,0,0:0:0:40:kick.wav
36,192,152081,1,0,0:0:0:40:kick.wav
36,192,152422,1,0,0:0:0:40:kick.wav
36,192,152763,1,0,0:0:0:40:kick.wav
329,192,152763,1,0,0:0:0:50:finish.wav
182,192,152763,1,0,0:0:0:40:snare2.wav
182,192,153104,1,0,0:0:0:40:snare2.wav
36,192,153104,1,0,0:0:0:40:kick.wav
182,192,153275,1,0,0:0:0:40:snare2.wav
182,192,153445,1,0,0:0:0:40:snare2.wav
36,192,153445,1,0,0:0:0:40:kick.wav
182,192,153786,1,0,0:0:0:40:snare2.wav
36,192,153786,1,0,0:0:0:40:kick.wav
182,192,154127,1,0,0:0:0:40:snare2.wav
36,192,154127,1,0,0:0:0:40:kick.wav
36,192,154468,1,0,0:0:0:40:kick.wav
182,192,154468,1,0,0:0:0:40:snare2.wav
36,192,154809,1,0,0:0:0:40:kick.wav
182,192,154809,1,0,0:0:0:40:snare2.wav
36,192,155150,1,0,0:0:0:40:kick.wav
182,192,155150,1,0,0:0:0:40:snare2.wav
36,192,155490,1,0,0:0:0:40:kick.wav
182,192,155490,1,0,0:0:0:40:snare2.wav
36,192,155831,1,0,0:0:0:40:kick.wav
182,192,155831,1,0,0:0:0:40:snare2.wav
182,192,156002,1,0,0:0:0:40:snare2.wav
182,192,156172,1,0,0:0:0:40:snare2.wav
36,192,156172,1,0,0:0:0:40:kick.wav
182,192,156513,1,0,0:0:0:40:snare2.wav
36,192,156513,1,0,0:0:0:40:kick.wav
182,192,156854,1,0,0:0:0:40:snare2.wav
36,192,156854,1,0,0:0:0:40:kick.wav
182,192,157195,1,0,0:0:0:40:snare2.wav
36,192,157195,1,0,0:0:0:40:kick.wav
182,192,157536,1,0,0:0:0:40:snare2.wav
36,192,157536,1,0,0:0:0:40:kick.wav
182,192,157877,1,0,0:0:0:40:snare2.wav
36,192,157877,1,0,0:0:0:40:kick.wav
182,192,158218,1,0,0:0:0:40:snare2.wav
36,192,158218,1,0,0:0:0:40:kick.wav
182,192,158388,1,0,0:0:0:40:snare2.wav
182,192,158559,1,0,0:0:0:40:snare2.wav
36,192,158559,1,0,0:0:0:40:kick.wav
182,192,158729,1,0,0:0:0:40:snare2.wav
182,192,158900,1,0,0:0:0:40:snare2.wav
36,192,158900,1,0,0:0:0:40:kick.wav
182,192,159070,1,0,0:0:0:40:snare2.wav
182,192,159240,1,0,0:0:0:40:snare2.wav
36,192,159240,1,0,0:0:0:40:kick.wav
182,192,159411,1,0,0:0:0:40:snare2.wav
182,192,159581,1,0,0:0:0:40:snare2.wav
36,192,159581,1,0,0:0:0:40:kick.wav
182,192,159752,1,0,0:0:0:40:snare2.wav
182,192,159922,1,0,0:0:0:40:snare2.wav
36,192,159922,1,0,0:0:0:40:kick.wav
182,192,160093,1,0,0:0:0:40:snare2.wav
182,192,160263,1,0,0:0:0:40:snare2.wav
36,192,160263,1,0,0:0:0:40:kick.wav
182,192,160434,1,0,0:0:0:40:snare2.wav
182,192,160604,1,0,0:0:0:40:snare2.wav
36,192,160604,1,0,0:0:0:40:kick.wav
182,192,160775,1,0,0:0:0:40:snare2.wav
182,192,160945,1,0,0:0:0:40:snare2.wav
36,192,160945,1,0,0:0:0:40:kick.wav
182,192,161030,1,0,0:0:0:40:snare2.wav
182,192,161115,1,0,0:0:0:40:snare2.wav
182,192,161201,1,0,0:0:0:40:snare2.wav
182,192,161286,1,0,0:0:0:40:snare2.wav
36,192,161286,1,0,0:0:0:40:kick.wav
182,192,161371,1,0,0:0:0:40:snare2.wav
182,192,161456,1,0,0:0:0:40:snare2.wav
182,192,161542,1,0,0:0:0:40:snare2.wav
182,192,161627,1,0,0:0:0:40:snare2.wav
36,192,161627,1,0,0:0:0:40:kick.wav
182,192,161712,1,0,0:0:0:40:snare2.wav
182,192,161797,1,0,0:0:0:40:snare2.wav
182,192,161882,1,0,0:0:0:40:snare2.wav
182,192,161968,1,0,0:0:0:40:snare2.wav
36,192,161968,1,0,0:0:0:40:kick.wav
182,192,162053,1,0,0:0:0:40:snare2.wav
182,192,162138,1,0,0:0:0:40:snare2.wav
182,192,162223,1,0,0:0:0:40:snare2.wav
36,192,162309,1,0,0:0:0:40:kick.wav
402,192,162309,1,0,0:0:0:50:crash.wav
402,192,162564,1,0,0:0:0:50:crash.wav
36,192,162564,1,0,0:0:0:40:kick.wav
36,192,162820,1,0,0:0:0:40:kick.wav
402,192,162820,1,0,0:0:0:50:crash.wav
402,192,163076,1,0,0:0:0:50:crash.wav
36,192,163076,1,0,0:0:0:40:kick.wav
36,192,163331,1,0,0:0:0:40:kick.wav
402,192,163331,1,0,0:0:0:50:crash.wav
36,192,163502,1,0,0:0:0:40:kick.wav
402,192,163502,1,0,0:0:0:50:crash.wav
36,192,163672,1,0,0:0:0:40:kick.wav
402,192,163672,1,0,0:0:0:50:crash.wav
36,192,163928,1,0,0:0:0:40:kick.wav
402,192,163928,1,0,0:0:0:50:crash.wav
402,192,164184,1,0,0:0:0:50:crash.wav
36,192,164184,1,0,0:0:0:40:kick.wav
402,192,164439,1,0,0:0:0:50:crash.wav
36,192,164439,1,0,0:0:0:40:kick.wav
402,192,164695,1,0,0:0:0:50:crash.wav
36,192,164695,1,0,0:0:0:40:kick.wav
36,192,164865,1,0,0:0:0:40:kick.wav
402,192,164865,1,0,0:0:0:50:crash.wav
36,192,165036,1,0,0:0:0:40:kick.wav
329,192,165036,1,0,0:0:0:50:finish.wav
402,192,168445,1,0,0:0:0:40:crash.wav
402,192,168701,1,0,0:0:0:40:crash.wav
402,192,168956,1,0,0:0:0:40:crash.wav
36,192,170490,1,0,0:0:0:40:kick.wav
329,192,170490,1,0,0:0:0:50:finish.wav
36,192,170831,1,0,0:0:0:40:kick.wav
36,192,171172,1,0,0:0:0:40:kick.wav
36,192,171513,1,0,0:0:0:40:kick.wav
36,192,171854,1,0,0:0:0:40:kick.wav
36,192,172195,1,0,0:0:0:40:kick.wav
36,192,172536,1,0,0:0:0:40:kick.wav
36,192,172877,1,0,0:0:0:40:kick.wav
36,192,173218,1,0,0:0:0:40:kick.wav
329,192,173218,1,0,0:0:0:50:finish.wav
329,192,173473,1,0,0:0:0:50:finish.wav
36,192,173473,1,0,0:0:0:40:kick.wav
329,192,173729,1,0,0:0:0:50:finish.wav
36,192,173729,1,0,0:0:0:40:kick.wav
36,192,173900,1,0,0:0:0:40:kick.wav
36,192,174240,1,0,0:0:0:40:kick.wav
36,192,174581,1,0,0:0:0:40:kick.wav
36,192,174922,1,0,0:0:0:40:kick.wav
36,192,175263,1,0,0:0:0:40:kick.wav
36,192,175604,1,0,0:0:0:40:kick.wav
36,192,175945,1,0,0:0:0:40:kick.wav
402,192,175945,1,0,0:0:0:50:crash.wav
36,192,176371,1,0,0:0:0:40:kick.wav
402,192,176456,1,0,0:0:0:50:crash.wav
36,192,176456,1,0,0:0:0:40:kick.wav
36,192,176882,1,0,0:0:0:40:kick.wav
36,192,176968,1,0,0:0:0:40:kick.wav
402,192,176968,1,0,0:0:0:50:crash.wav
402,192,177309,1,0,0:0:0:50:crash.wav
36,192,177309,1,0,0:0:0:40:kick.wav
402,192,177650,1,0,0:0:0:50:crash.wav
402,192,177990,1,0,0:0:0:50:crash.wav
402,192,178331,1,0,0:0:0:50:crash.wav
36,192,178843,1,0,0:0:0:40:kick.wav
36,192,179013,1,0,0:0:0:40:kick.wav
329,192,179013,1,0,0:0:0:50:finish.wav
36,192,179354,1,0,0:0:0:40:kick.wav
36,192,179610,1,0,0:0:0:40:kick.wav
36,192,179695,1,0,0:0:0:40:kick.wav
36,192,179951,1,0,0:0:0:40:kick.wav
36,192,180036,1,0,0:0:0:40:kick.wav
36,192,180292,1,0,0:0:0:40:kick.wav
36,192,180377,1,0,0:0:0:40:kick.wav
36,192,180632,1,0,0:0:0:40:kick.wav
36,192,180718,1,0,0:0:0:40:kick.wav
36,192,180973,1,0,0:0:0:40:kick.wav
475,192,181059,1,0,0:0:0:35:snare.wav
36,192,181229,1,0,0:0:0:40:kick.wav
36,192,181400,1,0,0:0:0:40:kick.wav
329,192,181400,1,0,0:0:0:50:finish.wav
475,192,181740,1,0,0:0:0:35:snare.wav
36,192,181911,1,0,0:0:0:40:kick.wav
36,192,182081,1,0,0:0:0:40:kick.wav
36,192,182337,1,0,0:0:0:40:kick.wav
475,192,182422,1,0,0:0:0:35:snare.wav
36,192,182593,1,0,0:0:0:40:kick.wav
36,192,182763,1,0,0:0:0:40:kick.wav
402,192,182763,1,0,0:0:0:50:crash.wav
475,192,183104,1,0,0:0:0:35:snare.wav
36,192,183189,1,0,0:0:0:40:kick.wav
36,192,183275,1,0,0:0:0:40:kick.wav
402,192,183275,1,0,0:0:0:50:crash.wav
475,192,183615,1,0,0:0:0:35:snare.wav
36,192,183701,1,0,0:0:0:40:kick.wav
36,192,183786,1,0,0:0:0:40:kick.wav
402,192,183786,1,0,0:0:0:50:crash.wav
475,192,183956,1,0,0:0:0:35:snare.wav
36,192,184127,1,0,0:0:0:40:kick.wav
329,192,184127,1,0,0:0:0:50:finish.wav
36,192,184382,1,0,0:0:0:40:kick.wav
475,192,184468,1,0,0:0:0:35:snare.wav
36,192,184638,1,0,0:0:0:40:kick.wav
36,192,184809,1,0,0:0:0:40:kick.wav
36,192,185064,1,0,0:0:0:40:kick.wav
475,192,185150,1,0,0:0:0:35:snare.wav
36,192,185320,1,0,0:0:0:40:kick.wav
36,192,185490,1,0,0:0:0:40:kick.wav
36,192,185746,1,0,0:0:0:40:kick.wav
475,192,185831,1,0,0:0:0:35:snare.wav
36,192,186002,1,0,0:0:0:40:kick.wav
36,192,186172,1,0,0:0:0:40:kick.wav
36,192,186428,1,0,0:0:0:40:kick.wav
475,192,186513,1,0,0:0:0:35:snare.wav
36,192,186684,1,0,0:0:0:40:kick.wav
36,192,186854,1,0,0:0:0:40:kick.wav
36,192,187110,1,0,0:0:0:40:kick.wav
475,192,187195,1,0,0:0:0:35:snare.wav
36,192,187365,1,0,0:0:0:40:kick.wav
36,192,187536,1,0,0:0:0:40:kick.wav
36,192,187792,1,0,0:0:0:40:kick.wav
475,192,187877,1,0,0:0:0:35:snare.wav
36,192,188047,1,0,0:0:0:40:kick.wav
402,192,188218,1,0,0:0:0:30:crash.wav
36,192,188218,1,0,0:0:0:40:kick.wav
402,192,188473,1,0,0:0:0:30:crash.wav
36,192,188473,1,0,0:0:0:40:kick.wav
475,192,188559,1,0,0:0:0:35:snare.wav
402,192,188729,1,0,0:0:0:30:crash.wav
36,192,188729,1,0,0:0:0:40:kick.wav
402,192,188985,1,0,0:0:0:30:crash.wav
36,192,188985,1,0,0:0:0:40:kick.wav
402,192,189240,1,0,0:0:0:30:crash.wav
475,192,189240,1,0,0:0:0:35:snare.wav
402,192,189411,1,0,0:0:0:30:crash.wav
36,192,189411,1,0,0:0:0:40:kick.wav
329,192,189581,1,0,0:0:0:50:finish.wav
36,192,189581,1,0,0:0:0:15:kick.wav
256,192,189581,1,0,0:0:0:0:
256,192,189922,1,0,0:0:0:0:
36,192,189922,1,0,0:0:0:15:kick.wav
256,192,190263,1,0,0:0:0:0:
36,192,190263,1,0,0:0:0:15:kick.wav
256,192,190519,1,0,0:0:0:0:
36,192,190604,1,0,0:0:0:15:kick.wav
256,192,190775,1,0,0:0:0:0:
36,192,190945,1,0,0:0:0:15:kick.wav
256,192,191115,1,0,0:0:0:0:
256,192,191286,1,0,0:0:0:0:
36,192,191286,1,0,0:0:0:15:kick.wav
256,192,191627,1,0,0:0:0:0:
36,192,191627,1,0,0:0:0:15:kick.wav
256,192,191882,1,0,0:0:0:0:
36,192,191968,1,0,0:0:0:15:kick.wav
256,192,192138,1,0,0:0:0:0:
256,192,192309,1,0,0:0:0:0:
36,192,192309,1,0,0:0:0:20:kick.wav
256,192,192650,1,0,0:0:0:0:
36,192,192650,1,0,0:0:0:20:kick.wav
256,192,192990,1,0,0:0:0:0:
36,192,192990,1,0,0:0:0:20:kick.wav
256,192,193246,1,0,0:0:0:0:
36,192,193331,1,0,0:0:0:20:kick.wav
256,192,193502,1,0,0:0:0:0:
36,192,193672,1,0,0:0:0:20:kick.wav
256,192,193843,1,0,0:0:0:0:
256,192,194013,1,0,0:0:0:0:
36,192,194013,1,0,0:0:0:20:kick.wav
256,192,194354,1,0,0:0:0:0:
36,192,194354,1,0,0:0:0:20:kick.wav
256,192,194610,1,0,0:0:0:0:
36,192,194695,1,0,0:0:0:20:kick.wav
256,192,194865,1,0,0:0:0:0:
256,192,195036,1,0,0:0:0:0:
36,192,195036,1,0,0:0:0:25:kick.wav
256,192,195377,1,0,0:0:0:0:
36,192,195377,1,0,0:0:0:25:kick.wav
256,192,195718,1,0,0:0:0:0:
36,192,195718,1,0,0:0:0:25:kick.wav
256,192,195973,1,0,0:0:0:0:
36,192,196059,1,0,0:0:0:25:kick.wav
256,192,196229,1,0,0:0:0:0:
36,192,196400,1,0,0:0:0:25:kick.wav
256,192,196570,1,0,0:0:0:0:
256,192,196740,1,0,0:0:0:0:
36,192,196740,1,0,0:0:0:25:kick.wav
256,192,197081,1,0,0:0:0:0:
36,192,197081,1,0,0:0:0:25:kick.wav
256,192,197337,1,0,0:0:0:0:
36,192,197422,1,0,0:0:0:25:kick.wav
256,192,197593,1,0,0:0:0:0:
256,192,197763,1,0,0:0:0:0:
36,192,197763,1,0,0:0:0:30:kick.wav
256,192,198104,1,0,0:0:0:0:
36,192,198104,1,0,0:0:0:30:kick.wav
256,192,198445,1,0,0:0:0:0:
36,192,198445,1,0,0:0:0:30:kick.wav
256,192,198701,1,0,0:0:0:0:
36,192,198786,1,0,0:0:0:30:kick.wav
256,192,198956,1,0,0:0:0:0:
36,192,199127,1,0,0:0:0:35:kick.wav
256,192,199297,1,0,0:0:0:0:
256,192,199468,1,0,0:0:0:0:
36,192,199468,1,0,0:0:0:35:kick.wav
256,192,199809,1,0,0:0:0:0:
36,192,199809,1,0,0:0:0:35:kick.wav
256,192,200064,1,0,0:0:0:0:
36,192,200150,1,0,0:0:0:35:kick.wav
256,192,200320,1,0,0:0:0:0:
182,192,200490,1,0,0:0:0:40:snare2.wav
256,192,200490,1,0,0:0:0:0:
36,192,200490,1,0,0:0:0:40:kick.wav
182,192,200831,1,0,0:0:0:40:snare2.wav
256,192,200831,1,0,0:0:0:0:
36,192,200831,1,0,0:0:0:40:kick.wav
182,192,201002,1,0,0:0:0:40:snare2.wav
182,192,201172,1,0,0:0:0:40:snare2.wav
256,192,201172,1,0,0:0:0:0:
36,192,201172,1,0,0:0:0:40:kick.wav
256,192,201343,1,0,0:0:0:0:
256,192,201428,1,0,0:0:0:0:
182,192,201513,1,0,0:0:0:40:snare2.wav
36,192,201513,1,0,0:0:0:40:kick.wav
256,192,201684,1,0,0:0:0:0:
182,192,201854,1,0,0:0:0:40:snare2.wav
36,192,201854,1,0,0:0:0:40:kick.wav
256,192,202025,1,0,0:0:0:0:
182,192,202195,1,0,0:0:0:40:snare2.wav
256,192,202195,1,0,0:0:0:0:
36,192,202195,1,0,0:0:0:40:kick.wav
182,192,202536,1,0,0:0:0:40:snare2.wav
256,192,202536,1,0,0:0:0:0:
36,192,202536,1,0,0:0:0:40:kick.wav
256,192,202792,1,0,0:0:0:0:
182,192,202877,1,0,0:0:0:40:snare2.wav
36,192,202877,1,0,0:0:0:40:kick.wav
256,192,203047,1,0,0:0:0:0:
182,192,203218,1,0,0:0:0:40:snare2.wav
256,192,203218,1,0,0:0:0:0:
36,192,203218,1,0,0:0:0:40:kick.wav
182,192,203559,1,0,0:0:0:40:snare2.wav
256,192,203559,1,0,0:0:0:0:
36,192,203559,1,0,0:0:0:40:kick.wav
182,192,203729,1,0,0:0:0:40:snare2.wav
182,192,203900,1,0,0:0:0:40:snare2.wav
256,192,203900,1,0,0:0:0:0:
36,192,203900,1,0,0:0:0:40:kick.wav
256,192,204155,1,0,0:0:0:0:
182,192,204240,1,0,0:0:0:40:snare2.wav
36,192,204240,1,0,0:0:0:40:kick.wav
256,192,204411,1,0,0:0:0:0:
182,192,204581,1,0,0:0:0:40:snare2.wav
36,192,204581,1,0,0:0:0:40:kick.wav
256,192,204752,1,0,0:0:0:0:
182,192,204922,1,0,0:0:0:40:snare2.wav
256,192,204922,1,0,0:0:0:0:
36,192,204922,1,0,0:0:0:40:kick.wav
182,192,205263,1,0,0:0:0:40:snare2.wav
256,192,205263,1,0,0:0:0:0:
36,192,205263,1,0,0:0:0:40:kick.wav
256,192,205519,1,0,0:0:0:0:
182,192,205604,1,0,0:0:0:40:snare2.wav
36,192,205604,1,0,0:0:0:40:kick.wav
256,192,205775,1,0,0:0:0:0:
36,192,205945,1,0,0:0:0:40:kick.wav
256,192,205945,1,0,0:0:0:0:
182,192,205945,1,0,0:0:0:40:snare2.wav
182,192,206115,1,0,0:0:0:40:snare2.wav
256,192,206286,1,0,0:0:0:0:
182,192,206286,1,0,0:0:0:40:snare2.wav
36,192,206286,1,0,0:0:0:40:kick.wav
182,192,206456,1,0,0:0:0:40:snare2.wav
256,192,206627,1,0,0:0:0:0:
182,192,206627,1,0,0:0:0:40:snare2.wav
36,192,206627,1,0,0:0:0:40:kick.wav
256,192,206797,1,0,0:0:0:0:
182,192,206797,1,0,0:0:0:40:snare2.wav
256,192,206882,1,0,0:0:0:0:
182,192,206968,1,0,0:0:0:40:snare2.wav
36,192,206968,1,0,0:0:0:40:kick.wav
256,192,207138,1,0,0:0:0:0:
182,192,207138,1,0,0:0:0:40:snare2.wav
182,192,207309,1,0,0:0:0:40:snare2.wav
36,192,207309,1,0,0:0:0:40:kick.wav
256,192,207479,1,0,0:0:0:0:
182,192,207479,1,0,0:0:0:40:snare2.wav
256,192,207650,1,0,0:0:0:0:
36,192,207650,1,0,0:0:0:40:kick.wav
182,192,207650,1,0,0:0:0:40:snare2.wav
182,192,207820,1,0,0:0:0:40:snare2.wav
256,192,207990,1,0,0:0:0:0:
36,192,207990,1,0,0:0:0:40:kick.wav
182,192,207990,1,0,0:0:0:40:snare2.wav
182,192,208161,1,0,0:0:0:40:snare2.wav
256,192,208246,1,0,0:0:0:0:
36,192,208331,1,0,0:0:0:40:kick.wav
182,192,208331,1,0,0:0:0:40:snare2.wav
256,192,208502,1,0,0:0:0:0:
182,192,208502,1,0,0:0:0:40:snare2.wav
36,192,208672,1,0,0:0:0:40:kick.wav
182,192,208672,1,0,0:0:0:40:snare2.wav
182,192,208757,1,0,0:0:0:40:snare2.wav
182,192,208843,1,0,0:0:0:40:snare2.wav
182,192,208928,1,0,0:0:0:40:snare2.wav
182,192,209013,1,0,0:0:0:40:snare2.wav
36,192,209013,1,0,0:0:0:40:kick.wav
182,192,209098,1,0,0:0:0:40:snare2.wav
182,192,209184,1,0,0:0:0:40:snare2.wav
182,192,209269,1,0,0:0:0:40:snare2.wav
182,192,209354,1,0,0:0:0:40:snare2.wav
36,192,209354,1,0,0:0:0:40:kick.wav
182,192,209439,1,0,0:0:0:40:snare2.wav
182,192,209525,1,0,0:0:0:40:snare2.wav
182,192,209610,1,0,0:0:0:40:snare2.wav
182,192,209695,1,0,0:0:0:40:snare2.wav
36,192,209695,1,0,0:0:0:40:kick.wav
182,192,209780,1,0,0:0:0:40:snare2.wav
182,192,209865,1,0,0:0:0:40:snare2.wav
182,192,209951,1,0,0:0:0:40:snare2.wav
402,192,210036,1,0,0:0:0:50:crash.wav
36,192,210036,1,0,0:0:0:40:kick.wav
329,192,211400,1,0,0:0:0:50:finish.wav
36,192,214127,1,0,0:0:0:40:kick.wav
36,192,214297,1,0,0:0:0:40:kick.wav
182,192,214468,1,0,0:0:0:30:snare2.wav
182,192,214723,1,0,0:0:0:30:snare2.wav
182,192,214894,1,0,0:0:0:30:snare2.wav
36,192,214979,1,0,0:0:0:40:kick.wav
182,192,215150,1,0,0:0:0:30:snare2.wav
182,192,215405,1,0,0:0:0:30:snare2.wav
36,192,215490,1,0,0:0:0:40:kick.wav
182,192,215661,1,0,0:0:0:30:snare2.wav
182,192,215917,1,0,0:0:0:30:snare2.wav
36,192,216002,1,0,0:0:0:40:kick.wav
182,192,216172,1,0,0:0:0:30:snare2.wav
182,192,216428,1,0,0:0:0:30:snare2.wav
182,192,216513,1,0,0:0:0:30:snare2.wav
182,192,216684,1,0,0:0:0:30:snare2.wav
36,192,216854,1,0,0:0:0:40:kick.wav
36,192,217536,1,0,0:0:0:40:kick.wav
402,192,217536,1,0,0:0:0:50:crash.wav
402,192,217792,1,0,0:0:0:50:crash.wav
36,192,217792,1,0,0:0:0:40:kick.wav
402,192,218047,1,0,0:0:0:50:crash.wav
36,192,218047,1,0,0:0:0:40:kick.wav
402,192,218218,1,0,0:0:0:50:crash.wav
36,192,218218,1,0,0:0:0:40:kick.wav
402,192,218473,1,0,0:0:0:50:crash.wav
36,192,218473,1,0,0:0:0:40:kick.wav
402,192,218729,1,0,0:0:0:50:crash.wav
36,192,218729,1,0,0:0:0:40:kick.wav
36,192,219240,1,0,0:0:0:40:kick.wav
36,192,219581,1,0,0:0:0:40:kick.wav
329,192,219581,1,0,0:0:0:50:finish.wav
36,192,219922,1,0,0:0:0:40:kick.wav
36,192,220263,1,0,0:0:0:40:kick.wav
36,192,220519,1,0,0:0:0:40:kick.wav
36,192,220775,1,0,0:0:0:40:kick.wav
36,192,220945,1,0,0:0:0:40:kick.wav
36,192,221286,1,0,0:0:0:40:kick.wav
36,192,221627,1,0,0:0:0:40:kick.wav
36,192,221882,1,0,0:0:0:40:kick.wav
36,192,222138,1,0,0:0:0:40:kick.wav
36,192,222309,1,0,0:0:0:40:kick.wav
402,192,222309,1,0,0:0:0:50:crash.wav
36,192,222650,1,0,0:0:0:40:kick.wav
36,192,222990,1,0,0:0:0:40:kick.wav
36,192,223246,1,0,0:0:0:40:kick.wav
36,192,223502,1,0,0:0:0:40:kick.wav
36,192,223672,1,0,0:0:0:40:kick.wav
36,192,224013,1,0,0:0:0:40:kick.wav
36,192,224354,1,0,0:0:0:40:kick.wav
36,192,224610,1,0,0:0:0:40:kick.wav
36,192,224865,1,0,0:0:0:40:kick.wav
36,192,225036,1,0,0:0:0:40:kick.wav
36,192,225377,1,0,0:0:0:40:kick.wav
36,192,225718,1,0,0:0:0:40:kick.wav
36,192,225973,1,0,0:0:0:40:kick.wav
36,192,226229,1,0,0:0:0:40:kick.wav
36,192,226400,1,0,0:0:0:40:kick.wav
402,192,226400,1,0,0:0:0:50:crash.wav
36,192,226740,1,0,0:0:0:40:kick.wav
402,192,226740,1,0,0:0:0:50:crash.wav
402,192,227081,1,0,0:0:0:50:crash.wav
36,192,227081,1,0,0:0:0:40:kick.wav
36,192,227422,1,0,0:0:0:40:kick.wav
402,192,227422,1,0,0:0:0:50:crash.wav
36,192,229127,1,0,0:0:0:40:kick.wav
329,192,229127,1,0,0:0:0:50:finish.wav
36,192,229468,1,0,0:0:0:40:kick.wav
36,192,229809,1,0,0:0:0:40:kick.wav
36,192,230064,1,0,0:0:0:40:kick.wav
36,192,230320,1,0,0:0:0:40:kick.wav
36,192,230490,1,0,0:0:0:40:kick.wav
36,192,230831,1,0,0:0:0:40:kick.wav
36,192,231172,1,0,0:0:0:40:kick.wav
36,192,231428,1,0,0:0:0:40:kick.wav
36,192,231684,1,0,0:0:0:40:kick.wav
36,192,231854,1,0,0:0:0:40:kick.wav
36,192,232195,1,0,0:0:0:40:kick.wav
36,192,232536,1,0,0:0:0:40:kick.wav
36,192,232792,1,0,0:0:0:40:kick.wav
36,192,233047,1,0,0:0:0:40:kick.wav
36,192,233218,1,0,0:0:0:40:kick.wav
329,192,233218,1,0,0:0:0:50:finish.wav
36,192,233473,1,0,0:0:0:40:kick.wav
36,192,233729,1,0,0:0:0:40:kick.wav
36,192,233900,1,0,0:0:0:40:kick.wav
475,192,233900,1,0,0:0:0:40:snare.wav
36,192,234155,1,0,0:0:0:40:kick.wav
36,192,234411,1,0,0:0:0:40:kick.wav
36,192,234752,1,0,0:0:0:40:kick.wav
36,192,234837,1,0,0:0:0:40:kick.wav
36,192,235007,1,0,0:0:0:40:kick.wav
36,192,235093,1,0,0:0:0:40:kick.wav
36,192,235263,1,0,0:0:0:40:kick.wav
475,192,235263,1,0,0:0:0:40:snare.wav
36,192,235519,1,0,0:0:0:40:kick.wav
36,192,235604,1,0,0:0:0:40:kick.wav
36,192,235775,1,0,0:0:0:40:kick.wav
36,192,235945,1,0,0:0:0:40:kick.wav
36,192,236201,1,0,0:0:0:40:kick.wav
36,192,236456,1,0,0:0:0:40:kick.wav
36,192,236627,1,0,0:0:0:40:kick.wav
475,192,236627,1,0,0:0:0:40:snare.wav
36,192,236882,1,0,0:0:0:40:kick.wav
36,192,237138,1,0,0:0:0:40:kick.wav
36,192,237309,1,0,0:0:0:40:kick.wav
329,192,237309,1,0,0:0:0:50:finish.wav
36,192,237650,1,0,0:0:0:40:kick.wav
329,192,237650,1,0,0:0:0:50:finish.wav
36,192,237990,1,0,0:0:0:40:kick.wav
329,192,237990,1,0,0:0:0:50:finish.wav
329,192,238331,1,0,0:0:0:50:finish.wav
36,192,238331,1,0,0:0:0:40:kick.wav
36,192,238672,1,0,0:0:0:40:kick.wav
329,192,238672,1,0,0:0:0:50:finish.wav
