osu file format v14

[General]
AudioFilename: audio.ogg
AudioLeadIn: 0
PreviewTime: 93929
Countdown: 0
SampleSet: Soft
StackLeniency: 0.7
Mode: 3
LetterboxInBreaks: 0
SpecialStyle: 0
WidescreenStoryboard: 1

[Editor]
Bookmarks: 129,13650,26748,41959,62663,83367,94352,121394,138295,159421,172942,199984,213083,226604,240125,253646,267167,280688,295899
DistanceSpacing: 0.9
BeatDivisor: 12
GridSize: 8
TimelineZoom: 2.3

[Metadata]
Title:Pallet
TitleUnicode:Pallet
Artist:PSYQUI feat. mikanzil
ArtistUnicode:PSYQUI feat. mikanzil
Creator:HowToPlayLN
Version:polychromatic refraction
Source:
Tags:polytetral poly lncryption osu mania ln tournament 3 round of 32 tiebreaker tb long note ln wood indekkusu htpln h2pln jrock j-rock jpop j-pop japanese 4th album 4th-Peace peace フォースピース MKNZ-4444 みかん汁ふりかけ M3-43 2019春 spring omln3
BeatmapID:3922066
BeatmapSetID:1871849

[Difficulty]
HPDrainRate:8.5
CircleSize:4
OverallDifficulty:7.3
ApproachRate:5
SliderMultiplier:1.4
SliderTickRate:1

[Events]
//Background and Video events
0,0,"78036181_p0_master1200.jpg",0,0
//Break Periods
//Storyboard Layer 0 (Background)
//Storyboard Layer 1 (Fail)
//Storyboard Layer 2 (Pass)
//Storyboard Layer 3 (Foreground)
//Storyboard Layer 4 (Overlay)
//Storyboard Sound Samples

[TimingPoints]
113,422.535211267606,4,2,1,25,1,0
12366,-100,4,2,1,35,0,0
13634,-100,4,2,1,45,0,0
26732,422.535211267606,4,2,1,45,1,0
41943,422.535211267606,3,2,1,45,1,0
60957,422.535211267606,4,2,1,45,1,0
62647,422.535211267606,3,2,1,45,1,0
81661,422.535211267606,4,2,1,45,1,0
83351,422.535211267606,3,2,1,25,1,0
88421,-100,3,2,1,35,0,0
90956,422.535211267606,4,2,1,45,1,0
94336,-100,4,2,1,45,0,1
119688,-100,4,2,1,45,0,0
138279,422.535211267606,3,2,1,45,1,0
147152,422.535211267606,4,2,1,45,1,0
148842,422.535211267606,3,2,1,45,1,0
157715,422.535211267606,4,2,1,45,1,0
159405,-100,4,2,1,25,0,0
171236,-100,4,2,1,35,0,0
172926,-100,4,2,1,45,0,1
198278,-100,4,2,1,45,0,0
199968,-100,4,2,1,35,0,0
206729,-100,4,2,1,45,0,0
210109,422.535211267606,5,2,1,45,1,0
213067,422.535211267606,4,2,1,45,1,0
240109,-100,4,2,1,25,0,0
246869,-100,4,2,1,35,0,0
253630,-100,4,2,1,45,0,1
267151,-100,4,2,1,45,0,0

[HitObjects]
64,192,113,128,0,183:0:0:0:0:
448,192,113,128,0,218:0:0:0:0:
192,192,218,128,0,324:0:0:0:0:
320,192,324,128,0,429:0:0:0:0:
64,192,429,128,0,535:0:0:0:0:
192,192,429,128,0,500:0:0:0:0:
320,192,535,128,0,641:0:0:0:0:
448,192,641,128,0,746:0:0:0:0:
320,192,746,128,0,817:0:0:0:0:
64,192,746,128,0,852:0:0:0:0:
192,192,852,128,0,958:0:0:0:0:
448,192,958,128,0,1063:0:0:0:0:
64,192,958,128,0,1063:0:0:0:0:
192,192,1063,128,0,1169:0:0:0:0:
320,192,1063,128,0,1169:0:0:0:0:
448,192,1169,128,0,1274:0:0:0:0:
64,192,1169,128,0,1274:0:0:0:0:
320,192,1274,128,0,1380:0:0:0:0:
64,192,1380,128,0,1451:0:0:0:0:
448,192,1380,128,0,1486:0:0:0:0:
192,192,1486,128,0,1591:0:0:0:0:
320,192,1591,128,0,1697:0:0:0:0:
192,192,1697,128,0,1767:0:0:0:0:
64,192,1697,128,0,1803:0:0:0:0:
320,192,1803,128,0,1908:0:0:0:0:
448,192,1908,128,0,2014:0:0:0:0:
320,192,2014,128,0,2084:0:0:0:0:
64,192,2014,128,0,2120:0:0:0:0:
192,192,2120,128,0,2225:0:0:0:0:
448,192,2225,128,0,2331:0:0:0:0:
64,192,2225,128,0,2331:0:0:0:0:
192,192,2331,128,0,2436:0:0:0:0:
320,192,2331,128,0,2436:0:0:0:0:
448,192,2436,128,0,2542:0:0:0:0:
64,192,2436,128,0,2542:0:0:0:0:
320,192,2542,128,0,2648:0:0:0:0:
448,192,2648,128,0,2859:0:0:0:0:
192,192,2648,128,0,2718:0:0:0:0:
64,192,2753,128,0,2859:0:0:0:0:
320,192,2859,128,0,3070:0:0:0:0:
192,192,2965,128,0,3070:0:0:0:0:
64,192,3070,128,0,3282:0:0:0:0:
448,192,3070,128,0,3141:0:0:0:0:
320,192,3176,128,0,3282:0:0:0:0:
192,192,3282,128,0,3493:0:0:0:0:
320,192,3387,128,0,3493:0:0:0:0:
64,192,3493,128,0,3563:0:0:0:0:
448,192,3493,128,0,3598:0:0:0:0:
320,192,3598,128,0,3704:0:0:0:0:
192,192,3704,128,0,3810:0:0:0:0:
320,192,3810,128,0,3880:0:0:0:0:
448,192,3810,128,0,3915:0:0:0:0:
192,192,3915,128,0,4021:0:0:0:0:
64,192,4021,128,0,4127:0:0:0:0:
192,192,4127,128,0,4197:0:0:0:0:
448,192,4127,128,0,4232:0:0:0:0:
320,192,4232,128,0,4338:0:0:0:0:
64,192,4338,128,0,4443:0:0:0:0:
448,192,4338,128,0,4443:0:0:0:0:
320,192,4443,128,0,4549:0:0:0:0:
192,192,4443,128,0,4549:0:0:0:0:
64,192,4549,128,0,4655:0:0:0:0:
448,192,4549,128,0,4655:0:0:0:0:
192,192,4655,128,0,4760:0:0:0:0:
448,192,4760,128,0,4831:0:0:0:0:
64,192,4760,128,0,4866:0:0:0:0:
320,192,4866,128,0,4972:0:0:0:0:
192,192,4972,128,0,5077:0:0:0:0:
64,192,5077,128,0,5183:0:0:0:0:
320,192,5077,128,0,5148:0:0:0:0:
448,192,5183,128,0,5289:0:0:0:0:
320,192,5289,128,0,5394:0:0:0:0:
64,192,5394,128,0,5465:0:0:0:0:
192,192,5394,128,0,5500:0:0:0:0:
320,192,5500,128,0,5605:0:0:0:0:
64,192,5605,128,0,5711:0:0:0:0:
448,192,5605,128,0,5711:0:0:0:0:
320,192,5711,128,0,5817:0:0:0:0:
192,192,5711,128,0,5817:0:0:0:0:
64,192,5817,128,0,5922:0:0:0:0:
448,192,5817,128,0,5922:0:0:0:0:
320,192,5922,128,0,6028:0:0:0:0:
64,192,6028,128,0,6451:0:0:0:0:
192,192,6028,128,0,6345:0:0:0:0:
448,192,6028,128,0,6345:0:0:0:0:
448,192,6451,128,0,6873:0:0:0:0:
320,192,6451,128,0,6767:0:0:0:0:
192,192,6451,128,0,6767:0:0:0:0:
64,192,6873,128,0,6943:0:0:0:0:
192,192,6873,128,0,6979:0:0:0:0:
320,192,6979,128,0,7084:0:0:0:0:
64,192,7084,128,0,7190:0:0:0:0:
192,192,7190,128,0,7260:0:0:0:0:
448,192,7190,128,0,7296:0:0:0:0:
64,192,7296,128,0,7401:0:0:0:0:
192,192,7401,128,0,7507:0:0:0:0:
448,192,7507,128,0,7577:0:0:0:0:
320,192,7507,128,0,7613:0:0:0:0:
192,192,7613,128,0,7718:0:0:0:0:
320,192,7718,128,0,7929:0:0:0:0:
64,192,7718,128,0,7824:0:0:0:0:
448,192,7824,128,0,7929:0:0:0:0:
192,192,7929,128,0,8141:0:0:0:0:
64,192,7929,128,0,8035:0:0:0:0:
320,192,8035,128,0,8141:0:0:0:0:
64,192,8141,128,0,8211:0:0:0:0:
448,192,8141,128,0,8246:0:0:0:0:
192,192,8246,128,0,8352:0:0:0:0:
320,192,8352,128,0,8458:0:0:0:0:
64,192,8458,128,0,8528:0:0:0:0:
192,192,8458,128,0,8563:0:0:0:0:
448,192,8563,128,0,8669:0:0:0:0:
320,192,8669,128,0,8774:0:0:0:0:
448,192,8774,128,0,8845:0:0:0:0:
192,192,8774,128,0,8880:0:0:0:0:
64,192,8880,128,0,8986:0:0:0:0:
192,192,8986,128,0,9197:0:0:0:0:
320,192,8986,128,0,9091:0:0:0:0:
448,192,9091,128,0,9197:0:0:0:0:
320,192,9197,128,0,9408:0:0:0:0:
64,192,9197,128,0,9303:0:0:0:0:
448,192,9303,128,0,9408:0:0:0:0:
64,192,9408,128,0,9479:0:0:0:0:
192,192,9408,128,0,9620:0:0:0:0:
320,192,9514,128,0,9620:0:0:0:0:
448,192,9620,128,0,9831:0:0:0:0:
192,192,9725,128,0,9831:0:0:0:0:
64,192,9831,128,0,9901:0:0:0:0:
320,192,9831,128,0,10042:0:0:0:0:
192,192,9936,128,0,10042:0:0:0:0:
64,192,10042,128,0,10253:0:0:0:0:
320,192,10148,128,0,10253:0:0:0:0:
192,192,10253,128,0,10324:0:0:0:0:
448,192,10253,128,0,10359:0:0:0:0:
64,192,10359,128,0,10465:0:0:0:0:
448,192,10465,128,0,10570:0:0:0:0:
320,192,10570,128,0,10641:0:0:0:0:
64,192,10570,128,0,10676:0:0:0:0:
448,192,10676,128,0,10782:0:0:0:0:
320,192,10782,128,0,10887:0:0:0:0:
64,192,10887,128,0,10958:0:0:0:0:
192,192,10887,128,0,10993:0:0:0:0:
448,192,10993,128,0,11098:0:0:0:0:
320,192,11098,128,0,11310:0:0:0:0:
64,192,11098,128,0,11204:0:0:0:0:
192,192,11204,128,0,11310:0:0:0:0:
64,192,11310,128,0,11521:0:0:0:0:
448,192,11310,128,0,11415:0:0:0:0:
192,192,11415,128,0,11521:0:0:0:0:
448,192,11521,128,0,11591:0:0:0:0:
320,192,11521,128,0,11627:0:0:0:0:
64,192,11627,128,0,11732:0:0:0:0:
192,192,11732,128,0,11838:0:0:0:0:
64,192,11838,128,0,11908:0:0:0:0:
320,192,11838,128,0,11943:0:0:0:0:
448,192,11943,128,0,12049:0:0:0:0:
192,192,12049,128,0,12155:0:0:0:0:
64,192,12155,128,0,12225:0:0:0:0:
320,192,12155,128,0,12260:0:0:0:0:
448,192,12260,128,0,12366:0:0:0:0:
192,192,12366,128,0,12472:0:0:0:0:
64,192,12366,128,0,12472:0:0:0:0:
448,192,12436,1,0,0:0:0:0:
320,192,12507,1,0,0:0:0:0:
192,192,12577,1,0,0:0:0:0:
64,192,12577,1,0,0:0:0:0:
320,192,12683,1,0,0:0:0:0:
448,192,12683,1,0,0:0:0:0:
192,192,12789,1,0,0:0:0:0:
64,192,12894,1,0,0:0:0:0:
192,192,12894,1,0,0:0:0:0:
320,192,13000,1,0,0:0:0:0:
320,192,13105,1,0,0:0:0:0:
448,192,13105,1,0,0:0:0:0:
192,192,13211,1,0,0:0:0:0:
64,192,13211,1,0,0:0:0:0:
320,192,13317,1,0,0:0:0:0:
448,192,13317,1,0,0:0:0:0:
320,192,13422,1,0,0:0:0:0:
448,192,13422,1,0,0:0:0:0:
448,192,13634,128,0,13739:0:0:0:0:
192,192,13634,128,0,13845:0:0:0:0:
64,192,13634,1,0,0:0:0:0:
320,192,13739,128,0,13845:0:0:0:0:
448,192,13845,128,0,13951:0:0:0:0:
192,192,13951,1,0,0:0:0:0:
64,192,13951,128,0,14056:0:0:0:0:
320,192,14056,128,0,14162:0:0:0:0:
448,192,14056,1,0,0:0:0:0:
192,192,14162,128,0,14267:0:0:0:0:
64,192,14162,1,0,0:0:0:0:
320,192,14267,128,0,14373:0:0:0:0:
448,192,14373,1,0,0:0:0:0:
64,192,14373,128,0,14479:0:0:0:0:
192,192,14479,128,0,14584:0:0:0:0:
448,192,14584,128,0,14690:0:0:0:0:
320,192,14584,128,0,14796:0:0:0:0:
192,192,14690,128,0,14796:0:0:0:0:
448,192,14796,1,0,0:0:0:0:
64,192,14796,1,0,0:0:0:0:
320,192,14901,128,0,15007:0:0:0:0:
192,192,14901,128,0,15007:0:0:0:0:
448,192,15007,128,0,15113:0:0:0:0:
320,192,15113,128,0,15218:0:0:0:0:
64,192,15218,128,0,15324:0:0:0:0:
192,192,15218,1,0,0:0:0:0:
448,192,15324,128,0,15429:0:0:0:0:
320,192,15324,1,0,0:0:0:0:
192,192,15429,128,0,15535:0:0:0:0:
64,192,15429,1,0,0:0:0:0:
320,192,15535,128,0,15641:0:0:0:0:
64,192,15641,128,0,15746:0:0:0:0:
192,192,15641,1,0,0:0:0:0:
320,192,15746,128,0,15852:0:0:0:0:
192,192,15852,128,0,16063:0:0:0:0:
64,192,15852,1,0,0:0:0:0:
448,192,15852,128,0,15958:0:0:0:0:
320,192,15958,128,0,16063:0:0:0:0:
448,192,16063,1,0,0:0:0:0:
64,192,16169,128,0,16380:0:0:0:0:
192,192,16169,1,0,0:0:0:0:
448,192,16239,1,0,0:0:0:0:
320,192,16310,1,0,0:0:0:0:
192,192,16380,128,0,16591:0:0:0:0:
320,192,16486,128,0,16697:0:0:0:0:
64,192,16591,128,0,16803:0:0:0:0:
448,192,16591,1,0,0:0:0:0:
192,192,16697,128,0,16908:0:0:0:0:
448,192,16803,128,0,17014:0:0:0:0:
320,192,16908,128,0,17014:0:0:0:0:
192,192,17014,128,0,17120:0:0:0:0:
64,192,17014,1,0,0:0:0:0:
320,192,17120,128,0,17225:0:0:0:0:
64,192,17225,128,0,17331:0:0:0:0:
448,192,17331,128,0,17436:0:0:0:0:
320,192,17331,1,0,0:0:0:0:
192,192,17436,128,0,17542:0:0:0:0:
64,192,17436,1,0,0:0:0:0:
320,192,17542,128,0,17648:0:0:0:0:
448,192,17542,1,0,0:0:0:0:
64,192,17648,128,0,17753:0:0:0:0:
448,192,17753,128,0,17859:0:0:0:0:
320,192,17753,1,0,0:0:0:0:
192,192,17859,128,0,17965:0:0:0:0:
448,192,17965,128,0,18070:0:0:0:0:
320,192,17965,128,0,18176:0:0:0:0:
192,192,18070,128,0,18176:0:0:0:0:
64,192,18070,1,0,0:0:0:0:
448,192,18176,1,0,0:0:0:0:
320,192,18282,128,0,18387:0:0:0:0:
192,192,18282,128,0,18387:0:0:0:0:
64,192,18387,128,0,18493:0:0:0:0:
192,192,18493,128,0,18598:0:0:0:0:
448,192,18598,128,0,18704:0:0:0:0:
320,192,18598,1,0,0:0:0:0:
64,192,18704,128,0,18810:0:0:0:0:
192,192,18704,1,0,0:0:0:0:
448,192,18810,128,0,18915:0:0:0:0:
320,192,18810,1,0,0:0:0:0:
64,192,18915,1,0,0:0:0:0:
192,192,18915,128,0,19021:0:0:0:0:
448,192,19021,1,0,0:0:0:0:
320,192,19021,128,0,19127:0:0:0:0:
192,192,19127,128,0,19338:0:0:0:0:
64,192,19127,128,0,19232:0:0:0:0:
448,192,19232,128,0,19338:0:0:0:0:
320,192,19232,128,0,19338:0:0:0:0:
64,192,19338,128,0,19443:0:0:0:0:
320,192,19443,128,0,19549:0:0:0:0:
448,192,19549,128,0,19866:0:0:0:0:
192,192,19549,128,0,19760:0:0:0:0:
64,192,19549,128,0,19866:0:0:0:0:
320,192,19760,1,0,0:0:0:0:
192,192,19866,1,0,0:0:0:0:
448,192,19972,128,0,20077:0:0:0:0:
64,192,19972,128,0,20289:0:0:0:0:
320,192,19972,128,0,20289:0:0:0:0:
192,192,20077,1,0,0:0:0:0:
448,192,20183,1,0,0:0:0:0:
192,192,20289,1,0,0:0:0:0:
320,192,20394,128,0,20605:0:0:0:0:
64,192,20394,128,0,20500:0:0:0:0:
448,192,20394,1,0,0:0:0:0:
192,192,20500,128,0,20605:0:0:0:0:
448,192,20605,128,0,20711:0:0:0:0:
192,192,20711,128,0,20817:0:0:0:0:
64,192,20711,1,0,0:0:0:0:
320,192,20817,128,0,20922:0:0:0:0:
448,192,20817,1,0,0:0:0:0:
64,192,20922,128,0,21028:0:0:0:0:
192,192,20922,1,0,0:0:0:0:
320,192,21028,128,0,21134:0:0:0:0:
192,192,21134,128,0,21239:0:0:0:0:
64,192,21134,1,0,0:0:0:0:
448,192,21239,128,0,21345:0:0:0:0:
320,192,21345,1,0,0:0:0:0:
64,192,21345,128,0,21451:0:0:0:0:
192,192,21451,128,0,21662:0:0:0:0:
448,192,21451,1,0,0:0:0:0:
320,192,21556,128,0,21662:0:0:0:0:
64,192,21556,1,0,0:0:0:0:
448,192,21662,128,0,21979:0:0:0:0:
192,192,21767,128,0,22084:0:0:0:0:
320,192,21873,128,0,22084:0:0:0:0:
64,192,21979,128,0,22084:0:0:0:0:
448,192,22084,128,0,22296:0:0:0:0:
192,192,22190,128,0,22507:0:0:0:0:
320,192,22296,128,0,22507:0:0:0:0:
448,192,22401,128,0,22507:0:0:0:0:
64,192,22507,128,0,22718:0:0:0:0:
320,192,22613,128,0,22824:0:0:0:0:
192,192,22718,128,0,22929:0:0:0:0:
64,192,22824,128,0,22929:0:0:0:0:
448,192,22929,128,0,23141:0:0:0:0:
320,192,22929,1,0,0:0:0:0:
64,192,23000,1,0,0:0:0:0:
192,192,23070,1,0,0:0:0:0:
320,192,23141,128,0,23352:0:0:0:0:
192,192,23246,128,0,23458:0:0:0:0:
448,192,23352,128,0,23563:0:0:0:0:
320,192,23458,128,0,23669:0:0:0:0:
64,192,23563,128,0,23774:0:0:0:0:
192,192,23669,128,0,23774:0:0:0:0:
448,192,23774,128,0,23880:0:0:0:0:
320,192,23774,128,0,23986:0:0:0:0:
64,192,23880,128,0,23986:0:0:0:0:
448,192,23986,128,0,24091:0:0:0:0:
64,192,24091,5,0,0:0:0:0:
192,192,24091,128,0,24197:0:0:0:0:
320,192,24197,128,0,24303:0:0:0:0:
448,192,24197,1,0,0:0:0:0:
64,192,24303,128,0,24408:0:0:0:0:
192,192,24303,1,0,0:0:0:0:
320,192,24408,128,0,24514:0:0:0:0:
448,192,24514,128,0,24620:0:0:0:0:
64,192,24514,1,0,0:0:0:0:
320,192,24620,128,0,24725:0:0:0:0:
64,192,24725,128,0,24831:0:0:0:0:
192,192,24725,128,0,24936:0:0:0:0:
320,192,24831,128,0,24936:0:0:0:0:
448,192,24831,1,0,0:0:0:0:
64,192,24936,1,0,0:0:0:0:
448,192,25042,128,0,25253:0:0:0:0:
192,192,25042,1,0,0:0:0:0:
320,192,25113,1,0,0:0:0:0:
64,192,25183,1,0,0:0:0:0:
192,192,25253,1,0,0:0:0:0:
320,192,25359,128,0,25465:0:0:0:0:
448,192,25359,1,0,0:0:0:0:
64,192,25465,128,0,25570:0:0:0:0:
192,192,25465,1,0,0:0:0:0:
448,192,25570,128,0,25676:0:0:0:0:
320,192,25570,1,0,0:0:0:0:
192,192,25676,128,0,25782:0:0:0:0:
320,192,25676,128,0,25887:0:0:0:0:
64,192,25887,128,0,26204:0:0:0:0:
448,192,25887,1,0,0:0:0:0:
192,192,25993,1,0,0:0:0:0:
448,192,26098,1,0,0:0:0:0:
192,192,26204,128,0,26310:0:0:0:0:
320,192,26204,1,0,0:0:0:0:
448,192,26310,128,0,26415:0:0:0:0:
64,192,26310,1,0,0:0:0:0:
192,192,26415,1,0,0:0:0:0:
320,192,26415,128,0,26521:0:0:0:0:
64,192,26521,128,0,26732:0:0:0:0:
448,192,26521,1,0,0:0:0:0:
192,192,26732,5,0,0:0:0:0:
448,192,26732,128,0,26837:0:0:0:0:
320,192,26837,1,0,0:0:0:0:
64,192,26943,128,0,27154:0:0:0:0:
192,192,27048,128,0,27154:0:0:0:0:
320,192,27154,1,0,0:0:0:0:
448,192,27154,1,0,0:0:0:0:
64,192,27260,128,0,27471:0:0:0:0:
320,192,27365,128,0,27577:0:0:0:0:
192,192,27471,128,0,27577:0:0:0:0:
64,192,27577,1,0,0:0:0:0:
448,192,27577,128,0,27788:0:0:0:0:
192,192,27682,128,0,27893:0:0:0:0:
320,192,27788,128,0,27893:0:0:0:0:
448,192,27893,128,0,27999:0:0:0:0:
64,192,27999,1,0,0:0:0:0:
192,192,27999,1,0,0:0:0:0:
320,192,28105,1,0,0:0:0:0:
64,192,28210,128,0,28422:0:0:0:0:
192,192,28316,128,0,28422:0:0:0:0:
448,192,28422,128,0,28527:0:0:0:0:
320,192,28422,1,0,0:0:0:0:
64,192,28527,1,0,0:0:0:0:
192,192,28633,128,0,28844:0:0:0:0:
320,192,28739,128,0,28844:0:0:0:0:
448,192,28844,1,0,0:0:0:0:
64,192,28844,1,0,0:0:0:0:
192,192,28950,128,0,29161:0:0:0:0:
448,192,29055,128,0,29267:0:0:0:0:
320,192,29161,128,0,29267:0:0:0:0:
64,192,29267,1,0,0:0:0:0:
192,192,29267,1,0,0:0:0:0:
448,192,29372,128,0,29584:0:0:0:0:
64,192,29478,128,0,29689:0:0:0:0:
192,192,29584,128,0,29689:0:0:0:0:
320,192,29689,128,0,29795:0:0:0:0:
448,192,29689,1,0,0:0:0:0:
64,192,29795,1,0,0:0:0:0:
192,192,29901,128,0,30006:0:0:0:0:
320,192,30006,1,0,0:0:0:0:
64,192,30112,128,0,30217:0:0:0:0:
448,192,30112,128,0,30323:0:0:0:0:
192,192,30217,1,0,0:0:0:0:
320,192,30323,128,0,30534:0:0:0:0:
64,192,30429,128,0,30534:0:0:0:0:
448,192,30534,1,0,0:0:0:0:
192,192,30534,1,0,0:0:0:0:
320,192,30640,128,0,30851:0:0:0:0:
64,192,30746,128,0,30957:0:0:0:0:
192,192,30851,128,0,30957:0:0:0:0:
448,192,30957,128,0,31168:0:0:0:0:
320,192,30957,1,0,0:0:0:0:
64,192,31062,128,0,31274:0:0:0:0:
320,192,31168,128,0,31379:0:0:0:0:
448,192,31274,128,0,31379:0:0:0:0:
64,192,31379,1,0,0:0:0:0:
192,192,31379,1,0,0:0:0:0:
320,192,31485,1,0,0:0:0:0:
64,192,31591,128,0,31696:0:0:0:0:
448,192,31696,128,0,31802:0:0:0:0:
64,192,31802,128,0,31908:0:0:0:0:
192,192,31802,1,0,0:0:0:0:
320,192,31908,1,0,0:0:0:0:
448,192,32013,128,0,32224:0:0:0:0:
64,192,32119,128,0,32224:0:0:0:0:
192,192,32224,1,0,0:0:0:0:
320,192,32224,1,0,0:0:0:0:
448,192,32330,128,0,32436:0:0:0:0:
64,192,32436,128,0,32647:0:0:0:0:
192,192,32541,128,0,32647:0:0:0:0:
448,192,32647,128,0,32858:0:0:0:0:
320,192,32647,1,0,0:0:0:0:
64,192,32753,128,0,32858:0:0:0:0:
192,192,32858,128,0,32964:0:0:0:0:
448,192,32964,128,0,33070:0:0:0:0:
320,192,32964,1,0,0:0:0:0:
64,192,33070,128,0,33175:0:0:0:0:
192,192,33070,128,0,33175:0:0:0:0:
320,192,33175,1,0,0:0:0:0:
192,192,33281,128,0,33492:0:0:0:0:
64,192,33281,1,0,0:0:0:0:
320,192,33386,1,0,0:0:0:0:
448,192,33492,128,0,33598:0:0:0:0:
64,192,33492,1,0,0:0:0:0:
320,192,33598,1,0,0:0:0:0:
64,192,33703,128,0,33915:0:0:0:0:
192,192,33809,128,0,33915:0:0:0:0:
448,192,33915,128,0,34126:0:0:0:0:
320,192,33915,1,0,0:0:0:0:
192,192,34020,128,0,34232:0:0:0:0:
320,192,34126,128,0,34232:0:0:0:0:
448,192,34232,128,0,34337:0:0:0:0:
64,192,34337,128,0,34443:0:0:0:0:
192,192,34337,1,0,0:0:0:0:
320,192,34443,128,0,34548:0:0:0:0:
64,192,34548,128,0,34760:0:0:0:0:
192,192,34654,128,0,34760:0:0:0:0:
448,192,34760,128,0,35077:0:0:0:0:
320,192,34760,1,0,0:0:0:0:
192,192,34865,128,0,34971:0:0:0:0:
320,192,34971,128,0,35077:0:0:0:0:
64,192,35077,1,0,0:0:0:0:
192,192,35182,128,0,35288:0:0:0:0:
448,192,35182,1,0,0:0:0:0:
320,192,35288,1,0,0:0:0:0:
64,192,35393,128,0,35605:0:0:0:0:
192,192,35499,128,0,35605:0:0:0:0:
448,192,35605,128,0,35710:0:0:0:0:
320,192,35605,1,0,0:0:0:0:
192,192,35710,128,0,35922:0:0:0:0:
320,192,35816,128,0,35922:0:0:0:0:
448,192,35922,128,0,36027:0:0:0:0:
64,192,36027,128,0,36239:0:0:0:0:
192,192,36027,1,0,0:0:0:0:
320,192,36133,128,0,36344:0:0:0:0:
192,192,36239,128,0,36344:0:0:0:0:
448,192,36344,128,0,36450:0:0:0:0:
320,192,36450,128,0,36555:0:0:0:0:
64,192,36450,1,0,0:0:0:0:
192,192,36555,1,0,0:0:0:0:
64,192,36661,128,0,36872:0:0:0:0:
448,192,36767,128,0,36872:0:0:0:0:
320,192,36872,128,0,36978:0:0:0:0:
192,192,36872,1,0,0:0:0:0:
448,192,36978,1,0,0:0:0:0:
64,192,37084,128,0,37295:0:0:0:0:
192,192,37189,128,0,37295:0:0:0:0:
448,192,37295,128,0,37401:0:0:0:0:
320,192,37295,1,0,0:0:0:0:
64,192,37401,128,0,37612:0:0:0:0:
448,192,37506,128,0,37717:0:0:0:0:
320,192,37612,128,0,37717:0:0:0:0:
64,192,37717,128,0,37929:0:0:0:0:
192,192,37717,1,0,0:0:0:0:
320,192,37823,128,0,37929:0:0:0:0:
448,192,37929,128,0,38034:0:0:0:0:
192,192,38034,128,0,38140:0:0:0:0:
448,192,38140,128,0,38351:0:0:0:0:
320,192,38140,1,0,0:0:0:0:
192,192,38246,128,0,38351:0:0:0:0:
64,192,38351,128,0,38562:0:0:0:0:
320,192,38457,128,0,38562:0:0:0:0:
448,192,38562,128,0,38774:0:0:0:0:
192,192,38562,1,0,0:0:0:0:
320,192,38668,128,0,38774:0:0:0:0:
64,192,38774,128,0,38985:0:0:0:0:
192,192,38879,128,0,38985:0:0:0:0:
448,192,38985,128,0,39091:0:0:0:0:
320,192,38985,128,0,39196:0:0:0:0:
64,192,39091,128,0,39302:0:0:0:0:
448,192,39196,128,0,39408:0:0:0:0:
320,192,39302,128,0,39408:0:0:0:0:
192,192,39408,128,0,39513:0:0:0:0:
64,192,39408,128,0,39724:0:0:0:0:
448,192,39478,1,0,0:0:0:0:
320,192,39548,1,0,0:0:0:0:
192,192,39619,128,0,39724:0:0:0:0:
320,192,39830,128,0,39936:0:0:0:0:
448,192,39830,128,0,40147:0:0:0:0:
64,192,39901,1,0,0:0:0:0:
192,192,39971,1,0,0:0:0:0:
320,192,40041,128,0,40147:0:0:0:0:
64,192,40147,128,0,40253:0:0:0:0:
192,192,40253,128,0,40464:0:0:0:0:
448,192,40253,1,0,0:0:0:0:
320,192,40358,128,0,40464:0:0:0:0:
448,192,40464,128,0,40675:0:0:0:0:
64,192,40464,128,0,40675:0:0:0:0:
320,192,40675,128,0,40886:0:0:0:0:
192,192,40781,128,0,40886:0:0:0:0:
448,192,40886,1,0,0:0:0:0:
448,192,40992,1,0,0:0:0:0:
192,192,41098,128,0,41203:0:0:0:0:
64,192,41098,128,0,41309:0:0:0:0:
320,192,41309,128,0,41415:0:0:0:0:
192,192,41415,128,0,41520:0:0:0:0:
64,192,41415,128,0,41520:0:0:0:0:
320,192,41520,1,0,0:0:0:0:
448,192,41520,1,0,0:0:0:0:
64,192,41943,128,0,42154:0:0:0:0:
448,192,41943,1,0,0:0:0:0:
192,192,42048,128,0,42259:0:0:0:0:
320,192,42154,128,0,42259:0:0:0:0:
448,192,42259,128,0,42471:0:0:0:0:
320,192,42365,128,0,42576:0:0:0:0:
192,192,42471,128,0,42682:0:0:0:0:
64,192,42576,128,0,42788:0:0:0:0:
448,192,42682,128,0,42788:0:0:0:0:
320,192,42788,1,0,0:0:0:0:
192,192,42788,1,0,0:0:0:0:
192,192,42999,1,0,0:0:0:0:
320,192,43104,1,0,0:0:0:0:
64,192,43210,128,0,43421:0:0:0:0:
448,192,43210,1,0,0:0:0:0:
320,192,43316,128,0,43527:0:0:0:0:
192,192,43421,128,0,43527:0:0:0:0:
448,192,43527,128,0,43738:0:0:0:0:
64,192,43633,128,0,43844:0:0:0:0:
192,192,43738,128,0,43950:0:0:0:0:
320,192,43844,128,0,44055:0:0:0:0:
448,192,43950,128,0,44055:0:0:0:0:
192,192,44055,1,0,0:0:0:0:
64,192,44055,1,0,0:0:0:0:
448,192,44266,1,0,0:0:0:0:
320,192,44266,1,0,0:0:0:0:
64,192,44372,1,0,0:0:0:0:
192,192,44372,1,0,0:0:0:0:
448,192,44478,128,0,44689:0:0:0:0:
320,192,44478,1,0,0:0:0:0:
64,192,44478,1,0,0:0:0:0:
192,192,44583,128,0,44795:0:0:0:0:
64,192,44689,128,0,44795:0:0:0:0:
320,192,44795,128,0,45006:0:0:0:0:
448,192,44900,128,0,45112:0:0:0:0:
192,192,45006,128,0,45217:0:0:0:0:
64,192,45112,128,0,45323:0:0:0:0:
320,192,45217,128,0,45323:0:0:0:0:
192,192,45323,1,0,0:0:0:0:
448,192,45323,1,0,0:0:0:0:
448,192,45534,128,0,45745:0:0:0:0:
64,192,45534,1,0,0:0:0:0:
320,192,45640,1,0,0:0:0:0:
192,192,45745,1,0,0:0:0:0:
64,192,45745,128,0,45957:0:0:0:0:
320,192,45851,128,0,46062:0:0:0:0:
448,192,45957,128,0,46062:0:0:0:0:
192,192,46062,128,0,46273:0:0:0:0:
448,192,46168,128,0,46379:0:0:0:0:
64,192,46273,128,0,46485:0:0:0:0:
320,192,46379,128,0,46590:0:0:0:0:
192,192,46485,128,0,46590:0:0:0:0:
64,192,46590,1,0,0:0:0:0:
448,192,46590,1,0,0:0:0:0:
192,192,46696,1,0,0:0:0:0:
448,192,46802,1,0,0:0:0:0:
320,192,46802,128,0,47013:0:0:0:0:
192,192,47013,1,0,0:0:0:0:
64,192,47013,128,0,47224:0:0:0:0:
448,192,47013,1,0,0:0:0:0:
320,192,47119,128,0,47330:0:0:0:0:
448,192,47224,128,0,47330:0:0:0:0:
192,192,47330,128,0,47541:0:0:0:0:
64,192,47435,128,0,47647:0:0:0:0:
448,192,47541,128,0,47752:0:0:0:0:
320,192,47647,128,0,47858:0:0:0:0:
192,192,47752,128,0,47858:0:0:0:0:
448,192,47858,1,0,0:0:0:0:
64,192,47858,1,0,0:0:0:0:
320,192,48069,1,0,0:0:0:0:
192,192,48069,128,0,48281:0:0:0:0:
320,192,48281,1,0,0:0:0:0:
64,192,48281,128,0,48492:0:0:0:0:
192,192,48386,128,0,48597:0:0:0:0:
448,192,48492,128,0,48597:0:0:0:0:
320,192,48597,128,0,48809:0:0:0:0:
64,192,48703,128,0,48914:0:0:0:0:
192,192,48809,128,0,49020:0:0:0:0:
448,192,48914,128,0,49126:0:0:0:0:
320,192,49020,128,0,49126:0:0:0:0:
192,192,49126,1,0,0:0:0:0:
64,192,49126,1,0,0:0:0:0:
64,192,49337,1,0,0:0:0:0:
192,192,49337,1,0,0:0:0:0:
448,192,49443,1,0,0:0:0:0:
320,192,49443,1,0,0:0:0:0:
64,192,49548,128,0,49759:0:0:0:0:
192,192,49548,1,0,0:0:0:0:
448,192,49548,1,0,0:0:0:0:
320,192,49654,128,0,49865:0:0:0:0:
448,192,49759,128,0,49865:0:0:0:0:
192,192,49865,128,0,50076:0:0:0:0:
64,192,49971,128,0,50182:0:0:0:0:
448,192,50076,128,0,50288:0:0:0:0:
320,192,50182,128,0,50393:0:0:0:0:
192,192,50288,128,0,50393:0:0:0:0:
448,192,50393,1,0,0:0:0:0:
64,192,50393,1,0,0:0:0:0:
192,192,50604,1,0,0:0:0:0:
64,192,50710,1,0,0:0:0:0:
320,192,50816,128,0,51027:0:0:0:0:
448,192,50816,1,0,0:0:0:0:
64,192,50921,128,0,51133:0:0:0:0:
192,192,51027,128,0,51133:0:0:0:0:
448,192,51133,128,0,51344:0:0:0:0:
320,192,51238,128,0,51450:0:0:0:0:
64,192,51344,128,0,51555:0:0:0:0:
448,192,51450,128,0,51555:0:0:0:0:
192,192,51555,128,0,51661:0:0:0:0:
448,192,51661,1,0,0:0:0:0:
64,192,51661,128,0,52083:0:0:0:0:
320,192,51661,128,0,51872:0:0:0:0:
448,192,52083,128,0,52295:0:0:0:0:
320,192,52083,1,0,0:0:0:0:
192,192,52083,1,0,0:0:0:0:
64,192,52189,128,0,52400:0:0:0:0:
320,192,52295,128,0,52400:0:0:0:0:
192,192,52400,128,0,52612:0:0:0:0:
448,192,52506,128,0,52717:0:0:0:0:
320,192,52612,128,0,52823:0:0:0:0:
64,192,52717,128,0,52928:0:0:0:0:
192,192,52823,128,0,52928:0:0:0:0:
448,192,52928,1,0,0:0:0:0:
320,192,52928,1,0,0:0:0:0:
320,192,53140,1,0,0:0:0:0:
192,192,53245,1,0,0:0:0:0:
64,192,53351,128,0,53562:0:0:0:0:
448,192,53351,1,0,0:0:0:0:
192,192,53457,128,0,53668:0:0:0:0:
448,192,53562,128,0,53668:0:0:0:0:
320,192,53668,128,0,53879:0:0:0:0:
192,192,53773,128,0,53985:0:0:0:0:
64,192,53879,128,0,54090:0:0:0:0:
448,192,53985,128,0,54196:0:0:0:0:
320,192,54090,128,0,54196:0:0:0:0:
192,192,54196,1,0,0:0:0:0:
64,192,54196,128,0,54407:0:0:0:0:
192,192,54407,1,0,0:0:0:0:
448,192,54407,1,0,0:0:0:0:
320,192,54513,1,0,0:0:0:0:
192,192,54619,128,0,54830:0:0:0:0:
64,192,54619,1,0,0:0:0:0:
448,192,54619,1,0,0:0:0:0:
320,192,54724,128,0,54935:0:0:0:0:
448,192,54830,128,0,54935:0:0:0:0:
64,192,54935,128,0,55147:0:0:0:0:
192,192,55041,128,0,55252:0:0:0:0:
448,192,55147,128,0,55358:0:0:0:0:
320,192,55252,128,0,55464:0:0:0:0:
192,192,55358,128,0,55464:0:0:0:0:
64,192,55464,1,0,0:0:0:0:
448,192,55464,1,0,0:0:0:0:
192,192,55675,1,0,0:0:0:0:
320,192,55781,1,0,0:0:0:0:
448,192,55886,1,0,0:0:0:0:
64,192,55886,1,0,0:0:0:0:
192,192,55886,128,0,56097:0:0:0:0:
320,192,55992,128,0,56203:0:0:0:0:
448,192,56097,128,0,56203:0:0:0:0:
64,192,56203,128,0,56414:0:0:0:0:
448,192,56309,128,0,56520:0:0:0:0:
192,192,56414,128,0,56626:0:0:0:0:
320,192,56520,128,0,56731:0:0:0:0:
64,192,56626,128,0,56731:0:0:0:0:
448,192,56731,1,0,0:0:0:0:
192,192,56731,1,0,0:0:0:0:
64,192,56837,1,0,0:0:0:0:
320,192,56837,1,0,0:0:0:0:
192,192,56943,1,0,0:0:0:0:
448,192,57154,128,0,57365:0:0:0:0:
64,192,57154,1,0,0:0:0:0:
192,192,57154,1,0,0:0:0:0:
320,192,57259,128,0,57471:0:0:0:0:
64,192,57365,128,0,57471:0:0:0:0:
192,192,57471,128,0,57682:0:0:0:0:
320,192,57576,128,0,57788:0:0:0:0:
64,192,57682,128,0,57893:0:0:0:0:
448,192,57788,128,0,57999:0:0:0:0:
192,192,57893,128,0,57999:0:0:0:0:
64,192,57999,1,0,0:0:0:0:
320,192,57999,1,0,0:0:0:0:
320,192,58210,1,0,0:0:0:0:
448,192,58316,1,0,0:0:0:0:
192,192,58421,128,0,58633:0:0:0:0:
64,192,58421,1,0,0:0:0:0:
448,192,58527,128,0,58738:0:0:0:0:
320,192,58633,128,0,58738:0:0:0:0:
64,192,58738,128,0,58950:0:0:0:0:
320,192,58844,128,0,59055:0:0:0:0:
192,192,58950,128,0,59161:0:0:0:0:
448,192,59055,128,0,59266:0:0:0:0:
320,192,59161,128,0,59266:0:0:0:0:
64,192,59266,1,0,0:0:0:0:
192,192,59266,1,0,0:0:0:0:
448,192,59478,1,0,0:0:0:0:
320,192,59478,1,0,0:0:0:0:
64,192,59583,1,0,0:0:0:0:
192,192,59583,1,0,0:0:0:0:
448,192,59689,128,0,59900:0:0:0:0:
320,192,59689,1,0,0:0:0:0:
64,192,59689,1,0,0:0:0:0:
192,192,59795,128,0,60006:0:0:0:0:
64,192,59900,128,0,60006:0:0:0:0:
448,192,60006,128,0,60217:0:0:0:0:
320,192,60112,128,0,60323:0:0:0:0:
64,192,60217,128,0,60428:0:0:0:0:
192,192,60323,128,0,60534:0:0:0:0:
320,192,60428,128,0,60534:0:0:0:0:
64,192,60534,128,0,60851:0:0:0:0:
448,192,60534,1,0,0:0:0:0:
192,192,60640,128,0,60851:0:0:0:0:
448,192,60745,128,0,60957:0:0:0:0:
320,192,60851,128,0,60957:0:0:0:0:
192,192,60957,128,0,61273:0:0:0:0:
64,192,60957,1,0,0:0:0:0:
448,192,61062,128,0,61168:0:0:0:0:
320,192,61062,1,0,0:0:0:0:
448,192,61273,128,0,61485:0:0:0:0:
320,192,61273,1,0,0:0:0:0:
192,192,61379,1,0,0:0:0:0:
64,192,61379,128,0,61590:0:0:0:0:
320,192,61485,128,0,61590:0:0:0:0:
448,192,61590,1,0,0:0:0:0:
192,192,61590,128,0,61696:0:0:0:0:
320,192,61696,128,0,61802:0:0:0:0:
192,192,61802,1,0,0:0:0:0:
448,192,61802,128,0,62013:0:0:0:0:
64,192,61802,128,0,62118:0:0:0:0:
448,192,62118,1,0,0:0:0:0:
320,192,62118,128,0,62330:0:0:0:0:
192,192,62224,128,0,62541:0:0:0:0:
320,192,62435,1,0,0:0:0:0:
64,192,62435,128,0,62647:0:0:0:0:
192,192,62647,128,0,62963:0:0:0:0:
320,192,62647,1,0,0:0:0:0:
448,192,62647,128,0,62858:0:0:0:0:
64,192,62752,1,0,0:0:0:0:
320,192,62858,1,0,0:0:0:0:
64,192,62963,128,0,63280:0:0:0:0:
448,192,62963,128,0,63175:0:0:0:0:
192,192,63069,1,0,0:0:0:0:
320,192,63175,1,0,0:0:0:0:
448,192,63280,128,0,63386:0:0:0:0:
192,192,63280,128,0,63492:0:0:0:0:
320,192,63386,1,0,0:0:0:0:
64,192,63492,1,0,0:0:0:0:
448,192,63492,1,0,0:0:0:0:
192,192,63703,1,0,0:0:0:0:
448,192,63914,128,0,64231:0:0:0:0:
64,192,63914,128,0,64125:0:0:0:0:
192,192,64020,1,0,0:0:0:0:
320,192,64125,1,0,0:0:0:0:
192,192,64231,128,0,64548:0:0:0:0:
64,192,64231,128,0,64442:0:0:0:0:
320,192,64337,1,0,0:0:0:0:
448,192,64442,1,0,0:0:0:0:
64,192,64548,128,0,64654:0:0:0:0:
320,192,64548,128,0,64759:0:0:0:0:
192,192,64654,1,0,0:0:0:0:
448,192,64759,1,0,0:0:0:0:
64,192,64759,1,0,0:0:0:0:
192,192,64865,1,0,0:0:0:0:
320,192,64865,1,0,0:0:0:0:
64,192,64970,1,0,0:0:0:0:
448,192,65076,1,0,0:0:0:0:
192,192,65182,128,0,65393:0:0:0:0:
64,192,65182,1,0,0:0:0:0:
320,192,65182,128,0,65499:0:0:0:0:
448,192,65287,1,0,0:0:0:0:
64,192,65393,1,0,0:0:0:0:
448,192,65499,128,0,65816:0:0:0:0:
192,192,65499,128,0,65710:0:0:0:0:
320,192,65604,1,0,0:0:0:0:
64,192,65710,1,0,0:0:0:0:
192,192,65816,128,0,65921:0:0:0:0:
320,192,65816,128,0,66027:0:0:0:0:
64,192,65921,1,0,0:0:0:0:
448,192,66027,1,0,0:0:0:0:
192,192,66027,1,0,0:0:0:0:
320,192,66238,1,0,0:0:0:0:
192,192,66449,128,0,66766:0:0:0:0:
320,192,66449,128,0,66661:0:0:0:0:
64,192,66555,1,0,0:0:0:0:
64,192,66766,128,0,67083:0:0:0:0:
448,192,66766,1,0,0:0:0:0:
320,192,66766,128,0,66977:0:0:0:0:
192,192,66872,1,0,0:0:0:0:
448,192,66977,1,0,0:0:0:0:
320,192,67083,128,0,67189:0:0:0:0:
192,192,67083,128,0,67294:0:0:0:0:
64,192,67189,1,0,0:0:0:0:
448,192,67294,128,0,67506:0:0:0:0:
320,192,67294,1,0,0:0:0:0:
192,192,67400,128,0,67506:0:0:0:0:
320,192,67506,1,0,0:0:0:0:
64,192,67506,128,0,67611:0:0:0:0:
448,192,67611,128,0,67717:0:0:0:0:
192,192,67717,128,0,67823:0:0:0:0:
320,192,67717,1,0,0:0:0:0:
64,192,67717,128,0,67928:0:0:0:0:
448,192,67823,1,0,0:0:0:0:
192,192,67928,1,0,0:0:0:0:
320,192,68034,128,0,68351:0:0:0:0:
64,192,68034,128,0,68245:0:0:0:0:
448,192,68139,1,0,0:0:0:0:
192,192,68245,1,0,0:0:0:0:
448,192,68351,128,0,68562:0:0:0:0:
64,192,68351,128,0,68456:0:0:0:0:
320,192,68456,1,0,0:0:0:0:
192,192,68562,1,0,0:0:0:0:
64,192,68562,1,0,0:0:0:0:
192,192,68773,1,0,0:0:0:0:
320,192,68985,128,0,69090:0:0:0:0:
448,192,68985,128,0,69196:0:0:0:0:
64,192,69090,1,0,0:0:0:0:
320,192,69196,1,0,0:0:0:0:
448,192,69301,128,0,69513:0:0:0:0:
192,192,69301,128,0,69618:0:0:0:0:
64,192,69407,1,0,0:0:0:0:
320,192,69513,1,0,0:0:0:0:
448,192,69618,128,0,69724:0:0:0:0:
64,192,69618,128,0,69830:0:0:0:0:
320,192,69724,1,0,0:0:0:0:
448,192,69830,1,0,0:0:0:0:
192,192,69830,128,0,70041:0:0:0:0:
320,192,69935,128,0,70147:0:0:0:0:
448,192,70041,128,0,70147:0:0:0:0:
192,192,70147,128,0,70252:0:0:0:0:
64,192,70252,128,0,70358:0:0:0:0:
448,192,70252,128,0,70463:0:0:0:0:
320,192,70358,1,0,0:0:0:0:
64,192,70463,1,0,0:0:0:0:
448,192,70569,128,0,70780:0:0:0:0:
320,192,70569,128,0,70886:0:0:0:0:
192,192,70675,1,0,0:0:0:0:
64,192,70780,1,0,0:0:0:0:
448,192,70886,128,0,70992:0:0:0:0:
192,192,70886,128,0,71097:0:0:0:0:
320,192,70992,1,0,0:0:0:0:
64,192,71097,1,0,0:0:0:0:
448,192,71097,1,0,0:0:0:0:
448,192,71308,1,0,0:0:0:0:
320,192,71308,128,0,71520:0:0:0:0:
64,192,71520,128,0,71731:0:0:0:0:
448,192,71520,128,0,71625:0:0:0:0:
192,192,71625,1,0,0:0:0:0:
448,192,71731,1,0,0:0:0:0:
192,192,71837,128,0,72154:0:0:0:0:
64,192,71837,128,0,72048:0:0:0:0:
320,192,71942,1,0,0:0:0:0:
448,192,72048,1,0,0:0:0:0:
64,192,72154,128,0,72365:0:0:0:0:
320,192,72154,128,0,72259:0:0:0:0:
192,192,72259,1,0,0:0:0:0:
448,192,72365,128,0,72682:0:0:0:0:
320,192,72365,1,0,0:0:0:0:
320,192,72470,1,0,0:0:0:0:
64,192,72576,1,0,0:0:0:0:
192,192,72576,1,0,0:0:0:0:
320,192,72682,1,0,0:0:0:0:
64,192,72787,128,0,73104:0:0:0:0:
448,192,72787,128,0,72999:0:0:0:0:
192,192,72893,1,0,0:0:0:0:
320,192,72999,1,0,0:0:0:0:
192,192,73104,128,0,73421:0:0:0:0:
448,192,73104,128,0,73316:0:0:0:0:
64,192,73210,1,0,0:0:0:0:
320,192,73316,1,0,0:0:0:0:
448,192,73421,128,0,73527:0:0:0:0:
64,192,73421,128,0,73632:0:0:0:0:
320,192,73527,1,0,0:0:0:0:
192,192,73632,1,0,0:0:0:0:
448,192,73632,1,0,0:0:0:0:
192,192,73844,1,0,0:0:0:0:
448,192,74055,128,0,74372:0:0:0:0:
64,192,74055,128,0,74266:0:0:0:0:
320,192,74161,1,0,0:0:0:0:
192,192,74266,1,0,0:0:0:0:
320,192,74372,128,0,74689:0:0:0:0:
64,192,74372,128,0,74583:0:0:0:0:
448,192,74477,1,0,0:0:0:0:
192,192,74583,1,0,0:0:0:0:
64,192,74689,128,0,74794:0:0:0:0:
448,192,74689,128,0,74900:0:0:0:0:
320,192,74794,1,0,0:0:0:0:
192,192,74900,1,0,0:0:0:0:
64,192,74900,1,0,0:0:0:0:
320,192,75006,1,0,0:0:0:0:
448,192,75006,1,0,0:0:0:0:
192,192,75111,1,0,0:0:0:0:
448,192,75217,1,0,0:0:0:0:
320,192,75323,128,0,75534:0:0:0:0:
64,192,75323,1,0,0:0:0:0:
192,192,75323,128,0,75639:0:0:0:0:
448,192,75428,1,0,0:0:0:0:
64,192,75534,1,0,0:0:0:0:
448,192,75639,128,0,75956:0:0:0:0:
320,192,75639,128,0,75851:0:0:0:0:
192,192,75745,1,0,0:0:0:0:
64,192,75851,1,0,0:0:0:0:
320,192,75956,128,0,76062:0:0:0:0:
192,192,75956,128,0,76168:0:0:0:0:
448,192,76062,1,0,0:0:0:0:
64,192,76168,1,0,0:0:0:0:
320,192,76168,1,0,0:0:0:0:
320,192,76379,1,0,0:0:0:0:
320,192,76590,128,0,76907:0:0:0:0:
192,192,76590,128,0,76801:0:0:0:0:
64,192,76696,1,0,0:0:0:0:
448,192,76801,1,0,0:0:0:0:
192,192,76907,128,0,77118:0:0:0:0:
64,192,76907,128,0,77224:0:0:0:0:
320,192,77013,1,0,0:0:0:0:
448,192,77118,1,0,0:0:0:0:
192,192,77224,128,0,77330:0:0:0:0:
320,192,77224,128,0,77435:0:0:0:0:
64,192,77330,1,0,0:0:0:0:
448,192,77435,128,0,77647:0:0:0:0:
192,192,77435,1,0,0:0:0:0:
64,192,77541,128,0,77647:0:0:0:0:
320,192,77647,1,0,0:0:0:0:
192,192,77647,128,0,77752:0:0:0:0:
448,192,77752,128,0,77858:0:0:0:0:
320,192,77858,1,0,0:0:0:0:
192,192,77858,128,0,78069:0:0:0:0:
64,192,77858,128,0,77963:0:0:0:0:
448,192,77963,1,0,0:0:0:0:
64,192,78069,1,0,0:0:0:0:
320,192,78175,128,0,78492:0:0:0:0:
192,192,78175,128,0,78386:0:0:0:0:
448,192,78280,1,0,0:0:0:0:
64,192,78386,1,0,0:0:0:0:
192,192,78492,128,0,78597:0:0:0:0:
448,192,78492,128,0,78703:0:0:0:0:
320,192,78597,1,0,0:0:0:0:
64,192,78703,1,0,0:0:0:0:
192,192,78703,1,0,0:0:0:0:
192,192,78914,1,0,0:0:0:0:
448,192,79125,128,0,79231:0:0:0:0:
320,192,79125,128,0,79337:0:0:0:0:
64,192,79231,1,0,0:0:0:0:
448,192,79337,1,0,0:0:0:0:
192,192,79442,128,0,79759:0:0:0:0:
320,192,79442,128,0,79654:0:0:0:0:
64,192,79548,1,0,0:0:0:0:
448,192,79654,1,0,0:0:0:0:
320,192,79759,128,0,79865:0:0:0:0:
64,192,79759,128,0,79970:0:0:0:0:
192,192,79865,1,0,0:0:0:0:
320,192,79970,1,0,0:0:0:0:
448,192,79970,128,0,80182:0:0:0:0:
192,192,80076,128,0,80182:0:0:0:0:
320,192,80182,128,0,80287:0:0:0:0:
192,192,80287,128,0,80393:0:0:0:0:
64,192,80393,128,0,80499:0:0:0:0:
448,192,80393,128,0,80604:0:0:0:0:
320,192,80499,5,0,0:0:0:0:
64,192,80604,1,0,0:0:0:0:
192,192,80710,128,0,81027:0:0:0:0:
448,192,80710,128,0,80921:0:0:0:0:
320,192,80816,1,0,0:0:0:0:
64,192,80921,1,0,0:0:0:0:
448,192,81027,128,0,81132:0:0:0:0:
320,192,81027,128,0,81238:0:0:0:0:
64,192,81132,1,0,0:0:0:0:
192,192,81238,1,0,0:0:0:0:
448,192,81238,1,0,0:0:0:0:
64,192,81661,128,0,81872:0:0:0:0:
448,192,81661,128,0,81766:0:0:0:0:
192,192,81661,128,0,81872:0:0:0:0:
320,192,81872,128,0,81977:0:0:0:0:
448,192,81977,128,0,82294:0:0:0:0:
192,192,81977,128,0,82189:0:0:0:0:
64,192,82189,128,0,82294:0:0:0:0:
192,192,82294,128,0,82400:0:0:0:0:
320,192,82294,128,0,82400:0:0:0:0:
64,192,82400,128,0,82506:0:0:0:0:
320,192,82506,128,0,82611:0:0:0:0:
192,192,82506,128,0,82717:0:0:0:0:
448,192,82506,128,0,82717:0:0:0:0:
64,192,82717,1,0,0:0:0:0:
320,192,82717,1,0,0:0:0:0:
64,192,82928,1,0,0:0:0:0:
192,192,82928,1,0,0:0:0:0:
320,192,83034,1,0,0:0:0:0:
192,192,83139,1,0,0:0:0:0:
64,192,83139,1,0,0:0:0:0:
448,192,83139,1,0,0:0:0:0:
320,192,83351,128,0,84301:0:0:0:0:
64,192,83351,128,0,84301:0:0:0:0:
448,192,83351,128,0,83773:0:0:0:0:
192,192,83949,128,0,84301:0:0:0:0:
192,192,84618,128,0,85463:0:0:0:0:
64,192,84618,128,0,85463:0:0:0:0:
320,192,84618,128,0,85041:0:0:0:0:
448,192,85041,128,0,85463:0:0:0:0:
320,192,85674,128,0,85886:0:0:0:0:
64,192,85886,128,0,86308:0:0:0:0:
192,192,85886,128,0,86836:0:0:0:0:
448,192,85886,128,0,86836:0:0:0:0:
320,192,86308,128,0,86836:0:0:0:0:
64,192,86731,128,0,87153:0:0:0:0:
320,192,87153,128,0,87470:0:0:0:0:
192,192,87153,128,0,87470:0:0:0:0:
448,192,87224,128,0,87576:0:0:0:0:
64,192,87576,128,0,87787:0:0:0:0:
448,192,87787,128,0,88210:0:0:0:0:
320,192,87787,128,0,88104:0:0:0:0:
64,192,88210,128,0,88351:0:0:0:0:
192,192,88280,128,0,88421:0:0:0:0:
320,192,88351,128,0,88421:0:0:0:0:
448,192,88421,128,0,88738:0:0:0:0:
64,192,88421,1,0,0:0:0:0:
320,192,88527,1,0,0:0:0:0:
64,192,88632,1,0,0:0:0:0:
192,192,88738,1,0,0:0:0:0:
448,192,88843,1,0,0:0:0:0:
320,192,88843,128,0,89055:0:0:0:0:
192,192,88949,1,0,0:0:0:0:
448,192,89055,1,0,0:0:0:0:
64,192,89160,1,0,0:0:0:0:
320,192,89266,1,0,0:0:0:0:
448,192,89266,1,0,0:0:0:0:
192,192,89372,1,0,0:0:0:0:
64,192,89477,128,0,89689:0:0:0:0:
320,192,89583,1,0,0:0:0:0:
448,192,89689,128,0,90005:0:0:0:0:
192,192,89689,1,0,0:0:0:0:
320,192,89794,1,0,0:0:0:0:
64,192,89900,1,0,0:0:0:0:
320,192,90005,1,0,0:0:0:0:
192,192,90111,128,0,90428:0:0:0:0:
448,192,90111,1,0,0:0:0:0:
64,192,90217,1,0,0:0:0:0:
448,192,90322,1,0,0:0:0:0:
320,192,90428,1,0,0:0:0:0:
192,192,90534,1,0,0:0:0:0:
64,192,90534,128,0,90851:0:0:0:0:
448,192,90639,1,0,0:0:0:0:
192,192,90745,1,0,0:0:0:0:
320,192,90851,1,0,0:0:0:0:
192,192,90956,128,0,91272:0:0:0:0:
448,192,90956,128,0,91272:0:0:0:0:
64,192,90956,1,0,0:0:0:0:
320,192,91061,1,0,0:0:0:0:
64,192,91167,1,0,0:0:0:0:
320,192,91272,1,0,0:0:0:0:
448,192,91378,128,0,91801:0:0:0:0:
192,192,91378,128,0,91695:0:0:0:0:
64,192,91484,1,0,0:0:0:0:
320,192,91589,1,0,0:0:0:0:
64,192,91695,1,0,0:0:0:0:
192,192,91801,128,0,91906:0:0:0:0:
448,192,91906,128,0,92012:0:0:0:0:
320,192,91906,1,0,0:0:0:0:
192,192,92012,128,0,92117:0:0:0:0:
64,192,92012,1,0,0:0:0:0:
320,192,92117,128,0,92223:0:0:0:0:
448,192,92117,1,0,0:0:0:0:
64,192,92223,128,0,92329:0:0:0:0:
192,192,92223,1,0,0:0:0:0:
320,192,92329,128,0,92434:0:0:0:0:
64,192,92434,128,0,92646:0:0:0:0:
448,192,92434,128,0,92646:0:0:0:0:
192,192,92434,128,0,92857:0:0:0:0:
64,192,92857,128,0,92963:0:0:0:0:
320,192,92857,128,0,92963:0:0:0:0:
448,192,92857,128,0,93068:0:0:0:0:
64,192,93068,128,0,93174:0:0:0:0:
192,192,93068,128,0,93174:0:0:0:0:
320,192,93068,128,0,93279:0:0:0:0:
64,192,93279,5,0,0:0:0:0:
192,192,93350,1,0,0:0:0:0:
320,192,93420,1,0,0:0:0:0:
448,192,93491,128,0,93596:0:0:0:0:
192,192,93491,128,0,93596:0:0:0:0:
64,192,93491,128,0,93808:0:0:0:0:
192,192,93913,128,0,94125:0:0:0:0:
64,192,93913,128,0,94336:0:0:0:0:
320,192,93913,128,0,94019:0:0:0:0:
448,192,94336,128,0,94406:0:0:0:0:
320,192,94336,128,0,94547:0:0:0:0:
192,192,94406,128,0,94547:0:0:0:0:
64,192,94477,128,0,94547:0:0:0:0:
448,192,94547,128,0,94653:0:0:0:0:
192,192,94653,128,0,94758:0:0:0:0:
64,192,94758,128,0,94829:0:0:0:0:
320,192,94758,128,0,94970:0:0:0:0:
448,192,94829,128,0,94970:0:0:0:0:
192,192,94899,128,0,94970:0:0:0:0:
64,192,94970,128,0,95075:0:0:0:0:
448,192,95075,128,0,95181:0:0:0:0:
192,192,95181,128,0,95251:0:0:0:0:
64,192,95181,128,0,95392:0:0:0:0:
320,192,95251,128,0,95392:0:0:0:0:
448,192,95322,128,0,95392:0:0:0:0:
192,192,95392,128,0,95498:0:0:0:0:
320,192,95498,128,0,95603:0:0:0:0:
64,192,95603,128,0,95674:0:0:0:0:
448,192,95603,128,0,95815:0:0:0:0:
320,192,95674,128,0,95815:0:0:0:0:
192,192,95744,128,0,95815:0:0:0:0:
64,192,95815,128,0,95920:0:0:0:0:
320,192,95920,128,0,96026:0:0:0:0:
64,192,96026,128,0,96096:0:0:0:0:
192,192,96026,128,0,96237:0:0:0:0:
448,192,96096,128,0,96237:0:0:0:0:
320,192,96167,128,0,96237:0:0:0:0:
64,192,96237,128,0,96308:0:0:0:0:
192,192,96308,128,0,96448:0:0:0:0:
320,192,96378,128,0,96448:0:0:0:0:
64,192,96448,128,0,96554:0:0:0:0:
448,192,96448,128,0,96660:0:0:0:0:
320,192,96660,128,0,96871:0:0:0:0:
448,192,96765,128,0,96871:0:0:0:0:
64,192,96871,128,0,96941:0:0:0:0:
192,192,96871,128,0,97082:0:0:0:0:
320,192,96941,128,0,97082:0:0:0:0:
448,192,97012,128,0,97082:0:0:0:0:
64,192,97082,128,0,97294:0:0:0:0:
192,192,97188,128,0,97294:0:0:0:0:
320,192,97294,128,0,97364:0:0:0:0:
448,192,97294,128,0,97505:0:0:0:0:
64,192,97364,128,0,97505:0:0:0:0:
192,192,97434,128,0,97505:0:0:0:0:
320,192,97505,128,0,97610:0:0:0:0:
448,192,97610,128,0,97716:0:0:0:0:
64,192,97716,128,0,97786:0:0:0:0:
320,192,97716,128,0,97927:0:0:0:0:
192,192,97786,128,0,97927:0:0:0:0:
448,192,97857,128,0,97927:0:0:0:0:
64,192,97927,128,0,97998:0:0:0:0:
320,192,97998,128,0,98139:0:0:0:0:
192,192,98068,128,0,98139:0:0:0:0:
448,192,98139,128,0,98350:0:0:0:0:
64,192,98139,128,0,98244:0:0:0:0:
64,192,98350,128,0,98561:0:0:0:0:
192,192,98456,128,0,98561:0:0:0:0:
320,192,98561,128,0,98632:0:0:0:0:
448,192,98561,128,0,98772:0:0:0:0:
192,192,98632,128,0,98772:0:0:0:0:
64,192,98702,128,0,98772:0:0:0:0:
320,192,98772,128,0,98984:0:0:0:0:
448,192,98878,128,0,98984:0:0:0:0:
192,192,98984,128,0,99054:0:0:0:0:
64,192,98984,128,0,99195:0:0:0:0:
448,192,99054,128,0,99195:0:0:0:0:
320,192,99125,128,0,99195:0:0:0:0:
192,192,99195,128,0,99301:0:0:0:0:
448,192,99301,128,0,99406:0:0:0:0:
320,192,99406,128,0,99617:0:0:0:0:
192,192,99406,128,0,99477:0:0:0:0:
448,192,99477,128,0,99617:0:0:0:0:
64,192,99547,128,0,99617:0:0:0:0:
192,192,99617,128,0,99688:0:0:0:0:
320,192,99688,128,0,99829:0:0:0:0:
64,192,99758,128,0,99829:0:0:0:0:
192,192,99829,128,0,99934:0:0:0:0:
448,192,99829,128,0,100040:0:0:0:0:
64,192,100040,128,0,100146:0:0:0:0:
192,192,100040,128,0,100251:0:0:0:0:
448,192,100146,128,0,100251:0:0:0:0:
320,192,100251,128,0,100322:0:0:0:0:
64,192,100251,128,0,100463:0:0:0:0:
448,192,100322,128,0,100463:0:0:0:0:
192,192,100392,128,0,100463:0:0:0:0:
320,192,100463,128,0,100568:0:0:0:0:
64,192,100568,128,0,100674:0:0:0:0:
448,192,100674,128,0,100744:0:0:0:0:
192,192,100674,128,0,100885:0:0:0:0:
64,192,100744,128,0,100885:0:0:0:0:
320,192,100815,128,0,100885:0:0:0:0:
448,192,100885,128,0,100991:0:0:0:0:
64,192,100991,1,0,0:0:0:0:
320,192,100991,128,0,101096:0:0:0:0:
448,192,101096,128,0,101167:0:0:0:0:
192,192,101096,128,0,101308:0:0:0:0:
320,192,101167,128,0,101308:0:0:0:0:
64,192,101237,128,0,101308:0:0:0:0:
448,192,101308,128,0,101378:0:0:0:0:
192,192,101378,128,0,101519:0:0:0:0:
320,192,101448,128,0,101519:0:0:0:0:
64,192,101519,128,0,101625:0:0:0:0:
448,192,101519,128,0,101730:0:0:0:0:
64,192,101730,128,0,101836:0:0:0:0:
192,192,101836,128,0,101941:0:0:0:0:
320,192,101941,128,0,102012:0:0:0:0:
448,192,101941,128,0,102153:0:0:0:0:
64,192,102012,128,0,102153:0:0:0:0:
192,192,102082,128,0,102153:0:0:0:0:
320,192,102153,128,0,102223:0:0:0:0:
64,192,102223,128,0,102364:0:0:0:0:
448,192,102294,128,0,102364:0:0:0:0:
192,192,102364,128,0,102434:0:0:0:0:
320,192,102434,128,0,102575:0:0:0:0:
448,192,102505,128,0,102575:0:0:0:0:
192,192,102575,128,0,102681:0:0:0:0:
64,192,102575,128,0,102786:0:0:0:0:
320,192,102681,128,0,102786:0:0:0:0:
192,192,102786,128,0,102857:0:0:0:0:
448,192,102786,128,0,102998:0:0:0:0:
320,192,102857,128,0,102998:0:0:0:0:
64,192,102927,128,0,102998:0:0:0:0:
192,192,102998,128,0,103209:0:0:0:0:
320,192,103103,128,0,103209:0:0:0:0:
448,192,103209,128,0,103279:0:0:0:0:
64,192,103209,128,0,103420:0:0:0:0:
192,192,103279,128,0,103420:0:0:0:0:
320,192,103350,128,0,103420:0:0:0:0:
448,192,103420,128,0,103632:0:0:0:0:
192,192,103526,128,0,103632:0:0:0:0:
320,192,103632,128,0,103737:0:0:0:0:
64,192,103632,128,0,103843:0:0:0:0:
192,192,103737,128,0,103948:0:0:0:0:
448,192,103737,128,0,103948:0:0:0:0:
320,192,103843,128,0,103948:0:0:0:0:
64,192,103948,128,0,104054:0:0:0:0:
448,192,104054,128,0,104160:0:0:0:0:
320,192,104054,128,0,104265:0:0:0:0:
64,192,104160,128,0,104265:0:0:0:0:
192,192,104160,128,0,104265:0:0:0:0:
448,192,104265,128,0,104371:0:0:0:0:
192,192,104371,128,0,104477:0:0:0:0:
448,192,104477,128,0,104582:0:0:0:0:
320,192,104477,128,0,104688:0:0:0:0:
64,192,104477,128,0,104688:0:0:0:0:
192,192,104688,128,0,104899:0:0:0:0:
448,192,104688,128,0,104899:0:0:0:0:
64,192,104899,128,0,105110:0:0:0:0:
320,192,104899,128,0,105005:0:0:0:0:
192,192,105005,128,0,105110:0:0:0:0:
448,192,105005,128,0,105110:0:0:0:0:
320,192,105110,128,0,105216:0:0:0:0:
192,192,105216,128,0,105322:0:0:0:0:
448,192,105322,128,0,105533:0:0:0:0:
64,192,105322,128,0,105427:0:0:0:0:
320,192,105427,128,0,105533:0:0:0:0:
192,192,105533,128,0,105639:0:0:0:0:
64,192,105533,128,0,105744:0:0:0:0:
448,192,105639,128,0,105744:0:0:0:0:
320,192,105744,128,0,105850:0:0:0:0:
192,192,105744,128,0,105956:0:0:0:0:
64,192,105850,128,0,105956:0:0:0:0:
448,192,105956,128,0,106167:0:0:0:0:
320,192,106061,128,0,106167:0:0:0:0:
64,192,106167,128,0,106272:0:0:0:0:
192,192,106167,128,0,106378:0:0:0:0:
320,192,106237,128,0,106378:0:0:0:0:
448,192,106308,128,0,106378:0:0:0:0:
64,192,106378,128,0,106589:0:0:0:0:
192,192,106484,128,0,106589:0:0:0:0:
448,192,106589,128,0,106801:0:0:0:0:
320,192,106589,128,0,106695:0:0:0:0:
192,192,106660,128,0,106801:0:0:0:0:
64,192,106730,128,0,106801:0:0:0:0:
320,192,106801,128,0,106906:0:0:0:0:
64,192,106906,128,0,107012:0:0:0:0:
192,192,106906,128,0,107012:0:0:0:0:
448,192,107012,128,0,107117:0:0:0:0:
320,192,107012,128,0,107117:0:0:0:0:
320,192,107223,128,0,107434:0:0:0:0:
192,192,107434,128,0,107540:0:0:0:0:
64,192,107434,128,0,107540:0:0:0:0:
192,192,107646,128,0,107857:0:0:0:0:
320,192,107857,128,0,107927:0:0:0:0:
64,192,107857,128,0,108068:0:0:0:0:
448,192,107857,1,0,0:0:0:0:
192,192,107927,128,0,108068:0:0:0:0:
448,192,107998,128,0,108068:0:0:0:0:
320,192,108068,128,0,108174:0:0:0:0:
64,192,108174,128,0,108279:0:0:0:0:
448,192,108279,128,0,108350:0:0:0:0:
320,192,108279,128,0,108491:0:0:0:0:
192,192,108350,128,0,108491:0:0:0:0:
64,192,108420,128,0,108491:0:0:0:0:
448,192,108491,128,0,108596:0:0:0:0:
192,192,108596,128,0,108702:0:0:0:0:
64,192,108702,128,0,108772:0:0:0:0:
320,192,108702,128,0,108913:0:0:0:0:
448,192,108772,128,0,108913:0:0:0:0:
192,192,108843,128,0,108913:0:0:0:0:
64,192,108913,128,0,109019:0:0:0:0:
320,192,109019,128,0,109125:0:0:0:0:
64,192,109125,128,0,109195:0:0:0:0:
192,192,109125,128,0,109336:0:0:0:0:
320,192,109195,128,0,109336:0:0:0:0:
448,192,109265,128,0,109336:0:0:0:0:
64,192,109336,128,0,109441:0:0:0:0:
320,192,109441,128,0,109547:0:0:0:0:
64,192,109547,128,0,109617:0:0:0:0:
448,192,109547,128,0,109758:0:0:0:0:
192,192,109617,128,0,109758:0:0:0:0:
320,192,109688,128,0,109758:0:0:0:0:
64,192,109758,128,0,109899:0:0:0:0:
448,192,109829,128,0,109970:0:0:0:0:
320,192,109899,128,0,109970:0:0:0:0:
64,192,109970,128,0,110075:0:0:0:0:
192,192,109970,128,0,110181:0:0:0:0:
64,192,110181,128,0,110392:0:0:0:0:
320,192,110286,128,0,110392:0:0:0:0:
448,192,110392,128,0,110463:0:0:0:0:
192,192,110392,128,0,110603:0:0:0:0:
64,192,110463,128,0,110603:0:0:0:0:
320,192,110533,128,0,110603:0:0:0:0:
448,192,110603,128,0,110709:0:0:0:0:
192,192,110709,128,0,110815:0:0:0:0:
448,192,110815,128,0,110885:0:0:0:0:
320,192,110815,128,0,111026:0:0:0:0:
64,192,110885,128,0,111026:0:0:0:0:
192,192,110956,128,0,111026:0:0:0:0:
448,192,111026,128,0,111132:0:0:0:0:
192,192,111132,128,0,111237:0:0:0:0:
448,192,111237,128,0,111308:0:0:0:0:
64,192,111237,128,0,111448:0:0:0:0:
320,192,111308,128,0,111448:0:0:0:0:
192,192,111378,128,0,111448:0:0:0:0:
448,192,111448,128,0,111519:0:0:0:0:
64,192,111519,128,0,111660:0:0:0:0:
320,192,111589,128,0,111660:0:0:0:0:
448,192,111660,128,0,111765:0:0:0:0:
192,192,111660,128,0,111871:0:0:0:0:
64,192,111871,128,0,111977:0:0:0:0:
320,192,111871,128,0,112082:0:0:0:0:
192,192,111977,128,0,112082:0:0:0:0:
448,192,112082,128,0,112294:0:0:0:0:
64,192,112082,128,0,112399:0:0:0:0:
320,192,112188,128,0,112294:0:0:0:0:
192,192,112294,128,0,112399:0:0:0:0:
448,192,112399,128,0,112716:0:0:0:0:
320,192,112399,128,0,112610:0:0:0:0:
64,192,112505,128,0,112610:0:0:0:0:
192,192,112610,128,0,112716:0:0:0:0:
320,192,112716,128,0,112927:0:0:0:0:
64,192,112716,128,0,112786:0:0:0:0:
192,192,112786,128,0,112927:0:0:0:0:
448,192,112857,128,0,112927:0:0:0:0:
64,192,112927,128,0,112998:0:0:0:0:
192,192,112998,128,0,113139:0:0:0:0:
320,192,113068,128,0,113139:0:0:0:0:
64,192,113139,128,0,113244:0:0:0:0:
448,192,113139,128,0,113350:0:0:0:0:
320,192,113244,128,0,113350:0:0:0:0:
64,192,113350,128,0,113456:0:0:0:0:
192,192,113350,128,0,113561:0:0:0:0:
448,192,113456,128,0,113667:0:0:0:0:
320,192,113561,128,0,113772:0:0:0:0:
64,192,113667,128,0,113772:0:0:0:0:
448,192,113772,128,0,113843:0:0:0:0:
192,192,113772,128,0,113984:0:0:0:0:
320,192,113843,128,0,113984:0:0:0:0:
64,192,113913,128,0,113984:0:0:0:0:
448,192,113984,128,0,114089:0:0:0:0:
192,192,114089,128,0,114195:0:0:0:0:
448,192,114195,128,0,114265:0:0:0:0:
320,192,114195,128,0,114406:0:0:0:0:
64,192,114265,128,0,114406:0:0:0:0:
192,192,114336,128,0,114406:0:0:0:0:
448,192,114406,128,0,114512:0:0:0:0:
320,192,114512,1,0,0:0:0:0:
192,192,114512,128,0,114617:0:0:0:0:
448,192,114617,128,0,114688:0:0:0:0:
64,192,114617,128,0,114829:0:0:0:0:
320,192,114688,128,0,114829:0:0:0:0:
192,192,114758,128,0,114829:0:0:0:0:
448,192,114829,128,0,114899:0:0:0:0:
192,192,114899,128,0,115040:0:0:0:0:
320,192,114970,128,0,115040:0:0:0:0:
448,192,115040,128,0,115146:0:0:0:0:
64,192,115040,128,0,115251:0:0:0:0:
192,192,115146,128,0,115251:0:0:0:0:
320,192,115251,128,0,115357:0:0:0:0:
448,192,115251,128,0,115463:0:0:0:0:
192,192,115357,128,0,115463:0:0:0:0:
320,192,115463,128,0,115533:0:0:0:0:
64,192,115463,128,0,115674:0:0:0:0:
448,192,115533,128,0,115674:0:0:0:0:
192,192,115603,128,0,115674:0:0:0:0:
320,192,115674,128,0,115779:0:0:0:0:
64,192,115779,128,0,115885:0:0:0:0:
448,192,115885,128,0,115956:0:0:0:0:
320,192,115885,128,0,116096:0:0:0:0:
192,192,115956,128,0,116096:0:0:0:0:
64,192,116026,128,0,116096:0:0:0:0:
448,192,116096,128,0,116202:0:0:0:0:
192,192,116202,128,0,116308:0:0:0:0:
448,192,116308,128,0,116378:0:0:0:0:
320,192,116308,128,0,116519:0:0:0:0:
64,192,116378,128,0,116519:0:0:0:0:
192,192,116448,128,0,116519:0:0:0:0:
448,192,116519,128,0,116625:0:0:0:0:
192,192,116625,128,0,116730:0:0:0:0:
64,192,116730,128,0,116801:0:0:0:0:
448,192,116730,128,0,116941:0:0:0:0:
320,192,116801,128,0,116941:0:0:0:0:
192,192,116871,128,0,116941:0:0:0:0:
64,192,116941,128,0,117153:0:0:0:0:
320,192,117047,128,0,117153:0:0:0:0:
448,192,117153,128,0,117258:0:0:0:0:
192,192,117153,128,0,117364:0:0:0:0:
320,192,117258,128,0,117470:0:0:0:0:
448,192,117364,128,0,117470:0:0:0:0:
192,192,117470,128,0,117575:0:0:0:0:
64,192,117470,128,0,117681:0:0:0:0:
448,192,117575,128,0,117681:0:0:0:0:
320,192,117575,128,0,117786:0:0:0:0:
192,192,117681,128,0,117892:0:0:0:0:
64,192,117786,128,0,117892:0:0:0:0:
320,192,117892,128,0,117998:0:0:0:0:
192,192,117998,128,0,118103:0:0:0:0:
448,192,117998,128,0,118209:0:0:0:0:
64,192,118068,128,0,118209:0:0:0:0:
320,192,118209,128,0,118315:0:0:0:0:
192,192,118209,128,0,118420:0:0:0:0:
448,192,118279,128,0,118420:0:0:0:0:
64,192,118420,128,0,118526:0:0:0:0:
320,192,118420,128,0,118632:0:0:0:0:
192,192,118491,128,0,118632:0:0:0:0:
64,192,118632,128,0,118737:0:0:0:0:
448,192,118632,128,0,118772:0:0:0:0:
320,192,118702,128,0,118843:0:0:0:0:
64,192,118843,128,0,119160:0:0:0:0:
192,192,118843,128,0,118948:0:0:0:0:
448,192,118843,128,0,118948:0:0:0:0:
320,192,119054,128,0,119160:0:0:0:0:
448,192,119054,128,0,119160:0:0:0:0:
192,192,119054,128,0,119160:0:0:0:0:
320,192,119265,128,0,119371:0:0:0:0:
448,192,119265,128,0,119371:0:0:0:0:
64,192,119265,128,0,119371:0:0:0:0:
192,192,119371,128,0,119477:0:0:0:0:
448,192,119477,128,0,119582:0:0:0:0:
64,192,119477,128,0,119582:0:0:0:0:
320,192,119477,128,0,119688:0:0:0:0:
448,192,119688,128,0,119846:0:0:0:0:
192,192,119688,128,0,119899:0:0:0:0:
64,192,119688,128,0,120110:0:0:0:0:
192,192,120110,128,0,120533:0:0:0:0:
320,192,120533,128,0,121167:0:0:0:0:
64,192,120956,128,0,121378:0:0:0:0:
320,192,121378,128,0,121536:0:0:0:0:
448,192,121378,128,0,121589:0:0:0:0:
64,192,121484,128,0,121695:0:0:0:0:
192,192,121589,128,0,121695:0:0:0:0:
320,192,121695,128,0,121906:0:0:0:0:
448,192,121695,1,0,0:0:0:0:
192,192,121801,128,0,122012:0:0:0:0:
64,192,121801,1,0,0:0:0:0:
448,192,121906,128,0,122117:0:0:0:0:
320,192,122012,128,0,122117:0:0:0:0:
64,192,122117,128,0,122382:0:0:0:0:
192,192,122117,1,0,0:0:0:0:
320,192,122223,128,0,122540:0:0:0:0:
448,192,122223,1,0,0:0:0:0:
192,192,122329,128,0,122434:0:0:0:0:
448,192,122434,128,0,122540:0:0:0:0:
64,192,122540,128,0,122646:0:0:0:0:
192,192,122540,128,0,122751:0:0:0:0:
320,192,122646,128,0,122751:0:0:0:0:
448,192,122646,128,0,122857:0:0:0:0:
64,192,122751,128,0,122963:0:0:0:0:
320,192,122857,128,0,123068:0:0:0:0:
192,192,122857,1,0,0:0:0:0:
448,192,122963,128,0,123068:0:0:0:0:
192,192,123068,128,0,123279:0:0:0:0:
64,192,123068,1,0,0:0:0:0:
448,192,123174,128,0,123385:0:0:0:0:
320,192,123174,1,0,0:0:0:0:
64,192,123279,128,0,123385:0:0:0:0:
192,192,123385,128,0,123596:0:0:0:0:
320,192,123385,1,0,0:0:0:0:
64,192,123491,128,0,123596:0:0:0:0:
448,192,123491,128,0,123702:0:0:0:0:
320,192,123596,128,0,123808:0:0:0:0:
64,192,123702,128,0,123808:0:0:0:0:
192,192,123808,128,0,124019:0:0:0:0:
448,192,123808,1,0,0:0:0:0:
320,192,123913,128,0,124125:0:0:0:0:
64,192,123913,1,0,0:0:0:0:
448,192,124019,128,0,124125:0:0:0:0:
192,192,124125,128,0,124230:0:0:0:0:
448,192,124230,128,0,124336:0:0:0:0:
320,192,124230,1,0,0:0:0:0:
64,192,124336,128,0,124441:0:0:0:0:
192,192,124336,128,0,124441:0:0:0:0:
320,192,124441,128,0,124547:0:0:0:0:
64,192,124547,128,0,124653:0:0:0:0:
320,192,124653,128,0,124758:0:0:0:0:
192,192,124653,1,0,0:0:0:0:
448,192,124758,128,0,124970:0:0:0:0:
64,192,124758,1,0,0:0:0:0:
320,192,124864,128,0,124970:0:0:0:0:
192,192,124970,128,0,125075:0:0:0:0:
448,192,125075,128,0,125181:0:0:0:0:
320,192,125075,128,0,125286:0:0:0:0:
64,192,125181,128,0,125286:0:0:0:0:
192,192,125181,128,0,125392:0:0:0:0:
448,192,125286,128,0,125498:0:0:0:0:
64,192,125392,128,0,125603:0:0:0:0:
192,192,125498,128,0,125603:0:0:0:0:
320,192,125603,128,0,125709:0:0:0:0:
448,192,125603,128,0,125920:0:0:0:0:
192,192,125709,128,0,125815:0:0:0:0:
64,192,125709,1,0,0:0:0:0:
320,192,125815,128,0,125920:0:0:0:0:
192,192,125920,128,0,126132:0:0:0:0:
64,192,125920,128,0,126026:0:0:0:0:
320,192,126026,128,0,126237:0:0:0:0:
448,192,126026,1,0,0:0:0:0:
64,192,126132,128,0,126237:0:0:0:0:
448,192,126237,128,0,126448:0:0:0:0:
320,192,126343,128,0,126448:0:0:0:0:
64,192,126448,128,0,126660:0:0:0:0:
192,192,126448,128,0,126554:0:0:0:0:
448,192,126554,128,0,126765:0:0:0:0:
320,192,126554,1,0,0:0:0:0:
192,192,126660,128,0,126871:0:0:0:0:
320,192,126765,128,0,126977:0:0:0:0:
64,192,126871,128,0,127082:0:0:0:0:
448,192,126871,128,0,127188:0:0:0:0:
192,192,126977,128,0,127294:0:0:0:0:
320,192,127082,128,0,127188:0:0:0:0:
64,192,127188,128,0,127294:0:0:0:0:
320,192,127294,128,0,127610:0:0:0:0:
448,192,127294,128,0,127399:0:0:0:0:
64,192,127399,128,0,127505:0:0:0:0:
192,192,127399,128,0,127505:0:0:0:0:
448,192,127505,128,0,127610:0:0:0:0:
64,192,127610,128,0,127716:0:0:0:0:
192,192,127610,128,0,127716:0:0:0:0:
448,192,127716,128,0,127875:0:0:0:0:
320,192,127716,128,0,127875:0:0:0:0:
192,192,127822,1,0,0:0:0:0:
448,192,127927,128,0,128086:0:0:0:0:
320,192,127927,128,0,128086:0:0:0:0:
64,192,128033,1,0,0:0:0:0:
192,192,128139,128,0,128350:0:0:0:0:
320,192,128139,1,0,0:0:0:0:
448,192,128244,128,0,128350:0:0:0:0:
64,192,128350,128,0,128456:0:0:0:0:
448,192,128456,128,0,128561:0:0:0:0:
320,192,128456,1,0,0:0:0:0:
192,192,128561,128,0,128772:0:0:0:0:
64,192,128561,1,0,0:0:0:0:
320,192,128667,128,0,128984:0:0:0:0:
64,192,128772,128,0,128878:0:0:0:0:
192,192,128878,128,0,128984:0:0:0:0:
448,192,128984,128,0,129089:0:0:0:0:
64,192,128984,1,0,0:0:0:0:
192,192,129089,128,0,129195:0:0:0:0:
320,192,129089,128,0,129301:0:0:0:0:
448,192,129195,128,0,129301:0:0:0:0:
64,192,129301,128,0,129406:0:0:0:0:
192,192,129301,128,0,129617:0:0:0:0:
320,192,129406,128,0,129512:0:0:0:0:
448,192,129406,128,0,129617:0:0:0:0:
64,192,129512,128,0,129723:0:0:0:0:
320,192,129617,128,0,129829:0:0:0:0:
192,192,129723,128,0,129829:0:0:0:0:
448,192,129829,128,0,130040:0:0:0:0:
64,192,129829,128,0,130040:0:0:0:0:
320,192,129934,128,0,130040:0:0:0:0:
192,192,130040,128,0,130146:0:0:0:0:
448,192,130146,128,0,130251:0:0:0:0:
64,192,130146,1,0,0:0:0:0:
320,192,130251,128,0,130463:0:0:0:0:
192,192,130251,1,0,0:0:0:0:
448,192,130357,128,0,130568:0:0:0:0:
64,192,130463,128,0,130674:0:0:0:0:
192,192,130568,128,0,130674:0:0:0:0:
320,192,130674,128,0,130885:0:0:0:0:
448,192,130674,1,0,0:0:0:0:
192,192,130779,128,0,130885:0:0:0:0:
64,192,130779,1,0,0:0:0:0:
448,192,130885,128,0,130991:0:0:0:0:
320,192,130991,128,0,131202:0:0:0:0:
64,192,130991,128,0,131096:0:0:0:0:
448,192,131096,128,0,131202:0:0:0:0:
192,192,131096,128,0,131255:0:0:0:0:
64,192,131202,128,0,131308:0:0:0:0:
320,192,131308,128,0,131413:0:0:0:0:
64,192,131413,128,0,131519:0:0:0:0:
192,192,131413,128,0,131519:0:0:0:0:
448,192,131519,128,0,131625:0:0:0:0:
320,192,131519,128,0,131625:0:0:0:0:
192,192,131625,128,0,131730:0:0:0:0:
448,192,131730,128,0,131836:0:0:0:0:
64,192,131836,128,0,131941:0:0:0:0:
320,192,131836,1,0,0:0:0:0:
448,192,131941,128,0,132258:0:0:0:0:
192,192,131941,1,0,0:0:0:0:
320,192,132047,128,0,132258:0:0:0:0:
64,192,132153,128,0,132364:0:0:0:0:
192,192,132258,128,0,132364:0:0:0:0:
320,192,132364,128,0,132575:0:0:0:0:
448,192,132364,1,0,0:0:0:0:
64,192,132470,128,0,132681:0:0:0:0:
192,192,132470,1,0,0:0:0:0:
448,192,132575,128,0,132681:0:0:0:0:
192,192,132681,128,0,132786:0:0:0:0:
320,192,132681,1,0,0:0:0:0:
448,192,132786,128,0,132998:0:0:0:0:
64,192,132786,1,0,0:0:0:0:
192,192,132892,128,0,132998:0:0:0:0:
320,192,132998,128,0,133103:0:0:0:0:
64,192,133103,128,0,133209:0:0:0:0:
320,192,133209,128,0,133315:0:0:0:0:
448,192,133209,128,0,133526:0:0:0:0:
192,192,133315,128,0,133632:0:0:0:0:
320,192,133420,128,0,133526:0:0:0:0:
64,192,133526,128,0,133632:0:0:0:0:
448,192,133632,128,0,133737:0:0:0:0:
320,192,133632,128,0,133948:0:0:0:0:
64,192,133737,128,0,133948:0:0:0:0:
448,192,133843,128,0,134054:0:0:0:0:
192,192,133948,128,0,134054:0:0:0:0:
320,192,134054,128,0,134265:0:0:0:0:
64,192,134054,1,0,0:0:0:0:
448,192,134160,128,0,134265:0:0:0:0:
192,192,134265,128,0,134477:0:0:0:0:
320,192,134371,128,0,134477:0:0:0:0:
448,192,134477,128,0,134688:0:0:0:0:
64,192,134477,1,0,0:0:0:0:
320,192,134582,128,0,134688:0:0:0:0:
192,192,134688,128,0,134899:0:0:0:0:
64,192,134794,128,0,134899:0:0:0:0:
448,192,134899,5,0,0:0:0:0:
320,192,134899,128,0,135269:0:0:0:0:
192,192,135005,128,0,135216:0:0:0:0:
448,192,135110,128,0,135322:0:0:0:0:
192,192,135322,128,0,135427:0:0:0:0:
448,192,135427,128,0,135533:0:0:0:0:
192,192,135533,128,0,135603:0:0:0:0:
448,192,135639,128,0,135709:0:0:0:0:
192,192,135744,128,0,136061:0:0:0:0:
320,192,135744,128,0,135956:0:0:0:0:
448,192,135956,1,0,0:0:0:0:
320,192,136026,1,0,0:0:0:0:
64,192,136096,1,0,0:0:0:0:
192,192,136167,128,0,136237:0:0:0:0:
448,192,136272,128,0,136343:0:0:0:0:
320,192,136378,128,0,136519:0:0:0:0:
192,192,136378,128,0,136589:0:0:0:0:
64,192,136484,1,0,0:0:0:0:
448,192,136589,128,0,136695:0:0:0:0:
192,192,136695,128,0,136801:0:0:0:0:
448,192,136801,128,0,136871:0:0:0:0:
192,192,136906,128,0,136977:0:0:0:0:
320,192,137012,128,0,137153:0:0:0:0:
448,192,137012,128,0,137223:0:0:0:0:
192,192,137223,128,0,137329:0:0:0:0:
448,192,137329,128,0,137434:0:0:0:0:
320,192,137382,1,0,0:0:0:0:
64,192,137434,1,0,0:0:0:0:
192,192,137434,1,0,0:0:0:0:
192,192,137751,1,0,0:0:0:0:
320,192,137751,1,0,0:0:0:0:
320,192,138068,1,0,0:0:0:0:
448,192,138068,1,0,0:0:0:0:
448,192,138279,5,0,0:0:0:0:
64,192,138279,128,0,138595:0:0:0:0:
192,192,138384,128,0,138490:0:0:0:0:
320,192,138490,128,0,138701:0:0:0:0:
192,192,138595,128,0,138807:0:0:0:0:
64,192,138701,128,0,139018:0:0:0:0:
448,192,138701,1,0,0:0:0:0:
320,192,138807,128,0,138912:0:0:0:0:
192,192,138912,128,0,139018:0:0:0:0:
320,192,139018,128,0,139124:0:0:0:0:
448,192,139124,1,0,0:0:0:0:
64,192,139124,128,0,139264:0:0:0:0:
320,192,139335,1,0,0:0:0:0:
448,192,139546,128,0,139863:0:0:0:0:
64,192,139546,1,0,0:0:0:0:
320,192,139652,128,0,139757:0:0:0:0:
192,192,139757,128,0,139969:0:0:0:0:
320,192,139863,128,0,140074:0:0:0:0:
448,192,139969,128,0,140286:0:0:0:0:
64,192,139969,1,0,0:0:0:0:
192,192,140074,128,0,140180:0:0:0:0:
320,192,140180,128,0,140286:0:0:0:0:
192,192,140286,128,0,140391:0:0:0:0:
64,192,140391,1,0,0:0:0:0:
448,192,140391,128,0,140532:0:0:0:0:
192,192,140602,128,0,140814:0:0:0:0:
64,192,140602,1,0,0:0:0:0:
320,192,140708,128,0,140814:0:0:0:0:
448,192,140814,128,0,141025:0:0:0:0:
64,192,140814,1,0,0:0:0:0:
192,192,140919,128,0,141131:0:0:0:0:
320,192,141025,128,0,141342:0:0:0:0:
448,192,141131,128,0,141236:0:0:0:0:
64,192,141236,128,0,141659:0:0:0:0:
192,192,141236,1,0,0:0:0:0:
448,192,141342,128,0,141553:0:0:0:0:
320,192,141448,128,0,141553:0:0:0:0:
192,192,141553,128,0,141659:0:0:0:0:
320,192,141659,1,0,0:0:0:0:
448,192,141659,1,0,0:0:0:0:
320,192,141870,128,0,142081:0:0:0:0:
64,192,142081,128,0,142293:0:0:0:0:
448,192,142081,1,0,0:0:0:0:
192,192,142187,128,0,142398:0:0:0:0:
320,192,142293,128,0,142504:0:0:0:0:
64,192,142398,128,0,142715:0:0:0:0:
448,192,142504,128,0,142821:0:0:0:0:
192,192,142504,1,0,0:0:0:0:
320,192,142609,128,0,142715:0:0:0:0:
192,192,142715,128,0,142821:0:0:0:0:
320,192,142821,128,0,142926:0:0:0:0:
64,192,142821,128,0,142926:0:0:0:0:
192,192,142926,128,0,143067:0:0:0:0:
448,192,142926,1,0,0:0:0:0:
320,192,143138,128,0,143349:0:0:0:0:
448,192,143138,1,0,0:0:0:0:
192,192,143243,128,0,143349:0:0:0:0:
448,192,143349,128,0,143666:0:0:0:0:
64,192,143349,1,0,0:0:0:0:
192,192,143455,128,0,143666:0:0:0:0:
320,192,143560,128,0,143771:0:0:0:0:
64,192,143666,128,0,143983:0:0:0:0:
192,192,143771,128,0,143877:0:0:0:0:
448,192,143771,1,0,0:0:0:0:
320,192,143877,128,0,144088:0:0:0:0:
192,192,143983,128,0,144194:0:0:0:0:
64,192,144088,128,0,144194:0:0:0:0:
320,192,144194,1,0,0:0:0:0:
448,192,144194,1,0,0:0:0:0:
192,192,144405,128,0,144617:0:0:0:0:
64,192,144617,128,0,144933:0:0:0:0:
448,192,144617,1,0,0:0:0:0:
320,192,144722,128,0,145039:0:0:0:0:
192,192,144828,128,0,144933:0:0:0:0:
448,192,144933,128,0,145250:0:0:0:0:
192,192,145039,128,0,145356:0:0:0:0:
64,192,145039,1,0,0:0:0:0:
320,192,145145,128,0,145356:0:0:0:0:
64,192,145250,128,0,145462:0:0:0:0:
448,192,145356,128,0,145462:0:0:0:0:
320,192,145462,128,0,145673:0:0:0:0:
192,192,145462,1,0,0:0:0:0:
192,192,145673,128,0,145884:0:0:0:0:
64,192,145673,1,0,0:0:0:0:
320,192,145779,128,0,145884:0:0:0:0:
64,192,145884,128,0,146095:0:0:0:0:
448,192,145884,1,0,0:0:0:0:
192,192,145990,128,0,146307:0:0:0:0:
448,192,146095,128,0,146201:0:0:0:0:
64,192,146201,128,0,146307:0:0:0:0:
448,192,146307,128,0,146729:0:0:0:0:
320,192,146307,1,0,0:0:0:0:
192,192,146412,128,0,146624:0:0:0:0:
320,192,146518,128,0,146624:0:0:0:0:
64,192,146624,128,0,146729:0:0:0:0:
192,192,146729,128,0,146835:0:0:0:0:
320,192,146729,128,0,146835:0:0:0:0:
64,192,146940,1,0,0:0:0:0:
320,192,147152,128,0,147468:0:0:0:0:
192,192,147152,1,0,0:0:0:0:
448,192,147257,128,0,147363:0:0:0:0:
64,192,147363,128,0,147574:0:0:0:0:
448,192,147468,128,0,147574:0:0:0:0:
192,192,147574,128,0,147891:0:0:0:0:
320,192,147574,1,0,0:0:0:0:
64,192,147680,128,0,147785:0:0:0:0:
448,192,147785,128,0,147997:0:0:0:0:
64,192,147891,128,0,147997:0:0:0:0:
192,192,147997,128,0,148313:0:0:0:0:
320,192,147997,128,0,148208:0:0:0:0:
64,192,148208,128,0,148419:0:0:0:0:
448,192,148278,1,0,0:0:0:0:
320,192,148349,1,0,0:0:0:0:
192,192,148419,128,0,148630:0:0:0:0:
448,192,148419,128,0,148736:0:0:0:0:
64,192,148842,128,0,149158:0:0:0:0:
320,192,148842,1,0,0:0:0:0:
192,192,148947,128,0,149053:0:0:0:0:
320,192,149053,128,0,149158:0:0:0:0:
448,192,149158,1,0,0:0:0:0:
192,192,149158,128,0,149581:0:0:0:0:
320,192,149264,128,0,149475:0:0:0:0:
448,192,149370,128,0,149475:0:0:0:0:
64,192,149475,128,0,149581:0:0:0:0:
448,192,149581,128,0,149687:0:0:0:0:
320,192,149581,128,0,149687:0:0:0:0:
64,192,149687,1,0,0:0:0:0:
192,192,149687,1,0,0:0:0:0:
320,192,149792,1,0,0:0:0:0:
192,192,149898,128,0,149968:0:0:0:0:
320,192,150003,128,0,150074:0:0:0:0:
192,192,150109,128,0,150320:0:0:0:0:
64,192,150109,1,0,0:0:0:0:
448,192,150215,128,0,150426:0:0:0:0:
64,192,150320,128,0,150532:0:0:0:0:
192,192,150426,128,0,150637:0:0:0:0:
320,192,150426,1,0,0:0:0:0:
448,192,150532,128,0,150743:0:0:0:0:
64,192,150637,128,0,150849:0:0:0:0:
192,192,150743,128,0,150849:0:0:0:0:
448,192,150849,128,0,150954:0:0:0:0:
320,192,150849,128,0,150954:0:0:0:0:
64,192,150954,128,0,151165:0:0:0:0:
192,192,150954,1,0,0:0:0:0:
448,192,151060,1,0,0:0:0:0:
320,192,151165,128,0,151377:0:0:0:0:
192,192,151271,128,0,151377:0:0:0:0:
448,192,151377,128,0,151588:0:0:0:0:
64,192,151377,1,0,0:0:0:0:
320,192,151482,128,0,151799:0:0:0:0:
192,192,151588,128,0,151694:0:0:0:0:
64,192,151694,128,0,152011:0:0:0:0:
448,192,151694,1,0,0:0:0:0:
192,192,151799,128,0,152011:0:0:0:0:
320,192,151905,128,0,152116:0:0:0:0:
448,192,152011,128,0,152116:0:0:0:0:
64,192,152116,128,0,152222:0:0:0:0:
192,192,152116,128,0,152222:0:0:0:0:
448,192,152222,1,0,0:0:0:0:
320,192,152222,1,0,0:0:0:0:
192,192,152327,1,0,0:0:0:0:
320,192,152433,128,0,152503:0:0:0:0:
64,192,152539,128,0,152609:0:0:0:0:
448,192,152644,128,0,152961:0:0:0:0:
192,192,152644,1,0,0:0:0:0:
320,192,152750,128,0,152856:0:0:0:0:
64,192,152856,128,0,153067:0:0:0:0:
192,192,152961,128,0,153172:0:0:0:0:
320,192,152961,1,0,0:0:0:0:
448,192,153067,128,0,153278:0:0:0:0:
64,192,153172,128,0,153384:0:0:0:0:
192,192,153278,128,0,153384:0:0:0:0:
320,192,153384,128,0,153489:0:0:0:0:
448,192,153384,128,0,153489:0:0:0:0:
64,192,153489,128,0,153560:0:0:0:0:
192,192,153489,128,0,153560:0:0:0:0:
320,192,153595,1,0,0:0:0:0:
64,192,153701,128,0,153912:0:0:0:0:
448,192,153701,1,0,0:0:0:0:
192,192,153806,128,0,153912:0:0:0:0:
320,192,153912,1,0,0:0:0:0:
448,192,153912,128,0,154123:0:0:0:0:
192,192,154018,128,0,154229:0:0:0:0:
320,192,154123,128,0,154334:0:0:0:0:
448,192,154229,128,0,154546:0:0:0:0:
64,192,154229,1,0,0:0:0:0:
192,192,154334,128,0,154651:0:0:0:0:
320,192,154440,128,0,154546:0:0:0:0:
64,192,154546,128,0,154651:0:0:0:0:
448,192,154651,128,0,154757:0:0:0:0:
320,192,154651,128,0,154757:0:0:0:0:
64,192,154757,1,0,0:0:0:0:
192,192,154757,1,0,0:0:0:0:
320,192,154863,1,0,0:0:0:0:
64,192,154968,128,0,155039:0:0:0:0:
320,192,155074,128,0,155144:0:0:0:0:
192,192,155180,128,0,155391:0:0:0:0:
448,192,155180,1,0,0:0:0:0:
64,192,155285,128,0,155391:0:0:0:0:
320,192,155391,128,0,155708:0:0:0:0:
64,192,155496,128,0,155919:0:0:0:0:
192,192,155496,1,0,0:0:0:0:
448,192,155602,128,0,155813:0:0:0:0:
192,192,155708,128,0,155813:0:0:0:0:
320,192,155813,128,0,155919:0:0:0:0:
192,192,155919,128,0,156025:0:0:0:0:
448,192,155919,128,0,156025:0:0:0:0:
64,192,156025,128,0,156342:0:0:0:0:
320,192,156025,1,0,0:0:0:0:
192,192,156130,128,0,156342:0:0:0:0:
448,192,156236,128,0,156447:0:0:0:0:
320,192,156342,128,0,156447:0:0:0:0:
192,192,156447,128,0,156658:0:0:0:0:
64,192,156447,1,0,0:0:0:0:
448,192,156553,128,0,156764:0:0:0:0:
64,192,156658,128,0,156870:0:0:0:0:
192,192,156764,128,0,157081:0:0:0:0:
320,192,156764,1,0,0:0:0:0:
448,192,156870,128,0,157187:0:0:0:0:
64,192,156975,128,0,157081:0:0:0:0:
320,192,157081,128,0,157187:0:0:0:0:
64,192,157187,128,0,157292:0:0:0:0:
192,192,157187,128,0,157292:0:0:0:0:
320,192,157292,1,0,0:0:0:0:
448,192,157292,1,0,0:0:0:0:
192,192,157398,1,0,0:0:0:0:
320,192,157503,128,0,157574:0:0:0:0:
192,192,157609,128,0,157680:0:0:0:0:
64,192,157609,1,0,0:0:0:0:
320,192,157715,5,0,0:0:0:0:
448,192,157715,128,0,157820:0:0:0:0:
192,192,157820,128,0,157961:0:0:0:0:
448,192,157926,128,0,158489:0:0:0:0:
192,192,158031,128,0,158384:0:0:0:0:
320,192,158137,128,0,158278:0:0:0:0:
64,192,158243,128,0,158384:0:0:0:0:
320,192,158348,128,0,158489:0:0:0:0:
64,192,158454,128,0,158560:0:0:0:0:
192,192,158454,128,0,158560:0:0:0:0:
320,192,158560,128,0,158806:0:0:0:0:
448,192,158560,1,0,0:0:0:0:
192,192,158630,128,0,158736:0:0:0:0:
448,192,158736,128,0,158876:0:0:0:0:
192,192,158841,5,0,0:0:0:0:
320,192,158912,1,0,0:0:0:0:
64,192,158982,1,0,0:0:0:0:
64,192,159193,1,0,0:0:0:0:
192,192,159369,1,0,0:0:0:0:
448,192,159405,128,0,159475:0:0:0:0:
320,192,159405,128,0,159510:0:0:0:0:
64,192,160531,1,0,0:0:0:0:
320,192,160919,1,0,0:0:0:0:
192,192,161060,1,0,0:0:0:0:
448,192,161236,1,0,0:0:0:0:
320,192,161517,1,0,0:0:0:0:
64,192,161975,1,0,0:0:0:0:
64,192,162362,1,0,0:0:0:0:
320,192,162574,1,0,0:0:0:0:
192,192,162785,1,0,0:0:0:0:
448,192,162838,1,0,0:0:0:0:
64,192,162926,1,0,0:0:0:0:
320,192,162996,1,0,0:0:0:0:
192,192,163102,1,0,0:0:0:0:
448,192,163419,1,0,0:0:0:0:
192,192,163489,1,0,0:0:0:0:
320,192,163560,1,0,0:0:0:0:
192,192,163630,1,0,0:0:0:0:
320,192,163736,1,0,0:0:0:0:
64,192,163841,1,0,0:0:0:0:
192,192,163947,1,0,0:0:0:0:
448,192,164053,1,0,0:0:0:0:
192,192,164264,128,0,164369:0:0:0:0:
320,192,164264,128,0,164405:0:0:0:0:
448,192,164369,128,0,164440:0:0:0:0:
64,192,164510,1,0,0:0:0:0:
192,192,164581,128,0,164722:0:0:0:0:
320,192,164581,128,0,164686:0:0:0:0:
64,192,164686,128,0,164757:0:0:0:0:
320,192,164792,128,0,164898:0:0:0:0:
64,192,164898,128,0,165109:0:0:0:0:
448,192,164898,128,0,165215:0:0:0:0:
320,192,165038,1,0,0:0:0:0:
192,192,165320,1,0,0:0:0:0:
320,192,165743,1,0,0:0:0:0:
64,192,165848,1,0,0:0:0:0:
448,192,165884,1,0,0:0:0:0:
320,192,166060,1,0,0:0:0:0:
192,192,166095,1,0,0:0:0:0:
448,192,166165,1,0,0:0:0:0:
64,192,166165,1,0,0:0:0:0:
192,192,166236,1,0,0:0:0:0:
448,192,166306,1,0,0:0:0:0:
64,192,166376,1,0,0:0:0:0:
320,192,166588,1,0,0:0:0:0:
192,192,167010,128,0,167081:0:0:0:0:
320,192,167433,1,0,0:0:0:0:
320,192,167644,1,0,0:0:0:0:
192,192,167715,1,0,0:0:0:0:
64,192,167855,1,0,0:0:0:0:
448,192,167855,1,0,0:0:0:0:
192,192,168278,1,0,0:0:0:0:
320,192,168700,1,0,0:0:0:0:
448,192,169123,1,0,0:0:0:0:
64,192,169545,1,0,0:0:0:0:
192,192,169545,1,0,0:0:0:0:
320,192,169968,1,0,0:0:0:0:
448,192,170179,1,0,0:0:0:0:
192,192,170179,1,0,0:0:0:0:
64,192,170391,1,0,0:0:0:0:
448,192,170417,1,0,0:0:0:0:
192,192,170602,1,0,0:0:0:0:
320,192,170672,1,0,0:0:0:0:
64,192,170743,1,0,0:0:0:0:
448,192,170813,1,0,0:0:0:0:
192,192,171024,1,0,0:0:0:0:
320,192,171095,1,0,0:0:0:0:
64,192,171165,1,0,0:0:0:0:
192,192,171165,1,0,0:0:0:0:
320,192,171236,1,0,0:0:0:0:
448,192,171236,1,0,0:0:0:0:
192,192,171376,1,0,0:0:0:0:
448,192,171376,1,0,0:0:0:0:
64,192,171517,1,0,0:0:0:0:
192,192,171517,1,0,0:0:0:0:
64,192,171658,128,0,171729:0:0:0:0:
320,192,171658,128,0,171729:0:0:0:0:
192,192,171799,128,0,171869:0:0:0:0:
448,192,171799,128,0,171869:0:0:0:0:
320,192,171940,128,0,172010:0:0:0:0:
448,192,171940,128,0,172010:0:0:0:0:
448,192,172081,128,0,172292:0:0:0:0:
64,192,172081,128,0,172398:0:0:0:0:
192,192,172081,128,0,172186:0:0:0:0:
192,192,172292,128,0,172398:0:0:0:0:
64,192,172503,128,0,172715:0:0:0:0:
448,192,172503,128,0,172820:0:0:0:0:
320,192,172503,128,0,172609:0:0:0:0:
320,192,172715,128,0,172820:0:0:0:0:
64,192,172785,1,0,0:0:0:0:
192,192,172855,1,0,0:0:0:0:
448,192,172926,128,0,173137:0:0:0:0:
320,192,172926,128,0,173031:0:0:0:0:
64,192,172996,128,0,173172:0:0:0:0:
192,192,173067,128,0,173207:0:0:0:0:
320,192,173137,128,0,173348:0:0:0:0:
448,192,173243,128,0,173348:0:0:0:0:
192,192,173348,128,0,173560:0:0:0:0:
64,192,173348,128,0,173454:0:0:0:0:
320,192,173419,128,0,173595:0:0:0:0:
448,192,173489,128,0,173630:0:0:0:0:
64,192,173560,128,0,173771:0:0:0:0:
192,192,173665,128,0,173771:0:0:0:0:
320,192,173771,128,0,173982:0:0:0:0:
448,192,173771,128,0,173876:0:0:0:0:
192,192,173876,128,0,174035:0:0:0:0:
64,192,173876,128,0,174088:0:0:0:0:
448,192,173982,128,0,174193:0:0:0:0:
320,192,174088,128,0,174193:0:0:0:0:
64,192,174193,128,0,174405:0:0:0:0:
192,192,174193,128,0,174299:0:0:0:0:
448,192,174264,128,0,174440:0:0:0:0:
320,192,174334,128,0,174475:0:0:0:0:
192,192,174405,128,0,174616:0:0:0:0:
448,192,174510,128,0,174616:0:0:0:0:
64,192,174616,128,0,174722:0:0:0:0:
320,192,174616,128,0,174933:0:0:0:0:
448,192,174722,128,0,174968:0:0:0:0:
192,192,174722,128,0,174827:0:0:0:0:
64,192,174827,128,0,175038:0:0:0:0:
192,192,174933,128,0,175038:0:0:0:0:
448,192,175038,1,0,0:0:0:0:
320,192,175038,1,0,0:0:0:0:
64,192,175144,1,0,0:0:0:0:
320,192,175250,128,0,175355:0:0:0:0:
64,192,175320,128,0,175461:0:0:0:0:
192,192,175391,128,0,175461:0:0:0:0:
448,192,175461,128,0,175567:0:0:0:0:
320,192,175461,128,0,175672:0:0:0:0:
64,192,175531,128,0,175707:0:0:0:0:
192,192,175602,128,0,175743:0:0:0:0:
448,192,175672,128,0,175813:0:0:0:0:
320,192,175778,128,0,175884:0:0:0:0:
64,192,175884,128,0,175989:0:0:0:0:
192,192,175884,128,0,175989:0:0:0:0:
448,192,175954,128,0,176130:0:0:0:0:
320,192,176024,128,0,176165:0:0:0:0:
64,192,176095,128,0,176306:0:0:0:0:
192,192,176095,128,0,176200:0:0:0:0:
448,192,176200,128,0,176306:0:0:0:0:
192,192,176306,128,0,176412:0:0:0:0:
320,192,176306,128,0,176517:0:0:0:0:
64,192,176376,128,0,176553:0:0:0:0:
448,192,176447,128,0,176588:0:0:0:0:
192,192,176517,128,0,176729:0:0:0:0:
320,192,176623,128,0,176729:0:0:0:0:
448,192,176729,1,0,0:0:0:0:
64,192,176729,1,0,0:0:0:0:
192,192,176834,1,0,0:0:0:0:
320,192,176940,128,0,177045:0:0:0:0:
64,192,177045,128,0,177151:0:0:0:0:
320,192,177151,128,0,177257:0:0:0:0:
448,192,177151,128,0,177362:0:0:0:0:
192,192,177222,128,0,177327:0:0:0:0:
64,192,177292,128,0,177398:0:0:0:0:
320,192,177362,128,0,177574:0:0:0:0:
192,192,177468,128,0,177574:0:0:0:0:
64,192,177574,128,0,177785:0:0:0:0:
448,192,177574,128,0,177715:0:0:0:0:
320,192,177644,128,0,177820:0:0:0:0:
192,192,177715,128,0,177891:0:0:0:0:
448,192,177785,128,0,177891:0:0:0:0:
64,192,177891,128,0,177996:0:0:0:0:
320,192,177996,128,0,178137:0:0:0:0:
448,192,177996,128,0,178313:0:0:0:0:
64,192,178102,128,0,178207:0:0:0:0:
192,192,178102,128,0,178243:0:0:0:0:
320,192,178207,128,0,178366:0:0:0:0:
64,192,178313,128,0,178419:0:0:0:0:
448,192,178419,1,0,0:0:0:0:
192,192,178419,1,0,0:0:0:0:
320,192,178524,1,0,0:0:0:0:
64,192,178630,128,0,178841:0:0:0:0:
192,192,178736,128,0,178841:0:0:0:0:
448,192,178841,128,0,178947:0:0:0:0:
320,192,178841,128,0,179053:0:0:0:0:
64,192,178947,128,0,179158:0:0:0:0:
192,192,178947,128,0,179105:0:0:0:0:
448,192,179053,128,0,179264:0:0:0:0:
320,192,179158,128,0,179264:0:0:0:0:
192,192,179264,128,0,179405:0:0:0:0:
64,192,179264,128,0,179369:0:0:0:0:
320,192,179334,128,0,179510:0:0:0:0:
448,192,179405,128,0,179581:0:0:0:0:
64,192,179475,128,0,179581:0:0:0:0:
192,192,179475,128,0,179651:0:0:0:0:
320,192,179581,128,0,179686:0:0:0:0:
64,192,179686,128,0,180003:0:0:0:0:
448,192,179686,128,0,179792:0:0:0:0:
192,192,179757,128,0,179898:0:0:0:0:
320,192,179827,128,0,180003:0:0:0:0:
448,192,179898,128,0,180003:0:0:0:0:
192,192,180003,128,0,180109:0:0:0:0:
64,192,180109,1,0,0:0:0:0:
320,192,180109,1,0,0:0:0:0:
448,192,180215,1,0,0:0:0:0:
192,192,180320,128,0,180426:0:0:0:0:
320,192,180426,128,0,180531:0:0:0:0:
64,192,180531,128,0,180637:0:0:0:0:
192,192,180531,128,0,180848:0:0:0:0:
448,192,180637,128,0,180743:0:0:0:0:
320,192,180637,128,0,180795:0:0:0:0:
64,192,180743,128,0,180848:0:0:0:0:
448,192,180848,128,0,180954:0:0:0:0:
64,192,180954,128,0,181271:0:0:0:0:
192,192,180954,128,0,181095:0:0:0:0:
320,192,181024,128,0,181200:0:0:0:0:
448,192,181095,128,0,181165:0:0:0:0:
192,192,181165,128,0,181271:0:0:0:0:
320,192,181271,128,0,181376:0:0:0:0:
64,192,181376,128,0,181482:0:0:0:0:
192,192,181376,128,0,181588:0:0:0:0:
448,192,181482,128,0,181588:0:0:0:0:
320,192,181482,128,0,181693:0:0:0:0:
64,192,181588,128,0,181799:0:0:0:0:
448,192,181693,128,0,181799:0:0:0:0:
192,192,181799,128,0,181905:0:0:0:0:
320,192,181799,128,0,182010:0:0:0:0:
64,192,181869,128,0,181975:0:0:0:0:
448,192,181940,128,0,182116:0:0:0:0:
192,192,182010,128,0,182222:0:0:0:0:
320,192,182116,128,0,182222:0:0:0:0:
448,192,182222,128,0,182433:0:0:0:0:
64,192,182222,128,0,182362:0:0:0:0:
192,192,182292,128,0,182433:0:0:0:0:
320,192,182362,128,0,182503:0:0:0:0:
64,192,182433,128,0,182644:0:0:0:0:
448,192,182538,128,0,182644:0:0:0:0:
192,192,182644,128,0,182961:0:0:0:0:
320,192,182644,128,0,182750:0:0:0:0:
64,192,182750,128,0,182855:0:0:0:0:
320,192,182855,128,0,183067:0:0:0:0:
64,192,182961,128,0,183067:0:0:0:0:
448,192,183067,1,0,0:0:0:0:
192,192,183067,1,0,0:0:0:0:
448,192,183278,128,0,183489:0:0:0:0:
320,192,183278,128,0,183348:0:0:0:0:
64,192,183348,128,0,183419:0:0:0:0:
320,192,183419,128,0,183489:0:0:0:0:
192,192,183489,128,0,183595:0:0:0:0:
64,192,183489,128,0,183700:0:0:0:0:
448,192,183595,128,0,183700:0:0:0:0:
192,192,183700,1,0,0:0:0:0:
320,192,183806,1,0,0:0:0:0:
448,192,183912,128,0,183982:0:0:0:0:
64,192,183912,128,0,184053:0:0:0:0:
192,192,183982,128,0,184053:0:0:0:0:
320,192,184053,128,0,184123:0:0:0:0:
64,192,184123,128,0,184334:0:0:0:0:
448,192,184229,128,0,184334:0:0:0:0:
192,192,184334,1,0,0:0:0:0:
320,192,184334,1,0,0:0:0:0:
64,192,184440,1,0,0:0:0:0:
448,192,184545,128,0,184616:0:0:0:0:
192,192,184616,128,0,184757:0:0:0:0:
320,192,184686,128,0,184757:0:0:0:0:
64,192,184757,128,0,185074:0:0:0:0:
448,192,184757,1,0,0:0:0:0:
192,192,184862,128,0,184968:0:0:0:0:
320,192,184968,128,0,185179:0:0:0:0:
192,192,185074,128,0,185285:0:0:0:0:
448,192,185179,128,0,185496:0:0:0:0:
64,192,185179,1,0,0:0:0:0:
320,192,185285,128,0,185391:0:0:0:0:
192,192,185391,128,0,185496:0:0:0:0:
320,192,185496,128,0,185602:0:0:0:0:
64,192,185602,128,0,185707:0:0:0:0:
192,192,185602,128,0,185672:0:0:0:0:
64,192,185813,1,0,0:0:0:0:
448,192,186024,128,0,186130:0:0:0:0:
320,192,186024,128,0,186095:0:0:0:0:
192,192,186236,1,0,0:0:0:0:
320,192,186306,1,0,0:0:0:0:
64,192,186376,1,0,0:0:0:0:
192,192,186447,128,0,186553:0:0:0:0:
448,192,186447,128,0,186658:0:0:0:0:
320,192,186517,128,0,186869:0:0:0:0:
64,192,186588,128,0,186729:0:0:0:0:
192,192,186658,128,0,186799:0:0:0:0:
448,192,186764,128,0,186869:0:0:0:0:
192,192,186869,128,0,187010:0:0:0:0:
64,192,186869,128,0,187186:0:0:0:0:
320,192,186940,128,0,187116:0:0:0:0:
448,192,187010,128,0,187186:0:0:0:0:
192,192,187081,128,0,187292:0:0:0:0:
320,192,187186,128,0,187292:0:0:0:0:
64,192,187292,128,0,187398:0:0:0:0:
448,192,187292,128,0,187503:0:0:0:0:
320,192,187398,128,0,187662:0:0:0:0:
192,192,187398,128,0,187609:0:0:0:0:
64,192,187503,128,0,187609:0:0:0:0:
448,192,187609,128,0,187715:0:0:0:0:
192,192,187715,128,0,187820:0:0:0:0:
64,192,187715,128,0,187926:0:0:0:0:
320,192,187785,128,0,187891:0:0:0:0:
448,192,187855,128,0,187996:0:0:0:0:
192,192,187926,128,0,188031:0:0:0:0:
64,192,188031,128,0,188172:0:0:0:0:
320,192,188031,128,0,188137:0:0:0:0:
448,192,188137,128,0,188348:0:0:0:0:
192,192,188137,128,0,188243:0:0:0:0:
320,192,188207,128,0,188560:0:0:0:0:
64,192,188278,128,0,188454:0:0:0:0:
192,192,188348,128,0,188454:0:0:0:0:
448,192,188454,128,0,188560:0:0:0:0:
64,192,188560,1,0,0:0:0:0:
192,192,188560,1,0,0:0:0:0:
320,192,188665,1,0,0:0:0:0:
64,192,188771,128,0,188982:0:0:0:0:
192,192,188876,128,0,188982:0:0:0:0:
448,192,188982,128,0,189193:0:0:0:0:
320,192,188982,128,0,189123:0:0:0:0:
64,192,189088,128,0,189229:0:0:0:0:
192,192,189088,128,0,189299:0:0:0:0:
320,192,189193,128,0,189352:0:0:0:0:
448,192,189299,128,0,189405:0:0:0:0:
192,192,189405,128,0,189722:0:0:0:0:
64,192,189405,128,0,189545:0:0:0:0:
448,192,189475,128,0,189616:0:0:0:0:
320,192,189545,128,0,189722:0:0:0:0:
64,192,189616,128,0,189827:0:0:0:0:
448,192,189722,128,0,189827:0:0:0:0:
192,192,189827,128,0,189933:0:0:0:0:
320,192,189827,128,0,190038:0:0:0:0:
64,192,189898,128,0,190144:0:0:0:0:
448,192,189968,128,0,190144:0:0:0:0:
192,192,190038,128,0,190250:0:0:0:0:
320,192,190144,128,0,190250:0:0:0:0:
64,192,190250,1,0,0:0:0:0:
448,192,190250,1,0,0:0:0:0:
192,192,190355,1,0,0:0:0:0:
448,192,190461,128,0,190567:0:0:0:0:
320,192,190496,128,0,190672:0:0:0:0:
64,192,190567,128,0,190672:0:0:0:0:
192,192,190672,128,0,190813:0:0:0:0:
448,192,190672,128,0,190884:0:0:0:0:
64,192,190778,128,0,190954:0:0:0:0:
320,192,190778,128,0,191024:0:0:0:0:
192,192,190884,128,0,190989:0:0:0:0:
448,192,190954,128,0,191060:0:0:0:0:
64,192,191024,128,0,191095:0:0:0:0:
320,192,191095,128,0,191200:0:0:0:0:
192,192,191095,128,0,191306:0:0:0:0:
448,192,191165,128,0,191412:0:0:0:0:
64,192,191236,128,0,191412:0:0:0:0:
320,192,191306,128,0,191517:0:0:0:0:
192,192,191412,128,0,191517:0:0:0:0:
64,192,191517,128,0,191729:0:0:0:0:
448,192,191517,128,0,191623:0:0:0:0:
192,192,191623,128,0,191781:0:0:0:0:
320,192,191623,128,0,191834:0:0:0:0:
448,192,191729,128,0,191834:0:0:0:0:
64,192,191799,128,0,191940:0:0:0:0:
192,192,191869,128,0,191940:0:0:0:0:
320,192,191940,1,0,0:0:0:0:
448,192,191940,1,0,0:0:0:0:
64,192,192045,1,0,0:0:0:0:
320,192,192151,128,0,192257:0:0:0:0:
192,192,192257,128,0,192362:0:0:0:0:
64,192,192362,128,0,192574:0:0:0:0:
448,192,192362,128,0,192503:0:0:0:0:
320,192,192433,128,0,192679:0:0:0:0:
192,192,192503,128,0,192679:0:0:0:0:
448,192,192574,128,0,192785:0:0:0:0:
64,192,192679,128,0,192785:0:0:0:0:
320,192,192785,128,0,192926:0:0:0:0:
192,192,192785,128,0,192996:0:0:0:0:
448,192,192855,128,0,192926:0:0:0:0:
64,192,192926,128,0,192996:0:0:0:0:
448,192,192996,128,0,193102:0:0:0:0:
320,192,192996,128,0,193137:0:0:0:0:
64,192,193102,128,0,193207:0:0:0:0:
192,192,193102,128,0,193172:0:0:0:0:
320,192,193207,128,0,193313:0:0:0:0:
448,192,193207,128,0,193524:0:0:0:0:
192,192,193278,128,0,193419:0:0:0:0:
64,192,193348,128,0,193524:0:0:0:0:
320,192,193419,128,0,193630:0:0:0:0:
192,192,193524,128,0,193630:0:0:0:0:
64,192,193630,1,0,0:0:0:0:
448,192,193630,1,0,0:0:0:0:
320,192,193736,1,0,0:0:0:0:
192,192,193841,128,0,193912:0:0:0:0:
448,192,193912,128,0,193982:0:0:0:0:
64,192,193982,128,0,194053:0:0:0:0:
320,192,194053,128,0,194193:0:0:0:0:
192,192,194053,128,0,194264:0:0:0:0:
448,192,194123,128,0,194193:0:0:0:0:
64,192,194193,128,0,194264:0:0:0:0:
320,192,194264,128,0,194475:0:0:0:0:
192,192,194369,128,0,194475:0:0:0:0:
448,192,194475,128,0,194581:0:0:0:0:
64,192,194475,128,0,194686:0:0:0:0:
320,192,194545,128,0,194827:0:0:0:0:
192,192,194616,128,0,194757:0:0:0:0:
448,192,194686,128,0,194898:0:0:0:0:
64,192,194792,128,0,194898:0:0:0:0:
192,192,194898,128,0,195003:0:0:0:0:
320,192,194898,128,0,195109:0:0:0:0:
64,192,194968,128,0,195250:0:0:0:0:
448,192,195038,128,0,195215:0:0:0:0:
192,192,195109,128,0,195320:0:0:0:0:
320,192,195215,128,0,195320:0:0:0:0:
64,192,195320,128,0,195531:0:0:0:0:
448,192,195320,128,0,195531:0:0:0:0:
192,192,195426,128,0,195637:0:0:0:0:
320,192,195531,128,0,195637:0:0:0:0:
64,192,195637,128,0,195743:0:0:0:0:
448,192,195637,128,0,195743:0:0:0:0:
192,192,195743,128,0,195848:0:0:0:0:
320,192,195743,128,0,195954:0:0:0:0:
448,192,195848,128,0,195954:0:0:0:0:
192,192,195954,128,0,196060:0:0:0:0:
448,192,196060,128,0,196482:0:0:0:0:
320,192,196060,128,0,196200:0:0:0:0:
64,192,196165,128,0,196271:0:0:0:0:
192,192,196165,128,0,196376:0:0:0:0:
320,192,196271,128,0,196482:0:0:0:0:
64,192,196376,128,0,196588:0:0:0:0:
192,192,196482,128,0,196588:0:0:0:0:
320,192,196588,128,0,196693:0:0:0:0:
448,192,196588,128,0,196729:0:0:0:0:
192,192,196693,128,0,196905:0:0:0:0:
320,192,196799,128,0,196940:0:0:0:0:
448,192,196799,128,0,196975:0:0:0:0:
64,192,196905,128,0,197010:0:0:0:0:
192,192,197010,128,0,197116:0:0:0:0:
320,192,197010,128,0,197151:0:0:0:0:
448,192,197116,128,0,197327:0:0:0:0:
64,192,197222,128,0,197327:0:0:0:0:
192,192,197222,128,0,197362:0:0:0:0:
320,192,197327,128,0,197433:0:0:0:0:
64,192,197433,128,0,197503:0:0:0:0:
448,192,197433,128,0,197538:0:0:0:0:
192,192,197503,128,0,197574:0:0:0:0:
320,192,197574,128,0,197644:0:0:0:0:
448,192,197644,128,0,197715:0:0:0:0:
64,192,197644,128,0,197750:0:0:0:0:
192,192,197715,128,0,197785:0:0:0:0:
320,192,197785,128,0,197855:0:0:0:0:
448,192,197855,128,0,197961:0:0:0:0:
64,192,197855,128,0,198172:0:0:0:0:
192,192,197961,128,0,198067:0:0:0:0:
320,192,198067,128,0,198172:0:0:0:0:
448,192,198067,128,0,198172:0:0:0:0:
192,192,198172,128,0,198278:0:0:0:0:
320,192,198278,1,0,0:0:0:0:
64,192,198278,128,0,198489:0:0:0:0:
448,192,198278,128,0,198489:0:0:0:0:
320,192,198489,128,0,198595:0:0:0:0:
192,192,198489,128,0,198700:0:0:0:0:
64,192,198700,128,0,198806:0:0:0:0:
320,192,198700,128,0,199123:0:0:0:0:
448,192,198806,128,0,198912:0:0:0:0:
64,192,198912,128,0,199017:0:0:0:0:
192,192,199017,128,0,199123:0:0:0:0:
448,192,199123,128,0,199334:0:0:0:0:
64,192,199123,128,0,199440:0:0:0:0:
320,192,199229,128,0,199334:0:0:0:0:
192,192,199334,128,0,199545:0:0:0:0:
320,192,199440,128,0,199545:0:0:0:0:
64,192,199545,128,0,199651:0:0:0:0:
448,192,199545,128,0,199757:0:0:0:0:
192,192,199651,128,0,199757:0:0:0:0:
320,192,199757,128,0,199862:0:0:0:0:
64,192,199757,128,0,199968:0:0:0:0:
320,192,199968,128,0,200074:0:0:0:0:
448,192,199968,128,0,200179:0:0:0:0:
192,192,200179,1,0,0:0:0:0:
320,192,200285,128,0,200355:0:0:0:0:
64,192,200391,1,0,0:0:0:0:
320,192,200496,1,0,0:0:0:0:
192,192,200602,128,0,200813:0:0:0:0:
320,192,200707,128,0,200813:0:0:0:0:
448,192,200813,1,0,0:0:0:0:
64,192,200919,128,0,200989:0:0:0:0:
320,192,201024,128,0,201236:0:0:0:0:
192,192,201236,128,0,201376:0:0:0:0:
448,192,201447,1,0,0:0:0:0:
192,192,201553,128,0,201623:0:0:0:0:
448,192,201658,1,0,0:0:0:0:
192,192,201764,1,0,0:0:0:0:
320,192,201869,128,0,202010:0:0:0:0:
448,192,201975,128,0,202081:0:0:0:0:
64,192,202081,1,0,0:0:0:0:
192,192,202186,128,0,202257:0:0:0:0:
64,192,202292,1,0,0:0:0:0:
320,192,202362,1,0,0:0:0:0:
192,192,202433,1,0,0:0:0:0:
320,192,202503,1,0,0:0:0:0:
448,192,202503,1,0,0:0:0:0:
64,192,202609,1,0,0:0:0:0:
192,192,202609,1,0,0:0:0:0:
320,192,202715,128,0,202820:0:0:0:0:
192,192,202820,128,0,203137:0:0:0:0:
64,192,202820,1,0,0:0:0:0:
320,192,202926,128,0,203031:0:0:0:0:
448,192,202926,1,0,0:0:0:0:
64,192,203031,128,0,203243:0:0:0:0:
320,192,203137,128,0,203348:0:0:0:0:
448,192,203137,1,0,0:0:0:0:
192,192,203243,128,0,203348:0:0:0:0:
64,192,203348,1,0,0:0:0:0:
448,192,203348,1,0,0:0:0:0:
192,192,203454,1,0,0:0:0:0:
320,192,203560,128,0,203630:0:0:0:0:
64,192,203665,128,0,203736:0:0:0:0:
448,192,203771,1,0,0:0:0:0:
320,192,203876,1,0,0:0:0:0:
192,192,203982,128,0,204193:0:0:0:0:
320,192,204088,128,0,204193:0:0:0:0:
64,192,204193,1,0,0:0:0:0:
448,192,204299,128,0,204369:0:0:0:0:
192,192,204405,128,0,204616:0:0:0:0:
320,192,204616,128,0,204757:0:0:0:0:
64,192,204827,1,0,0:0:0:0:
320,192,204933,128,0,205003:0:0:0:0:
64,192,205038,1,0,0:0:0:0:
192,192,205144,1,0,0:0:0:0:
448,192,205250,128,0,205391:0:0:0:0:
320,192,205355,128,0,205461:0:0:0:0:
64,192,205461,1,0,0:0:0:0:
192,192,205567,128,0,205672:0:0:0:0:
448,192,205672,128,0,205884:0:0:0:0:
192,192,205884,128,0,206130:0:0:0:0:
64,192,205884,128,0,206200:0:0:0:0:
320,192,205919,128,0,206060:0:0:0:0:
448,192,206095,128,0,206200:0:0:0:0:
320,192,206200,128,0,206306:0:0:0:0:
192,192,206306,128,0,206553:0:0:0:0:
448,192,206306,128,0,206623:0:0:0:0:
64,192,206341,128,0,206412:0:0:0:0:
320,192,206412,128,0,206517:0:0:0:0:
64,192,206517,128,0,206729:0:0:0:0:
192,192,206623,128,0,206729:0:0:0:0:
448,192,206729,128,0,206940:0:0:0:0:
320,192,206729,1,0,0:0:0:0:
64,192,206834,128,0,206975:0:0:0:0:
192,192,206940,128,0,207045:0:0:0:0:
320,192,207045,128,0,207116:0:0:0:0:
448,192,207045,128,0,207151:0:0:0:0:
64,192,207151,1,0,0:0:0:0:
192,192,207151,1,0,0:0:0:0:
320,192,207257,1,0,0:0:0:0:
64,192,207362,128,0,207503:0:0:0:0:
192,192,207468,128,0,207538:0:0:0:0:
320,192,207574,1,0,0:0:0:0:
448,192,207574,1,0,0:0:0:0:
64,192,207679,1,0,0:0:0:0:
192,192,207679,1,0,0:0:0:0:
448,192,207785,1,0,0:0:0:0:
320,192,207785,128,0,207926:0:0:0:0:
192,192,207891,128,0,207996:0:0:0:0:
64,192,207996,128,0,208137:0:0:0:0:
448,192,207996,128,0,208207:0:0:0:0:
320,192,208102,1,0,0:0:0:0:
64,192,208207,1,0,0:0:0:0:
448,192,208313,128,0,208384:0:0:0:0:
192,192,208313,128,0,208419:0:0:0:0:
64,192,208419,1,0,0:0:0:0:
320,192,208419,1,0,0:0:0:0:
192,192,208524,1,0,0:0:0:0:
448,192,208630,128,0,208771:0:0:0:0:
320,192,208736,128,0,208841:0:0:0:0:
64,192,208841,1,0,0:0:0:0:
192,192,208841,1,0,0:0:0:0:
448,192,208947,128,0,209053:0:0:0:0:
64,192,209053,1,0,0:0:0:0:
320,192,209158,128,0,209229:0:0:0:0:
192,192,209264,128,0,209440:0:0:0:0:
448,192,209369,128,0,209545:0:0:0:0:
320,192,209369,1,0,0:0:0:0:
64,192,209475,1,0,0:0:0:0:
192,192,209581,128,0,209686:0:0:0:0:
320,192,209581,1,0,0:0:0:0:
64,192,209686,1,0,0:0:0:0:
448,192,209686,1,0,0:0:0:0:
320,192,209792,128,0,209862:0:0:0:0:
192,192,209898,128,0,209968:0:0:0:0:
448,192,210003,128,0,210074:0:0:0:0:
64,192,210003,128,0,210179:0:0:0:0:
192,192,210109,128,0,210214:0:0:0:0:
320,192,210109,128,0,210249:0:0:0:0:
448,192,210214,1,0,0:0:0:0:
64,192,210320,1,0,0:0:0:0:
192,192,210425,128,0,210496:0:0:0:0:
320,192,210531,1,0,0:0:0:0:
448,192,210531,1,0,0:0:0:0:
64,192,210637,1,0,0:0:0:0:
320,192,210742,128,0,210883:0:0:0:0:
192,192,210813,128,0,210883:0:0:0:0:
448,192,210848,1,0,0:0:0:0:
64,192,210883,128,0,210954:0:0:0:0:
320,192,210954,1,0,0:0:0:0:
192,192,211059,128,0,211323:0:0:0:0:
64,192,211059,1,0,0:0:0:0:
320,192,211165,128,0,211270:0:0:0:0:
448,192,211165,1,0,0:0:0:0:
64,192,211270,128,0,211376:0:0:0:0:
320,192,211376,1,0,0:0:0:0:
448,192,211376,1,0,0:0:0:0:
320,192,211482,1,0,0:0:0:0:
448,192,211482,1,0,0:0:0:0:
192,192,211587,1,0,0:0:0:0:
320,192,211658,1,0,0:0:0:0:
64,192,211728,1,0,0:0:0:0:
192,192,211799,1,0,0:0:0:0:
448,192,211799,1,0,0:0:0:0:
192,192,211904,1,0,0:0:0:0:
320,192,211904,1,0,0:0:0:0:
64,192,212010,1,0,0:0:0:0:
448,192,212010,128,0,212221:0:0:0:0:
320,192,212116,128,0,212221:0:0:0:0:
64,192,212221,128,0,212432:0:0:0:0:
192,192,212327,128,0,212432:0:0:0:0:
320,192,212432,1,0,0:0:0:0:
64,192,212538,128,0,212644:0:0:0:0:
448,192,212644,1,0,0:0:0:0:
320,192,212749,128,0,212855:0:0:0:0:
192,192,212855,128,0,213067:0:0:0:0:
64,192,213067,128,0,213278:0:0:0:0:
448,192,213067,1,0,0:0:0:0:
320,192,213067,128,0,213278:0:0:0:0:
192,192,213172,128,0,213383:0:0:0:0:
448,192,213278,128,0,213489:0:0:0:0:
64,192,213383,128,0,213595:0:0:0:0:
320,192,213489,128,0,213700:0:0:0:0:
192,192,213489,1,0,0:0:0:0:
448,192,213595,128,0,213700:0:0:0:0:
64,192,213700,128,0,213841:0:0:0:0:
192,192,213771,128,0,213912:0:0:0:0:
320,192,213841,128,0,213912:0:0:0:0:
64,192,213912,1,0,0:0:0:0:
448,192,213912,128,0,214123:0:0:0:0:
320,192,214017,1,0,0:0:0:0:
192,192,214017,128,0,214228:0:0:0:0:
64,192,214123,128,0,214334:0:0:0:0:
448,192,214228,1,0,0:0:0:0:
320,192,214228,128,0,214440:0:0:0:0:
192,192,214334,1,0,0:0:0:0:
192,192,214440,128,0,214545:0:0:0:0:
64,192,214493,128,0,214598:0:0:0:0:
320,192,214545,1,0,0:0:0:0:
448,192,214545,128,0,214651:0:0:0:0:
192,192,214651,1,0,0:0:0:0:
320,192,214757,1,0,0:0:0:0:
64,192,214757,128,0,214862:0:0:0:0:
448,192,214809,128,0,214915:0:0:0:0:
192,192,214862,128,0,215074:0:0:0:0:
320,192,214968,128,0,215074:0:0:0:0:
64,192,215074,1,0,0:0:0:0:
448,192,215074,128,0,215390:0:0:0:0:
192,192,215179,1,0,0:0:0:0:
320,192,215390,1,0,0:0:0:0:
64,192,215390,128,0,215602:0:0:0:0:
448,192,215496,1,0,0:0:0:0:
192,192,215496,128,0,215602:0:0:0:0:
320,192,215602,128,0,215743:0:0:0:0:
192,192,215672,128,0,215813:0:0:0:0:
64,192,215707,1,0,0:0:0:0:
448,192,215743,128,0,215883:0:0:0:0:
320,192,215813,128,0,215954:0:0:0:0:
64,192,215883,128,0,216024:0:0:0:0:
192,192,215954,128,0,216024:0:0:0:0:
448,192,216024,128,0,216236:0:0:0:0:
320,192,216024,1,0,0:0:0:0:
192,192,216130,128,0,216341:0:0:0:0:
64,192,216236,128,0,216341:0:0:0:0:
320,192,216236,128,0,216447:0:0:0:0:
448,192,216341,1,0,0:0:0:0:
192,192,216447,128,0,216552:0:0:0:0:
64,192,216447,128,0,216658:0:0:0:0:
320,192,216658,128,0,216764:0:0:0:0:
448,192,216658,128,0,216869:0:0:0:0:
64,192,216764,128,0,216975:0:0:0:0:
192,192,216869,1,0,0:0:0:0:
320,192,216869,128,0,217081:0:0:0:0:
448,192,216975,128,0,217186:0:0:0:0:
192,192,217081,128,0,217292:0:0:0:0:
320,192,217186,1,0,0:0:0:0:
64,192,217186,128,0,217397:0:0:0:0:
448,192,217292,128,0,217503:0:0:0:0:
192,192,217397,1,0,0:0:0:0:
320,192,217397,128,0,217609:0:0:0:0:
64,192,217503,128,0,217714:0:0:0:0:
192,192,217609,128,0,217820:0:0:0:0:
320,192,217714,128,0,217820:0:0:0:0:
448,192,217767,128,0,217873:0:0:0:0:
64,192,217820,128,0,218031:0:0:0:0:
320,192,217926,128,0,218137:0:0:0:0:
192,192,218031,128,0,218243:0:0:0:0:
448,192,218137,128,0,218348:0:0:0:0:
320,192,218243,1,0,0:0:0:0:
64,192,218243,128,0,218454:0:0:0:0:
192,192,218348,128,0,218559:0:0:0:0:
448,192,218454,128,0,218665:0:0:0:0:
64,192,218559,1,0,0:0:0:0:
320,192,218559,128,0,218771:0:0:0:0:
192,192,218665,128,0,218876:0:0:0:0:
448,192,218771,128,0,218982:0:0:0:0:
320,192,218876,128,0,218982:0:0:0:0:
64,192,218982,128,0,219193:0:0:0:0:
192,192,218982,128,0,219088:0:0:0:0:
320,192,219088,1,0,0:0:0:0:
448,192,219088,128,0,219299:0:0:0:0:
192,192,219193,128,0,219299:0:0:0:0:
64,192,219299,1,0,0:0:0:0:
320,192,219299,128,0,219405:0:0:0:0:
192,192,219405,128,0,219616:0:0:0:0:
448,192,219405,128,0,219510:0:0:0:0:
64,192,219510,128,0,219616:0:0:0:0:
448,192,219616,128,0,219721:0:0:0:0:
320,192,219616,1,0,0:0:0:0:
192,192,219721,128,0,219827:0:0:0:0:
64,192,219721,1,0,0:0:0:0:
320,192,219827,128,0,219968:0:0:0:0:
448,192,219827,1,0,0:0:0:0:
192,192,219897,128,0,220038:0:0:0:0:
64,192,220038,128,0,220179:0:0:0:0:
192,192,220109,128,0,220250:0:0:0:0:
320,192,220179,128,0,220320:0:0:0:0:
64,192,220250,1,0,0:0:0:0:
448,192,220250,128,0,220390:0:0:0:0:
192,192,220320,128,0,220461:0:0:0:0:
320,192,220390,128,0,220461:0:0:0:0:
448,192,220461,128,0,220567:0:0:0:0:
64,192,220461,128,0,220672:0:0:0:0:
192,192,220567,128,0,220672:0:0:0:0:
448,192,220672,128,0,220778:0:0:0:0:
320,192,220672,128,0,220883:0:0:0:0:
64,192,220778,1,0,0:0:0:0:
192,192,220778,128,0,220989:0:0:0:0:
64,192,220989,128,0,221095:0:0:0:0:
320,192,220989,128,0,221200:0:0:0:0:
192,192,221095,1,0,0:0:0:0:
448,192,221095,128,0,221306:0:0:0:0:
320,192,221306,1,0,0:0:0:0:
64,192,221306,128,0,221517:0:0:0:0:
192,192,221376,128,0,221588:0:0:0:0:
320,192,221447,128,0,221728:0:0:0:0:
448,192,221517,1,0,0:0:0:0:
64,192,221728,128,0,221834:0:0:0:0:
448,192,221728,128,0,221940:0:0:0:0:
192,192,221834,128,0,221940:0:0:0:0:
64,192,221940,1,0,0:0:0:0:
320,192,221940,128,0,222151:0:0:0:0:
448,192,222151,128,0,222257:0:0:0:0:
64,192,222151,128,0,222362:0:0:0:0:
320,192,222257,128,0,222362:0:0:0:0:
192,192,222362,128,0,222574:0:0:0:0:
448,192,222362,1,0,0:0:0:0:
320,192,222468,128,0,222679:0:0:0:0:
64,192,222574,128,0,222679:0:0:0:0:
448,192,222679,128,0,222785:0:0:0:0:
192,192,222679,1,0,0:0:0:0:
320,192,222785,1,0,0:0:0:0:
64,192,222785,128,0,222890:0:0:0:0:
192,192,222838,128,0,222943:0:0:0:0:
448,192,222890,128,0,222996:0:0:0:0:
320,192,222926,128,0,223067:0:0:0:0:
64,192,222996,128,0,223137:0:0:0:0:
192,192,223067,128,0,223207:0:0:0:0:
320,192,223137,128,0,223207:0:0:0:0:
64,192,223207,128,0,223313:0:0:0:0:
448,192,223260,128,0,223419:0:0:0:0:
192,192,223419,128,0,223524:0:0:0:0:
64,192,223471,128,0,223630:0:0:0:0:
320,192,223524,1,0,0:0:0:0:
192,192,223630,1,0,0:0:0:0:
448,192,223630,128,0,223736:0:0:0:0:
320,192,223683,128,0,223947:0:0:0:0:
192,192,223947,1,0,0:0:0:0:
64,192,223947,128,0,224158:0:0:0:0:
448,192,224000,128,0,224211:0:0:0:0:
320,192,224052,128,0,224264:0:0:0:0:
192,192,224158,1,0,0:0:0:0:
64,192,224264,1,0,0:0:0:0:
192,192,224369,1,0,0:0:0:0:
448,192,224369,128,0,224475:0:0:0:0:
320,192,224422,128,0,224528:0:0:0:0:
64,192,224475,128,0,224686:0:0:0:0:
192,192,224581,128,0,224686:0:0:0:0:
320,192,224633,128,0,224739:0:0:0:0:
448,192,224686,128,0,224897:0:0:0:0:
64,192,224897,128,0,225003:0:0:0:0:
320,192,224950,128,0,225056:0:0:0:0:
192,192,225003,128,0,225214:0:0:0:0:
448,192,225109,1,0,0:0:0:0:
320,192,225214,128,0,225320:0:0:0:0:
64,192,225267,128,0,225373:0:0:0:0:
448,192,225320,128,0,225531:0:0:0:0:
192,192,225426,5,0,0:0:0:0:
64,192,225531,128,0,225637:0:0:0:0:
320,192,225584,128,0,225690:0:0:0:0:
448,192,225637,128,0,225743:0:0:0:0:
192,192,225743,128,0,225813:0:0:0:0:
64,192,225743,128,0,225883:0:0:0:0:
320,192,225813,128,0,225954:0:0:0:0:
448,192,225883,128,0,225954:0:0:0:0:
64,192,225954,128,0,226059:0:0:0:0:
192,192,225954,1,0,0:0:0:0:
448,192,226059,128,0,226165:0:0:0:0:
320,192,226059,1,0,0:0:0:0:
192,192,226165,128,0,226271:0:0:0:0:
64,192,226165,128,0,226376:0:0:0:0:
320,192,226236,128,0,226482:0:0:0:0:
448,192,226306,128,0,226482:0:0:0:0:
192,192,226376,128,0,226588:0:0:0:0:
448,192,226588,128,0,226672:0:0:0:0:
320,192,226588,128,0,226757:0:0:0:0:
64,192,226672,128,0,226841:0:0:0:0:
192,192,226757,128,0,226841:0:0:0:0:
448,192,226841,128,0,226926:0:0:0:0:
320,192,226905,1,0,0:0:0:0:
64,192,226926,128,0,227010:0:0:0:0:
448,192,227010,128,0,227221:0:0:0:0:
192,192,227010,1,0,0:0:0:0:
320,192,227081,128,0,227151:0:0:0:0:
64,192,227151,128,0,227292:0:0:0:0:
192,192,227221,128,0,227362:0:0:0:0:
320,192,227292,128,0,227433:0:0:0:0:
448,192,227362,128,0,227433:0:0:0:0:
64,192,227433,1,0,0:0:0:0:
192,192,227433,1,0,0:0:0:0:
320,192,227538,1,0,0:0:0:0:
448,192,227538,1,0,0:0:0:0:
192,192,227644,1,0,0:0:0:0:
320,192,227750,128,0,228014:0:0:0:0:
448,192,227750,1,0,0:0:0:0:
64,192,227802,128,0,227908:0:0:0:0:
192,192,227855,128,0,227961:0:0:0:0:
448,192,227940,128,0,228109:0:0:0:0:
64,192,228024,128,0,228193:0:0:0:0:
320,192,228109,128,0,228278:0:0:0:0:
192,192,228193,128,0,228278:0:0:0:0:
64,192,228278,128,0,228531:0:0:0:0:
448,192,228278,128,0,228447:0:0:0:0:
320,192,228362,128,0,228447:0:0:0:0:
192,192,228447,128,0,228616:0:0:0:0:
448,192,228531,128,0,228700:0:0:0:0:
320,192,228616,128,0,228700:0:0:0:0:
64,192,228700,128,0,228785:0:0:0:0:
192,192,228700,128,0,229038:0:0:0:0:
448,192,228785,128,0,228954:0:0:0:0:
64,192,228869,128,0,229038:0:0:0:0:
320,192,228954,128,0,229123:0:0:0:0:
448,192,229038,128,0,229123:0:0:0:0:
192,192,229123,128,0,229228:0:0:0:0:
64,192,229123,128,0,229440:0:0:0:0:
448,192,229228,128,0,229334:0:0:0:0:
320,192,229228,128,0,229387:0:0:0:0:
192,192,229334,128,0,229440:0:0:0:0:
320,192,229440,128,0,229545:0:0:0:0:
448,192,229440,128,0,229545:0:0:0:0:
64,192,229545,128,0,229651:0:0:0:0:
192,192,229545,128,0,229757:0:0:0:0:
448,192,229651,128,0,229862:0:0:0:0:
64,192,229757,128,0,229827:0:0:0:0:
192,192,229827,128,0,229897:0:0:0:0:
320,192,229897,128,0,229968:0:0:0:0:
64,192,229968,128,0,230137:0:0:0:0:
448,192,229968,128,0,230179:0:0:0:0:
192,192,230052,128,0,230137:0:0:0:0:
320,192,230137,128,0,230221:0:0:0:0:
64,192,230221,128,0,230306:0:0:0:0:
192,192,230285,1,0,0:0:0:0:
448,192,230306,128,0,230390:0:0:0:0:
64,192,230390,1,0,0:0:0:0:
320,192,230390,1,0,0:0:0:0:
192,192,230496,1,0,0:0:0:0:
448,192,230602,128,0,230813:0:0:0:0:
320,192,230707,128,0,230813:0:0:0:0:
192,192,230813,128,0,231024:0:0:0:0:
64,192,230813,1,0,0:0:0:0:
448,192,230919,128,0,231130:0:0:0:0:
64,192,231024,128,0,231130:0:0:0:0:
192,192,231130,128,0,231236:0:0:0:0:
320,192,231130,1,0,0:0:0:0:
448,192,231236,128,0,231376:0:0:0:0:
64,192,231236,1,0,0:0:0:0:
320,192,231306,128,0,231376:0:0:0:0:
192,192,231376,128,0,231447:0:0:0:0:
448,192,231447,128,0,231517:0:0:0:0:
64,192,231517,128,0,231658:0:0:0:0:
192,192,231588,128,0,231658:0:0:0:0:
320,192,231658,128,0,231764:0:0:0:0:
448,192,231658,128,0,231869:0:0:0:0:
64,192,231764,128,0,231869:0:0:0:0:
192,192,231869,128,0,231975:0:0:0:0:
320,192,231975,128,0,232081:0:0:0:0:
64,192,231975,128,0,232186:0:0:0:0:
192,192,232081,128,0,232239:0:0:0:0:
448,192,232081,128,0,232292:0:0:0:0:
320,192,232186,128,0,232292:0:0:0:0:
64,192,232292,128,0,232397:0:0:0:0:
192,192,232397,128,0,232503:0:0:0:0:
448,192,232503,128,0,232644:0:0:0:0:
320,192,232503,128,0,232714:0:0:0:0:
64,192,232574,128,0,232644:0:0:0:0:
192,192,232644,128,0,232714:0:0:0:0:
448,192,232714,128,0,232785:0:0:0:0:
192,192,232820,128,0,232926:0:0:0:0:
64,192,232873,128,0,232926:0:0:0:0:
448,192,232926,128,0,233031:0:0:0:0:
320,192,232926,128,0,233031:0:0:0:0:
192,192,233031,1,0,0:0:0:0:
448,192,233137,1,0,0:0:0:0:
320,192,233137,1,0,0:0:0:0:
320,192,233243,1,0,0:0:0:0:
448,192,233243,1,0,0:0:0:0:
64,192,233348,128,0,233419:0:0:0:0:
192,192,233348,128,0,233559:0:0:0:0:
320,192,233454,128,0,233559:0:0:0:0:
64,192,233559,128,0,233665:0:0:0:0:
192,192,233665,128,0,233736:0:0:0:0:
320,192,233665,128,0,233771:0:0:0:0:
448,192,233771,128,0,233841:0:0:0:0:
64,192,233771,128,0,233982:0:0:0:0:
320,192,233876,128,0,233982:0:0:0:0:
192,192,233982,128,0,234052:0:0:0:0:
448,192,234088,128,0,234193:0:0:0:0:
192,192,234193,128,0,234334:0:0:0:0:
320,192,234193,1,0,0:0:0:0:
64,192,234264,128,0,234334:0:0:0:0:
320,192,234334,128,0,234475:0:0:0:0:
192,192,234405,128,0,234510:0:0:0:0:
448,192,234510,128,0,234616:0:0:0:0:
320,192,234616,128,0,234757:0:0:0:0:
192,192,234616,128,0,234827:0:0:0:0:
448,192,234721,128,0,234827:0:0:0:0:
64,192,234827,128,0,235038:0:0:0:0:
192,192,234933,128,0,235038:0:0:0:0:
320,192,235038,128,0,235144:0:0:0:0:
448,192,235038,128,0,235355:0:0:0:0:
64,192,235144,128,0,235285:0:0:0:0:
320,192,235250,128,0,235320:0:0:0:0:
192,192,235320,128,0,235390:0:0:0:0:
64,192,235390,128,0,235461:0:0:0:0:
320,192,235461,128,0,235602:0:0:0:0:
448,192,235461,1,0,0:0:0:0:
64,192,235567,128,0,235672:0:0:0:0:
448,192,235672,128,0,235778:0:0:0:0:
320,192,235743,128,0,235848:0:0:0:0:
192,192,235813,128,0,235919:0:0:0:0:
64,192,235883,128,0,235989:0:0:0:0:
448,192,235883,128,0,236200:0:0:0:0:
320,192,235989,128,0,236095:0:0:0:0:
64,192,236095,128,0,236306:0:0:0:0:
192,192,236095,128,0,236200:0:0:0:0:
320,192,236200,128,0,236306:0:0:0:0:
448,192,236306,128,0,236517:0:0:0:0:
192,192,236306,128,0,236376:0:0:0:0:
64,192,236376,128,0,236447:0:0:0:0:
320,192,236447,128,0,236517:0:0:0:0:
192,192,236517,128,0,236623:0:0:0:0:
448,192,236623,128,0,236728:0:0:0:0:
320,192,236728,128,0,236799:0:0:0:0:
64,192,236728,128,0,236834:0:0:0:0:
192,192,236781,128,0,236887:0:0:0:0:
448,192,236834,128,0,236940:0:0:0:0:
320,192,236887,1,0,0:0:0:0:
64,192,236940,1,0,0:0:0:0:
192,192,237045,128,0,237151:0:0:0:0:
320,192,237045,1,0,0:0:0:0:
64,192,237151,128,0,237221:0:0:0:0:
448,192,237151,128,0,237257:0:0:0:0:
320,192,237204,128,0,237309:0:0:0:0:
192,192,237257,128,0,237362:0:0:0:0:
64,192,237309,1,0,0:0:0:0:
448,192,237362,1,0,0:0:0:0:
320,192,237468,128,0,237574:0:0:0:0:
192,192,237574,128,0,237785:0:0:0:0:
64,192,237574,1,0,0:0:0:0:
448,192,237644,128,0,237855:0:0:0:0:
320,192,237714,128,0,237820:0:0:0:0:
64,192,237785,128,0,237890:0:0:0:0:
320,192,237890,128,0,237961:0:0:0:0:
192,192,237890,128,0,237996:0:0:0:0:
64,192,237961,128,0,238102:0:0:0:0:
448,192,237996,128,0,238102:0:0:0:0:
320,192,238031,1,0,0:0:0:0:
192,192,238102,128,0,238207:0:0:0:0:
448,192,238207,128,0,238313:0:0:0:0:
320,192,238278,128,0,238383:0:0:0:0:
192,192,238348,128,0,238454:0:0:0:0:
64,192,238419,128,0,238524:0:0:0:0:
448,192,238419,128,0,238630:0:0:0:0:
320,192,238524,128,0,238630:0:0:0:0:
64,192,238630,128,0,238736:0:0:0:0:
192,192,238630,128,0,238841:0:0:0:0:
320,192,238736,128,0,238841:0:0:0:0:
448,192,238841,128,0,238947:0:0:0:0:
64,192,238841,128,0,239158:0:0:0:0:
192,192,238947,128,0,239052:0:0:0:0:
448,192,239052,128,0,239264:0:0:0:0:
320,192,239052,128,0,239158:0:0:0:0:
192,192,239158,128,0,239264:0:0:0:0:
64,192,239264,128,0,239517:0:0:0:0:
320,192,239264,128,0,239433:0:0:0:0:
448,192,239348,128,0,239433:0:0:0:0:
192,192,239433,128,0,239602:0:0:0:0:
320,192,239517,128,0,239602:0:0:0:0:
64,192,239602,128,0,239686:0:0:0:0:
192,192,239686,128,0,239940:0:0:0:0:
448,192,239686,128,0,239771:0:0:0:0:
320,192,239771,128,0,239855:0:0:0:0:
64,192,239855,128,0,240024:0:0:0:0:
448,192,239897,128,0,240038:0:0:0:0:
320,192,239968,128,0,240074:0:0:0:0:
192,192,240038,128,0,240109:0:0:0:0:
448,192,240109,128,0,240214:0:0:0:0:
64,192,240109,1,0,0:0:0:0:
448,192,240320,128,0,240390:0:0:0:0:
448,192,240531,128,0,240637:0:0:0:0:
448,192,240743,128,0,240813:0:0:0:0:
448,192,240954,128,0,241059:0:0:0:0:
448,192,241165,128,0,241236:0:0:0:0:
448,192,241376,128,0,241482:0:0:0:0:
448,192,241588,128,0,241658:0:0:0:0:
320,192,241693,128,0,241764:0:0:0:0:
192,192,241799,128,0,242433:0:0:0:0:
448,192,241799,128,0,241905:0:0:0:0:
448,192,242010,128,0,242081:0:0:0:0:
64,192,242221,128,0,242855:0:0:0:0:
448,192,242221,128,0,242327:0:0:0:0:
448,192,242433,128,0,242503:0:0:0:0:
320,192,242644,128,0,243067:0:0:0:0:
448,192,242644,128,0,242750:0:0:0:0:
448,192,242855,128,0,242926:0:0:0:0:
64,192,243067,128,0,243278:0:0:0:0:
448,192,243067,128,0,243172:0:0:0:0:
448,192,243278,128,0,243348:0:0:0:0:
320,192,243348,128,0,243419:0:0:0:0:
192,192,243419,128,0,243489:0:0:0:0:
64,192,243489,128,0,243595:0:0:0:0:
64,192,243700,128,0,243771:0:0:0:0:
64,192,243912,128,0,244017:0:0:0:0:
64,192,244123,128,0,244193:0:0:0:0:
192,192,244228,128,0,244299:0:0:0:0:
64,192,244334,128,0,244440:0:0:0:0:
64,192,244545,128,0,244616:0:0:0:0:
320,192,244757,128,0,244862:0:0:0:0:
192,192,244968,128,0,245074:0:0:0:0:
320,192,244968,128,0,245038:0:0:0:0:
192,192,245179,128,0,245813:0:0:0:0:
320,192,245179,128,0,245285:0:0:0:0:
320,192,245390,128,0,245461:0:0:0:0:
64,192,245602,128,0,246236:0:0:0:0:
320,192,245602,128,0,245707:0:0:0:0:
320,192,245813,128,0,245883:0:0:0:0:
448,192,246024,128,0,246869:0:0:0:0:
320,192,246024,128,0,246130:0:0:0:0:
320,192,246236,128,0,246306:0:0:0:0:
192,192,246447,128,0,246658:0:0:0:0:
320,192,246447,128,0,246552:0:0:0:0:
320,192,246658,128,0,246728:0:0:0:0:
192,192,246764,128,0,246834:0:0:0:0:
320,192,246869,128,0,247081:0:0:0:0:
64,192,246869,128,0,247186:0:0:0:0:
448,192,246975,1,0,0:0:0:0:
192,192,247081,1,0,0:0:0:0:
448,192,247186,1,0,0:0:0:0:
320,192,247186,1,0,0:0:0:0:
64,192,247292,128,0,247397:0:0:0:0:
192,192,247292,1,0,0:0:0:0:
320,192,247397,1,0,0:0:0:0:
64,192,247503,128,0,247609:0:0:0:0:
448,192,247609,1,0,0:0:0:0:
192,192,247714,128,0,247820:0:0:0:0:
64,192,247714,128,0,247926:0:0:0:0:
320,192,247820,1,0,0:0:0:0:
448,192,247820,1,0,0:0:0:0:
192,192,247926,128,0,248031:0:0:0:0:
64,192,248031,128,0,248243:0:0:0:0:
448,192,248031,1,0,0:0:0:0:
192,192,248137,128,0,248348:0:0:0:0:
320,192,248137,1,0,0:0:0:0:
448,192,248243,1,0,0:0:0:0:
64,192,248348,128,0,248559:0:0:0:0:
192,192,248454,128,0,248559:0:0:0:0:
320,192,248559,128,0,248665:0:0:0:0:
448,192,248559,128,0,248876:0:0:0:0:
64,192,248665,128,0,248771:0:0:0:0:
192,192,248665,1,0,0:0:0:0:
320,192,248771,128,0,248876:0:0:0:0:
64,192,248876,128,0,248982:0:0:0:0:
192,192,248876,1,0,0:0:0:0:
320,192,248982,128,0,249193:0:0:0:0:
448,192,248982,128,0,249193:0:0:0:0:
64,192,249088,128,0,249299:0:0:0:0:
192,192,249193,1,0,0:0:0:0:
320,192,249299,128,0,249405:0:0:0:0:
448,192,249299,128,0,249405:0:0:0:0:
192,192,249405,128,0,249616:0:0:0:0:
64,192,249405,128,0,249721:0:0:0:0:
448,192,249510,128,0,249721:0:0:0:0:
320,192,249616,1,0,0:0:0:0:
192,192,249721,128,0,249827:0:0:0:0:
448,192,249827,128,0,250144:0:0:0:0:
64,192,249827,128,0,250144:0:0:0:0:
320,192,249933,128,0,250038:0:0:0:0:
192,192,250038,128,0,250250:0:0:0:0:
320,192,250144,128,0,250250:0:0:0:0:
64,192,250250,1,0,0:0:0:0:
448,192,250250,1,0,0:0:0:0:
64,192,250531,128,0,250672:0:0:0:0:
192,192,250531,128,0,250672:0:0:0:0:
320,192,250531,128,0,250954:0:0:0:0:
448,192,250813,128,0,250954:0:0:0:0:
192,192,250813,128,0,250954:0:0:0:0:
64,192,250813,128,0,251306:0:0:0:0:
192,192,251095,128,0,251623:0:0:0:0:
448,192,251095,128,0,251306:0:0:0:0:
320,192,251095,128,0,251306:0:0:0:0:
448,192,251412,128,0,251834:0:0:0:0:
320,192,251412,128,0,251623:0:0:0:0:
64,192,251412,128,0,251623:0:0:0:0:
64,192,251728,128,0,251834:0:0:0:0:
192,192,251728,128,0,251834:0:0:0:0:
320,192,251728,128,0,251834:0:0:0:0:
192,192,251940,1,0,0:0:0:0:
64,192,251940,1,0,0:0:0:0:
448,192,251940,1,0,0:0:0:0:
320,192,251940,1,0,0:0:0:0:
64,192,252151,1,0,0:0:0:0:
192,192,252221,1,0,0:0:0:0:
320,192,252292,1,0,0:0:0:0:
448,192,252362,128,0,252468:0:0:0:0:
320,192,252433,128,0,252538:0:0:0:0:
192,192,252503,128,0,252609:0:0:0:0:
64,192,252574,128,0,252890:0:0:0:0:
448,192,253207,1,0,0:0:0:0:
320,192,253278,1,0,0:0:0:0:
64,192,253348,1,0,0:0:0:0:
448,192,253419,1,0,0:0:0:0:
192,192,253489,1,0,0:0:0:0:
320,192,253559,1,0,0:0:0:0:
64,192,253630,128,0,253771:0:0:0:0:
448,192,253630,128,0,253841:0:0:0:0:
192,192,253700,128,0,253841:0:0:0:0:
320,192,253771,128,0,253912:0:0:0:0:
64,192,253841,128,0,254052:0:0:0:0:
448,192,253947,128,0,254052:0:0:0:0:
320,192,254052,128,0,254193:0:0:0:0:
192,192,254052,128,0,254264:0:0:0:0:
64,192,254123,128,0,254264:0:0:0:0:
448,192,254193,128,0,254334:0:0:0:0:
320,192,254264,128,0,254475:0:0:0:0:
64,192,254369,128,0,254475:0:0:0:0:
192,192,254475,128,0,254616:0:0:0:0:
448,192,254475,128,0,254686:0:0:0:0:
320,192,254545,128,0,254686:0:0:0:0:
64,192,254616,128,0,254757:0:0:0:0:
192,192,254686,128,0,254897:0:0:0:0:
448,192,254792,128,0,254897:0:0:0:0:
320,192,254897,128,0,255038:0:0:0:0:
64,192,254897,128,0,255109:0:0:0:0:
448,192,254968,128,0,255109:0:0:0:0:
192,192,255038,128,0,255179:0:0:0:0:
320,192,255109,128,0,255320:0:0:0:0:
64,192,255214,128,0,255320:0:0:0:0:
448,192,255320,128,0,255461:0:0:0:0:
192,192,255320,128,0,255531:0:0:0:0:
64,192,255390,128,0,255531:0:0:0:0:
320,192,255461,128,0,255602:0:0:0:0:
448,192,255531,128,0,255672:0:0:0:0:
64,192,255602,128,0,255743:0:0:0:0:
320,192,255672,128,0,255813:0:0:0:0:
448,192,255743,128,0,256059:0:0:0:0:
192,192,255743,128,0,255848:0:0:0:0:
64,192,255848,128,0,256059:0:0:0:0:
192,192,255954,128,0,256165:0:0:0:0:
320,192,256059,128,0,256165:0:0:0:0:
64,192,256165,128,0,256482:0:0:0:0:
448,192,256165,128,0,256306:0:0:0:0:
192,192,256236,128,0,256376:0:0:0:0:
320,192,256306,128,0,256482:0:0:0:0:
448,192,256376,128,0,256588:0:0:0:0:
192,192,256482,128,0,256588:0:0:0:0:
64,192,256588,128,0,256728:0:0:0:0:
320,192,256588,128,0,256799:0:0:0:0:
448,192,256658,128,0,256869:0:0:0:0:
192,192,256728,128,0,256905:0:0:0:0:
64,192,256799,128,0,257010:0:0:0:0:
320,192,256905,128,0,257010:0:0:0:0:
448,192,257010,128,0,257151:0:0:0:0:
192,192,257010,128,0,257221:0:0:0:0:
320,192,257081,128,0,257221:0:0:0:0:
64,192,257151,128,0,257292:0:0:0:0:
448,192,257221,128,0,257327:0:0:0:0:
192,192,257292,128,0,257433:0:0:0:0:
320,192,257362,128,0,257503:0:0:0:0:
64,192,257433,128,0,257750:0:0:0:0:
448,192,257433,128,0,257538:0:0:0:0:
192,192,257538,128,0,257644:0:0:0:0:
448,192,257644,128,0,257785:0:0:0:0:
320,192,257714,128,0,257855:0:0:0:0:
192,192,257785,128,0,257926:0:0:0:0:
64,192,257855,128,0,258067:0:0:0:0:
448,192,257855,128,0,258172:0:0:0:0:
320,192,257961,128,0,258172:0:0:0:0:
192,192,258067,128,0,258278:0:0:0:0:
64,192,258172,128,0,258489:0:0:0:0:
320,192,258278,128,0,258383:0:0:0:0:
448,192,258278,128,0,258383:0:0:0:0:
192,192,258383,128,0,258489:0:0:0:0:
448,192,258489,128,0,258630:0:0:0:0:
320,192,258489,128,0,258700:0:0:0:0:
64,192,258559,128,0,258700:0:0:0:0:
192,192,258630,128,0,258771:0:0:0:0:
448,192,258700,128,0,258841:0:0:0:0:
320,192,258771,128,0,258912:0:0:0:0:
64,192,258841,128,0,258982:0:0:0:0:
192,192,258912,128,0,259052:0:0:0:0:
448,192,258912,128,0,259052:0:0:0:0:
320,192,258982,128,0,259228:0:0:0:0:
64,192,259052,128,0,259123:0:0:0:0:
448,192,259123,128,0,259228:0:0:0:0:
192,192,259123,128,0,259334:0:0:0:0:
64,192,259228,128,0,259440:0:0:0:0:
320,192,259334,128,0,259545:0:0:0:0:
192,192,259440,128,0,259545:0:0:0:0:
448,192,259545,128,0,259686:0:0:0:0:
64,192,259545,128,0,259757:0:0:0:0:
320,192,259616,128,0,259897:0:0:0:0:
192,192,259686,128,0,259827:0:0:0:0:
448,192,259757,128,0,259968:0:0:0:0:
64,192,259862,128,0,259968:0:0:0:0:
320,192,259968,128,0,260109:0:0:0:0:
192,192,259968,128,0,260285:0:0:0:0:
64,192,260038,128,0,260179:0:0:0:0:
448,192,260109,128,0,260250:0:0:0:0:
320,192,260179,128,0,260390:0:0:0:0:
64,192,260285,128,0,260390:0:0:0:0:
192,192,260390,128,0,260531:0:0:0:0:
448,192,260390,128,0,260602:0:0:0:0:
320,192,260461,128,0,260602:0:0:0:0:
64,192,260531,128,0,260672:0:0:0:0:
192,192,260602,128,0,260743:0:0:0:0:
448,192,260672,128,0,260813:0:0:0:0:
320,192,260743,128,0,260883:0:0:0:0:
192,192,260813,128,0,261130:0:0:0:0:
64,192,260813,128,0,260954:0:0:0:0:
448,192,260919,128,0,261024:0:0:0:0:
64,192,261024,128,0,261130:0:0:0:0:
320,192,261024,128,0,261236:0:0:0:0:
448,192,261130,128,0,261236:0:0:0:0:
192,192,261236,128,0,261376:0:0:0:0:
64,192,261236,128,0,261447:0:0:0:0:
448,192,261306,128,0,261517:0:0:0:0:
320,192,261376,128,0,261517:0:0:0:0:
192,192,261447,128,0,261658:0:0:0:0:
64,192,261552,128,0,261658:0:0:0:0:
448,192,261658,128,0,261799:0:0:0:0:
320,192,261658,128,0,261869:0:0:0:0:
192,192,261728,128,0,261940:0:0:0:0:
64,192,261799,128,0,262010:0:0:0:0:
448,192,261869,128,0,262081:0:0:0:0:
320,192,261975,128,0,262081:0:0:0:0:
64,192,262081,128,0,262221:0:0:0:0:
192,192,262081,128,0,262292:0:0:0:0:
448,192,262151,128,0,262362:0:0:0:0:
320,192,262221,128,0,262362:0:0:0:0:
64,192,262292,128,0,262503:0:0:0:0:
192,192,262397,128,0,262503:0:0:0:0:
320,192,262503,128,0,262644:0:0:0:0:
448,192,262503,128,0,262714:0:0:0:0:
64,192,262574,128,0,262785:0:0:0:0:
192,192,262644,128,0,262785:0:0:0:0:
320,192,262714,128,0,262926:0:0:0:0:
448,192,262820,128,0,262926:0:0:0:0:
192,192,262926,128,0,263348:0:0:0:0:
64,192,262926,128,0,263067:0:0:0:0:
320,192,262996,128,0,263137:0:0:0:0:
448,192,263067,128,0,263207:0:0:0:0:
64,192,263137,128,0,263243:0:0:0:0:
320,192,263243,128,0,263348:0:0:0:0:
448,192,263348,128,0,263489:0:0:0:0:
64,192,263348,128,0,263771:0:0:0:0:
192,192,263419,128,0,263559:0:0:0:0:
320,192,263489,128,0,263630:0:0:0:0:
448,192,263559,128,0,263700:0:0:0:0:
192,192,263665,128,0,263771:0:0:0:0:
320,192,263771,128,0,263912:0:0:0:0:
448,192,263771,128,0,263982:0:0:0:0:
64,192,263876,128,0,264088:0:0:0:0:
192,192,263876,128,0,263982:0:0:0:0:
320,192,263982,128,0,264088:0:0:0:0:
192,192,264088,128,0,264193:0:0:0:0:
64,192,264193,128,0,264334:0:0:0:0:
448,192,264193,128,0,264405:0:0:0:0:
320,192,264299,128,0,264405:0:0:0:0:
192,192,264405,128,0,264616:0:0:0:0:
448,192,264510,128,0,264616:0:0:0:0:
64,192,264616,128,0,264721:0:0:0:0:
320,192,264616,128,0,264933:0:0:0:0:
192,192,264721,128,0,264933:0:0:0:0:
64,192,264827,128,0,265144:0:0:0:0:
448,192,264933,128,0,265038:0:0:0:0:
320,192,265038,128,0,265250:0:0:0:0:
192,192,265038,128,0,265179:0:0:0:0:
448,192,265144,128,0,265461:0:0:0:0:
192,192,265250,128,0,265355:0:0:0:0:
64,192,265250,128,0,265355:0:0:0:0:
320,192,265355,128,0,265461:0:0:0:0:
64,192,265461,128,0,265602:0:0:0:0:
192,192,265461,128,0,265531:0:0:0:0:
320,192,265531,128,0,265672:0:0:0:0:
448,192,265602,128,0,265743:0:0:0:0:
192,192,265672,128,0,265778:0:0:0:0:
64,192,265672,128,0,265883:0:0:0:0:
448,192,265883,128,0,266095:0:0:0:0:
320,192,265883,128,0,266024:0:0:0:0:
192,192,265954,128,0,266095:0:0:0:0:
64,192,266024,128,0,266165:0:0:0:0:
320,192,266095,128,0,266306:0:0:0:0:
192,192,266200,128,0,266306:0:0:0:0:
448,192,266306,128,0,266412:0:0:0:0:
64,192,266306,128,0,266447:0:0:0:0:
320,192,266376,128,0,266517:0:0:0:0:
192,192,266447,128,0,266588:0:0:0:0:
64,192,266517,128,0,266623:0:0:0:0:
448,192,266517,128,0,266728:0:0:0:0:
320,192,266623,128,0,266728:0:0:0:0:
192,192,266728,128,0,266869:0:0:0:0:
64,192,266728,128,0,266869:0:0:0:0:
448,192,266799,128,0,266940:0:0:0:0:
320,192,266869,128,0,267010:0:0:0:0:
64,192,266940,128,0,267045:0:0:0:0:
192,192,266940,128,0,267151:0:0:0:0:
448,192,267045,128,0,267151:0:0:0:0:
64,192,267151,128,0,267257:0:0:0:0:
320,192,267151,128,0,267362:0:0:0:0:
192,192,267257,128,0,267397:0:0:0:0:
448,192,267257,128,0,267468:0:0:0:0:
64,192,267362,128,0,267574:0:0:0:0:
320,192,267468,128,0,267574:0:0:0:0:
448,192,267574,128,0,267785:0:0:0:0:
192,192,267574,128,0,267890:0:0:0:0:
320,192,267679,128,0,267838:0:0:0:0:
64,192,267785,128,0,267996:0:0:0:0:
448,192,267890,128,0,267996:0:0:0:0:
320,192,267996,128,0,268155:0:0:0:0:
192,192,267996,128,0,268207:0:0:0:0:
64,192,268102,128,0,268260:0:0:0:0:
448,192,268207,128,0,268313:0:0:0:0:
192,192,268313,128,0,268471:0:0:0:0:
320,192,268419,128,0,268524:0:0:0:0:
448,192,268419,128,0,268577:0:0:0:0:
64,192,268524,128,0,268683:0:0:0:0:
192,192,268630,128,0,268736:0:0:0:0:
320,192,268630,128,0,268788:0:0:0:0:
448,192,268736,128,0,268841:0:0:0:0:
64,192,268841,128,0,268947:0:0:0:0:
192,192,268841,128,0,269052:0:0:0:0:
448,192,268947,128,0,269158:0:0:0:0:
320,192,268947,128,0,269105:0:0:0:0:
64,192,269052,128,0,269264:0:0:0:0:
192,192,269158,128,0,269264:0:0:0:0:
448,192,269264,128,0,269369:0:0:0:0:
320,192,269264,128,0,269475:0:0:0:0:
64,192,269369,128,0,269581:0:0:0:0:
448,192,269475,128,0,269686:0:0:0:0:
192,192,269581,128,0,269686:0:0:0:0:
64,192,269686,128,0,270003:0:0:0:0:
320,192,269686,128,0,269897:0:0:0:0:
448,192,269792,128,0,269897:0:0:0:0:
192,192,269897,128,0,270109:0:0:0:0:
320,192,270003,128,0,270109:0:0:0:0:
448,192,270109,128,0,270320:0:0:0:0:
64,192,270109,128,0,270214:0:0:0:0:
320,192,270214,128,0,270373:0:0:0:0:
192,192,270320,128,0,270426:0:0:0:0:
64,192,270320,128,0,270478:0:0:0:0:
448,192,270426,128,0,270531:0:0:0:0:
192,192,270531,128,0,270690:0:0:0:0:
320,192,270531,128,0,270743:0:0:0:0:
64,192,270637,128,0,270743:0:0:0:0:
448,192,270743,128,0,270848:0:0:0:0:
192,192,270848,128,0,271059:0:0:0:0:
64,192,270954,128,0,271271:0:0:0:0:
448,192,270954,128,0,271271:0:0:0:0:
320,192,271059,128,0,271165:0:0:0:0:
192,192,271165,128,0,271376:0:0:0:0:
320,192,271271,128,0,271376:0:0:0:0:
64,192,271376,128,0,271535:0:0:0:0:
448,192,271376,128,0,271588:0:0:0:0:
192,192,271482,128,0,271640:0:0:0:0:
320,192,271588,128,0,271746:0:0:0:0:
448,192,271693,128,0,271852:0:0:0:0:
64,192,271799,128,0,271905:0:0:0:0:
192,192,271799,128,0,271957:0:0:0:0:
320,192,271905,128,0,272063:0:0:0:0:
64,192,272010,128,0,272081:0:0:0:0:
192,192,272081,128,0,272151:0:0:0:0:
448,192,272151,128,0,272221:0:0:0:0:
64,192,272221,128,0,272559:0:0:0:0:
320,192,272221,128,0,272390:0:0:0:0:
192,192,272306,128,0,272390:0:0:0:0:
448,192,272390,128,0,272559:0:0:0:0:
320,192,272475,128,0,272559:0:0:0:0:
192,192,272559,128,0,272644:0:0:0:0:
64,192,272644,128,0,272897:0:0:0:0:
448,192,272644,128,0,272813:0:0:0:0:
320,192,272728,128,0,272982:0:0:0:0:
192,192,272813,128,0,272897:0:0:0:0:
448,192,272897,128,0,272982:0:0:0:0:
64,192,272982,128,0,273067:0:0:0:0:
320,192,273067,128,0,273172:0:0:0:0:
192,192,273067,128,0,273207:0:0:0:0:
448,192,273137,128,0,273278:0:0:0:0:
64,192,273207,128,0,273278:0:0:0:0:
320,192,273278,128,0,273348:0:0:0:0:
192,192,273383,128,0,273524:0:0:0:0:
320,192,273454,128,0,273559:0:0:0:0:
448,192,273489,128,0,273595:0:0:0:0:
64,192,273524,128,0,273595:0:0:0:0:
192,192,273595,128,0,273700:0:0:0:0:
448,192,273700,1,0,0:0:0:0:
320,192,273700,1,0,0:0:0:0:
320,192,273806,1,0,0:0:0:0:
448,192,273806,1,0,0:0:0:0:
64,192,273912,128,0,273996:0:0:0:0:
192,192,273912,128,0,274081:0:0:0:0:
320,192,273996,128,0,274081:0:0:0:0:
64,192,274081,128,0,274250:0:0:0:0:
448,192,274165,128,0,274250:0:0:0:0:
192,192,274250,128,0,274334:0:0:0:0:
64,192,274334,128,0,274545:0:0:0:0:
320,192,274334,128,0,274503:0:0:0:0:
448,192,274419,128,0,274503:0:0:0:0:
192,192,274503,128,0,274672:0:0:0:0:
320,192,274588,128,0,274672:0:0:0:0:
64,192,274672,128,0,274757:0:0:0:0:
192,192,274757,128,0,274968:0:0:0:0:
448,192,274757,128,0,275074:0:0:0:0:
320,192,274862,128,0,275021:0:0:0:0:
64,192,274968,128,0,275179:0:0:0:0:
192,192,275074,128,0,275179:0:0:0:0:
448,192,275179,128,0,275390:0:0:0:0:
320,192,275179,128,0,275285:0:0:0:0:
64,192,275285,128,0,275496:0:0:0:0:
320,192,275390,128,0,275602:0:0:0:0:
192,192,275496,128,0,275602:0:0:0:0:
64,192,275602,128,0,275813:0:0:0:0:
448,192,275602,128,0,275707:0:0:0:0:
320,192,275707,128,0,275919:0:0:0:0:
192,192,275707,128,0,275866:0:0:0:0:
448,192,275813,128,0,276024:0:0:0:0:
64,192,275919,128,0,276024:0:0:0:0:
320,192,276024,128,0,276130:0:0:0:0:
192,192,276024,128,0,276236:0:0:0:0:
448,192,276130,128,0,276341:0:0:0:0:
64,192,276236,128,0,276341:0:0:0:0:
320,192,276341,128,0,276447:0:0:0:0:
192,192,276447,128,0,276552:0:0:0:0:
64,192,276447,128,0,276764:0:0:0:0:
448,192,276552,128,0,276658:0:0:0:0:
320,192,276552,128,0,276711:0:0:0:0:
192,192,276658,128,0,276817:0:0:0:0:
448,192,276764,128,0,276869:0:0:0:0:
64,192,276869,128,0,277186:0:0:0:0:
320,192,276869,128,0,276975:0:0:0:0:
192,192,276975,128,0,277081:0:0:0:0:
320,192,277081,128,0,277292:0:0:0:0:
448,192,277081,128,0,277186:0:0:0:0:
192,192,277186,128,0,277292:0:0:0:0:
64,192,277292,128,0,277397:0:0:0:0:
448,192,277292,128,0,277609:0:0:0:0:
320,192,277397,128,0,277556:0:0:0:0:
64,192,277503,128,0,277714:0:0:0:0:
192,192,277609,128,0,277714:0:0:0:0:
448,192,277714,128,0,277820:0:0:0:0:
320,192,277714,128,0,277926:0:0:0:0:
64,192,277820,128,0,278031:0:0:0:0:
448,192,277926,128,0,278137:0:0:0:0:
320,192,278031,128,0,278137:0:0:0:0:
192,192,278137,128,0,278401:0:0:0:0:
64,192,278137,128,0,278243:0:0:0:0:
320,192,278243,128,0,278507:0:0:0:0:
448,192,278243,128,0,278348:0:0:0:0:
64,192,278348,128,0,278454:0:0:0:0:
448,192,278454,128,0,278559:0:0:0:0:
64,192,278559,128,0,278876:0:0:0:0:
192,192,278559,128,0,278665:0:0:0:0:
320,192,278665,128,0,278771:0:0:0:0:
448,192,278771,128,0,278876:0:0:0:0:
192,192,278771,128,0,278982:0:0:0:0:
320,192,278876,128,0,278982:0:0:0:0:
448,192,278982,128,0,279299:0:0:0:0:
64,192,278982,128,0,279193:0:0:0:0:
192,192,279088,128,0,279193:0:0:0:0:
320,192,279193,128,0,279299:0:0:0:0:
192,192,279299,128,0,279405:0:0:0:0:
448,192,279405,128,0,279510:0:0:0:0:
320,192,279405,128,0,279721:0:0:0:0:
64,192,279510,128,0,279616:0:0:0:0:
448,192,279616,128,0,279721:0:0:0:0:
64,192,279721,128,0,279827:0:0:0:0:
192,192,279827,128,0,279933:0:0:0:0:
320,192,279827,128,0,280038:0:0:0:0:
448,192,279933,128,0,280250:0:0:0:0:
192,192,280038,128,0,280144:0:0:0:0:
320,192,280144,128,0,280250:0:0:0:0:
64,192,280250,128,0,280355:0:0:0:0:
192,192,280250,128,0,280567:0:0:0:0:
448,192,280355,128,0,280461:0:0:0:0:
320,192,280355,128,0,280567:0:0:0:0:
64,192,280461,128,0,280567:0:0:0:0:
448,192,280567,128,0,280672:0:0:0:0:
320,192,280672,128,0,280883:0:0:0:0:
64,192,280672,128,0,280778:0:0:0:0:
192,192,280778,128,0,280883:0:0:0:0:
64,192,280883,128,0,280989:0:0:0:0:
448,192,280883,128,0,281095:0:0:0:0:
320,192,280989,128,0,281095:0:0:0:0:
192,192,281095,1,0,0:0:0:0:
64,192,281095,128,0,281306:0:0:0:0:
320,192,281200,128,0,281306:0:0:0:0:
192,192,281306,128,0,281412:0:0:0:0:
448,192,281306,128,0,281517:0:0:0:0:
64,192,281412,128,0,281517:0:0:0:0:
320,192,281517,128,0,281728:0:0:0:0:
64,192,281623,1,0,0:0:0:0:
448,192,281623,128,0,281834:0:0:0:0:
192,192,281728,128,0,281940:0:0:0:0:
64,192,281834,128,0,281940:0:0:0:0:
448,192,281940,1,0,0:0:0:0:
320,192,281940,128,0,282151:0:0:0:0:
192,192,282045,128,0,282257:0:0:0:0:
64,192,282151,128,0,282257:0:0:0:0:
448,192,282257,1,0,0:0:0:0:
320,192,282257,128,0,282362:0:0:0:0:
192,192,282362,128,0,282574:0:0:0:0:
448,192,282468,128,0,282574:0:0:0:0:
320,192,282574,1,0,0:0:0:0:
64,192,282574,128,0,282785:0:0:0:0:
192,192,282679,128,0,282890:0:0:0:0:
448,192,282785,128,0,282996:0:0:0:0:
64,192,282890,1,0,0:0:0:0:
320,192,282890,128,0,283102:0:0:0:0:
192,192,282996,128,0,283207:0:0:0:0:
64,192,283102,128,0,283207:0:0:0:0:
448,192,283207,128,0,283419:0:0:0:0:
320,192,283313,1,0,0:0:0:0:
192,192,283313,128,0,283524:0:0:0:0:
64,192,283419,128,0,283630:0:0:0:0:
320,192,283524,128,0,283736:0:0:0:0:
192,192,283630,128,0,283841:0:0:0:0:
448,192,283630,1,0,0:0:0:0:
64,192,283736,128,0,283841:0:0:0:0:
320,192,283841,128,0,284052:0:0:0:0:
448,192,283841,128,0,283947:0:0:0:0:
64,192,283947,128,0,284052:0:0:0:0:
448,192,284052,128,0,284264:0:0:0:0:
192,192,284052,128,0,284158:0:0:0:0:
320,192,284158,128,0,284264:0:0:0:0:
64,192,284264,128,0,284475:0:0:0:0:
192,192,284369,128,0,284475:0:0:0:0:
448,192,284475,1,0,0:0:0:0:
320,192,284475,128,0,284686:0:0:0:0:
64,192,284581,128,0,284792:0:0:0:0:
192,192,284686,128,0,284897:0:0:0:0:
448,192,284792,128,0,284897:0:0:0:0:
320,192,284897,128,0,285109:0:0:0:0:
64,192,285003,1,0,0:0:0:0:
192,192,285003,128,0,285214:0:0:0:0:
448,192,285109,128,0,285320:0:0:0:0:
320,192,285214,128,0,285320:0:0:0:0:
192,192,285320,1,0,0:0:0:0:
64,192,285320,128,0,285531:0:0:0:0:
448,192,285426,128,0,285637:0:0:0:0:
320,192,285531,128,0,285743:0:0:0:0:
192,192,285637,128,0,285743:0:0:0:0:
64,192,285743,128,0,286059:0:0:0:0:
448,192,285743,128,0,285848:0:0:0:0:
192,192,285848,128,0,285954:0:0:0:0:
320,192,285954,128,0,286271:0:0:0:0:
448,192,285954,128,0,286059:0:0:0:0:
192,192,286059,128,0,286165:0:0:0:0:
64,192,286165,128,0,286482:0:0:0:0:
448,192,286165,128,0,286376:0:0:0:0:
192,192,286271,128,0,286482:0:0:0:0:
320,192,286376,128,0,286693:0:0:0:0:
448,192,286482,128,0,286693:0:0:0:0:
192,192,286588,128,0,287010:0:0:0:0:
64,192,286693,128,0,286905:0:0:0:0:
448,192,286799,128,0,287116:0:0:0:0:
320,192,286905,128,0,287116:0:0:0:0:
64,192,287010,128,0,287221:0:0:0:0:
192,192,287116,128,0,287221:0:0:0:0:
320,192,287221,128,0,287327:0:0:0:0:
448,192,287221,128,0,287433:0:0:0:0:
192,192,287327,1,0,0:0:0:0:
320,192,287433,1,0,0:0:0:0:
192,192,287433,128,0,287644:0:0:0:0:
64,192,287433,128,0,287538:0:0:0:0:
448,192,287538,128,0,287644:0:0:0:0:
64,192,287644,128,0,287750:0:0:0:0:
320,192,287644,128,0,287855:0:0:0:0:
192,192,287750,128,0,287855:0:0:0:0:
448,192,287855,1,0,0:0:0:0:
64,192,287855,128,0,288067:0:0:0:0:
320,192,287961,128,0,288172:0:0:0:0:
448,192,288067,128,0,288278:0:0:0:0:
192,192,288172,128,0,288278:0:0:0:0:
320,192,288278,128,0,288489:0:0:0:0:
448,192,288383,1,0,0:0:0:0:
192,192,288383,128,0,288595:0:0:0:0:
64,192,288489,128,0,288700:0:0:0:0:
448,192,288595,128,0,288700:0:0:0:0:
192,192,288700,1,0,0:0:0:0:
320,192,288700,128,0,288912:0:0:0:0:
448,192,288806,128,0,288912:0:0:0:0:
192,192,288912,128,0,289017:0:0:0:0:
64,192,288912,128,0,289123:0:0:0:0:
320,192,289017,128,0,289123:0:0:0:0:
448,192,289123,128,0,289334:0:0:0:0:
320,192,289228,128,0,289334:0:0:0:0:
64,192,289228,1,0,0:0:0:0:
192,192,289334,128,0,289545:0:0:0:0:
64,192,289440,128,0,289545:0:0:0:0:
448,192,289545,1,0,0:0:0:0:
320,192,289545,128,0,289757:0:0:0:0:
64,192,289651,128,0,289862:0:0:0:0:
448,192,289757,128,0,289862:0:0:0:0:
320,192,289862,1,0,0:0:0:0:
192,192,289862,128,0,289968:0:0:0:0:
64,192,289968,128,0,290074:0:0:0:0:
448,192,289968,128,0,290179:0:0:0:0:
320,192,290074,128,0,290179:0:0:0:0:
192,192,290179,128,0,290285:0:0:0:0:
64,192,290179,128,0,290390:0:0:0:0:
320,192,290285,128,0,290496:0:0:0:0:
448,192,290390,128,0,290496:0:0:0:0:
192,192,290496,128,0,290602:0:0:0:0:
64,192,290496,1,0,0:0:0:0:
320,192,290602,128,0,290707:0:0:0:0:
448,192,290602,1,0,0:0:0:0:
64,192,290707,128,0,290813:0:0:0:0:
192,192,290707,1,0,0:0:0:0:
320,192,290813,128,0,291130:0:0:0:0:
448,192,290813,128,0,290919:0:0:0:0:
192,192,290813,128,0,290919:0:0:0:0:
64,192,291024,128,0,291341:0:0:0:0:
192,192,291024,128,0,291130:0:0:0:0:
448,192,291024,128,0,291130:0:0:0:0:
320,192,291236,128,0,291552:0:0:0:0:
448,192,291236,128,0,291341:0:0:0:0:
192,192,291236,128,0,291341:0:0:0:0:
64,192,291447,128,0,291552:0:0:0:0:
192,192,291447,128,0,291552:0:0:0:0:
448,192,291447,128,0,291764:0:0:0:0:
320,192,291658,128,0,291764:0:0:0:0:
192,192,291658,128,0,291764:0:0:0:0:
64,192,291658,128,0,291975:0:0:0:0:
448,192,291869,128,0,292081:0:0:0:0:
320,192,291869,128,0,292081:0:0:0:0:
192,192,291869,128,0,291975:0:0:0:0:
64,192,292081,128,0,292186:0:0:0:0:
192,192,292081,128,0,292292:0:0:0:0:
320,192,292186,128,0,292397:0:0:0:0:
64,192,292292,128,0,292397:0:0:0:0:
448,192,292292,128,0,292503:0:0:0:0:
192,192,292397,128,0,292503:0:0:0:0:
64,192,292503,128,0,292609:0:0:0:0:
320,192,292503,1,0,0:0:0:0:
448,192,292609,128,0,292714:0:0:0:0:
192,192,292609,1,0,0:0:0:0:
64,192,292714,128,0,292820:0:0:0:0:
320,192,292820,128,0,292926:0:0:0:0:
448,192,292820,1,0,0:0:0:0:
192,192,292926,128,0,293031:0:0:0:0:
64,192,292926,1,0,0:0:0:0:
448,192,293031,128,0,293137:0:0:0:0:
64,192,293137,128,0,293243:0:0:0:0:
320,192,293243,1,0,0:0:0:0:
192,192,293243,128,0,293348:0:0:0:0:
320,192,293348,128,0,293559:0:0:0:0:
448,192,293348,128,0,293665:0:0:0:0:
64,192,293348,128,0,293559:0:0:0:0:
320,192,293665,128,0,293876:0:0:0:0:
64,192,293665,128,0,293982:0:0:0:0:
192,192,293665,128,0,293876:0:0:0:0:
320,192,293982,128,0,294510:0:0:0:0:
448,192,293982,128,0,294299:0:0:0:0:
192,192,293982,128,0,294405:0:0:0:0:
448,192,294405,128,0,294616:0:0:0:0:
192,192,294510,128,0,294616:0:0:0:0:
64,192,294616,1,0,0:0:0:0:
448,192,294827,128,0,295038:0:0:0:0:
192,192,294933,128,0,295038:0:0:0:0:
448,192,295250,128,0,295461:0:0:0:0:
192,192,295355,128,0,295461:0:0:0:0:
448,192,295672,128,0,295883:0:0:0:0:
192,192,295778,128,0,295883:0:0:0:0:
448,192,296095,1,0,0:0:0:0:
192,192,296200,1,0,0:0:0:0:
448,192,296517,1,0,0:0:0:0:
192,192,296623,1,0,0:0:0:0:
448,192,296940,1,0,0:0:0:0:
192,192,297045,1,0,0:0:0:0:
448,192,297362,1,0,0:0:0:0:
192,192,297468,1,0,0:0:0:0:
