osu file format v14

[General]
AudioFilename: audio.mp3
AudioLeadIn: 0
PreviewTime: 68095
Countdown: 0
SampleSet: Normal
StackLeniency: 0
Mode: 1
LetterboxInBreaks: 0
WidescreenStoryboard: 0

[Editor]
DistanceSpacing: 2
BeatDivisor: 4
GridSize: 32
TimelineZoom: 3.999998

[Metadata]
Title:Endroll
TitleUnicode:エンドロール
Artist:PSYQUI feat. mikanzil
ArtistUnicode:PSYQUI feat. mikanzil
Creator:MTNTWarz
Version:Powerless
Source:
Tags:taikoseania japanese jrock j-rock みかん汁 Rock Alternative フォースピース 4th peace みかん汁ふりかけ mikanzil-furikake mikanzil-spice MKNZ-3333
BeatmapID:3507786
BeatmapSetID:1716530

[Difficulty]
HPDrainRate:5
CircleSize:5
OverallDifficulty:6
ApproachRate:5
SliderMultiplier:1.4
SliderTickRate:1

[Events]
//Background and Video events
0,0,"cool bgg.jpg",0,70
//Break Periods
2,243626,246726
//Storyboard Layer 0 (Background)
//Storyboard Layer 1 (Fail)
//Storyboard Layer 2 (Pass)
//Storyboard Layer 3 (Foreground)
//Storyboard Layer 4 (Overlay)
//Storyboard Sound Samples

[TimingPoints]
98,333.333333333333,4,1,0,50,1,0
98,-125,4,1,0,50,0,0
2764,333.333333333333,4,1,0,80,1,0
2764,-117.647058823529,4,1,0,70,0,0
2930,-116.228038306715,4,1,0,70,0,0
3013,-115.531287918183,4,1,0,70,0,0
3097,-114.834596829773,4,1,0,70,0,0
3263,-113.482221402423,4,1,0,70,0,0
3347,-112.809952325877,4,1,0,70,0,0
3430,-112.153464305246,4,1,0,70,0,0
3597,-110.855463768919,4,1,0,70,0,0
3680,-110.221462728939,4,1,0,70,0,0
3763,-109.594672367015,4,1,0,70,0,0
3847,-108.96754679964,4,1,0,70,0,0
3930,-108.354896833891,4,1,0,70,0,0
4013,-107.749097375653,4,1,0,70,0,0
4097,-107.142857142857,4,1,0,70,0,0
4263,-105.964651951562,4,1,0,70,0,0
4347,-105.378270837176,4,1,0,70,0,0
4430,-104.805210121473,4,1,0,70,0,0
4597,-103.670866386685,4,1,0,70,0,0
4680,-103.116176527468,4,1,0,70,0,0
4763,-102.567390802534,4,1,0,70,0,0
4930,-101.480720185756,4,1,0,70,0,0
5013,-100.949159388095,4,1,0,70,0,0
5097,-100.416834069908,4,1,0,70,0,0
5180,-99.896331638834,4,1,0,70,0,0
5263,-99.381197345858,4,1,0,70,0,0
5347,-98.865237706742,4,1,0,70,0,0
5430,-98.360655737705,4,1,0,70,0,0
5597,-97.360860885232,4,1,0,70,0,0
5680,-96.871479960757,4,1,0,70,0,0
5763,-96.386994143026,4,1,0,70,0,0
5930,-95.426723777934,4,1,0,70,0,0
6013,-94.956546516598,4,1,0,70,0,0
6097,-94.485398355543,4,1,0,70,0,0
6180,-94.024428952659,4,1,0,70,0,0
6263,-93.567935609163,4,1,0,70,0,0
6347,-93.110433304617,4,1,0,70,0,0
6430,-92.662750686455,4,1,0,70,0,0
6513,-92.21935245826,4,1,0,70,0,0
6597,-91.774911644559,4,1,0,70,0,0
6680,-91.339949522058,4,1,0,70,0,0
6763,-90.909090909091,4,1,0,70,0,0
8097,-100,4,1,0,70,0,0
17430,-100,4,1,0,70,0,0
17597,-98.034600447217,4,1,0,70,0,0
17680,-97.086247086247,4,1,0,70,0,0
17763,-96.156066027935,4,1,0,70,0,0
17930,-94.337485843715,4,1,0,70,0,0
18013,-93.45899248289,4,1,0,70,0,0
18097,-92.586417694787,4,1,0,70,0,0
18180,-91.740088105727,4,1,0,70,0,0
18263,-90.909090909091,4,1,0,70,0,0
18763,-100,4,1,0,70,0,0
28097,-100,4,1,0,70,0,0
28263,-98.770005927682,4,1,0,70,0,0
28347,-98.159057437408,4,1,0,70,0,0
28430,-97.562760740687,4,1,0,70,0,0
28597,-96.384671005061,4,1,0,70,0,0
28680,-95.809674405233,4,1,0,70,0,0
28763,-95.241497570734,4,1,0,70,0,0
28930,-94.118477723646,4,1,0,70,0,0
29013,-93.570124947354,4,1,0,70,0,0
29097,-93.021632937893,4,1,0,70,0,0
29180,-92.485950183862,4,1,0,70,0,0
29263,-91.956401766004,4,1,0,70,0,0
29347,-91.426611796982,4,1,0,70,0,0
29430,-90.909090909091,4,1,0,70,0,0
29597,-92.488555971702,4,1,0,50,0,0
29763,-94.113910650011,4,1,0,50,0,0
29930,-95.807737902791,4,1,0,50,0,0
30097,-97.563652326602,4,1,0,50,0,0
30263,-99.374021909233,4,1,0,50,0,0
30430,-101.264380908987,4,1,0,50,0,0
30597,-103.228053878309,4,1,0,50,0,0
30763,-105.256926355671,4,1,0,50,0,0
30930,-107.380118371784,4,1,0,50,0,0
31097,-109.590729783037,4,1,0,50,0,0
31263,-111.880191291216,4,1,0,50,0,0
31430,-114.282041393495,4,1,0,50,0,0
31597,-116.789280084078,4,1,0,50,0,0
31763,-119.392962664518,4,1,0,50,0,0
31930,-122.132161011128,4,1,0,50,0,0
32097,-100,4,1,0,60,0,0
32430,-111.111111111111,4,1,0,60,0,0
42430,-76.923076923077,4,1,0,60,0,0
42763,-90.909090909091,4,1,0,60,0,0
42930,-100,4,1,0,60,0,0
52263,-100,4,1,0,60,0,0
52347,-98.580841358338,4,1,0,60,0,0
52430,-97.217594135288,4,1,0,60,0,0
52513,-95.891536565325,4,1,0,60,0,0
52597,-94.585832387745,4,1,0,60,0,0
52680,-93.330134357006,4,1,0,60,0,0
52763,-92.107340173639,4,1,0,60,0,0
52847,-90.902009658825,4,1,0,60,0,0
52930,-89.741617963703,4,1,0,60,0,0
53013,-88.610478359909,4,1,0,60,0,0
53097,-87.494376968061,4,1,0,60,0,0
53180,-86.418838862559,4,1,0,60,0,0
53263,-85.369422092173,4,1,0,60,0,0
53347,-84.332996097702,4,1,0,60,0,0
53430,333.333333333333,7,1,0,70,1,0
53430,-83.333333333333,4,1,0,70,0,0
53930,-76.923076923077,4,1,0,70,0,0
54430,-71.428571428571,4,1,0,70,0,0
54930,-66.666666666667,4,1,0,70,0,0
55430,-100,4,1,0,70,0,0
55596,-90.909090909091,4,1,0,70,0,0
55763,-83.333333333333,4,1,0,70,0,0
56263,-76.923076923077,4,1,0,70,0,0
56763,-71.428571428571,4,1,0,70,0,0
57263,-66.666666666667,4,1,0,70,0,0
57763,-100,4,1,0,70,0,0
57929,-90.909090909091,4,1,0,70,0,0
58096,-83.333333333333,4,1,0,70,0,0
58596,-76.923076923077,4,1,0,70,0,0
59096,-71.428571428571,4,1,0,70,0,0
59596,-66.666666666667,4,1,0,70,0,0
60096,-100,4,1,0,70,0,0
60263,-90.909090909091,4,1,0,70,0,0
60429,333.333333333333,4,1,0,70,1,0
60429,-83.333333333333,4,1,0,70,0,0
60929,-76.923076923077,4,1,0,70,0,0
61429,-71.428571428571,4,1,0,70,0,0
61929,-66.666666666667,4,1,0,70,0,0
62429,-100,4,1,0,70,0,0
62595,-95.25171624714,4,1,0,70,0,0
62762,-90.909090909091,4,1,0,70,0,0
62929,-86.945169712794,4,1,0,70,0,0
63095,333.333333333333,4,1,0,70,1,0
63095,-76.923076923077,4,1,0,70,0,0
63261,-82.760903749069,4,1,0,70,0,0
63345,-82.474226804124,4,1,0,70,0,0
63428,-82.192906752147,4,1,0,70,0,0
63595,-74.074074074074,4,1,0,70,0,0
63761,-81.083272520879,4,1,0,70,0,0
63845,-80.808080808081,4,1,0,70,0,0
63928,-80.537993798574,4,1,0,70,0,0
64095,-71.428571428571,4,1,0,70,0,0
64261,-79.47230390209,4,1,0,70,0,0
64345,-79.207920792079,4,1,0,70,0,0
64428,-78.948407215884,4,1,0,70,0,0
64511,-78.690588605603,4,1,0,70,0,0
64595,-68.965517241379,4,1,0,70,0,0
64761,-77.924101924725,4,1,0,70,0,0
64845,-77.669902912621,4,1,0,70,0,0
64928,-77.420353811017,4,1,0,70,0,0
65011,-77.172403148634,4,1,0,70,0,0
65095,-66.666666666667,4,1,0,70,0,0
65261,-90.909090909091,4,1,0,70,0,0
65345,-90.158293186511,4,1,0,70,0,0
65428,-89.42851570119,4,1,0,70,0,0
65511,-88.710457579569,4,1,0,70,0,0
65595,-87.995393916131,4,1,0,70,0,0
65678,-87.300076161462,4,1,0,70,0,0
65761,-66.666666666667,4,1,0,70,0,0
65928,-85.270596987168,4,1,0,70,0,0
66011,-84.61751407216,4,1,0,70,0,0
66095,-83.96666971889,4,1,0,70,0,0
66178,-83.333333333333,4,1,0,70,0,0
66261,-82.709479570668,4,1,0,70,0,0
66345,-82.087548115657,4,1,0,70,0,0
66428,-81.482139683668,4,1,0,70,0,0
66511,-80.885595836641,4,1,0,70,0,0
66595,-80.290692583837,4,1,0,70,0,0
66678,-79.71140472879,4,1,0,70,0,0
66761,-79.14041598343,4,1,0,70,0,0
66845,-78.570816553851,4,1,0,70,0,0
66928,-78.015994555045,4,1,0,70,0,0
67011,-77.468953282082,4,1,0,70,0,0
67095,-76.923076923077,4,1,0,70,0,0
67261,-79.987202047672,4,1,0,70,0,0
67428,-83.326389467544,4,1,0,70,0,0
67595,-86.95652173913,4,1,0,70,0,0
67761,-90.892564988184,4,1,0,70,0,0
67928,-95.229025807066,4,1,0,70,0,0
68095,333.333333333333,9,1,0,70,1,0
68095,-100,4,1,0,70,0,0
71095,333.333333333333,4,1,0,80,1,1
71095,-86.95652173913,4,1,0,80,0,1
80428,-100,4,1,0,80,0,1
80594,-100,4,1,0,80,0,1
80761,-97.898578079779,4,1,0,80,0,1
80928,-95.883657875277,4,1,0,80,0,1
81094,-93.961352657005,4,1,0,80,0,1
81178,-93.017694882831,4,1,0,80,0,1
81261,-92.103705457559,4,1,0,80,0,1
81344,-91.207502930832,4,1,0,80,0,1
81428,-90.318086835384,4,1,0,80,0,1
81511,-89.456134299184,4,1,0,80,0,1
81594,-88.610478359909,4,1,0,80,0,1
81678,-87.770758122744,4,1,0,80,0,1
81761,-86.95652173913,4,1,0,80,0,1
89761,-76.923076923077,4,1,0,80,0,1
91761,-100,4,1,0,80,0,1
91844,-98.167635587608,4,1,0,80,0,1
91928,-96.380319341088,4,1,0,80,0,1
92011,-94.677075940383,4,1,0,80,0,1
92094,-93.032986958644,4,1,0,80,0,1
92178,-91.426221643479,4,1,0,80,0,1
92261,-89.89218328841,4,1,0,80,0,1
92344,-88.408774604016,4,1,0,80,0,1
92428,-86.95652173913,4,1,0,80,0,1
101761,-100,4,1,0,80,0,1
101928,-100,4,1,0,80,0,1
102094,-97.909144344613,4,1,0,80,0,1
102261,-95.892100826514,4,1,0,80,0,1
102428,-93.956486704271,4,1,0,80,0,1
102511,-93.023255813953,4,1,0,80,0,1
102594,-92.108381388735,4,1,0,80,0,1
102678,-91.200625733281,4,1,0,80,0,1
102761,-90.321081374182,4,1,0,80,0,1
102844,-89.458339726868,4,1,0,80,0,1
102928,-88.601823708207,4,1,0,80,0,1
103011,-87.771462983176,4,1,0,80,0,1
103094,-86.95652173913,4,1,0,80,0,1
105761,-86.95652173913,4,1,0,80,0,1
105928,-85.88776448942,4,1,0,80,0,1
106011,-85.366299696427,4,1,0,80,0,1
106094,-84.851128803577,4,1,0,80,0,1
106178,-84.336043360434,4,1,0,80,0,1
106261,-83.833195646708,4,1,0,80,0,1
106344,-83.336308779948,4,1,0,80,0,1
106428,-82.839396628217,4,1,0,80,0,1
106511,-82.354186514237,4,1,0,80,0,1
106594,-81.874627284527,4,1,0,80,0,1
106678,-81.394943330427,4,1,0,80,0,1
106761,-80.92645886065,4,1,0,80,0,1
106928,-80,4,1,0,80,0,0
108428,-111.111111111111,4,1,0,70,0,0
108594,-109.381593136106,4,1,0,70,0,0
108928,-106.059917261445,4,1,0,70,0,0
109094,-104.482959380178,4,1,0,70,0,0
109178,-103.702715917678,4,1,0,70,0,0
109261,-102.943123152275,4,1,0,70,0,0
109428,-101.448014958473,4,1,0,70,0,0
109594,-100.004286510352,4,1,0,70,0,0
109678,-99.289270970762,4,1,0,70,0,0
109761,-98.592739720238,4,1,0,70,0,0
109844,-97.905912963196,4,1,0,70,0,0
109928,-97.22048589407,4,1,0,70,0,0
110011,-96.552580391508,4,1,0,70,0,0
110094,-95.893789304945,4,1,0,70,0,0
110178,-95.236151365473,4,1,0,70,0,0
110261,-94.595142521186,4,1,0,70,0,0
110344,-93.962704901526,4,1,0,70,0,0
110428,-93.331199743969,4,1,0,70,0,0
110511,-92.715494972777,4,1,0,70,0,0
110594,-92.107860555095,4,1,0,70,0,0
110678,-91.50096089736,4,1,0,70,0,0
110761,-90.909090909091,4,1,0,70,0,0
111094,-90.9090909090909,4,1,0,60,0,0
111261,-100,4,1,0,60,0,0
120928,-100,4,1,0,60,0,0
121011,-99.013431593962,4,1,0,60,0,0
121094,-98.046139359699,4,1,0,60,0,0
121178,-97.086247086247,4,1,0,60,0,0
121261,-96.156066027935,4,1,0,60,0,0
121344,-95.243539903956,4,1,0,60,0,0
121428,-94.337485843715,4,1,0,60,0,0
121511,-93.45899248289,4,1,0,60,0,0
121594,-92.596709648733,4,1,0,60,0,0
121678,-91.740088105727,4,1,0,60,0,0
121761,-90.909090909091,4,1,0,60,0,0
122094,-95.238095238095,4,1,0,60,0,0
131094,-95.238095238095,4,1,0,60,0,0
131261,-93.564790461161,4,1,0,60,0,0
131344,-92.754832429426,4,1,0,60,0,0
131428,-91.949269368624,4,1,0,60,0,0
131594,-90.397777326015,4,1,0,60,0,0
131678,-89.6324665726,4,1,0,60,0,0
131761,-88.888888888889,4,1,0,60,0,0
131844,-88.157546920434,4,1,0,60,0,0
131928,-87.429545156639,4,1,0,60,0,0
132011,-86.721924264586,4,1,0,60,0,0
132094,-86.025665828336,4,1,0,60,0,0
132261,-84.658099317785,4,1,0,60,0,0
132428,333.333333333333,7,1,0,80,1,0
132428,-83.333333333333,4,1,0,60,0,0
132928,-76.923076923077,4,1,0,60,0,0
133428,-71.428571428571,4,1,0,60,0,0
133928,-66.666666666667,4,1,0,60,0,0
134428,-100,4,1,0,60,0,0
134594,-90.909090909091,4,1,0,60,0,0
134761,-83.333333333333,4,1,0,60,0,0
135261,-76.923076923077,4,1,0,60,0,0
135761,-71.428571428571,4,1,0,60,0,0
136261,-66.666666666667,4,1,0,60,0,0
136761,-100,4,1,0,60,0,0
136928,-90.909090909091,4,1,0,60,0,0
137094,-83.333333333333,4,1,0,60,0,0
137594,-76.923076923077,4,1,0,60,0,0
138094,-71.428571428571,4,1,0,60,0,0
138594,-66.666666666667,4,1,0,60,0,0
139094,-100,4,1,0,60,0,0
139261,-90.909090909091,4,1,0,60,0,0
139427,333.333333333333,4,1,0,80,1,0
139427,-83.333333333333,4,1,0,60,0,0
139927,-76.923076923077,4,1,0,60,0,0
140427,-71.428571428571,4,1,0,60,0,0
140927,-66.666666666667,4,1,0,60,0,0
141427,-100,4,1,0,60,0,0
141593,-95.25171624714,4,1,0,60,0,0
141760,-90.909090909091,4,1,0,60,0,0
141927,-86.945169712794,4,1,0,60,0,0
142093,333.333333333333,4,1,0,80,1,0
142093,-76.923076923077,4,1,0,60,0,0
142259,-82.760903749069,4,1,0,60,0,0
142343,-82.474226804124,4,1,0,60,0,0
142426,-82.192906752147,4,1,0,60,0,0
142593,-74.074074074074,4,1,0,60,0,0
142759,-81.083272520879,4,1,0,60,0,0
142843,-80.808080808081,4,1,0,60,0,0
142926,-80.537993798574,4,1,0,60,0,0
143093,-71.428571428571,4,1,0,60,0,0
143259,-79.47230390209,4,1,0,60,0,0
143343,-79.207920792079,4,1,0,60,0,0
143426,-78.948407215884,4,1,0,60,0,0
143509,-78.690588605603,4,1,0,60,0,0
143593,-68.965517241379,4,1,0,60,0,0
143759,-77.924101924725,4,1,0,60,0,0
143843,-77.669902912621,4,1,0,60,0,0
143926,-77.420353811017,4,1,0,60,0,0
144009,-77.172403148634,4,1,0,60,0,0
144093,-66.666666666667,4,1,0,60,0,0
144259,-90.909090909091,4,1,0,60,0,0
144343,-88.214537755822,4,1,0,60,0,0
144426,-85.704490915324,4,1,0,60,0,0
144509,-83.333333333333,4,1,0,60,0,0
144593,-81.0635538262,4,1,0,60,0,0
144676,-78.939059046416,4,1,0,60,0,0
144759,-66.666666666667,4,1,0,60,0,0
144926,-76.923076923077,4,1,0,60,0,0
145009,-76.923401726531,4,1,0,60,0,0
145093,-76.925722673529,4,1,0,60,0,0
145176,-76.931953686964,4,1,0,60,0,0
145259,-76.944058381391,4,1,0,60,0,0
145343,-76.964289076486,4,1,0,60,0,0
145426,-76.994148444718,4,1,0,60,0,0
145509,-77.03580345903,4,1,0,60,0,0
145593,-77.092010023093,4,1,0,60,0,0
145676,-77.163470812917,4,1,0,60,0,0
145759,-77.252821174639,4,1,0,60,0,0
145843,-77.363603973051,4,1,0,60,0,0
145926,-77.495350278983,4,1,0,60,0,0
146009,-77.651465128917,4,1,0,60,0,0
146093,-77.836610181004,4,1,0,60,0,0
146176,-78.048780487805,4,1,0,60,0,0
146259,-78.292502720941,4,1,0,60,0,0
146343,-78.573959057526,4,1,0,60,0,0
146426,-78.889239507731,4,1,0,60,0,0
146509,-79.244419921717,4,1,0,60,0,0
146593,-79.647709670236,4,1,0,60,0,0
146676,-80.092907773017,4,1,0,60,0,0
146759,-80.588183803702,4,1,0,60,0,0
146843,-81.144442866985,4,1,0,60,0,0
146926,-81.752779594506,4,1,0,60,0,0
147009,-82.424187372632,4,1,0,60,0,0
147093,-83.173191534835,4,1,0,60,0,0
147259,-84.882675327602,4,1,0,60,0,0
147426,-86.95652173913,4,1,0,80,0,1
156759,-100,4,1,0,80,0,1
156926,-100,4,1,0,80,0,1
157092,-97.909144344613,4,1,0,80,0,1
157259,-95.892100826514,4,1,0,80,0,1
157426,-93.956486704271,4,1,0,80,0,1
157509,-93.023255813953,4,1,0,80,0,1
157592,-92.108381388735,4,1,0,80,0,1
157676,-91.200625733281,4,1,0,80,0,1
157759,-90.321081374182,4,1,0,80,0,1
157842,-89.458339726868,4,1,0,80,0,1
157926,-88.601823708207,4,1,0,80,0,1
158009,-87.771462983176,4,1,0,80,0,1
158092,-86.95652173913,4,1,0,80,0,1
166092,-76.923076923077,4,1,0,80,0,1
168092,-100,4,1,0,80,0,1
168176,-98.145968216598,4,1,0,80,0,1
168259,-96.380319341088,4,1,0,80,0,1
168342,-94.677075940383,4,1,0,80,0,1
168426,-93.013526704783,4,1,0,80,0,1
168509,-91.426221643479,4,1,0,80,0,1
168592,-89.89218328841,4,1,0,80,0,1
168676,-88.391200636099,4,1,0,80,0,1
168759,-86.95652173913,4,1,0,80,0,1
178092,-100,4,1,0,80,0,1
178259,-100,4,1,0,80,0,1
178426,-97.898578079779,4,1,0,80,0,1
178592,-95.895476395908,4,1,0,80,0,1
178759,-93.961352657005,4,1,0,80,0,1
178842,-93.02881741002,4,1,0,80,0,1
178926,-92.103705457559,4,1,0,80,0,1
179009,-91.207502930832,4,1,0,80,0,1
179092,-90.328573087194,4,1,0,80,0,1
179176,-89.456134299184,4,1,0,80,0,1
179259,-88.610478359909,4,1,0,80,0,1
179342,-87.780661175674,4,1,0,80,0,1
179426,-86.95652173913,4,1,0,80,0,1
182092,-86.95652173913,4,1,0,80,0,1
182259,-86.252061705637,4,1,0,80,0,1
182342,-85.906169976325,4,1,0,80,0,1
182426,-85.558924017131,4,1,0,80,0,1
182592,-84.880889864897,4,1,0,80,0,1
182676,-84.541866768104,4,1,0,80,0,1
182759,-84.209529222317,4,1,0,80,0,1
182842,-83.879794310516,4,1,0,80,0,1
182926,-83.548705417978,4,1,0,80,0,1
183009,-83.224115334207,4,1,0,80,0,1
183092,-82.902037581014,4,1,0,80,0,1
183259,-82.261497177755,4,1,0,80,0,1
183426,-81.630779119416,4,1,0,80,0,1
183592,-81.013350344011,4,1,0,80,0,1
183676,-80.704461894603,4,1,0,80,0,1
183759,-80.401555575653,4,1,0,80,0,1
183842,-80.100914538001,4,1,0,80,0,1
183926,-79.798931825322,4,1,0,80,0,1
184009,-79.502772312645,4,1,0,80,0,1
184092,-79.208802958079,4,1,0,80,0,1
184176,-78.913496959744,4,1,0,80,0,1
184259,-78.623861324843,4,1,0,80,0,1
184342,-78.336344010222,4,1,0,80,0,1
184426,-78.047495720118,4,1,0,80,0,1
184509,-77.764170748775,4,1,0,80,0,1
184592,-77.482895367586,4,1,0,80,0,1
184676,-77.200295254223,4,1,0,80,0,1
184759,-76.923076923077,4,1,0,80,0,0
185092,-79.543129901125,4,1,0,70,0,0
185426,-82.356678904264,4,1,0,70,0,0
185759,-85.367192359764,4,1,0,70,0,0
186092,-88.606152677554,4,1,0,70,0,0
186426,-92.111497157296,4,1,0,70,0,0
186759,-95.893789304945,4,1,0,70,0,0
187092,-100,4,1,0,70,0,0
187426,-76.923076923077,4,1,0,70,0,0
187759,-79.543129901125,4,1,0,70,0,0
188092,-82.347958067135,4,1,0,70,0,0
188426,-85.367192359764,4,1,0,70,0,0
188759,-88.606152677554,4,1,0,70,0,0
189092,-92.100588212072,4,1,0,70,0,0
189426,-95.893789304945,4,1,0,70,0,0
189759,-100,4,1,0,70,0,0
190092,-76.923076923077,4,1,0,70,0,0
190426,-79.550102249489,4,1,0,70,0,0
190759,-82.354186514237,4,1,0,70,0,0
191092,-85.363177529076,4,1,0,70,0,0
191426,-88.610478359909,4,1,0,70,0,0
191759,-92.103705457559,4,1,0,70,0,0
192092,-95.883657875277,4,1,0,70,0,0
192426,-100,4,1,0,70,0,0
192759,-76.923076923077,4,1,0,70,0,0
193092,-81.076698556835,4,1,0,70,0,0
193426,-85.719183953369,4,1,0,70,0,0
193759,-90.909090909091,4,1,0,70,0,0
193926,-83.333333333333,4,1,0,70,0,0
194259,-90.909090909091,4,1,0,70,0,0
194342,-92.707340324118,4,1,0,70,0,0
194426,-94.601167315175,4,1,0,70,0,0
194592,-98.580841358338,4,1,0,70,0,0
194676,-100.72501294666,4,1,0,70,0,0
194759,-102.937284996031,4,1,0,70,0,0
194842,-105.248917748918,4,1,0,70,0,0
194926,-107.696566998893,4,1,0,70,0,0
195009,-110.229526778124,4,1,0,70,0,0
195092,-112.88450377249,4,1,0,70,0,0
195259,-118.633729795669,4,1,0,70,0,0
195426,-125,4,1,0,80,0,0
206092,-117.647058823529,4,1,0,80,0,0
216759,-111.111111111111,4,1,0,80,0,0
238092,-83.333333333333,4,1,0,70,0,0
238592,-76.923076923077,4,1,0,70,0,0
239092,-71.428571428571,4,1,0,70,0,0
239592,-66.666666666667,4,1,0,70,0,0
240092,-100,4,1,0,70,0,0
240259,-95.231296402056,4,1,0,70,0,0
240426,-90.896702098664,4,1,0,70,0,0
240592,-86.962190352021,4,1,0,70,0,0
240759,-83.333333333333,4,1,0,70,0,0
241259,-76.923076923077,4,1,0,70,0,0
241759,-71.428571428571,4,1,0,70,0,0
242259,-66.666666666667,4,1,0,70,0,0
242759,-100,4,1,0,70,0,0
242926,-95.231296402056,4,1,0,70,0,0
243092,-90.921483097056,4,1,0,70,0,0
243259,-86.962190352021,4,1,0,70,0,0
243426,-83.333333333333,4,1,0,70,0,0
244759,-200,4,1,0,50,0,0
247926,-200,4,1,0,80,0,0
248759,-83.333333333333,4,1,0,80,0,1
252759,-95.2380952380952,4,1,0,80,0,1
252926,-95.238095238095,4,1,0,80,0,1
253092,-93.339737431956,4,1,0,80,0,1
253259,-91.504806749068,4,1,0,80,0,1
253426,-89.740629569768,4,1,0,80,0,1
253509,-88.888888888889,4,1,0,80,0,1
253592,-88.053164174596,4,1,0,80,0,1
253676,-87.223219628965,4,1,0,80,0,1
253759,-86.418380581805,4,1,0,80,0,1
253842,-85.628258794154,4,1,0,80,0,1
253926,-84.843192898203,4,1,0,80,0,1
254009,-84.081485487651,4,1,0,80,0,1
254092,-83.333333333333,4,1,0,80,0,1
262092,-74.074074074074,4,1,0,80,0,1
264092,-95.238095238095,4,1,0,80,0,1
264176,-93.554947752297,4,1,0,80,0,1
264259,-91.949269368624,4,1,0,80,0,1
264342,-90.397777326015,4,1,0,80,0,1
264426,-88.880005330135,4,1,0,80,0,1
264509,-87.429545156639,4,1,0,80,0,1
264592,-86.025665828336,4,1,0,80,0,1
264676,-84.650041246272,4,1,0,80,0,1
264759,-83.333333333333,4,1,0,80,0,1
274092,-95.2380952380952,4,1,0,80,0,1
274259,-95.238095238095,4,1,0,80,0,1
274426,-93.330134357006,4,1,0,80,0,1
274592,-91.507880498706,4,1,0,80,0,1
274759,-89.745068635367,4,1,0,80,0,1
274842,-88.893967093236,4,1,0,80,0,1
274926,-88.04889090086,4,1,0,80,0,1
275009,-87.229510034757,4,1,0,80,0,1
275092,-86.425238835814,4,1,0,80,0,1
275176,-85.626238168611,4,1,0,80,0,1
275259,-84.851128803577,4,1,0,80,0,1
275342,-84.089926502378,4,1,0,80,0,1
275426,-83.333333333333,4,1,0,80,0,1
278092,-83.333333333333,4,1,0,80,0,1
278259,-82.900910418544,4,1,0,80,0,1
278342,-82.687658835926,4,1,0,80,0,1
278426,-82.472952086553,4,1,0,80,0,1
278592,-82.051912904416,4,1,0,80,0,1
278676,-81.840490797546,4,1,0,80,0,1
278759,-81.632653061224,4,1,0,80,0,1
278842,-81.425868278093,4,1,0,80,0,1
278926,-81.217656012177,4,1,0,80,0,1
279009,-81.012965718277,4,1,0,80,0,1
279092,-80.809304579598,4,1,0,80,0,1
279176,-80.604229607251,4,1,0,80,0,1
279259,-80.402615797246,4,1,0,80,0,1
279342,-80.202008056274,4,1,0,80,0,1
279426,-80,4,1,0,80,0,1
279592,-81.213635117434,4,1,0,80,0,1
279676,-81.841903300077,4,1,0,80,0,1
279759,-82.472313308173,4,1,0,80,0,1
279926,-83.770620581304,4,1,0,80,0,1
280009,-84.431213579934,4,1,0,80,0,1
280092,-85.102307913302,4,1,0,80,0,1
280259,-86.485434373581,4,1,0,80,0,1
280342,-87.189717761716,4,1,0,80,0,1
280426,-87.914262159934,4,1,0,80,0,1
280509,-88.64210666312,4,1,0,80,0,1
280592,-89.382103463305,4,1,0,80,0,1
280676,-90.143702451395,4,1,0,80,0,1
280759,-90.909090909091,4,1,0,80,0,1
290092,-105.263157894737,4,1,0,80,0,1
290259,-105.263157894737,4,1,0,80,0,1
290426,-102.937284996031,4,1,0,80,0,1
290592,-100.72501294666,4,1,0,80,0,1
290759,-98.593334178178,4,1,0,80,0,1
290842,-97.56709305242,4,1,0,80,0,1
290926,-96.550012410027,4,1,0,80,0,1
291009,-95.565655324899,4,1,0,80,0,1
291092,-94.601167315175,4,1,0,80,0,1
291176,-93.644679826673,4,1,0,80,0,1
291259,-92.718388749851,4,1,0,80,0,1
291342,-91.810243096531,4,1,0,80,0,1
291426,-90.909090909091,4,1,0,80,0,1
299426,-80,4,1,0,80,0,1
301426,-105.263157894737,4,1,0,80,0,1
301509,-103.231806556615,4,1,0,80,0,1
301592,-101.277372262774,4,1,0,80,0,1
301676,-99.373321396598,4,1,0,80,0,1
301759,-97.560975609756,4,1,0,80,0,1
301842,-95.813552006905,4,1,0,80,0,1
301926,-94.107672742688,4,1,0,80,0,1
302009,-92.480733180587,4,1,0,80,0,1
302092,-90.909090909091,4,1,0,80,0,1
311426,-105.263157894737,4,1,0,80,0,1
311592,-105.263157894737,4,1,0,80,0,1
311759,-102.937284996031,4,1,0,80,0,1
311926,-100.711974110032,4,1,0,80,0,1
312092,-98.593334178178,4,1,0,80,0,1
312176,-97.554858934169,4,1,0,80,0,1
312259,-96.550012410027,4,1,0,80,0,1
312342,-95.565655324899,4,1,0,80,0,1
312426,-94.589665653495,4,1,0,80,0,1
312509,-93.644679826673,4,1,0,80,0,1
312592,-92.718388749851,4,1,0,80,0,1
312676,-91.799410029499,4,1,0,80,0,1
312759,-90.909090909091,4,1,0,80,0,1
315426,-90.909090909091,4,1,0,80,0,1
315592,-89.891428956774,4,1,0,80,0,1
315676,-89.385100248106,4,1,0,80,0,1
315759,-88.890370765537,4,1,0,80,0,1
315926,-87.911363186704,4,1,0,80,0,1
316009,-87.432769250951,4,1,0,80,0,1
316092,-86.959358079457,4,1,0,80,0,1
316176,-86.485434373581,4,1,0,80,0,1
316259,-86.022199277233,4,1,0,80,0,1
316342,-85.563900121959,4,1,0,80,0,1
316426,-85.105024580221,4,1,0,80,0,1
316509,-84.656420678267,4,1,0,80,0,1
316592,-84.212521321625,4,1,0,80,0,1
316676,-83.767988437127,4,1,0,80,0,1
316759,-83.333333333333,4,1,0,80,0,1
316926,-82.472313308173,4,1,0,80,0,1
317009,-82.050966391727,4,1,0,80,0,1
317092,-81.633902872191,4,1,0,80,0,1
317176,-81.216109181746,4,1,0,80,0,1
317259,-80.807468477207,4,1,0,80,0,1
317342,-80.402919355812,4,1,0,80,0,1
317426,-79.997599471884,4,1,0,80,0,1
317509,-79.601098769855,4,1,0,80,0,1
317592,-79.20850912116,4,1,0,80,0,1
317676,-78.815112635251,4,1,0,80,0,1
317759,-78.430218875029,4,1,0,80,0,1
317842,-78.049066104573,4,1,0,80,0,1
317926,-77.667074520771,4,1,0,80,0,1
318009,-77.293285399513,4,1,0,80,0,1
318092,-76.923076923077,4,1,0,80,0,0
318423,-125,4,1,0,50,0,0
318590,-125.81467,4,1,0,50,0,0
318756,-126.63505,4,1,0,50,0,0
318923,-127.47124,4,1,0,50,0,0
319090,-128.31856,4,1,0,50,0,0
319256,-129.17203,4,1,0,50,0,0
319423,-130.04216,4,1,0,50,0,0
319465,-130.26285,4,1,0,50,0,0
319590,-130.92412,4,1,0,50,0,0
319756,-131.81271,4,1,0,50,0,0
319923,-132.71893,4,1,0,50,0,0
320090,-133.63768,4,1,0,50,0,0
320256,-134.56364,4,1,0,50,0,0
320423,-135.50821,4,1,0,50,0,0
320590,-136.46613,4,1,0,50,0,0
320756,-137.43182,4,1,0,50,0,0
320798,-137.67833,4,1,0,50,0,0
320923,-138.41724,4,1,0,50,0,0
321090,-139.41687,4,1,0,50,0,0
321256,-140.42494,4,1,0,50,0,0
321423,-141.4539,4,1,0,50,0,0
321590,-142.49806,4,1,0,50,0,0
321756,-143.55135,4,1,0,50,0,0
321923,-144.62682,4,1,0,50,0,0
322090,-145.985401459854,4,1,0,50,0,8
322092,350.877192982456,4,1,0,50,1,0
322092,-138.43259,4,1,0,50,0,0
322133,-138.70216,4,1,0,50,0,0
322265,-139.53632,4,1,0,50,0,0
322440,-140.65779,4,1,0,50,0,0
322616,-141.80399,4,1,0,50,0,0
322791,-142.96236,4,1,0,50,0,0
322967,-144.1466,4,1,0,50,0,0
323144,447.761194029851,4,1,0,50,1,8
323144,-113.89508,4,1,0,50,0,8
323365,-115.113304,4,1,0,50,0,8
323535,333.333333333333,4,1,0,50,1,0
323535,-155.88594,4,1,0,50,0,0
323574,-156.1956,4,1,0,50,0,0
323741,-157.4697,4,1,0,50,0,0
323912,333.333333333333,4,1,0,50,1,8
323912,-158.7804,4,1,0,50,0,8
324076,-160.08923,4,1,0,50,0,8
324303,400,4,1,0,50,1,8
324303,-134.9151,4,1,0,50,0,8
324501,-136.2839,4,1,0,50,0,8
324701,-137.68076,4,1,0,50,0,8
324901,-139.10654,4,1,0,50,0,8
325101,-140.56218,4,1,0,50,0,8
325169,428.571428571429,4,1,0,50,1,0
325169,-131.64595,4,1,0,50,0,0
325327,-132.76118,4,1,0,50,0,0
325542,-134.28989,4,1,0,50,0,0
325756,-135.84683,4,1,0,50,0,0
325936,461.538461538462,4,1,0,50,1,8
325936,-127.3718,4,1,0,50,0,8
326164,-128.99483,4,1,0,50,0,8
326395,-130.66707,4,1,0,50,0,8
326626,-132.38327,4,1,0,50,0,8
326859,495.867768595041,4,1,0,50,1,0
326859,-124.858154,4,1,0,50,0,0
326918,-125.298515,4,1,0,50,0,0
327104,-126.66061,4,1,0,50,0,0
327352,-128.5235,4,1,0,50,0,0
327600,-130.442,4,1,0,50,0,0
327847,588.235294117647,4,1,0,50,1,8
327847,-111.625626,4,1,0,50,0,8
328126,571.428571428571,4,1,0,50,1,8
328126,-116.87983,4,1,0,50,0,8
328387,722.89156626506,4,1,0,50,1,8
328387,-93.91414,4,1,0,50,0,8
328769,895.522388059701,4,1,0,50,1,0
328769,-77.684975,4,1,0,50,0,0
329214,-80,4,1,0,50,0,0

[HitObjects]
256,192,98,5,8,0:0:0:0:
256,192,139,1,8,0:0:0:0:
256,192,264,1,0,0:0:0:0:
256,192,431,1,8,0:0:0:0:
256,192,597,1,8,0:0:0:0:
256,192,764,1,0,0:0:0:0:
256,192,931,1,8,0:0:0:0:
256,192,1097,1,0,0:0:0:0:
256,192,1264,1,0,0:0:0:0:
256,192,1431,1,8,0:0:0:0:
256,192,1472,1,8,0:0:0:0:
256,192,1597,1,0,0:0:0:0:
256,192,1764,1,8,0:0:0:0:
256,192,1931,1,8,0:0:0:0:
256,192,2097,1,0,0:0:0:0:
256,192,2264,1,0,0:0:0:0:
256,192,2431,1,8,0:0:0:0:
256,192,2597,1,0,0:0:0:0:
256,192,2764,1,12,0:0:0:0:
256,192,2930,1,0,0:0:0:0:
256,192,3013,1,0,0:0:0:0:
256,192,3097,1,8,0:0:0:0:
256,192,3263,1,8,0:0:0:0:
256,192,3347,1,0,0:0:0:0:
256,192,3430,1,8,0:0:0:0:
256,192,3597,1,0,0:0:0:0:
256,192,3680,1,0,0:0:0:0:
256,192,3763,1,8,0:0:0:0:
256,192,3847,1,0,0:0:0:0:
256,192,3930,1,8,0:0:0:0:
256,192,4013,1,8,0:0:0:0:
256,192,4097,1,0,0:0:0:0:
256,192,4263,1,0,0:0:0:0:
256,192,4347,1,0,0:0:0:0:
256,192,4430,1,8,0:0:0:0:
256,192,4597,1,0,0:0:0:0:
256,192,4680,1,8,0:0:0:0:
256,192,4763,1,8,0:0:0:0:
256,192,4930,1,0,0:0:0:0:
256,192,5013,1,0,0:0:0:0:
256,192,5097,1,8,0:0:0:0:
256,192,5180,1,8,0:0:0:0:
256,192,5263,1,0,0:0:0:0:
256,192,5347,1,0,0:0:0:0:
256,192,5430,1,12,0:0:0:0:
256,192,5597,1,0,0:0:0:0:
256,192,5680,1,8,0:0:0:0:
256,192,5763,1,0,0:0:0:0:
256,192,5930,1,0,0:0:0:0:
256,192,6013,1,0,0:0:0:0:
256,192,6097,1,8,0:0:0:0:
256,192,6180,1,0,0:0:0:0:
256,192,6263,1,8,0:0:0:0:
256,192,6347,1,8,0:0:0:0:
256,192,6430,1,0,0:0:0:0:
256,192,6513,1,0,0:0:0:0:
256,192,6597,1,0,0:0:0:0:
256,192,6680,1,0,0:0:0:0:
256,192,6763,1,12,0:0:0:0:
256,192,7013,1,12,0:0:0:0:
256,192,7263,1,12,0:0:0:0:
256,192,8097,1,4,0:0:0:0:
256,192,8263,1,0,0:0:0:0:
256,192,8430,1,8,0:0:0:0:
256,192,8680,1,8,0:0:0:0:
256,192,8763,1,0,0:0:0:0:
256,192,8930,1,0,0:0:0:0:
256,192,9097,1,8,0:0:0:0:
256,192,9263,1,8,0:0:0:0:
256,192,9347,1,8,0:0:0:0:
256,192,9430,1,0,0:0:0:0:
256,192,9597,1,0,0:0:0:0:
256,192,9763,1,8,0:0:0:0:
256,192,10097,1,0,0:0:0:0:
256,192,10263,1,0,0:0:0:0:
256,192,10430,1,8,0:0:0:0:
256,192,10513,1,0,0:0:0:0:
256,192,10597,1,8,0:0:0:0:
256,192,10680,1,8,0:0:0:0:
256,192,10763,1,0,0:0:0:0:
256,192,10930,1,0,0:0:0:0:
256,192,11097,1,8,0:0:0:0:
256,192,11347,1,0,0:0:0:0:
256,192,11430,1,8,0:0:0:0:
256,192,11597,1,0,0:0:0:0:
256,192,11763,1,8,0:0:0:0:
256,192,11930,1,0,0:0:0:0:
256,192,12013,1,0,0:0:0:0:
256,192,12097,1,8,0:0:0:0:
256,192,12263,1,0,0:0:0:0:
256,192,12430,1,8,0:0:0:0:
256,192,12513,1,8,0:0:0:0:
256,192,12597,1,0,0:0:0:0:
256,192,12680,1,0,0:0:0:0:
256,192,12763,1,12,0:0:0:0:
256,192,12930,1,0,0:0:0:0:
256,192,13097,1,12,0:0:0:0:
256,192,13263,1,8,0:0:0:0:
256,192,13430,1,4,0:0:0:0:
256,192,13597,1,0,0:0:0:0:
256,192,13763,1,8,0:0:0:0:
256,192,14013,1,8,0:0:0:0:
256,192,14097,1,0,0:0:0:0:
256,192,14263,1,0,0:0:0:0:
256,192,14430,1,8,0:0:0:0:
256,192,14597,1,8,0:0:0:0:
256,192,14680,1,8,0:0:0:0:
256,192,14763,1,0,0:0:0:0:
256,192,14930,1,0,0:0:0:0:
256,192,15097,1,8,0:0:0:0:
256,192,15430,1,0,0:0:0:0:
256,192,15597,1,0,0:0:0:0:
256,192,15763,1,8,0:0:0:0:
256,192,15847,1,0,0:0:0:0:
256,192,15930,1,8,0:0:0:0:
256,192,16013,1,8,0:0:0:0:
256,192,16097,1,0,0:0:0:0:
256,192,16263,1,0,0:0:0:0:
256,192,16430,1,8,0:0:0:0:
256,192,16597,1,0,0:0:0:0:
256,192,16680,1,0,0:0:0:0:
256,192,16763,1,8,0:0:0:0:
256,192,16930,1,0,0:0:0:0:
256,192,17097,1,8,0:0:0:0:
256,192,17180,1,8,0:0:0:0:
256,192,17263,1,0,0:0:0:0:
256,192,17347,1,0,0:0:0:0:
256,192,17430,1,8,0:0:0:0:
256,192,17597,1,0,0:0:0:0:
256,192,17680,1,0,0:0:0:0:
256,192,17763,1,8,0:0:0:0:
256,192,17930,1,0,0:0:0:0:
256,192,18013,1,0,0:0:0:0:
256,192,18097,1,8,0:0:0:0:
256,192,18180,1,0,0:0:0:0:
256,192,18263,1,12,0:0:0:0:
256,192,18763,1,4,0:0:0:0:
256,192,18930,1,0,0:0:0:0:
256,192,19097,1,8,0:0:0:0:
256,192,19347,1,8,0:0:0:0:
256,192,19430,1,0,0:0:0:0:
256,192,19597,1,0,0:0:0:0:
256,192,19763,1,8,0:0:0:0:
256,192,19930,1,8,0:0:0:0:
256,192,20013,1,8,0:0:0:0:
256,192,20097,1,0,0:0:0:0:
256,192,20263,1,0,0:0:0:0:
256,192,20430,1,8,0:0:0:0:
256,192,20763,1,0,0:0:0:0:
256,192,20930,1,0,0:0:0:0:
256,192,21097,1,8,0:0:0:0:
256,192,21180,1,0,0:0:0:0:
256,192,21263,1,8,0:0:0:0:
256,192,21347,1,8,0:0:0:0:
256,192,21430,1,0,0:0:0:0:
256,192,21597,1,0,0:0:0:0:
256,192,21763,1,8,0:0:0:0:
256,192,22013,1,0,0:0:0:0:
256,192,22097,1,8,0:0:0:0:
256,192,22263,1,0,0:0:0:0:
256,192,22430,1,8,0:0:0:0:
256,192,22597,1,0,0:0:0:0:
256,192,22680,1,0,0:0:0:0:
256,192,22763,1,8,0:0:0:0:
256,192,22930,1,0,0:0:0:0:
256,192,23097,1,8,0:0:0:0:
256,192,23180,1,8,0:0:0:0:
256,192,23263,1,0,0:0:0:0:
256,192,23347,1,0,0:0:0:0:
256,192,23430,1,12,0:0:0:0:
256,192,23597,1,0,0:0:0:0:
256,192,23763,1,12,0:0:0:0:
256,192,23930,1,8,0:0:0:0:
256,192,24097,1,4,0:0:0:0:
256,192,24263,1,0,0:0:0:0:
256,192,24430,1,8,0:0:0:0:
256,192,24680,1,8,0:0:0:0:
256,192,24763,1,0,0:0:0:0:
256,192,24930,1,0,0:0:0:0:
256,192,25097,1,8,0:0:0:0:
256,192,25263,1,8,0:0:0:0:
256,192,25347,1,8,0:0:0:0:
256,192,25430,1,0,0:0:0:0:
256,192,25597,1,0,0:0:0:0:
256,192,25763,1,8,0:0:0:0:
256,192,26097,1,0,0:0:0:0:
256,192,26263,1,0,0:0:0:0:
256,192,26430,1,8,0:0:0:0:
256,192,26513,1,0,0:0:0:0:
256,192,26597,1,8,0:0:0:0:
256,192,26680,1,8,0:0:0:0:
256,192,26763,1,0,0:0:0:0:
256,192,26930,1,0,0:0:0:0:
256,192,27097,1,8,0:0:0:0:
256,192,27263,1,0,0:0:0:0:
256,192,27347,1,0,0:0:0:0:
256,192,27430,1,8,0:0:0:0:
256,192,27597,1,0,0:0:0:0:
256,192,27763,1,8,0:0:0:0:
256,192,27847,1,8,0:0:0:0:
256,192,27930,1,0,0:0:0:0:
256,192,28013,1,0,0:0:0:0:
256,192,28097,1,12,0:0:0:0:
256,192,28263,1,0,0:0:0:0:
256,192,28347,1,0,0:0:0:0:
256,192,28430,1,8,0:0:0:0:
256,192,28597,1,0,0:0:0:0:
256,192,28680,1,8,0:0:0:0:
256,192,28763,1,8,0:0:0:0:
256,192,28930,1,8,0:0:0:0:
256,192,29013,1,0,0:0:0:0:
256,192,29097,1,8,0:0:0:0:
256,192,29180,1,8,0:0:0:0:
256,192,29263,1,0,0:0:0:0:
256,192,29347,1,0,0:0:0:0:
256,192,29430,1,12,0:0:0:0:
256,192,29597,1,0,0:0:0:0:
256,192,29763,1,8,0:0:0:0:
256,192,29930,1,8,0:0:0:0:
256,192,30097,1,0,0:0:0:0:
256,192,30263,1,8,0:0:0:0:
256,192,30430,1,0,0:0:0:0:
256,192,30597,1,0,0:0:0:0:
256,192,30763,1,8,0:0:0:0:
256,192,30930,1,0,0:0:0:0:
256,192,31097,1,8,0:0:0:0:
256,192,31263,1,8,0:0:0:0:
256,192,31430,1,0,0:0:0:0:
256,192,31597,1,0,0:0:0:0:
256,192,31763,1,8,0:0:0:0:
256,192,31930,1,0,0:0:0:0:
256,192,32097,1,4,0:0:0:0:
256,192,32430,1,8,0:0:0:0:
256,192,32597,1,0,0:0:0:0:
256,192,32680,1,0,0:0:0:0:
256,192,32763,1,8,0:0:0:0:
256,192,32930,1,8,0:0:0:0:
256,192,33097,1,0,0:0:0:0:
256,192,33263,1,8,0:0:0:0:
256,192,33347,1,0,0:0:0:0:
256,192,33430,1,8,0:0:0:0:
256,192,33597,1,0,0:0:0:0:
256,192,33763,1,8,0:0:0:0:
256,192,33930,1,8,0:0:0:0:
256,192,34013,1,8,0:0:0:0:
256,192,34097,1,0,0:0:0:0:
256,192,34263,1,0,0:0:0:0:
256,192,34430,1,8,0:0:0:0:
256,192,34597,1,0,0:0:0:0:
256,192,34680,1,0,0:0:0:0:
256,192,34763,1,8,0:0:0:0:
256,192,35097,1,8,0:0:0:0:
256,192,35263,1,0,0:0:0:0:
256,192,35347,1,0,0:0:0:0:
256,192,35430,1,8,0:0:0:0:
256,192,35597,1,0,0:0:0:0:
256,192,35763,1,8,0:0:0:0:
256,192,35930,1,8,0:0:0:0:
256,192,36013,1,8,0:0:0:0:
256,192,36097,1,0,0:0:0:0:
256,192,36263,1,0,0:0:0:0:
256,192,36430,1,8,0:0:0:0:
256,192,36597,1,0,0:0:0:0:
256,192,36680,1,0,0:0:0:0:
256,192,36763,1,8,0:0:0:0:
256,192,36847,1,0,0:0:0:0:
256,192,36930,1,8,0:0:0:0:
256,192,37097,1,0,0:0:0:0:
256,192,37263,1,8,0:0:0:0:
256,192,37430,1,0,0:0:0:0:
256,192,37763,1,8,0:0:0:0:
256,192,37930,1,0,0:0:0:0:
256,192,38013,1,8,0:0:0:0:
256,192,38097,1,0,0:0:0:0:
256,192,38263,1,0,0:0:0:0:
256,192,38430,1,8,0:0:0:0:
256,192,38597,1,0,0:0:0:0:
256,192,38680,1,0,0:0:0:0:
256,192,38763,1,8,0:0:0:0:
256,192,38930,1,0,0:0:0:0:
256,192,39097,1,8,0:0:0:0:
256,192,39180,1,0,0:0:0:0:
256,192,39263,1,0,0:0:0:0:
256,192,39347,1,0,0:0:0:0:
256,192,39430,1,8,0:0:0:0:
256,192,39597,1,8,0:0:0:0:
256,192,39763,1,0,0:0:0:0:
256,192,39847,1,0,0:0:0:0:
256,192,39930,1,8,0:0:0:0:
256,192,40013,1,8,0:0:0:0:
256,192,40097,1,0,0:0:0:0:
256,192,40263,1,0,0:0:0:0:
256,192,40430,1,8,0:0:0:0:
256,192,40597,1,0,0:0:0:0:
256,192,40680,1,0,0:0:0:0:
256,192,40763,1,0,0:0:0:0:
256,192,40930,1,8,0:0:0:0:
256,192,41097,1,8,0:0:0:0:
256,192,41263,1,0,0:0:0:0:
256,192,41347,1,8,0:0:0:0:
256,192,41430,1,0,0:0:0:0:
256,192,41513,1,0,0:0:0:0:
256,192,41597,1,8,0:0:0:0:
256,192,41763,1,0,0:0:0:0:
256,192,41847,1,0,0:0:0:0:
256,192,41930,1,8,0:0:0:0:
256,192,42013,1,0,0:0:0:0:
256,192,42097,1,8,0:0:0:0:
256,192,42180,1,8,0:0:0:0:
256,192,42263,1,0,0:0:0:0:
256,192,42430,1,8,0:0:0:0:
256,192,42763,1,4,0:0:0:0:
256,192,42930,1,8,0:0:0:0:
256,192,43013,1,8,0:0:0:0:
256,192,43097,1,0,0:0:0:0:
256,192,43263,1,8,0:0:0:0:
256,192,43430,1,0,0:0:0:0:
256,192,43513,1,8,0:0:0:0:
256,192,43597,1,0,0:0:0:0:
256,192,43680,1,0,0:0:0:0:
256,192,43763,1,8,0:0:0:0:
256,192,43930,1,8,0:0:0:0:
256,192,44013,1,8,0:0:0:0:
256,192,44097,1,0,0:0:0:0:
256,192,44263,1,0,0:0:0:0:
256,192,44430,1,8,0:0:0:0:
256,192,44597,1,8,0:0:0:0:
256,192,44680,1,8,0:0:0:0:
256,192,44763,1,0,0:0:0:0:
256,192,44847,1,0,0:0:0:0:
256,192,44930,1,8,0:0:0:0:
256,192,45013,1,0,0:0:0:0:
256,192,45097,1,8,0:0:0:0:
256,192,45263,1,0,0:0:0:0:
256,192,45347,1,0,0:0:0:0:
256,192,45430,1,8,0:0:0:0:
256,192,45597,1,0,0:0:0:0:
256,192,45763,1,8,0:0:0:0:
256,192,45847,1,8,0:0:0:0:
256,192,45930,1,0,0:0:0:0:
256,192,46013,1,0,0:0:0:0:
256,192,46097,1,8,0:0:0:0:
256,192,46263,1,0,0:0:0:0:
256,192,46430,1,8,0:0:0:0:
256,192,46513,1,0,0:0:0:0:
256,192,46597,1,0,0:0:0:0:
256,192,46763,1,8,0:0:0:0:
256,192,46930,1,0,0:0:0:0:
256,192,47013,1,0,0:0:0:0:
256,192,47097,1,8,0:0:0:0:
256,192,47263,1,0,0:0:0:0:
256,192,47347,1,0,0:0:0:0:
256,192,47430,1,8,0:0:0:0:
256,192,47513,1,0,0:0:0:0:
256,192,47597,1,8,0:0:0:0:
256,192,47680,1,8,0:0:0:0:
256,192,47763,1,0,0:0:0:0:
256,192,47930,1,0,0:0:0:0:
256,192,48097,1,8,0:0:0:0:
256,192,48430,1,0,0:0:0:0:
256,192,48597,1,8,0:0:0:0:
256,192,48680,1,8,0:0:0:0:
256,192,48763,1,0,0:0:0:0:
256,192,48930,1,0,0:0:0:0:
256,192,49097,1,8,0:0:0:0:
256,192,49180,1,0,0:0:0:0:
256,192,49263,1,8,0:0:0:0:
256,192,49347,1,8,0:0:0:0:
256,192,49430,1,0,0:0:0:0:
256,192,49597,1,8,0:0:0:0:
256,192,49680,1,8,0:0:0:0:
256,192,49763,1,0,0:0:0:0:
256,192,49930,1,0,0:0:0:0:
256,192,50097,1,8,0:0:0:0:
256,192,50180,1,0,0:0:0:0:
256,192,50263,1,8,0:0:0:0:
256,192,50347,1,8,0:0:0:0:
256,192,50430,1,0,0:0:0:0:
256,192,50513,1,0,0:0:0:0:
256,192,50597,1,8,0:0:0:0:
256,192,50763,1,0,0:0:0:0:
256,192,50930,1,8,0:0:0:0:
256,192,51097,1,0,0:0:0:0:
256,192,51263,1,8,0:0:0:0:
256,192,51347,1,8,0:0:0:0:
256,192,51430,1,0,0:0:0:0:
256,192,51597,1,0,0:0:0:0:
256,192,51763,1,8,0:0:0:0:
256,192,51847,1,0,0:0:0:0:
256,192,51930,1,8,0:0:0:0:
256,192,52013,1,8,0:0:0:0:
256,192,52097,1,0,0:0:0:0:
256,192,52263,1,8,0:0:0:0:
256,192,52347,1,8,0:0:0:0:
256,192,52430,1,0,0:0:0:0:
256,192,52513,1,0,0:0:0:0:
256,192,52597,1,8,0:0:0:0:
256,192,52680,1,0,0:0:0:0:
256,192,52763,1,8,0:0:0:0:
256,192,52847,1,8,0:0:0:0:
256,192,52930,1,0,0:0:0:0:
256,192,53013,1,0,0:0:0:0:
256,192,53097,1,8,0:0:0:0:
256,192,53180,1,0,0:0:0:0:
256,192,53263,1,0,0:0:0:0:
256,192,53347,1,0,0:0:0:0:
256,192,53430,1,12,0:0:0:0:
256,192,53930,1,12,0:0:0:0:
256,192,54430,1,12,0:0:0:0:
256,192,54930,1,12,0:0:0:0:
256,192,55430,1,0,0:0:0:0:
256,192,55596,1,0,0:0:0:0:
256,192,55763,1,12,0:0:0:0:
256,192,56263,1,12,0:0:0:0:
256,192,56763,1,12,0:0:0:0:
256,192,57263,1,12,0:0:0:0:
256,192,57763,1,0,0:0:0:0:
256,192,57929,1,0,0:0:0:0:
256,192,58096,1,12,0:0:0:0:
256,192,58596,1,12,0:0:0:0:
256,192,59096,1,12,0:0:0:0:
256,192,59596,1,12,0:0:0:0:
256,192,60096,1,0,0:0:0:0:
256,192,60263,1,0,0:0:0:0:
256,192,60429,1,12,0:0:0:0:
256,192,60929,1,12,0:0:0:0:
256,192,61429,1,12,0:0:0:0:
256,192,61929,1,12,0:0:0:0:
256,192,62429,1,8,0:0:0:0:
256,192,62595,1,8,0:0:0:0:
256,192,62762,1,0,0:0:0:0:
256,192,62929,1,0,0:0:0:0:
256,192,63095,1,12,0:0:0:0:
256,192,63261,1,0,0:0:0:0:
256,192,63345,1,0,0:0:0:0:
256,192,63428,1,0,0:0:0:0:
256,192,63595,1,12,0:0:0:0:
256,192,63761,1,0,0:0:0:0:
256,192,63845,1,8,0:0:0:0:
256,192,63928,1,0,0:0:0:0:
256,192,64095,1,12,0:0:0:0:
256,192,64261,1,0,0:0:0:0:
256,192,64345,1,0,0:0:0:0:
256,192,64428,1,0,0:0:0:0:
256,192,64511,1,0,0:0:0:0:
256,192,64595,1,12,0:0:0:0:
256,192,64761,1,0,0:0:0:0:
256,192,64845,1,0,0:0:0:0:
256,192,64928,1,8,0:0:0:0:
256,192,65011,1,0,0:0:0:0:
256,192,65095,1,12,0:0:0:0:
256,192,65261,1,0,0:0:0:0:
256,192,65345,1,0,0:0:0:0:
256,192,65428,1,8,0:0:0:0:
256,192,65511,1,8,0:0:0:0:
256,192,65595,1,0,0:0:0:0:
256,192,65678,1,0,0:0:0:0:
256,192,65761,1,12,0:0:0:0:
256,192,65928,1,0,0:0:0:0:
256,192,66011,1,0,0:0:0:0:
256,192,66095,1,8,0:0:0:0:
256,192,66178,1,0,0:0:0:0:
256,192,66261,1,8,0:0:0:0:
256,192,66345,1,8,0:0:0:0:
256,192,66428,1,0,0:0:0:0:
256,192,66511,1,0,0:0:0:0:
256,192,66595,1,8,0:0:0:0:
256,192,66678,1,0,0:0:0:0:
256,192,66761,1,8,0:0:0:0:
256,192,66845,1,8,0:0:0:0:
256,192,66928,1,0,0:0:0:0:
256,192,67011,1,0,0:0:0:0:
256,192,67095,1,8,0:0:0:0:
256,192,67261,1,0,0:0:0:0:
256,192,67428,1,0,0:0:0:0:
256,192,67595,1,8,0:0:0:0:
256,192,67761,1,0,0:0:0:0:
256,192,67928,1,0,0:0:0:0:
256,192,68095,5,12,0:0:0:0:
256,192,71095,5,4,0:0:0:0:
256,192,71428,1,8,0:0:0:0:
256,192,71595,1,0,0:0:0:0:
256,192,71678,1,0,0:0:0:0:
256,192,71761,1,0,0:0:0:0:
256,192,71928,1,0,0:0:0:0:
256,192,72095,1,8,0:0:0:0:
256,192,72261,1,0,0:0:0:0:
256,192,72345,1,0,0:0:0:0:
256,192,72428,1,8,0:0:0:0:
256,192,72511,1,8,0:0:0:0:
256,192,72595,1,0,0:0:0:0:
256,192,72761,1,8,0:0:0:0:
256,192,72928,1,0,0:0:0:0:
256,192,73011,1,0,0:0:0:0:
256,192,73095,1,8,0:0:0:0:
256,192,73261,1,0,0:0:0:0:
256,192,73345,1,0,0:0:0:0:
256,192,73428,1,8,0:0:0:0:
256,192,73511,1,0,0:0:0:0:
256,192,73595,1,8,0:0:0:0:
256,192,73678,1,8,0:0:0:0:
256,192,73761,1,0,0:0:0:0:
256,192,73928,1,0,0:0:0:0:
256,192,74095,1,8,0:0:0:0:
256,192,74261,1,0,0:0:0:0:
256,192,74345,1,0,0:0:0:0:
256,192,74428,1,0,0:0:0:0:
256,192,74595,1,0,0:0:0:0:
256,192,74761,1,8,0:0:0:0:
256,192,74928,1,0,0:0:0:0:
256,192,75011,1,0,0:0:0:0:
256,192,75095,1,8,0:0:0:0:
256,192,75178,1,0,0:0:0:0:
256,192,75261,1,8,0:0:0:0:
256,192,75428,1,0,0:0:0:0:
256,192,75595,1,0,0:0:0:0:
256,192,75678,1,0,0:0:0:0:
256,192,75761,1,8,0:0:0:0:
256,192,75928,1,0,0:0:0:0:
256,192,76011,1,0,0:0:0:0:
256,192,76095,1,8,0:0:0:0:
256,192,76178,1,8,0:0:0:0:
256,192,76261,1,0,0:0:0:0:
256,192,76345,1,0,0:0:0:0:
256,192,76428,1,12,0:0:0:0:
256,192,76595,1,0,0:0:0:0:
256,192,76761,1,8,0:0:0:0:
256,192,76928,1,8,0:0:0:0:
256,192,77011,1,8,0:0:0:0:
256,192,77095,1,0,0:0:0:0:
256,192,77178,1,8,0:0:0:0:
256,192,77261,1,0,0:0:0:0:
256,192,77428,1,8,0:0:0:0:
256,192,77595,1,0,0:0:0:0:
256,192,77678,1,8,0:0:0:0:
256,192,77761,1,0,0:0:0:0:
256,192,77928,1,0,0:0:0:0:
256,192,78095,1,8,0:0:0:0:
256,192,78261,1,0,0:0:0:0:
256,192,78344,1,8,0:0:0:0:
256,192,78428,1,8,0:0:0:0:
256,192,78511,1,0,0:0:0:0:
256,192,78594,1,8,0:0:0:0:
256,192,78761,1,0,0:0:0:0:
256,192,78928,1,8,0:0:0:0:
256,192,79011,1,8,0:0:0:0:
256,192,79094,1,0,0:0:0:0:
256,192,79261,1,0,0:0:0:0:
256,192,79428,1,8,0:0:0:0:
256,192,79511,1,8,0:0:0:0:
256,192,79594,1,0,0:0:0:0:
256,192,79678,1,8,0:0:0:0:
256,192,79761,1,0,0:0:0:0:
256,192,79844,1,0,0:0:0:0:
256,192,79928,1,8,0:0:0:0:
256,192,80094,1,0,0:0:0:0:
256,192,80261,1,12,0:0:0:0:
256,192,80594,1,0,0:0:0:0:
256,192,80761,1,8,0:0:0:0:
256,192,80928,1,0,0:0:0:0:
256,192,81094,1,8,0:0:0:0:
256,192,81178,1,8,0:0:0:0:
256,192,81261,1,0,0:0:0:0:
256,192,81344,1,0,0:0:0:0:
256,192,81428,1,8,0:0:0:0:
256,192,81511,1,0,0:0:0:0:
256,192,81594,1,8,0:0:0:0:
256,192,81678,1,8,0:0:0:0:
256,192,81761,1,4,0:0:0:0:
256,192,81928,1,0,0:0:0:0:
256,192,82094,1,8,0:0:0:0:
256,192,82261,1,0,0:0:0:0:
256,192,82344,1,0,0:0:0:0:
256,192,82428,1,0,0:0:0:0:
256,192,82594,1,0,0:0:0:0:
256,192,82761,1,8,0:0:0:0:
256,192,82928,1,0,0:0:0:0:
256,192,83011,1,0,0:0:0:0:
256,192,83094,1,8,0:0:0:0:
256,192,83178,1,8,0:0:0:0:
256,192,83261,1,0,0:0:0:0:
256,192,83428,1,8,0:0:0:0:
256,192,83594,1,0,0:0:0:0:
256,192,83678,1,0,0:0:0:0:
256,192,83761,1,8,0:0:0:0:
256,192,83928,1,8,0:0:0:0:
256,192,84011,1,8,0:0:0:0:
256,192,84094,1,0,0:0:0:0:
256,192,84178,1,8,0:0:0:0:
256,192,84261,1,0,0:0:0:0:
256,192,84344,1,0,0:0:0:0:
256,192,84428,1,8,0:0:0:0:
256,192,84594,1,0,0:0:0:0:
256,192,84761,1,8,0:0:0:0:
256,192,84928,1,0,0:0:0:0:
256,192,85011,1,0,0:0:0:0:
256,192,85094,1,8,0:0:0:0:
256,192,85178,1,8,0:0:0:0:
256,192,85261,1,8,0:0:0:0:
256,192,85428,1,8,0:0:0:0:
256,192,85594,1,0,0:0:0:0:
256,192,85678,1,0,0:0:0:0:
256,192,85761,1,8,0:0:0:0:
256,192,85928,1,0,0:0:0:0:
256,192,86094,1,8,0:0:0:0:
256,192,86261,1,8,0:0:0:0:
256,192,86344,1,8,0:0:0:0:
256,192,86428,1,0,0:0:0:0:
256,192,86594,1,0,0:0:0:0:
256,192,86678,1,8,0:0:0:0:
256,192,86761,1,0,0:0:0:0:
256,192,86844,1,0,0:0:0:0:
256,192,86928,1,8,0:0:0:0:
256,192,87011,1,0,0:0:0:0:
256,192,87094,1,12,0:0:0:0:
256,192,87261,1,0,0:0:0:0:
256,192,87428,1,8,0:0:0:0:
256,192,87594,1,0,0:0:0:0:
256,192,87678,1,8,0:0:0:0:
256,192,87761,1,0,0:0:0:0:
256,192,87844,1,0,0:0:0:0:
256,192,87928,1,0,0:0:0:0:
256,192,88094,1,8,0:0:0:0:
256,192,88261,1,8,0:0:0:0:
256,192,88344,1,8,0:0:0:0:
256,192,88428,1,0,0:0:0:0:
256,192,88594,1,0,0:0:0:0:
256,192,88761,1,8,0:0:0:0:
256,192,88928,1,8,0:0:0:0:
256,192,89011,1,8,0:0:0:0:
256,192,89094,1,8,0:0:0:0:
256,192,89178,1,8,0:0:0:0:
256,192,89261,1,0,0:0:0:0:
256,192,89428,1,8,0:0:0:0:
256,192,89511,1,0,0:0:0:0:
256,192,89594,1,0,0:0:0:0:
256,192,89761,1,12,0:0:0:0:
256,192,89928,1,4,0:0:0:0:
256,192,90094,1,0,0:0:0:0:
256,192,90261,1,12,0:0:0:0:
256,192,90594,1,4,0:0:0:0:
256,192,90761,1,8,0:0:0:0:
256,192,90928,1,12,0:0:0:0:
256,192,91261,1,4,0:0:0:0:
256,192,91428,1,8,0:0:0:0:
256,192,91594,1,4,0:0:0:0:
256,192,91761,1,0,0:0:0:0:
256,192,91844,1,0,0:0:0:0:
256,192,91928,1,8,0:0:0:0:
256,192,92011,1,0,0:0:0:0:
256,192,92094,1,8,0:0:0:0:
256,192,92178,1,8,0:0:0:0:
256,192,92261,1,0,0:0:0:0:
256,192,92344,1,0,0:0:0:0:
256,192,92428,1,12,0:0:0:0:
256,192,92594,1,0,0:0:0:0:
256,192,92761,1,8,0:0:0:0:
256,192,92928,1,0,0:0:0:0:
256,192,93011,1,0,0:0:0:0:
256,192,93094,1,0,0:0:0:0:
256,192,93261,1,0,0:0:0:0:
256,192,93428,1,8,0:0:0:0:
256,192,93594,1,0,0:0:0:0:
256,192,93678,1,0,0:0:0:0:
256,192,93761,1,8,0:0:0:0:
256,192,93844,1,8,0:0:0:0:
256,192,93928,1,0,0:0:0:0:
256,192,94094,1,8,0:0:0:0:
256,192,94261,1,0,0:0:0:0:
256,192,94344,1,0,0:0:0:0:
256,192,94428,1,8,0:0:0:0:
256,192,94594,1,0,0:0:0:0:
256,192,94678,1,0,0:0:0:0:
256,192,94761,1,8,0:0:0:0:
256,192,94844,1,0,0:0:0:0:
256,192,94928,1,8,0:0:0:0:
256,192,95011,1,8,0:0:0:0:
256,192,95094,1,0,0:0:0:0:
256,192,95261,1,0,0:0:0:0:
256,192,95428,1,8,0:0:0:0:
256,192,95594,1,0,0:0:0:0:
256,192,95678,1,0,0:0:0:0:
256,192,95761,1,0,0:0:0:0:
256,192,95928,1,0,0:0:0:0:
256,192,96094,1,8,0:0:0:0:
256,192,96261,1,0,0:0:0:0:
256,192,96344,1,0,0:0:0:0:
256,192,96428,1,8,0:0:0:0:
256,192,96511,1,0,0:0:0:0:
256,192,96594,1,8,0:0:0:0:
256,192,96761,1,0,0:0:0:0:
256,192,96928,1,0,0:0:0:0:
256,192,97011,1,0,0:0:0:0:
256,192,97094,1,8,0:0:0:0:
256,192,97261,1,0,0:0:0:0:
256,192,97344,1,0,0:0:0:0:
256,192,97428,1,8,0:0:0:0:
256,192,97511,1,8,0:0:0:0:
256,192,97594,1,0,0:0:0:0:
256,192,97678,1,0,0:0:0:0:
256,192,97761,1,12,0:0:0:0:
256,192,97928,1,0,0:0:0:0:
256,192,98094,1,8,0:0:0:0:
256,192,98261,1,8,0:0:0:0:
256,192,98344,1,8,0:0:0:0:
256,192,98428,1,0,0:0:0:0:
256,192,98511,1,8,0:0:0:0:
256,192,98594,1,0,0:0:0:0:
256,192,98761,1,8,0:0:0:0:
256,192,98928,1,0,0:0:0:0:
256,192,99011,1,8,0:0:0:0:
256,192,99094,1,0,0:0:0:0:
256,192,99261,1,0,0:0:0:0:
256,192,99428,1,8,0:0:0:0:
256,192,99594,1,0,0:0:0:0:
256,192,99678,1,8,0:0:0:0:
256,192,99761,1,8,0:0:0:0:
256,192,99844,1,0,0:0:0:0:
256,192,99928,1,8,0:0:0:0:
256,192,100094,1,0,0:0:0:0:
256,192,100261,1,8,0:0:0:0:
256,192,100344,1,8,0:0:0:0:
256,192,100428,1,0,0:0:0:0:
256,192,100594,1,0,0:0:0:0:
256,192,100761,1,8,0:0:0:0:
256,192,100844,1,8,0:0:0:0:
256,192,100928,1,0,0:0:0:0:
256,192,101011,1,8,0:0:0:0:
256,192,101094,1,0,0:0:0:0:
256,192,101178,1,0,0:0:0:0:
256,192,101261,1,8,0:0:0:0:
256,192,101428,1,0,0:0:0:0:
256,192,101594,1,12,0:0:0:0:
256,192,101928,1,0,0:0:0:0:
256,192,102094,1,8,0:0:0:0:
256,192,102261,1,0,0:0:0:0:
256,192,102428,1,8,0:0:0:0:
256,192,102511,1,8,0:0:0:0:
256,192,102594,1,0,0:0:0:0:
256,192,102678,1,0,0:0:0:0:
256,192,102761,1,8,0:0:0:0:
256,192,102844,1,0,0:0:0:0:
256,192,102928,1,8,0:0:0:0:
256,192,103011,1,8,0:0:0:0:
256,192,103094,1,4,0:0:0:0:
256,192,103261,1,0,0:0:0:0:
256,192,103428,1,8,0:0:0:0:
256,192,103594,1,0,0:0:0:0:
256,192,103678,1,8,0:0:0:0:
256,192,103761,1,0,0:0:0:0:
256,192,103928,1,0,0:0:0:0:
256,192,104094,1,8,0:0:0:0:
256,192,104261,1,0,0:0:0:0:
256,192,104344,1,0,0:0:0:0:
256,192,104428,1,8,0:0:0:0:
256,192,104511,1,8,0:0:0:0:
256,192,104594,1,0,0:0:0:0:
256,192,104761,1,8,0:0:0:0:
256,192,104928,1,0,0:0:0:0:
256,192,105011,1,0,0:0:0:0:
256,192,105094,1,8,0:0:0:0:
256,192,105261,1,0,0:0:0:0:
256,192,105428,1,8,0:0:0:0:
256,192,105511,1,0,0:0:0:0:
256,192,105594,1,8,0:0:0:0:
256,192,105678,1,8,0:0:0:0:
256,192,105761,1,4,0:0:0:0:
256,192,105928,1,0,0:0:0:0:
256,192,106011,1,8,0:0:0:0:
256,192,106094,1,0,0:0:0:0:
256,192,106178,1,0,0:0:0:0:
256,192,106261,1,8,0:0:0:0:
256,192,106344,1,0,0:0:0:0:
256,192,106428,1,8,0:0:0:0:
256,192,106511,1,8,0:0:0:0:
256,192,106594,1,0,0:0:0:0:
256,192,106678,1,0,0:0:0:0:
256,192,106761,1,8,0:0:0:0:
256,192,106928,1,4,0:0:0:0:
256,192,108428,1,12,0:0:0:0:
256,192,108594,1,0,0:0:0:0:
256,192,108928,1,8,0:0:0:0:
256,192,109094,1,0,0:0:0:0:
256,192,109178,1,8,0:0:0:0:
256,192,109261,1,0,0:0:0:0:
256,192,109428,1,8,0:0:0:0:
256,192,109594,1,0,0:0:0:0:
256,192,109678,1,0,0:0:0:0:
256,192,109761,1,8,0:0:0:0:
256,192,109844,1,0,0:0:0:0:
256,192,109928,1,0,0:0:0:0:
256,192,110011,1,0,0:0:0:0:
256,192,110094,1,8,0:0:0:0:
256,192,110178,1,0,0:0:0:0:
256,192,110261,1,8,0:0:0:0:
256,192,110344,1,8,0:0:0:0:
256,192,110428,1,0,0:0:0:0:
256,192,110511,1,0,0:0:0:0:
256,192,110594,1,8,0:0:0:0:
256,192,110678,1,0,0:0:0:0:
256,192,110761,1,8,0:0:0:0:
256,192,111094,1,4,0:0:0:0:
256,192,111261,1,0,0:0:0:0:
256,192,111428,1,8,0:0:0:0:
256,192,111594,1,0,0:0:0:0:
256,192,111678,1,0,0:0:0:0:
256,192,111761,1,8,0:0:0:0:
256,192,111928,1,8,0:0:0:0:
256,192,112094,1,0,0:0:0:0:
256,192,112261,1,8,0:0:0:0:
256,192,112344,1,0,0:0:0:0:
256,192,112428,1,8,0:0:0:0:
256,192,112594,1,0,0:0:0:0:
256,192,112761,1,8,0:0:0:0:
256,192,112928,1,8,0:0:0:0:
256,192,113011,1,8,0:0:0:0:
256,192,113094,1,0,0:0:0:0:
256,192,113261,1,0,0:0:0:0:
256,192,113428,1,8,0:0:0:0:
256,192,113511,1,8,0:0:0:0:
256,192,113594,1,0,0:0:0:0:
256,192,113678,1,0,0:0:0:0:
256,192,113761,1,8,0:0:0:0:
256,192,113928,1,0,0:0:0:0:
256,192,114094,1,8,0:0:0:0:
256,192,114261,1,0,0:0:0:0:
256,192,114344,1,0,0:0:0:0:
256,192,114428,1,8,0:0:0:0:
256,192,114594,1,0,0:0:0:0:
256,192,114761,1,8,0:0:0:0:
256,192,114928,1,8,0:0:0:0:
256,192,115011,1,8,0:0:0:0:
256,192,115094,1,0,0:0:0:0:
256,192,115261,1,0,0:0:0:0:
256,192,115428,1,8,0:0:0:0:
256,192,115594,1,0,0:0:0:0:
256,192,115678,1,0,0:0:0:0:
256,192,115761,1,8,0:0:0:0:
256,192,115844,1,0,0:0:0:0:
256,192,115928,1,8,0:0:0:0:
256,192,116094,1,0,0:0:0:0:
256,192,116261,1,8,0:0:0:0:
256,192,116428,1,0,0:0:0:0:
256,192,116594,1,0,0:0:0:0:
256,192,116761,1,8,0:0:0:0:
256,192,116928,1,0,0:0:0:0:
256,192,117011,1,8,0:0:0:0:
256,192,117094,1,0,0:0:0:0:
256,192,117261,1,0,0:0:0:0:
256,192,117428,1,8,0:0:0:0:
256,192,117594,1,0,0:0:0:0:
256,192,117678,1,0,0:0:0:0:
256,192,117761,1,8,0:0:0:0:
256,192,117928,1,0,0:0:0:0:
256,192,118094,1,8,0:0:0:0:
256,192,118178,1,0,0:0:0:0:
256,192,118261,1,0,0:0:0:0:
256,192,118344,1,0,0:0:0:0:
256,192,118428,1,8,0:0:0:0:
256,192,118594,1,8,0:0:0:0:
256,192,118761,1,0,0:0:0:0:
256,192,118844,1,0,0:0:0:0:
256,192,118928,1,8,0:0:0:0:
256,192,119011,1,8,0:0:0:0:
256,192,119094,1,0,0:0:0:0:
256,192,119261,1,0,0:0:0:0:
256,192,119428,1,8,0:0:0:0:
256,192,119594,1,0,0:0:0:0:
256,192,119678,1,0,0:0:0:0:
256,192,119761,1,0,0:0:0:0:
256,192,119928,1,0,0:0:0:0:
256,192,120094,1,8,0:0:0:0:
256,192,120261,1,8,0:0:0:0:
256,192,120344,1,8,0:0:0:0:
256,192,120428,1,0,0:0:0:0:
256,192,120511,1,0,0:0:0:0:
256,192,120594,1,0,0:0:0:0:
256,192,120761,1,8,0:0:0:0:
256,192,120928,1,0,0:0:0:0:
256,192,121011,1,0,0:0:0:0:
256,192,121094,1,8,0:0:0:0:
256,192,121178,1,0,0:0:0:0:
256,192,121261,1,8,0:0:0:0:
256,192,121344,1,0,0:0:0:0:
256,192,121428,1,8,0:0:0:0:
256,192,121511,1,0,0:0:0:0:
256,192,121594,1,0,0:0:0:0:
256,192,121678,1,0,0:0:0:0:
256,192,121761,1,12,0:0:0:0:
256,192,122094,1,8,0:0:0:0:
256,192,122261,1,8,0:0:0:0:
256,192,122344,1,8,0:0:0:0:
256,192,122428,1,0,0:0:0:0:
256,192,122594,1,0,0:0:0:0:
256,192,122761,1,8,0:0:0:0:
256,192,122928,1,0,0:0:0:0:
256,192,123011,1,0,0:0:0:0:
256,192,123094,1,8,0:0:0:0:
256,192,123178,1,8,0:0:0:0:
256,192,123261,1,0,0:0:0:0:
256,192,123428,1,8,0:0:0:0:
256,192,123594,1,0,0:0:0:0:
256,192,123761,1,8,0:0:0:0:
256,192,123844,1,8,0:0:0:0:
256,192,123928,1,0,0:0:0:0:
256,192,124011,1,8,0:0:0:0:
256,192,124094,1,0,0:0:0:0:
256,192,124261,1,8,0:0:0:0:
256,192,124428,1,0,0:0:0:0:
256,192,124594,1,0,0:0:0:0:
256,192,124678,1,0,0:0:0:0:
256,192,124761,1,8,0:0:0:0:
256,192,124928,1,0,0:0:0:0:
256,192,125094,1,8,0:0:0:0:
256,192,125178,1,8,0:0:0:0:
256,192,125261,1,0,0:0:0:0:
256,192,125344,1,0,0:0:0:0:
256,192,125428,1,8,0:0:0:0:
256,192,125594,1,0,0:0:0:0:
256,192,125761,1,8,0:0:0:0:
256,192,125928,1,0,0:0:0:0:
256,192,126011,1,0,0:0:0:0:
256,192,126094,1,8,0:0:0:0:
256,192,126261,1,0,0:0:0:0:
256,192,126344,1,0,0:0:0:0:
256,192,126428,1,8,0:0:0:0:
256,192,126511,1,0,0:0:0:0:
256,192,126594,1,0,0:0:0:0:
256,192,126761,1,8,0:0:0:0:
256,192,126928,1,0,0:0:0:0:
256,192,127094,1,8,0:0:0:0:
256,192,127261,1,0,0:0:0:0:
256,192,127344,1,0,0:0:0:0:
256,192,127428,1,8,0:0:0:0:
256,192,127594,1,0,0:0:0:0:
256,192,127761,1,8,0:0:0:0:
256,192,127844,1,8,0:0:0:0:
256,192,127928,1,0,0:0:0:0:
256,192,128011,1,0,0:0:0:0:
256,192,128094,1,8,0:0:0:0:
256,192,128261,1,8,0:0:0:0:
256,192,128428,1,0,0:0:0:0:
256,192,128511,1,0,0:0:0:0:
256,192,128594,1,0,0:0:0:0:
256,192,128761,1,8,0:0:0:0:
256,192,128928,1,0,0:0:0:0:
256,192,129011,1,0,0:0:0:0:
256,192,129094,1,8,0:0:0:0:
256,192,129261,1,0,0:0:0:0:
256,192,129428,1,8,0:0:0:0:
256,192,129511,1,0,0:0:0:0:
256,192,129594,1,8,0:0:0:0:
256,192,129678,1,8,0:0:0:0:
256,192,129761,1,0,0:0:0:0:
256,192,129928,1,0,0:0:0:0:
256,192,130094,1,8,0:0:0:0:
256,192,130178,1,8,0:0:0:0:
256,192,130261,1,0,0:0:0:0:
256,192,130428,1,0,0:0:0:0:
256,192,130511,1,0,0:0:0:0:
256,192,130594,1,8,0:0:0:0:
256,192,130678,1,0,0:0:0:0:
256,192,130761,1,8,0:0:0:0:
256,192,130928,1,8,0:0:0:0:
256,192,131094,1,0,0:0:0:0:
256,192,131261,1,8,0:0:0:0:
256,192,131344,1,8,0:0:0:0:
256,192,131428,1,0,0:0:0:0:
256,192,131594,1,0,0:0:0:0:
256,192,131678,1,0,0:0:0:0:
256,192,131761,1,8,0:0:0:0:
256,192,131844,1,0,0:0:0:0:
256,192,131928,1,8,0:0:0:0:
256,192,132011,1,8,0:0:0:0:
256,192,132094,1,0,0:0:0:0:
256,192,132261,1,0,0:0:0:0:
256,192,132428,1,12,0:0:0:0:
256,192,132928,1,12,0:0:0:0:
256,192,133428,1,12,0:0:0:0:
256,192,133928,1,12,0:0:0:0:
256,192,134428,1,0,0:0:0:0:
256,192,134594,1,0,0:0:0:0:
256,192,134761,1,12,0:0:0:0:
256,192,135261,1,12,0:0:0:0:
256,192,135761,1,12,0:0:0:0:
256,192,136261,1,12,0:0:0:0:
256,192,136761,1,0,0:0:0:0:
256,192,136928,1,0,0:0:0:0:
256,192,137094,1,12,0:0:0:0:
256,192,137594,1,12,0:0:0:0:
256,192,138094,1,12,0:0:0:0:
256,192,138594,1,12,0:0:0:0:
256,192,139094,1,0,0:0:0:0:
256,192,139261,1,0,0:0:0:0:
256,192,139428,1,12,0:0:0:0:
256,192,139927,1,12,0:0:0:0:
256,192,140427,1,12,0:0:0:0:
256,192,140927,1,12,0:0:0:0:
256,192,141427,1,8,0:0:0:0:
256,192,141593,1,8,0:0:0:0:
256,192,141760,1,0,0:0:0:0:
256,192,141927,1,0,0:0:0:0:
256,192,142093,1,12,0:0:0:0:
256,192,142259,1,0,0:0:0:0:
256,192,142343,1,0,0:0:0:0:
256,192,142426,1,0,0:0:0:0:
256,192,142593,1,12,0:0:0:0:
256,192,142759,1,0,0:0:0:0:
256,192,142843,1,8,0:0:0:0:
256,192,142926,1,0,0:0:0:0:
256,192,143093,1,12,0:0:0:0:
256,192,143259,1,0,0:0:0:0:
256,192,143343,1,0,0:0:0:0:
256,192,143426,1,0,0:0:0:0:
256,192,143509,1,0,0:0:0:0:
256,192,143593,1,12,0:0:0:0:
256,192,143759,1,0,0:0:0:0:
256,192,143843,1,0,0:0:0:0:
256,192,143926,1,8,0:0:0:0:
256,192,144009,1,0,0:0:0:0:
256,192,144093,1,12,0:0:0:0:
256,192,144259,1,0,0:0:0:0:
256,192,144343,1,0,0:0:0:0:
256,192,144426,1,8,0:0:0:0:
256,192,144509,1,8,0:0:0:0:
256,192,144593,1,0,0:0:0:0:
256,192,144676,1,0,0:0:0:0:
256,192,144759,1,12,0:0:0:0:
256,192,144926,1,0,0:0:0:0:
256,192,145009,1,0,0:0:0:0:
256,192,145093,1,8,0:0:0:0:
256,192,145176,1,8,0:0:0:0:
256,192,145259,1,0,0:0:0:0:
256,192,145343,1,0,0:0:0:0:
256,192,145426,1,8,0:0:0:0:
256,192,145509,1,0,0:0:0:0:
256,192,145593,1,8,0:0:0:0:
256,192,145676,1,8,0:0:0:0:
256,192,145759,1,0,0:0:0:0:
256,192,145843,1,0,0:0:0:0:
256,192,145926,1,8,0:0:0:0:
256,192,146009,1,0,0:0:0:0:
256,192,146093,1,8,0:0:0:0:
256,192,146176,1,8,0:0:0:0:
256,192,146259,1,0,0:0:0:0:
256,192,146343,1,0,0:0:0:0:
256,192,146426,1,8,0:0:0:0:
256,192,146509,1,0,0:0:0:0:
256,192,146593,1,0,0:0:0:0:
256,192,146676,1,0,0:0:0:0:
256,192,146759,1,8,0:0:0:0:
256,192,146843,1,8,0:0:0:0:
256,192,146926,1,0,0:0:0:0:
256,192,147009,1,0,0:0:0:0:
256,192,147093,1,8,0:0:0:0:
256,192,147259,1,8,0:0:0:0:
256,192,147426,5,4,0:0:0:0:
256,192,147593,1,0,0:0:0:0:
256,192,147759,1,8,0:0:0:0:
256,192,147926,1,0,0:0:0:0:
256,192,148009,1,0,0:0:0:0:
256,192,148093,1,0,0:0:0:0:
256,192,148259,1,0,0:0:0:0:
256,192,148426,1,8,0:0:0:0:
256,192,148593,1,0,0:0:0:0:
256,192,148676,1,0,0:0:0:0:
256,192,148759,1,8,0:0:0:0:
256,192,148843,1,8,0:0:0:0:
256,192,148926,1,0,0:0:0:0:
256,192,149093,1,8,0:0:0:0:
256,192,149259,1,0,0:0:0:0:
256,192,149343,1,0,0:0:0:0:
256,192,149426,1,8,0:0:0:0:
256,192,149593,1,0,0:0:0:0:
256,192,149676,1,0,0:0:0:0:
256,192,149759,1,8,0:0:0:0:
256,192,149843,1,0,0:0:0:0:
256,192,149926,1,8,0:0:0:0:
256,192,150009,1,8,0:0:0:0:
256,192,150093,1,0,0:0:0:0:
256,192,150259,1,0,0:0:0:0:
256,192,150426,1,8,0:0:0:0:
256,192,150593,1,0,0:0:0:0:
256,192,150676,1,0,0:0:0:0:
256,192,150759,1,0,0:0:0:0:
256,192,150926,1,0,0:0:0:0:
256,192,151093,1,8,0:0:0:0:
256,192,151259,1,0,0:0:0:0:
256,192,151343,1,0,0:0:0:0:
256,192,151426,1,8,0:0:0:0:
256,192,151509,1,0,0:0:0:0:
256,192,151593,1,8,0:0:0:0:
256,192,151759,1,0,0:0:0:0:
256,192,151926,1,0,0:0:0:0:
256,192,152009,1,0,0:0:0:0:
256,192,152093,1,8,0:0:0:0:
256,192,152259,1,0,0:0:0:0:
256,192,152343,1,0,0:0:0:0:
256,192,152426,1,8,0:0:0:0:
256,192,152509,1,8,0:0:0:0:
256,192,152593,1,0,0:0:0:0:
256,192,152676,1,0,0:0:0:0:
256,192,152759,1,12,0:0:0:0:
256,192,152926,1,0,0:0:0:0:
256,192,153093,1,8,0:0:0:0:
256,192,153259,1,8,0:0:0:0:
256,192,153343,1,8,0:0:0:0:
256,192,153426,1,0,0:0:0:0:
256,192,153509,1,8,0:0:0:0:
256,192,153593,1,0,0:0:0:0:
256,192,153759,1,8,0:0:0:0:
256,192,153926,1,0,0:0:0:0:
256,192,154009,1,8,0:0:0:0:
256,192,154093,1,0,0:0:0:0:
256,192,154259,1,0,0:0:0:0:
256,192,154426,1,8,0:0:0:0:
256,192,154593,1,0,0:0:0:0:
256,192,154676,1,8,0:0:0:0:
256,192,154759,1,8,0:0:0:0:
256,192,154843,1,0,0:0:0:0:
256,192,154926,1,8,0:0:0:0:
256,192,155093,1,0,0:0:0:0:
256,192,155259,1,8,0:0:0:0:
256,192,155343,1,8,0:0:0:0:
256,192,155426,1,0,0:0:0:0:
256,192,155593,1,0,0:0:0:0:
256,192,155759,1,8,0:0:0:0:
256,192,155843,1,8,0:0:0:0:
256,192,155926,1,0,0:0:0:0:
256,192,156009,1,8,0:0:0:0:
256,192,156093,1,0,0:0:0:0:
256,192,156176,1,0,0:0:0:0:
256,192,156259,1,8,0:0:0:0:
256,192,156426,1,0,0:0:0:0:
256,192,156592,1,12,0:0:0:0:
256,192,156926,1,0,0:0:0:0:
256,192,157092,1,8,0:0:0:0:
256,192,157259,1,0,0:0:0:0:
256,192,157426,1,8,0:0:0:0:
256,192,157509,1,8,0:0:0:0:
256,192,157592,1,0,0:0:0:0:
256,192,157676,1,0,0:0:0:0:
256,192,157759,1,8,0:0:0:0:
256,192,157842,1,0,0:0:0:0:
256,192,157926,1,8,0:0:0:0:
256,192,158009,1,8,0:0:0:0:
256,192,158092,1,4,0:0:0:0:
256,192,158259,1,0,0:0:0:0:
256,192,158426,1,8,0:0:0:0:
256,192,158592,1,0,0:0:0:0:
256,192,158676,1,0,0:0:0:0:
256,192,158759,1,0,0:0:0:0:
256,192,158926,1,0,0:0:0:0:
256,192,159092,1,8,0:0:0:0:
256,192,159259,1,0,0:0:0:0:
256,192,159342,1,0,0:0:0:0:
256,192,159426,1,8,0:0:0:0:
256,192,159509,1,8,0:0:0:0:
256,192,159592,1,0,0:0:0:0:
256,192,159759,1,8,0:0:0:0:
256,192,159926,1,0,0:0:0:0:
256,192,160009,1,0,0:0:0:0:
256,192,160092,1,8,0:0:0:0:
256,192,160259,1,8,0:0:0:0:
256,192,160342,1,8,0:0:0:0:
256,192,160426,1,0,0:0:0:0:
256,192,160509,1,8,0:0:0:0:
256,192,160592,1,0,0:0:0:0:
256,192,160676,1,0,0:0:0:0:
256,192,160759,1,8,0:0:0:0:
256,192,160926,1,0,0:0:0:0:
256,192,161092,1,8,0:0:0:0:
256,192,161259,1,0,0:0:0:0:
256,192,161342,1,0,0:0:0:0:
256,192,161426,1,8,0:0:0:0:
256,192,161509,1,8,0:0:0:0:
256,192,161592,1,8,0:0:0:0:
256,192,161759,1,8,0:0:0:0:
256,192,161926,1,0,0:0:0:0:
256,192,162009,1,0,0:0:0:0:
256,192,162092,1,8,0:0:0:0:
256,192,162259,1,0,0:0:0:0:
256,192,162426,1,8,0:0:0:0:
256,192,162592,1,8,0:0:0:0:
256,192,162676,1,8,0:0:0:0:
256,192,162759,1,0,0:0:0:0:
256,192,162926,1,0,0:0:0:0:
256,192,163009,1,8,0:0:0:0:
256,192,163092,1,0,0:0:0:0:
256,192,163176,1,0,0:0:0:0:
256,192,163259,1,8,0:0:0:0:
256,192,163342,1,0,0:0:0:0:
256,192,163426,1,12,0:0:0:0:
256,192,163592,1,0,0:0:0:0:
256,192,163759,1,8,0:0:0:0:
256,192,163926,1,0,0:0:0:0:
256,192,164009,1,8,0:0:0:0:
256,192,164092,1,0,0:0:0:0:
256,192,164176,1,0,0:0:0:0:
256,192,164259,1,0,0:0:0:0:
256,192,164426,1,8,0:0:0:0:
256,192,164592,1,8,0:0:0:0:
256,192,164676,1,8,0:0:0:0:
256,192,164759,1,0,0:0:0:0:
256,192,164926,1,0,0:0:0:0:
256,192,165092,1,8,0:0:0:0:
256,192,165259,1,8,0:0:0:0:
256,192,165342,1,8,0:0:0:0:
256,192,165426,1,8,0:0:0:0:
256,192,165509,1,8,0:0:0:0:
256,192,165592,1,0,0:0:0:0:
256,192,165759,1,8,0:0:0:0:
256,192,165842,1,0,0:0:0:0:
256,192,165926,1,0,0:0:0:0:
256,192,166092,1,12,0:0:0:0:
256,192,166259,1,4,0:0:0:0:
256,192,166426,1,0,0:0:0:0:
256,192,166592,1,12,0:0:0:0:
256,192,166926,1,4,0:0:0:0:
256,192,167092,1,8,0:0:0:0:
256,192,167259,1,12,0:0:0:0:
256,192,167592,1,4,0:0:0:0:
256,192,167759,1,8,0:0:0:0:
256,192,167926,1,4,0:0:0:0:
256,192,168092,1,0,0:0:0:0:
256,192,168176,1,0,0:0:0:0:
256,192,168259,1,8,0:0:0:0:
256,192,168342,1,0,0:0:0:0:
256,192,168426,1,8,0:0:0:0:
256,192,168509,1,8,0:0:0:0:
256,192,168592,1,0,0:0:0:0:
256,192,168676,1,0,0:0:0:0:
256,192,168759,1,12,0:0:0:0:
256,192,168926,1,0,0:0:0:0:
256,192,169092,1,8,0:0:0:0:
256,192,169259,1,0,0:0:0:0:
256,192,169342,1,0,0:0:0:0:
256,192,169426,1,0,0:0:0:0:
256,192,169592,1,0,0:0:0:0:
256,192,169759,1,8,0:0:0:0:
256,192,169926,1,0,0:0:0:0:
256,192,170009,1,0,0:0:0:0:
256,192,170092,1,8,0:0:0:0:
256,192,170176,1,8,0:0:0:0:
256,192,170259,1,0,0:0:0:0:
256,192,170426,1,8,0:0:0:0:
256,192,170592,1,0,0:0:0:0:
256,192,170676,1,0,0:0:0:0:
256,192,170759,1,8,0:0:0:0:
256,192,170926,1,0,0:0:0:0:
256,192,171009,1,0,0:0:0:0:
256,192,171092,1,8,0:0:0:0:
256,192,171176,1,0,0:0:0:0:
256,192,171259,1,8,0:0:0:0:
256,192,171342,1,8,0:0:0:0:
256,192,171426,1,0,0:0:0:0:
256,192,171592,1,0,0:0:0:0:
256,192,171759,1,8,0:0:0:0:
256,192,171926,1,0,0:0:0:0:
256,192,172009,1,0,0:0:0:0:
256,192,172092,1,0,0:0:0:0:
256,192,172259,1,0,0:0:0:0:
256,192,172426,1,8,0:0:0:0:
256,192,172592,1,0,0:0:0:0:
256,192,172676,1,0,0:0:0:0:
256,192,172759,1,8,0:0:0:0:
256,192,172842,1,0,0:0:0:0:
256,192,172926,1,8,0:0:0:0:
256,192,173092,1,0,0:0:0:0:
256,192,173259,1,0,0:0:0:0:
256,192,173342,1,0,0:0:0:0:
256,192,173426,1,8,0:0:0:0:
256,192,173592,1,0,0:0:0:0:
256,192,173676,1,0,0:0:0:0:
256,192,173759,1,8,0:0:0:0:
256,192,173842,1,8,0:0:0:0:
256,192,173926,1,0,0:0:0:0:
256,192,174009,1,0,0:0:0:0:
256,192,174092,1,12,0:0:0:0:
256,192,174259,1,0,0:0:0:0:
256,192,174426,1,8,0:0:0:0:
256,192,174592,1,8,0:0:0:0:
256,192,174676,1,8,0:0:0:0:
256,192,174759,1,0,0:0:0:0:
256,192,174842,1,8,0:0:0:0:
256,192,174926,1,0,0:0:0:0:
256,192,175092,1,8,0:0:0:0:
256,192,175259,1,0,0:0:0:0:
256,192,175342,1,8,0:0:0:0:
256,192,175426,1,0,0:0:0:0:
256,192,175592,1,0,0:0:0:0:
256,192,175759,1,8,0:0:0:0:
256,192,175926,1,0,0:0:0:0:
256,192,176009,1,8,0:0:0:0:
256,192,176092,1,8,0:0:0:0:
256,192,176176,1,0,0:0:0:0:
256,192,176259,1,8,0:0:0:0:
256,192,176426,1,0,0:0:0:0:
256,192,176592,1,8,0:0:0:0:
256,192,176676,1,8,0:0:0:0:
256,192,176759,1,0,0:0:0:0:
256,192,176926,1,0,0:0:0:0:
256,192,177092,1,8,0:0:0:0:
256,192,177176,1,8,0:0:0:0:
256,192,177259,1,0,0:0:0:0:
256,192,177342,1,8,0:0:0:0:
256,192,177426,1,0,0:0:0:0:
256,192,177509,1,0,0:0:0:0:
256,192,177592,1,8,0:0:0:0:
256,192,177759,1,0,0:0:0:0:
256,192,177926,1,12,0:0:0:0:
256,192,178259,1,0,0:0:0:0:
256,192,178426,1,8,0:0:0:0:
256,192,178592,1,0,0:0:0:0:
256,192,178759,1,8,0:0:0:0:
256,192,178842,1,8,0:0:0:0:
256,192,178926,1,0,0:0:0:0:
256,192,179009,1,0,0:0:0:0:
256,192,179092,1,8,0:0:0:0:
256,192,179176,1,0,0:0:0:0:
256,192,179259,1,8,0:0:0:0:
256,192,179342,1,8,0:0:0:0:
256,192,179426,1,4,0:0:0:0:
256,192,179592,1,0,0:0:0:0:
256,192,179759,1,8,0:0:0:0:
256,192,179926,1,0,0:0:0:0:
256,192,180009,1,8,0:0:0:0:
256,192,180092,1,0,0:0:0:0:
256,192,180259,1,0,0:0:0:0:
256,192,180426,1,8,0:0:0:0:
256,192,180592,1,0,0:0:0:0:
256,192,180676,1,0,0:0:0:0:
256,192,180759,1,8,0:0:0:0:
256,192,180842,1,8,0:0:0:0:
256,192,180926,1,0,0:0:0:0:
256,192,181092,1,8,0:0:0:0:
256,192,181259,1,0,0:0:0:0:
256,192,181342,1,0,0:0:0:0:
256,192,181426,1,8,0:0:0:0:
256,192,181592,1,0,0:0:0:0:
256,192,181759,1,8,0:0:0:0:
256,192,181842,1,0,0:0:0:0:
256,192,181926,1,8,0:0:0:0:
256,192,182009,1,8,0:0:0:0:
256,192,182092,1,4,0:0:0:0:
256,192,182259,1,0,0:0:0:0:
256,192,182342,1,0,0:0:0:0:
256,192,182426,1,8,0:0:0:0:
256,192,182592,1,8,0:0:0:0:
256,192,182676,1,0,0:0:0:0:
256,192,182759,1,8,0:0:0:0:
256,192,182842,1,8,0:0:0:0:
256,192,182926,1,0,0:0:0:0:
256,192,183009,1,0,0:0:0:0:
256,192,183092,1,8,0:0:0:0:
256,192,183259,1,0,0:0:0:0:
256,192,183426,1,12,0:0:0:0:
256,192,183592,1,0,0:0:0:0:
256,192,183676,1,0,0:0:0:0:
256,192,183759,1,8,0:0:0:0:
256,192,183842,1,8,0:0:0:0:
256,192,183926,1,0,0:0:0:0:
256,192,184009,1,0,0:0:0:0:
256,192,184092,1,8,0:0:0:0:
256,192,184176,1,0,0:0:0:0:
256,192,184259,1,8,0:0:0:0:
256,192,184342,1,8,0:0:0:0:
256,192,184426,1,0,0:0:0:0:
256,192,184509,1,0,0:0:0:0:
256,192,184592,1,8,0:0:0:0:
256,192,184676,1,8,0:0:0:0:
256,192,184759,1,4,0:0:0:0:
256,192,185092,1,0,0:0:0:0:
256,192,185426,1,0,0:0:0:0:
256,192,185759,1,0,0:0:0:0:
256,192,186092,1,8,0:0:0:0:
256,192,186426,1,0,0:0:0:0:
256,192,186759,1,8,0:0:0:0:
256,192,187092,1,0,0:0:0:0:
256,192,187426,1,8,0:0:0:0:
256,192,187759,1,8,0:0:0:0:
256,192,188092,1,8,0:0:0:0:
256,192,188426,1,8,0:0:0:0:
256,192,188759,1,0,0:0:0:0:
256,192,189092,1,8,0:0:0:0:
256,192,189426,1,0,0:0:0:0:
256,192,189759,1,8,0:0:0:0:
256,192,190092,1,4,0:0:0:0:
256,192,190426,1,0,0:0:0:0:
256,192,190759,1,0,0:0:0:0:
256,192,191092,1,0,0:0:0:0:
256,192,191426,1,8,0:0:0:0:
256,192,191759,1,0,0:0:0:0:
256,192,192092,1,8,0:0:0:0:
256,192,192426,1,0,0:0:0:0:
256,192,192759,1,8,0:0:0:0:
256,192,193092,1,8,0:0:0:0:
256,192,193426,1,8,0:0:0:0:
256,192,193759,1,8,0:0:0:0:
256,192,193926,1,4,0:0:0:0:
256,192,194259,1,8,0:0:0:0:
256,192,194342,1,8,0:0:0:0:
256,192,194426,1,0,0:0:0:0:
256,192,194592,1,0,0:0:0:0:
256,192,194676,1,0,0:0:0:0:
256,192,194759,1,8,0:0:0:0:
256,192,194842,1,0,0:0:0:0:
256,192,194926,1,8,0:0:0:0:
256,192,195009,1,8,0:0:0:0:
256,192,195092,1,0,0:0:0:0:
256,192,195259,1,0,0:0:0:0:
256,192,195426,1,12,0:0:0:0:
256,192,195759,1,8,0:0:0:0:
256,192,195926,1,0,0:0:0:0:
256,192,196009,1,0,0:0:0:0:
256,192,196092,1,0,0:0:0:0:
256,192,196259,1,8,0:0:0:0:
256,192,196426,1,0,0:0:0:0:
256,192,196509,1,0,0:0:0:0:
256,192,196592,1,8,0:0:0:0:
256,192,196676,1,0,0:0:0:0:
256,192,196759,1,0,0:0:0:0:
256,192,196926,1,8,0:0:0:0:
256,192,197092,1,0,0:0:0:0:
256,192,197259,1,0,0:0:0:0:
256,192,197426,1,8,0:0:0:0:
256,192,197592,1,0,0:0:0:0:
256,192,197676,1,0,0:0:0:0:
256,192,197759,1,8,0:0:0:0:
256,192,197926,1,0,0:0:0:0:
256,192,198009,1,0,0:0:0:0:
256,192,198092,1,8,0:0:0:0:
256,192,198426,1,8,0:0:0:0:
256,192,198592,1,0,0:0:0:0:
256,192,198676,1,8,0:0:0:0:
256,192,198759,1,0,0:0:0:0:
256,192,198926,1,8,0:0:0:0:
256,192,199092,1,0,0:0:0:0:
256,192,199176,1,0,0:0:0:0:
256,192,199259,1,8,0:0:0:0:
256,192,199342,1,0,0:0:0:0:
256,192,199426,1,8,0:0:0:0:
256,192,199592,1,8,0:0:0:0:
256,192,199759,1,0,0:0:0:0:
256,192,199842,1,0,0:0:0:0:
256,192,199926,1,0,0:0:0:0:
256,192,200092,1,8,0:0:0:0:
256,192,200259,1,0,0:0:0:0:
256,192,200342,1,0,0:0:0:0:
256,192,200426,1,8,0:0:0:0:
256,192,200592,1,8,0:0:0:0:
256,192,200676,1,0,0:0:0:0:
256,192,200759,1,8,0:0:0:0:
256,192,201092,1,8,0:0:0:0:
256,192,201259,1,0,0:0:0:0:
256,192,201342,1,0,0:0:0:0:
256,192,201426,1,0,0:0:0:0:
256,192,201592,1,8,0:0:0:0:
256,192,201759,1,0,0:0:0:0:
256,192,201842,1,0,0:0:0:0:
256,192,201926,1,8,0:0:0:0:
256,192,202009,1,0,0:0:0:0:
256,192,202092,1,0,0:0:0:0:
256,192,202259,1,8,0:0:0:0:
256,192,202426,1,0,0:0:0:0:
256,192,202592,1,0,0:0:0:0:
256,192,202759,1,8,0:0:0:0:
256,192,202926,1,0,0:0:0:0:
256,192,203009,1,0,0:0:0:0:
256,192,203092,1,8,0:0:0:0:
256,192,203259,1,0,0:0:0:0:
256,192,203342,1,0,0:0:0:0:
256,192,203426,1,8,0:0:0:0:
256,192,203759,1,8,0:0:0:0:
256,192,203926,1,0,0:0:0:0:
256,192,204009,1,8,0:0:0:0:
256,192,204092,1,0,0:0:0:0:
256,192,204259,1,8,0:0:0:0:
256,192,204426,1,0,0:0:0:0:
256,192,204509,1,0,0:0:0:0:
256,192,204592,1,8,0:0:0:0:
256,192,204676,1,0,0:0:0:0:
256,192,204759,1,8,0:0:0:0:
256,192,204926,1,8,0:0:0:0:
256,192,205092,1,0,0:0:0:0:
256,192,205176,1,0,0:0:0:0:
256,192,205259,1,0,0:0:0:0:
256,192,205426,1,8,0:0:0:0:
256,192,205592,1,0,0:0:0:0:
256,192,205676,1,0,0:0:0:0:
256,192,205759,1,8,0:0:0:0:
256,192,205926,1,0,0:0:0:0:
256,192,206092,1,8,0:0:0:0:
256,192,206259,1,0,0:0:0:0:
256,192,206426,1,8,0:0:0:0:
256,192,206592,1,8,0:0:0:0:
256,192,206759,1,0,0:0:0:0:
256,192,206926,1,8,0:0:0:0:
256,192,207092,1,0,0:0:0:0:
256,192,207259,1,0,0:0:0:0:
256,192,207426,1,8,0:0:0:0:
256,192,207592,1,0,0:0:0:0:
256,192,207759,1,0,0:0:0:0:
256,192,207926,1,8,0:0:0:0:
256,192,208092,1,0,0:0:0:0:
256,192,208259,1,0,0:0:0:0:
256,192,208426,1,8,0:0:0:0:
256,192,208592,1,8,0:0:0:0:
256,192,208759,1,0,0:0:0:0:
256,192,208926,1,0,0:0:0:0:
256,192,209092,1,8,0:0:0:0:
256,192,209259,1,8,0:0:0:0:
256,192,209426,1,0,0:0:0:0:
256,192,209592,1,8,0:0:0:0:
256,192,209759,1,0,0:0:0:0:
256,192,209926,1,0,0:0:0:0:
256,192,210092,1,8,0:0:0:0:
256,192,210259,1,0,0:0:0:0:
256,192,210426,1,0,0:0:0:0:
256,192,210592,1,8,0:0:0:0:
256,192,210759,1,0,0:0:0:0:
256,192,210926,1,0,0:0:0:0:
256,192,211092,1,8,0:0:0:0:
256,192,211259,1,8,0:0:0:0:
256,192,211426,1,0,0:0:0:0:
256,192,211592,1,0,0:0:0:0:
256,192,211759,1,8,0:0:0:0:
256,192,211926,1,8,0:0:0:0:
256,192,212092,1,0,0:0:0:0:
256,192,212259,1,8,0:0:0:0:
256,192,212426,1,0,0:0:0:0:
256,192,212592,1,0,0:0:0:0:
256,192,212759,1,8,0:0:0:0:
256,192,212926,1,0,0:0:0:0:
256,192,213092,1,0,0:0:0:0:
256,192,213259,1,8,0:0:0:0:
256,192,213426,1,0,0:0:0:0:
256,192,213592,1,0,0:0:0:0:
256,192,213759,1,8,0:0:0:0:
256,192,213926,1,8,0:0:0:0:
256,192,214092,1,0,0:0:0:0:
256,192,214259,1,0,0:0:0:0:
256,192,214426,1,8,0:0:0:0:
256,192,214592,1,8,0:0:0:0:
256,192,214759,1,0,0:0:0:0:
256,192,214926,1,8,0:0:0:0:
256,192,215092,1,0,0:0:0:0:
256,192,215259,1,0,0:0:0:0:
256,192,215426,1,8,0:0:0:0:
256,192,215592,1,0,0:0:0:0:
256,192,215759,1,0,0:0:0:0:
256,192,215926,1,8,0:0:0:0:
256,192,216092,1,0,0:0:0:0:
256,192,216259,1,0,0:0:0:0:
256,192,216426,1,8,0:0:0:0:
256,192,216759,1,4,0:0:0:0:
256,192,216926,1,8,0:0:0:0:
256,192,217092,1,0,0:0:0:0:
256,192,217426,1,8,0:0:0:0:
256,192,217592,1,8,0:0:0:0:
256,192,217759,1,0,0:0:0:0:
256,192,217926,1,0,0:0:0:0:
256,192,218092,1,8,0:0:0:0:
256,192,218259,1,0,0:0:0:0:
256,192,218426,1,8,0:0:0:0:
256,192,218759,1,0,0:0:0:0:
256,192,218926,1,8,0:0:0:0:
256,192,219259,1,8,0:0:0:0:
256,192,219426,1,0,0:0:0:0:
256,192,219592,1,0,0:0:0:0:
256,192,219759,1,8,0:0:0:0:
256,192,219926,1,0,0:0:0:0:
256,192,220092,1,8,0:0:0:0:
256,192,220426,1,0,0:0:0:0:
256,192,220592,1,0,0:0:0:0:
256,192,220759,1,8,0:0:0:0:
256,192,220926,1,0,0:0:0:0:
256,192,221092,1,8,0:0:0:0:
256,192,221426,1,0,0:0:0:0:
256,192,221592,1,8,0:0:0:0:
256,192,221759,1,8,0:0:0:0:
256,192,222092,1,8,0:0:0:0:
256,192,222259,1,0,0:0:0:0:
256,192,222426,1,8,0:0:0:0:
256,192,222592,1,8,0:0:0:0:
256,192,222759,1,0,0:0:0:0:
256,192,222926,1,8,0:0:0:0:
256,192,223092,1,0,0:0:0:0:
256,192,223259,1,0,0:0:0:0:
256,192,223426,1,8,0:0:0:0:
256,192,223592,1,0,0:0:0:0:
256,192,223759,1,8,0:0:0:0:
256,192,224092,1,0,0:0:0:0:
256,192,224259,1,8,0:0:0:0:
256,192,224592,1,0,0:0:0:0:
256,192,224759,1,8,0:0:0:0:
256,192,224926,1,0,0:0:0:0:
256,192,225092,1,8,0:0:0:0:
256,192,225259,1,0,0:0:0:0:
256,192,225426,1,8,0:0:0:0:
256,192,225592,1,8,0:0:0:0:
256,192,225759,1,0,0:0:0:0:
256,192,225926,1,0,0:0:0:0:
256,192,226009,1,0,0:0:0:0:
256,192,226092,1,8,0:0:0:0:
256,192,226259,1,0,0:0:0:0:
256,192,226426,1,8,0:0:0:0:
256,192,226592,1,8,0:0:0:0:
256,192,226759,1,0,0:0:0:0:
256,192,227092,1,8,0:0:0:0:
256,192,227426,1,12,0:0:0:0:
256,192,227759,1,0,0:0:0:0:
256,192,227926,1,0,0:0:0:0:
256,192,228092,1,8,0:0:0:0:
256,192,228426,1,0,0:0:0:0:
256,192,228592,1,8,0:0:0:0:
256,192,228759,1,8,0:0:0:0:
256,192,228926,1,0,0:0:0:0:
256,192,229259,1,0,0:0:0:0:
256,192,229592,1,8,0:0:0:0:
256,192,229926,1,8,0:0:0:0:
256,192,230092,1,0,0:0:0:0:
256,192,230426,1,8,0:0:0:0:
256,192,230592,1,0,0:0:0:0:
256,192,230759,1,8,0:0:0:0:
256,192,230926,1,8,0:0:0:0:
256,192,231092,1,0,0:0:0:0:
256,192,231259,1,0,0:0:0:0:
256,192,231426,1,8,0:0:0:0:
256,192,231759,1,8,0:0:0:0:
256,192,231926,1,0,0:0:0:0:
256,192,232092,1,8,0:0:0:0:
256,192,232259,1,8,0:0:0:0:
256,192,232426,1,0,0:0:0:0:
256,192,232592,1,0,0:0:0:0:
256,192,232759,1,8,0:0:0:0:
256,192,232926,1,0,0:0:0:0:
256,192,233092,1,8,0:0:0:0:
256,192,233259,1,8,0:0:0:0:
256,192,233426,1,0,0:0:0:0:
256,192,233592,1,0,0:0:0:0:
256,192,233926,1,0,0:0:0:0:
256,192,234092,1,8,0:0:0:0:
256,192,234259,1,8,0:0:0:0:
256,192,234592,1,8,0:0:0:0:
256,192,234759,1,0,0:0:0:0:
256,192,234926,1,8,0:0:0:0:
256,192,235259,1,0,0:0:0:0:
256,192,235426,1,8,0:0:0:0:
256,192,235759,1,0,0:0:0:0:
256,192,236092,1,8,0:0:0:0:
256,192,236259,1,0,0:0:0:0:
256,192,236426,1,8,0:0:0:0:
256,192,236592,1,8,0:0:0:0:
256,192,236759,1,0,0:0:0:0:
256,192,236926,1,8,0:0:0:0:
256,192,237259,1,0,0:0:0:0:
256,192,237759,1,8,0:0:0:0:
256,192,238092,1,4,0:0:0:0:
256,192,238592,1,4,0:0:0:0:
256,192,239092,1,4,0:0:0:0:
256,192,239592,1,4,0:0:0:0:
256,192,240092,1,8,0:0:0:0:
256,192,240259,1,8,0:0:0:0:
256,192,240426,1,0,0:0:0:0:
256,192,240592,1,8,0:0:0:0:
256,192,240759,1,4,0:0:0:0:
256,192,241259,1,4,0:0:0:0:
256,192,241759,1,4,0:0:0:0:
256,192,242259,1,4,0:0:0:0:
256,192,242759,1,8,0:0:0:0:
256,192,242926,1,0,0:0:0:0:
256,192,243092,1,8,0:0:0:0:
256,192,243259,1,0,0:0:0:0:
256,192,243426,1,12,0:0:0:0:
256,192,247926,12,0,248592,0:0:0:0:
256,192,248759,5,12,0:0:0:0:
256,192,248926,1,0,0:0:0:0:
256,192,249092,1,8,0:0:0:0:
256,192,249259,1,8,0:0:0:0:
256,192,249342,1,8,0:0:0:0:
256,192,249426,1,0,0:0:0:0:
256,192,249509,1,8,0:0:0:0:
256,192,249592,1,0,0:0:0:0:
256,192,249759,1,8,0:0:0:0:
256,192,249926,1,0,0:0:0:0:
256,192,250009,1,8,0:0:0:0:
256,192,250092,1,0,0:0:0:0:
256,192,250259,1,0,0:0:0:0:
256,192,250426,1,8,0:0:0:0:
256,192,250592,1,0,0:0:0:0:
256,192,250676,1,8,0:0:0:0:
256,192,250759,1,8,0:0:0:0:
256,192,250842,1,0,0:0:0:0:
256,192,250926,1,8,0:0:0:0:
256,192,251092,1,0,0:0:0:0:
256,192,251259,1,8,0:0:0:0:
256,192,251342,1,8,0:0:0:0:
256,192,251426,1,0,0:0:0:0:
256,192,251592,1,0,0:0:0:0:
256,192,251759,1,8,0:0:0:0:
256,192,251842,1,8,0:0:0:0:
256,192,251926,1,0,0:0:0:0:
256,192,252009,1,8,0:0:0:0:
256,192,252092,1,0,0:0:0:0:
256,192,252176,1,0,0:0:0:0:
256,192,252259,1,8,0:0:0:0:
256,192,252426,1,0,0:0:0:0:
256,192,252592,1,12,0:0:0:0:
256,192,252926,1,0,0:0:0:0:
256,192,253092,1,8,0:0:0:0:
256,192,253259,1,0,0:0:0:0:
256,192,253426,1,8,0:0:0:0:
256,192,253509,1,8,0:0:0:0:
256,192,253592,1,0,0:0:0:0:
256,192,253676,1,0,0:0:0:0:
256,192,253759,1,8,0:0:0:0:
256,192,253842,1,0,0:0:0:0:
256,192,253926,1,8,0:0:0:0:
256,192,254009,1,8,0:0:0:0:
256,192,254092,1,4,0:0:0:0:
256,192,254259,1,0,0:0:0:0:
256,192,254426,1,8,0:0:0:0:
256,192,254592,1,0,0:0:0:0:
256,192,254676,1,0,0:0:0:0:
256,192,254759,1,0,0:0:0:0:
256,192,254926,1,0,0:0:0:0:
256,192,255092,1,8,0:0:0:0:
256,192,255259,1,0,0:0:0:0:
256,192,255342,1,0,0:0:0:0:
256,192,255426,1,8,0:0:0:0:
256,192,255509,1,8,0:0:0:0:
256,192,255592,1,0,0:0:0:0:
256,192,255759,1,8,0:0:0:0:
256,192,255926,1,0,0:0:0:0:
256,192,256009,1,0,0:0:0:0:
256,192,256092,1,8,0:0:0:0:
256,192,256259,1,8,0:0:0:0:
256,192,256342,1,8,0:0:0:0:
256,192,256426,1,0,0:0:0:0:
256,192,256509,1,8,0:0:0:0:
256,192,256592,1,0,0:0:0:0:
256,192,256676,1,0,0:0:0:0:
256,192,256759,1,8,0:0:0:0:
256,192,256926,1,0,0:0:0:0:
256,192,257092,1,8,0:0:0:0:
256,192,257259,1,0,0:0:0:0:
256,192,257342,1,0,0:0:0:0:
256,192,257426,1,8,0:0:0:0:
256,192,257509,1,8,0:0:0:0:
256,192,257592,1,8,0:0:0:0:
256,192,257759,1,8,0:0:0:0:
256,192,257926,1,0,0:0:0:0:
256,192,258009,1,0,0:0:0:0:
256,192,258092,1,8,0:0:0:0:
256,192,258259,1,0,0:0:0:0:
256,192,258426,1,8,0:0:0:0:
256,192,258592,1,8,0:0:0:0:
256,192,258676,1,8,0:0:0:0:
256,192,258759,1,0,0:0:0:0:
256,192,258926,1,0,0:0:0:0:
256,192,259009,1,8,0:0:0:0:
256,192,259092,1,0,0:0:0:0:
256,192,259176,1,0,0:0:0:0:
256,192,259259,1,8,0:0:0:0:
256,192,259342,1,0,0:0:0:0:
256,192,259426,1,12,0:0:0:0:
256,192,259592,1,0,0:0:0:0:
256,192,259759,1,8,0:0:0:0:
256,192,259926,1,0,0:0:0:0:
256,192,260009,1,8,0:0:0:0:
256,192,260092,1,0,0:0:0:0:
256,192,260176,1,0,0:0:0:0:
256,192,260259,1,0,0:0:0:0:
256,192,260426,1,8,0:0:0:0:
256,192,260592,1,8,0:0:0:0:
256,192,260676,1,8,0:0:0:0:
256,192,260759,1,0,0:0:0:0:
256,192,260926,1,0,0:0:0:0:
256,192,261092,1,8,0:0:0:0:
256,192,261259,1,8,0:0:0:0:
256,192,261342,1,8,0:0:0:0:
256,192,261426,1,8,0:0:0:0:
256,192,261509,1,8,0:0:0:0:
256,192,261592,1,0,0:0:0:0:
256,192,261759,1,8,0:0:0:0:
256,192,261842,1,0,0:0:0:0:
256,192,261926,1,0,0:0:0:0:
256,192,262092,1,12,0:0:0:0:
256,192,262259,1,4,0:0:0:0:
256,192,262426,1,0,0:0:0:0:
256,192,262592,1,12,0:0:0:0:
256,192,262926,1,4,0:0:0:0:
256,192,263092,1,8,0:0:0:0:
256,192,263259,1,12,0:0:0:0:
256,192,263592,1,4,0:0:0:0:
256,192,263759,1,8,0:0:0:0:
256,192,263926,1,4,0:0:0:0:
256,192,264092,1,0,0:0:0:0:
256,192,264176,1,0,0:0:0:0:
256,192,264259,1,8,0:0:0:0:
256,192,264342,1,0,0:0:0:0:
256,192,264426,1,8,0:0:0:0:
256,192,264509,1,8,0:0:0:0:
256,192,264592,1,0,0:0:0:0:
256,192,264676,1,0,0:0:0:0:
256,192,264759,1,12,0:0:0:0:
256,192,264926,1,0,0:0:0:0:
256,192,265092,1,8,0:0:0:0:
256,192,265259,1,0,0:0:0:0:
256,192,265342,1,0,0:0:0:0:
256,192,265426,1,0,0:0:0:0:
256,192,265592,1,0,0:0:0:0:
256,192,265759,1,8,0:0:0:0:
256,192,265926,1,0,0:0:0:0:
256,192,266009,1,0,0:0:0:0:
256,192,266092,1,8,0:0:0:0:
256,192,266176,1,8,0:0:0:0:
256,192,266259,1,0,0:0:0:0:
256,192,266426,1,8,0:0:0:0:
256,192,266592,1,0,0:0:0:0:
256,192,266676,1,0,0:0:0:0:
256,192,266759,1,8,0:0:0:0:
256,192,266926,1,0,0:0:0:0:
256,192,267009,1,0,0:0:0:0:
256,192,267092,1,8,0:0:0:0:
256,192,267176,1,0,0:0:0:0:
256,192,267259,1,8,0:0:0:0:
256,192,267342,1,8,0:0:0:0:
256,192,267426,1,0,0:0:0:0:
256,192,267592,1,0,0:0:0:0:
256,192,267759,1,8,0:0:0:0:
256,192,267926,1,0,0:0:0:0:
256,192,268009,1,0,0:0:0:0:
256,192,268092,1,0,0:0:0:0:
256,192,268259,1,0,0:0:0:0:
256,192,268426,1,8,0:0:0:0:
256,192,268592,1,0,0:0:0:0:
256,192,268676,1,0,0:0:0:0:
256,192,268759,1,8,0:0:0:0:
256,192,268842,1,0,0:0:0:0:
256,192,268926,1,8,0:0:0:0:
256,192,269092,1,0,0:0:0:0:
256,192,269259,1,0,0:0:0:0:
256,192,269342,1,0,0:0:0:0:
256,192,269426,1,8,0:0:0:0:
256,192,269592,1,0,0:0:0:0:
256,192,269676,1,0,0:0:0:0:
256,192,269759,1,8,0:0:0:0:
256,192,269842,1,8,0:0:0:0:
256,192,269926,1,0,0:0:0:0:
256,192,270009,1,0,0:0:0:0:
256,192,270092,1,12,0:0:0:0:
256,192,270259,1,0,0:0:0:0:
256,192,270426,1,8,0:0:0:0:
256,192,270592,1,8,0:0:0:0:
256,192,270676,1,8,0:0:0:0:
256,192,270759,1,0,0:0:0:0:
256,192,270842,1,8,0:0:0:0:
256,192,270926,1,0,0:0:0:0:
256,192,271092,1,8,0:0:0:0:
256,192,271259,1,0,0:0:0:0:
256,192,271342,1,8,0:0:0:0:
256,192,271426,1,0,0:0:0:0:
256,192,271592,1,0,0:0:0:0:
256,192,271759,1,8,0:0:0:0:
256,192,271926,1,0,0:0:0:0:
256,192,272009,1,8,0:0:0:0:
256,192,272092,1,8,0:0:0:0:
256,192,272176,1,0,0:0:0:0:
256,192,272259,1,8,0:0:0:0:
256,192,272426,1,0,0:0:0:0:
256,192,272592,1,8,0:0:0:0:
256,192,272676,1,8,0:0:0:0:
256,192,272759,1,0,0:0:0:0:
256,192,272926,1,0,0:0:0:0:
256,192,273092,1,8,0:0:0:0:
256,192,273176,1,8,0:0:0:0:
256,192,273259,1,0,0:0:0:0:
256,192,273342,1,8,0:0:0:0:
256,192,273426,1,0,0:0:0:0:
256,192,273509,1,0,0:0:0:0:
256,192,273592,1,8,0:0:0:0:
256,192,273759,1,0,0:0:0:0:
256,192,273926,1,12,0:0:0:0:
256,192,274259,1,0,0:0:0:0:
256,192,274426,1,8,0:0:0:0:
256,192,274592,1,0,0:0:0:0:
256,192,274759,1,8,0:0:0:0:
256,192,274842,1,8,0:0:0:0:
256,192,274926,1,0,0:0:0:0:
256,192,275009,1,0,0:0:0:0:
256,192,275092,1,8,0:0:0:0:
256,192,275176,1,0,0:0:0:0:
256,192,275259,1,8,0:0:0:0:
256,192,275342,1,8,0:0:0:0:
256,192,275426,1,4,0:0:0:0:
256,192,275592,1,0,0:0:0:0:
256,192,275759,1,8,0:0:0:0:
256,192,275926,1,0,0:0:0:0:
256,192,276009,1,8,0:0:0:0:
256,192,276092,1,0,0:0:0:0:
256,192,276259,1,0,0:0:0:0:
256,192,276426,1,8,0:0:0:0:
256,192,276592,1,0,0:0:0:0:
256,192,276676,1,0,0:0:0:0:
256,192,276759,1,8,0:0:0:0:
256,192,276842,1,8,0:0:0:0:
256,192,276926,1,0,0:0:0:0:
256,192,277092,1,8,0:0:0:0:
256,192,277259,1,0,0:0:0:0:
256,192,277342,1,0,0:0:0:0:
256,192,277426,1,8,0:0:0:0:
256,192,277592,1,0,0:0:0:0:
256,192,277759,1,8,0:0:0:0:
256,192,277842,1,0,0:0:0:0:
256,192,277926,1,8,0:0:0:0:
256,192,278009,1,8,0:0:0:0:
256,192,278092,1,4,0:0:0:0:
256,192,278259,1,0,0:0:0:0:
256,192,278342,1,0,0:0:0:0:
256,192,278426,1,8,0:0:0:0:
256,192,278592,1,8,0:0:0:0:
256,192,278676,1,0,0:0:0:0:
256,192,278759,1,8,0:0:0:0:
256,192,278842,1,8,0:0:0:0:
256,192,278926,1,0,0:0:0:0:
256,192,279009,1,0,0:0:0:0:
256,192,279092,1,8,0:0:0:0:
256,192,279176,1,0,0:0:0:0:
256,192,279259,1,0,0:0:0:0:
256,192,279342,1,0,0:0:0:0:
256,192,279426,1,12,0:0:0:0:
256,192,279592,1,0,0:0:0:0:
256,192,279676,1,0,0:0:0:0:
256,192,279759,1,8,0:0:0:0:
256,192,279926,1,0,0:0:0:0:
256,192,280009,1,8,0:0:0:0:
256,192,280092,1,0,0:0:0:0:
256,192,280259,1,0,0:0:0:0:
256,192,280342,1,0,0:0:0:0:
256,192,280426,1,8,0:0:0:0:
256,192,280509,1,0,0:0:0:0:
256,192,280592,1,0,0:0:0:0:
256,192,280676,1,0,0:0:0:0:
256,192,280759,1,12,0:0:0:0:
256,192,280926,1,0,0:0:0:0:
256,192,281092,1,8,0:0:0:0:
256,192,281342,1,8,0:0:0:0:
256,192,281426,1,0,0:0:0:0:
256,192,281592,1,0,0:0:0:0:
256,192,281759,1,8,0:0:0:0:
256,192,281926,1,0,0:0:0:0:
256,192,282009,1,0,0:0:0:0:
256,192,282092,1,8,0:0:0:0:
256,192,282259,1,8,0:0:0:0:
256,192,282426,1,0,0:0:0:0:
256,192,282509,1,0,0:0:0:0:
256,192,282592,1,8,0:0:0:0:
256,192,282676,1,0,0:0:0:0:
256,192,282759,1,8,0:0:0:0:
256,192,282926,1,0,0:0:0:0:
256,192,283092,1,8,0:0:0:0:
256,192,283176,1,8,0:0:0:0:
256,192,283259,1,8,0:0:0:0:
256,192,283426,1,0,0:0:0:0:
256,192,283592,1,0,0:0:0:0:
256,192,283759,1,8,0:0:0:0:
256,192,284009,1,8,0:0:0:0:
256,192,284092,1,0,0:0:0:0:
256,192,284259,1,0,0:0:0:0:
256,192,284426,1,8,0:0:0:0:
256,192,284509,1,8,0:0:0:0:
256,192,284592,1,0,0:0:0:0:
256,192,284676,1,0,0:0:0:0:
256,192,284759,1,8,0:0:0:0:
256,192,284926,1,0,0:0:0:0:
256,192,285092,1,8,0:0:0:0:
256,192,285176,1,8,0:0:0:0:
256,192,285259,1,0,0:0:0:0:
256,192,285426,1,8,0:0:0:0:
256,192,285509,1,0,0:0:0:0:
256,192,285592,1,0,0:0:0:0:
256,192,285676,1,0,0:0:0:0:
256,192,285759,1,8,0:0:0:0:
256,192,285926,1,0,0:0:0:0:
256,192,286009,1,0,0:0:0:0:
256,192,286092,1,12,0:0:0:0:
256,192,286259,1,0,0:0:0:0:
256,192,286426,1,8,0:0:0:0:
256,192,286676,1,0,0:0:0:0:
256,192,286759,1,8,0:0:0:0:
256,192,286926,1,0,0:0:0:0:
256,192,287092,1,8,0:0:0:0:
256,192,287176,1,8,0:0:0:0:
256,192,287259,1,0,0:0:0:0:
256,192,287342,1,8,0:0:0:0:
256,192,287426,1,0,0:0:0:0:
256,192,287592,1,0,0:0:0:0:
256,192,287759,1,8,0:0:0:0:
256,192,287926,1,0,0:0:0:0:
256,192,288092,1,8,0:0:0:0:
256,192,288176,1,8,0:0:0:0:
256,192,288259,1,0,0:0:0:0:
256,192,288342,1,0,0:0:0:0:
256,192,288426,1,8,0:0:0:0:
256,192,288592,1,0,0:0:0:0:
256,192,288676,1,0,0:0:0:0:
256,192,288759,1,12,0:0:0:0:
256,192,288926,1,0,0:0:0:0:
256,192,289092,1,8,0:0:0:0:
256,192,289176,1,8,0:0:0:0:
256,192,289259,1,0,0:0:0:0:
256,192,289342,1,0,0:0:0:0:
256,192,289426,1,8,0:0:0:0:
256,192,289509,1,0,0:0:0:0:
256,192,289592,1,0,0:0:0:0:
256,192,289759,1,0,0:0:0:0:
256,192,289926,1,12,0:0:0:0:
256,192,290259,1,0,0:0:0:0:
256,192,290426,1,8,0:0:0:0:
256,192,290592,1,0,0:0:0:0:
256,192,290759,1,8,0:0:0:0:
256,192,290842,1,8,0:0:0:0:
256,192,290926,1,0,0:0:0:0:
256,192,291009,1,0,0:0:0:0:
256,192,291092,1,8,0:0:0:0:
256,192,291176,1,8,0:0:0:0:
256,192,291259,1,8,0:0:0:0:
256,192,291342,1,8,0:0:0:0:
256,192,291426,1,4,0:0:0:0:
256,192,291592,1,0,0:0:0:0:
256,192,291759,1,8,0:0:0:0:
256,192,292009,1,8,0:0:0:0:
256,192,292092,1,0,0:0:0:0:
256,192,292259,1,0,0:0:0:0:
256,192,292426,1,8,0:0:0:0:
256,192,292592,1,8,0:0:0:0:
256,192,292676,1,8,0:0:0:0:
256,192,292759,1,0,0:0:0:0:
256,192,292926,1,0,0:0:0:0:
256,192,293092,1,8,0:0:0:0:
256,192,293259,1,0,0:0:0:0:
256,192,293342,1,8,0:0:0:0:
256,192,293426,1,0,0:0:0:0:
256,192,293509,1,0,0:0:0:0:
256,192,293592,1,8,0:0:0:0:
256,192,293759,1,8,0:0:0:0:
256,192,293926,1,8,0:0:0:0:
256,192,294009,1,8,0:0:0:0:
256,192,294092,1,0,0:0:0:0:
256,192,294259,1,0,0:0:0:0:
256,192,294426,1,8,0:0:0:0:
256,192,294676,1,8,0:0:0:0:
256,192,294759,1,0,0:0:0:0:
256,192,294926,1,0,0:0:0:0:
256,192,295092,1,8,0:0:0:0:
256,192,295176,1,0,0:0:0:0:
256,192,295259,1,8,0:0:0:0:
256,192,295342,1,8,0:0:0:0:
256,192,295426,1,0,0:0:0:0:
256,192,295592,1,0,0:0:0:0:
256,192,295759,1,8,0:0:0:0:
256,192,295926,1,0,0:0:0:0:
256,192,296009,1,0,0:0:0:0:
256,192,296092,1,8,0:0:0:0:
256,192,296259,1,0,0:0:0:0:
256,192,296426,1,8,0:0:0:0:
256,192,296509,1,8,0:0:0:0:
256,192,296592,1,0,0:0:0:0:
256,192,296676,1,0,0:0:0:0:
256,192,296759,1,12,0:0:0:0:
256,192,296926,1,0,0:0:0:0:
256,192,297092,1,8,0:0:0:0:
256,192,297342,1,0,0:0:0:0:
256,192,297426,1,8,0:0:0:0:
256,192,297592,1,0,0:0:0:0:
256,192,297759,1,8,0:0:0:0:
256,192,297842,1,0,0:0:0:0:
256,192,297926,1,8,0:0:0:0:
256,192,298009,1,8,0:0:0:0:
256,192,298092,1,0,0:0:0:0:
256,192,298259,1,0,0:0:0:0:
256,192,298426,1,8,0:0:0:0:
256,192,298509,1,8,0:0:0:0:
256,192,298592,1,0,0:0:0:0:
256,192,298676,1,8,0:0:0:0:
256,192,298759,1,0,0:0:0:0:
256,192,298926,1,0,0:0:0:0:
256,192,299092,1,8,0:0:0:0:
256,192,299176,1,0,0:0:0:0:
256,192,299259,1,0,0:0:0:0:
256,192,299426,1,12,0:0:0:0:
256,192,299592,1,4,0:0:0:0:
256,192,299759,1,0,0:0:0:0:
256,192,299926,1,12,0:0:0:0:
256,192,300259,1,4,0:0:0:0:
256,192,300426,1,8,0:0:0:0:
256,192,300592,1,12,0:0:0:0:
256,192,300926,1,4,0:0:0:0:
256,192,301092,1,8,0:0:0:0:
256,192,301259,1,4,0:0:0:0:
256,192,301426,1,0,0:0:0:0:
256,192,301509,1,0,0:0:0:0:
256,192,301592,1,8,0:0:0:0:
256,192,301676,1,8,0:0:0:0:
256,192,301759,1,0,0:0:0:0:
256,192,301842,1,8,0:0:0:0:
256,192,301926,1,8,0:0:0:0:
256,192,302009,1,8,0:0:0:0:
256,192,302092,1,4,0:0:0:0:
256,192,302259,1,0,0:0:0:0:
256,192,302426,1,8,0:0:0:0:
256,192,302676,1,8,0:0:0:0:
256,192,302759,1,0,0:0:0:0:
256,192,302926,1,0,0:0:0:0:
256,192,303092,1,8,0:0:0:0:
256,192,303259,1,0,0:0:0:0:
256,192,303342,1,0,0:0:0:0:
256,192,303426,1,8,0:0:0:0:
256,192,303592,1,8,0:0:0:0:
256,192,303759,1,0,0:0:0:0:
256,192,303842,1,0,0:0:0:0:
256,192,303926,1,8,0:0:0:0:
256,192,304009,1,0,0:0:0:0:
256,192,304092,1,8,0:0:0:0:
256,192,304259,1,0,0:0:0:0:
256,192,304426,1,8,0:0:0:0:
256,192,304509,1,8,0:0:0:0:
256,192,304592,1,8,0:0:0:0:
256,192,304759,1,0,0:0:0:0:
256,192,304926,1,0,0:0:0:0:
256,192,305092,1,8,0:0:0:0:
256,192,305342,1,8,0:0:0:0:
256,192,305426,1,0,0:0:0:0:
256,192,305592,1,0,0:0:0:0:
256,192,305759,1,8,0:0:0:0:
256,192,305842,1,8,0:0:0:0:
256,192,305926,1,0,0:0:0:0:
256,192,306009,1,0,0:0:0:0:
256,192,306092,1,8,0:0:0:0:
256,192,306259,1,0,0:0:0:0:
256,192,306426,1,8,0:0:0:0:
256,192,306509,1,8,0:0:0:0:
256,192,306592,1,0,0:0:0:0:
256,192,306759,1,8,0:0:0:0:
256,192,306842,1,0,0:0:0:0:
256,192,306926,1,0,0:0:0:0:
256,192,307009,1,0,0:0:0:0:
256,192,307092,1,8,0:0:0:0:
256,192,307259,1,0,0:0:0:0:
256,192,307342,1,0,0:0:0:0:
256,192,307426,1,12,0:0:0:0:
256,192,307592,1,0,0:0:0:0:
256,192,307759,1,8,0:0:0:0:
256,192,308009,1,0,0:0:0:0:
256,192,308092,1,8,0:0:0:0:
256,192,308259,1,0,0:0:0:0:
256,192,308426,1,8,0:0:0:0:
256,192,308509,1,8,0:0:0:0:
256,192,308592,1,0,0:0:0:0:
256,192,308676,1,8,0:0:0:0:
256,192,308759,1,0,0:0:0:0:
256,192,308926,1,0,0:0:0:0:
256,192,309092,1,8,0:0:0:0:
256,192,309259,1,0,0:0:0:0:
256,192,309426,1,8,0:0:0:0:
256,192,309509,1,8,0:0:0:0:
256,192,309592,1,0,0:0:0:0:
256,192,309676,1,0,0:0:0:0:
256,192,309759,1,8,0:0:0:0:
256,192,309926,1,0,0:0:0:0:
256,192,310009,1,0,0:0:0:0:
256,192,310092,1,12,0:0:0:0:
256,192,310259,1,0,0:0:0:0:
256,192,310426,1,8,0:0:0:0:
256,192,310509,1,8,0:0:0:0:
256,192,310592,1,0,0:0:0:0:
256,192,310676,1,0,0:0:0:0:
256,192,310759,1,8,0:0:0:0:
256,192,310842,1,0,0:0:0:0:
256,192,310926,1,0,0:0:0:0:
256,192,311092,1,0,0:0:0:0:
256,192,311259,1,12,0:0:0:0:
256,192,311592,1,0,0:0:0:0:
256,192,311759,1,8,0:0:0:0:
256,192,311926,1,0,0:0:0:0:
256,192,312092,1,8,0:0:0:0:
256,192,312176,1,8,0:0:0:0:
256,192,312259,1,0,0:0:0:0:
256,192,312342,1,0,0:0:0:0:
256,192,312426,1,8,0:0:0:0:
256,192,312509,1,0,0:0:0:0:
256,192,312592,1,8,0:0:0:0:
256,192,312676,1,8,0:0:0:0:
256,192,312759,1,4,0:0:0:0:
256,192,312926,1,0,0:0:0:0:
256,192,313092,1,8,0:0:0:0:
256,192,313342,1,8,0:0:0:0:
256,192,313426,1,0,0:0:0:0:
256,192,313592,1,0,0:0:0:0:
256,192,313759,1,8,0:0:0:0:
256,192,313926,1,8,0:0:0:0:
256,192,314009,1,8,0:0:0:0:
256,192,314092,1,0,0:0:0:0:
256,192,314259,1,0,0:0:0:0:
256,192,314426,1,8,0:0:0:0:
256,192,314592,1,0,0:0:0:0:
256,192,314676,1,8,0:0:0:0:
256,192,314759,1,0,0:0:0:0:
256,192,314842,1,0,0:0:0:0:
256,192,314926,1,8,0:0:0:0:
256,192,315092,1,8,0:0:0:0:
256,192,315259,1,0,0:0:0:0:
256,192,315342,1,0,0:0:0:0:
256,192,315426,1,12,0:0:0:0:
256,192,315592,1,0,0:0:0:0:
256,192,315676,1,8,0:0:0:0:
256,192,315759,1,0,0:0:0:0:
256,192,315926,1,0,0:0:0:0:
256,192,316009,1,0,0:0:0:0:
256,192,316092,1,8,0:0:0:0:
256,192,316176,1,0,0:0:0:0:
256,192,316259,1,8,0:0:0:0:
256,192,316342,1,8,0:0:0:0:
256,192,316426,1,0,0:0:0:0:
256,192,316509,1,0,0:0:0:0:
256,192,316592,1,8,0:0:0:0:
256,192,316676,1,0,0:0:0:0:
256,192,316759,1,12,0:0:0:0:
256,192,316926,1,0,0:0:0:0:
256,192,317009,1,0,0:0:0:0:
256,192,317092,1,8,0:0:0:0:
256,192,317176,1,8,0:0:0:0:
256,192,317259,1,0,0:0:0:0:
256,192,317342,1,0,0:0:0:0:
256,192,317426,1,8,0:0:0:0:
256,192,317509,1,0,0:0:0:0:
256,192,317592,1,8,0:0:0:0:
256,192,317676,1,8,0:0:0:0:
256,192,317759,1,0,0:0:0:0:
256,192,317842,1,0,0:0:0:0:
256,192,317926,1,8,0:0:0:0:
256,192,318009,1,8,0:0:0:0:
256,192,318092,1,4,0:0:0:0:
256,192,318426,1,8,0:0:0:0:
256,192,318592,1,8,0:0:0:0:
256,192,318759,1,0,0:0:0:0:
256,192,318926,1,8,0:0:0:0:
256,192,319092,1,0,0:0:0:0:
256,192,319259,1,0,0:0:0:0:
256,192,319426,1,8,0:0:0:0:
256,192,319467,1,8,0:0:0:0:
256,192,319592,1,0,0:0:0:0:
256,192,319759,1,8,0:0:0:0:
256,192,319926,1,8,0:0:0:0:
256,192,320092,1,0,0:0:0:0:
256,192,320259,1,0,0:0:0:0:
256,192,320426,1,8,0:0:0:0:
256,192,320592,1,0,0:0:0:0:
256,192,320759,1,8,0:0:0:0:
256,192,320801,1,8,0:0:0:0:
256,192,320926,1,0,0:0:0:0:
256,192,321092,1,8,0:0:0:0:
256,192,321259,1,8,0:0:0:0:
256,192,321426,1,0,0:0:0:0:
256,192,321592,1,8,0:0:0:0:
256,192,321759,1,0,0:0:0:0:
256,192,321926,1,0,0:0:0:0:
256,192,322092,1,8,0:0:0:0:
256,192,322135,1,8,0:0:0:0:
256,192,322267,1,0,0:0:0:0:
256,192,322442,1,8,0:0:0:0:
256,192,322618,1,8,0:0:0:0:
256,192,322793,1,0,0:0:0:0:
256,192,322969,1,0,0:0:0:0:
256,192,323144,1,8,0:0:0:0:
256,192,323367,1,0,0:0:0:0:
256,192,323535,1,8,0:0:0:0:
256,192,323576,1,8,0:0:0:0:
256,192,323743,1,0,0:0:0:0:
256,192,323912,1,8,0:0:0:0:
256,192,324078,1,8,0:0:0:0:
256,192,324303,1,0,0:0:0:0:
256,192,324503,1,8,0:0:0:0:
256,192,324703,1,0,0:0:0:0:
256,192,324903,1,0,0:0:0:0:
256,192,325103,1,8,0:0:0:0:
256,192,325169,1,8,0:0:0:0:
256,192,325329,1,0,0:0:0:0:
256,192,325544,1,8,0:0:0:0:
256,192,325758,1,8,0:0:0:0:
256,192,325936,1,0,0:0:0:0:
256,192,326166,1,0,0:0:0:0:
256,192,326397,1,8,0:0:0:0:
256,192,326628,1,0,0:0:0:0:
256,192,326859,1,8,0:0:0:0:
256,192,326920,1,8,0:0:0:0:
256,192,327106,1,0,0:0:0:0:
256,192,327354,1,8,0:0:0:0:
256,192,327602,1,8,0:0:0:0:
256,192,327847,1,0,0:0:0:0:
256,192,328126,1,8,0:0:0:0:
256,192,328387,1,0,0:0:0:0:
256,192,328769,1,8,0:0:0:0:
256,192,329216,1,0,0:0:0:0:
256,192,329272,1,8,0:0:0:0:
256,192,329328,1,8,0:0:0:0:
