osu file format v14

[General]
AudioFilename: audio.mp3
AudioLeadIn: 0
PreviewTime: 81256
Countdown: 0
SampleSet: Soft
StackLeniency: 0.7
Mode: 3
LetterboxInBreaks: 0
SpecialStyle: 0
WidescreenStoryboard: 1

[Editor]
DistanceSpacing: 0.8
BeatDivisor: 4
GridSize: 4
TimelineZoom: 2.899999

[Metadata]
Title:Bye or not
TitleUnicode:Bye or not
Artist:PSYQUI feat. mikanzil
ArtistUnicode:PSYQUI feat. mikanzil
Creator:Scotty
Version:NOVICE
Source:SOUND VOLTEX VIVID WAVE
Tags:famoss sdvx v 5 electronic bemani konami
BeatmapID:2183327
BeatmapSetID:1043170

[Difficulty]
HPDrainRate:7
CircleSize:4
OverallDifficulty:7
ApproachRate:5
SliderMultiplier:1.4
SliderTickRate:1

[Events]
//Background and Video events
0,0,"a.jpg",0,0
//Break Periods
//Storyboard Layer 0 (Background)
//Storyboard Layer 1 (Fail)
//Storyboard Layer 2 (Pass)
//Storyboard Layer 3 (Foreground)
//Storyboard Layer 4 (Overlay)
//Storyboard Sound Samples
Sample,12168,0,"LR_Snare Drum .wav",50
Sample,13403,0,"Clap.wav",50
Sample,14815,0,"Clap.wav",50
Sample,16226,0,"Clap.wav",50
Sample,17638,0,"Clap.wav",50
Sample,18344,0,"Clap.wav",60
Sample,19050,0,"Clap.wav",50
Sample,19756,0,"Clap.wav",60
Sample,20462,0,"Clap.wav",60
Sample,21168,0,"Clap.wav",70
Sample,21873,0,"Clap.wav",70
Sample,21873,0,"LR_Snare Drum .wav",70
Sample,26285,0,"push_scratch.wav",70
Sample,36521,0,"push_scratch.wav",70
Sample,47462,0,"push_scratch.wav",70
Sample,48168,0,"LR_Snare Drum 3.wav",70
Sample,49579,0,"LR_Snare Drum 3.wav",70
Sample,49756,0,"LR_Snare Drum 3.wav",70
Sample,50991,0,"LR_Tom Normal.wav",70
Sample,53815,0,"LR_Snare Drum 3.wav",70
Sample,55226,0,"LR_Snare Drum 3.wav",70
Sample,55403,0,"LR_Snare Drum 3.wav",70
Sample,71285,0,"Clap.wav",50
Sample,72697,0,"Clap.wav",50
Sample,74109,0,"Clap.wav",50
Sample,75521,0,"Clap.wav",50
Sample,76226,0,"Clap.wav",60
Sample,76932,0,"Clap.wav",60
Sample,77638,0,"Clap.wav",60
Sample,78344,0,"Clap.wav",60
Sample,79050,0,"Clap.wav",70
Sample,79756,0,"LR_Snare Drum .wav",70
Sample,79756,0,"Clap.wav",70
Sample,81344,0,"push_scratch.wav",70
Sample,92991,0,"push_scratch.wav",70
Sample,103932,0,"push_scratch.wav",70

[TimingPoints]
874,352.941176470588,4,2,1,30,1,0
12168,-100,4,2,1,40,0,0
23462,-100,4,2,1,50,0,0
58756,-100,4,2,1,30,0,0
70050,-100,4,2,1,40,0,0
81344,-100,4,2,1,50,0,1
103932,-100,4,2,1,30,0,0

[HitObjects]
64,192,873,128,2,3697:0:0:0:0:
320,192,3697,128,0,5815:0:0:0:0:
448,192,5815,128,0,6521:0:0:0:0:
64,192,6521,128,0,7932:0:0:0:0:
192,192,7932,128,0,9344:0:0:0:0:
448,192,9344,128,0,12168:0:0:0:0:
192,192,12168,1,2,0:0:0:0:
448,192,12521,1,0,0:0:0:50:LR_Snare Drum .wav
64,192,12521,1,0,0:0:0:0:
192,192,12873,1,0,0:0:0:50:LR_Snare Drum .wav
64,192,12873,1,0,0:0:0:0:
448,192,13138,1,0,0:0:0:50:Clap1.wav
192,192,13226,1,0,0:0:0:50:LR_Snare Drum .wav
448,192,13403,1,0,0:0:0:50:LR_Snare Drum 3.wav
64,192,13579,1,0,0:0:0:50:LR_Snare Drum .wav
320,192,13932,1,0,0:0:0:50:LR_Snare Drum .wav
64,192,13932,1,0,0:0:0:0:
448,192,14285,1,0,0:0:0:50:LR_Snare Drum .wav
320,192,14285,1,0,0:0:0:0:
192,192,14550,1,0,0:0:0:50:Clap1.wav
448,192,14638,1,0,0:0:0:50:LR_Snare Drum .wav
192,192,14815,1,0,0:0:0:50:LR_Snare Drum 3.wav
320,192,14991,1,0,0:0:0:50:LR_Snare Drum .wav
64,192,15344,1,0,0:0:0:50:LR_Snare Drum .wav
192,192,15344,1,0,0:0:0:0:
320,192,15697,1,0,0:0:0:50:LR_Snare Drum .wav
448,192,15697,1,0,0:0:0:0:
64,192,15962,1,0,0:0:0:50:Clap1.wav
320,192,16050,1,0,0:0:0:50:LR_Snare Drum .wav
64,192,16226,1,0,0:0:0:50:LR_Snare Drum 3.wav
448,192,16403,1,0,0:0:0:50:LR_Snare Drum .wav
320,192,16756,1,0,0:0:0:50:LR_Snare Drum .wav
192,192,16756,1,0,0:0:0:0:
64,192,17109,1,0,0:0:0:50:LR_Snare Drum .wav
448,192,17109,1,0,0:0:0:0:
192,192,17373,1,0,0:0:0:50:Clap1.wav
320,192,17462,1,0,0:0:0:50:LR_Snare Drum .wav
192,192,17638,1,0,0:0:0:50:LR_Snare Drum 3.wav
448,192,17815,1,0,0:0:0:60:LR_Snare Drum .wav
64,192,18079,1,0,0:0:0:60:Clap1.wav
320,192,18168,1,0,0:0:0:60:LR_Snare Drum .wav
64,192,18344,1,0,0:0:0:60:LR_Snare Drum 3.wav
448,192,18521,1,0,0:0:0:60:LR_Snare Drum .wav
320,192,18785,1,0,0:0:0:60:Clap1.wav
192,192,18873,1,0,0:0:0:60:LR_Snare Drum .wav
320,192,19050,1,0,0:0:0:60:LR_Snare Drum 3.wav
64,192,19226,1,0,0:0:0:60:LR_Snare Drum .wav
192,192,19403,1,0,0:0:0:60:LR_Snare Drum 3.wav
448,192,19579,1,0,0:0:0:60:LR_Snare Drum .wav
320,192,19756,1,0,0:0:0:60:LR_Snare Drum 3.wav
64,192,19932,1,0,0:0:0:60:LR_Snare Drum .wav
320,192,20109,1,0,0:0:0:60:LR_Snare Drum 3.wav
192,192,20285,1,0,0:0:0:60:LR_Snare Drum .wav
448,192,20462,1,0,0:0:0:60:LR_Snare Drum 3.wav
192,192,20638,1,0,0:0:0:70:LR_Snare Drum .wav
64,192,20638,128,0,21344:0:0:0:0:
320,192,20815,1,0,0:0:0:70:LR_Snare Drum 3.wav
448,192,20991,1,0,0:0:0:70:LR_Snare Drum .wav
192,192,21168,1,0,0:0:0:70:LR_Snare Drum .wav
448,192,21344,128,0,22050:0:0:0:70:LR_Snare Drum .wav
320,192,21344,1,0,0:0:0:0:
64,192,21521,1,0,0:0:0:70:LR_Snare Drum .wav
192,192,21697,1,0,0:0:0:70:LR_Snare Drum .wav
320,192,21873,1,2,0:0:0:0:
64,192,22050,1,6,0:0:0:0:
448,192,22403,1,0,0:0:0:70:LR_Drum Rpd x2.wav
192,192,22403,1,0,0:0:0:0:
320,192,22668,1,0,0:0:0:70:LR_Drum Rpd x2.wav
192,192,22844,1,0,0:0:0:70:LR_Snare Drum 3.wav
64,192,22932,1,0,0:0:0:70:LR_Drum Rpd x2.wav
448,192,23109,128,0,23462:0:0:0:70:LR_Drum Rpd x2.wav
64,192,23462,1,2,0:0:0:0:
320,192,23726,1,0,0:0:0:0:
448,192,23991,1,0,0:0:0:0:
192,192,24168,1,0,0:0:0:0:
64,192,24432,1,0,0:0:0:0:
448,192,24521,128,0,24873:0:0:0:70:LR4_SnareBPDT.wav
320,192,24521,1,0,0:0:0:0:
64,192,24873,128,4,25226:0:0:0:0:
192,192,24873,1,2,0:0:0:0:
448,192,25226,1,0,0:0:0:0:
192,192,25403,128,0,25579:0:0:0:0:
448,192,25579,128,2,25756:0:0:0:0:
320,192,25579,1,0,0:0:0:0:
64,192,25844,128,2,26021:0:0:0:0:
192,192,25844,1,0,0:0:0:0:
448,192,26109,128,2,26285:0:0:0:0:
320,192,26109,1,0,0:0:0:0:
192,192,26285,1,2,0:0:0:0:
64,192,26285,1,4,0:0:0:0:
320,192,26462,1,0,0:0:0:0:
64,192,26638,1,8,0:0:0:0:
448,192,26638,1,0,0:0:0:0:
192,192,26815,1,0,0:0:0:0:
320,192,26991,1,2,0:0:0:0:
320,192,27256,1,2,0:0:0:0:
64,192,27344,1,8,0:0:0:0:
192,192,27344,1,0,0:0:0:0:
448,192,27521,1,2,0:0:0:0:
64,192,27697,128,2,27873:0:0:0:0:
448,192,28050,128,8,28226:0:0:0:0:
192,192,28050,1,0,0:0:0:0:
64,192,28403,128,2,28579:0:0:0:0:
448,192,28668,1,2,0:0:0:0:
192,192,28756,1,8,0:0:0:0:
320,192,28756,1,0,0:0:0:0:
64,192,28932,1,2,0:0:0:0:
448,192,29109,1,2,0:0:0:0:
192,192,29285,1,0,0:0:0:0:
320,192,29373,1,0,0:0:0:0:
448,192,29462,1,8,0:0:0:0:
64,192,29462,1,0,0:0:0:0:
192,192,29638,1,0,0:0:0:0:
320,192,29815,1,2,0:0:0:0:
320,192,30079,1,2,0:0:0:0:
448,192,30168,1,8,0:0:0:0:
64,192,30168,1,0,0:0:0:0:
192,192,30344,1,2,0:0:0:0:
320,192,30521,128,2,30697:0:0:0:0:
64,192,30873,128,8,31050:0:0:0:0:
448,192,30873,1,0,0:0:0:0:
320,192,31226,128,2,31403:0:0:0:0:
64,192,31491,1,2,0:0:0:0:
192,192,31579,1,8,0:0:0:0:
448,192,31579,1,0,0:0:0:0:
320,192,31756,1,2,0:0:0:0:
64,192,31932,1,2,0:0:0:0:
448,192,32109,1,0,0:0:0:0:
448,192,32285,1,8,0:0:0:0:
64,192,32285,1,0,0:0:0:0:
192,192,32462,1,0,0:0:0:0:
320,192,32550,1,0,0:0:0:0:
448,192,32638,128,2,32815:0:0:0:0:
64,192,32903,1,2,0:0:0:0:
320,192,32991,128,8,33168:0:0:0:0:
192,192,32991,1,0,0:0:0:0:
64,192,33168,128,2,33344:0:0:0:0:
448,192,33344,128,2,33521:0:0:0:0:
192,192,33697,128,8,33873:0:0:0:0:
64,192,33697,1,0,0:0:0:0:
448,192,34050,128,2,34226:0:0:0:0:
64,192,34315,1,2,0:0:0:0:
192,192,34403,1,8,0:0:0:0:
320,192,34403,1,0,0:0:0:0:
448,192,34579,1,2,0:0:0:0:
64,192,34756,1,2,0:0:0:0:
192,192,34756,1,4,0:0:0:0:
320,192,34932,1,0,0:0:0:0:
64,192,35109,1,8,0:0:0:0:
448,192,35109,1,0,0:0:0:0:
192,192,35285,1,0,0:0:0:0:
448,192,35462,128,2,35638:0:0:0:0:
192,192,35726,1,2,0:0:0:0:
64,192,35815,128,8,35991:0:0:0:0:
320,192,35815,1,0,0:0:0:0:
448,192,35991,1,2,0:0:0:0:
192,192,36344,1,2,0:0:0:0:
448,192,36521,1,2,0:0:0:0:
64,192,36521,1,4,0:0:0:0:
320,192,36873,1,2,0:0:0:0:
320,192,37138,1,2,0:0:0:0:
192,192,37226,1,8,0:0:0:0:
64,192,37226,1,0,0:0:0:0:
448,192,37403,1,2,0:0:0:0:
64,192,37579,1,2,0:0:0:0:
192,192,37756,1,0,0:0:0:0:
320,192,37932,1,8,0:0:0:0:
448,192,37932,1,0,0:0:0:0:
64,192,38109,1,0,0:0:0:0:
192,192,38285,1,2,0:0:0:0:
192,192,38550,1,2,0:0:0:0:
64,192,38638,1,8,0:0:0:0:
448,192,38638,1,0,0:0:0:0:
320,192,38815,1,2,0:0:0:0:
192,192,38991,1,2,0:0:0:0:
448,192,39344,1,8,0:0:0:0:
320,192,39344,1,0,0:0:0:0:
64,192,39697,1,2,0:0:0:0:
64,192,39962,1,2,0:0:0:0:
448,192,40050,1,8,0:0:0:0:
192,192,40050,1,0,0:0:0:0:
320,192,40226,1,2,0:0:0:0:
64,192,40403,1,2,0:0:0:0:
448,192,40579,1,0,0:0:0:0:
320,192,40668,1,0,0:0:0:0:
192,192,40756,1,0,0:0:0:0:
64,192,40756,1,8,0:0:0:0:
448,192,41109,1,2,0:0:0:0:
448,192,41373,1,2,0:0:0:0:
320,192,41462,1,8,0:0:0:0:
64,192,41462,1,0,0:0:0:0:
192,192,41638,1,2,0:0:0:0:
448,192,41815,128,2,41991:0:0:0:0:
64,192,42168,128,8,42344:0:0:0:0:
320,192,42168,1,0,0:0:0:0:
448,192,42521,128,2,42697:0:0:0:0:
192,192,42785,1,2,0:0:0:0:
320,192,42873,1,8,0:0:0:0:
64,192,42873,1,0,0:0:0:0:
448,192,43050,1,2,0:0:0:0:
192,192,43226,1,2,0:0:0:0:
64,192,43403,1,0,0:0:0:0:
448,192,43579,1,8,0:0:0:0:
64,192,43579,1,0,0:0:0:0:
320,192,43756,1,0,0:0:0:0:
192,192,43844,1,0,0:0:0:0:
448,192,43932,128,2,44109:0:0:0:0:
64,192,44197,1,2,0:0:0:0:
320,192,44285,128,8,44462:0:0:0:0:
192,192,44285,1,0,0:0:0:0:
64,192,44462,128,2,44638:0:0:0:0:
448,192,44638,128,2,44991:0:0:0:0:
192,192,44991,1,0,0:0:0:70:LR4_SnareBPDT.wav
64,192,44991,1,0,0:0:0:0:
320,192,45256,1,2,0:0:0:0:
448,192,45256,1,4,0:0:0:0:
192,192,45521,1,2,0:0:0:0:
64,192,45521,1,4,0:0:0:0:
448,192,45697,1,0,0:0:0:0:
64,192,45873,1,0,0:0:0:0:
448,192,46050,1,2,0:0:0:0:
320,192,46050,1,4,0:0:0:0:
192,192,46226,128,0,46403:0:0:0:0:
320,192,46403,1,0,0:0:0:0:
64,192,46579,128,0,46756:0:0:0:0:
448,192,46756,128,0,47109:0:0:0:0:
64,192,47109,1,0,0:0:0:0:
320,192,47285,128,0,47462:0:0:0:0:
448,192,47462,1,2,0:0:0:0:
64,192,47462,128,4,47815:0:0:0:0:
448,192,47815,128,2,48168:0:0:0:0:
192,192,47815,1,0,0:0:0:0:
64,192,48168,1,0,0:0:0:70:LR_Tom Normal.wav
320,192,48344,1,0,0:0:0:70:LR_Snare Drum 3.wav
192,192,48521,1,0,0:0:0:70:LR_Snare Drum 2.wav
64,192,48697,1,4,0:0:0:0:
448,192,48697,128,2,49050:0:0:0:0:
192,192,49226,128,4,49579:0:0:0:0:
320,192,49226,1,2,0:0:0:0:
448,192,49579,1,0,0:0:0:70:LR_Tom Normal.wav
64,192,49756,128,2,50109:0:0:0:0:
320,192,49756,1,4,0:0:0:0:
320,192,50109,128,4,50462:0:0:0:0:
192,192,50109,1,2,0:0:0:0:
448,192,50638,128,4,50991:0:0:0:0:
192,192,50638,1,2,0:0:0:0:
64,192,50991,1,0,0:0:0:70:LR_Snare Drum 3.wav
320,192,51168,1,0,0:0:0:70:LR_Snare Drum 3.wav
192,192,51344,128,0,51521:0:0:0:70:LR_Snare Drum 2.wav
64,192,51521,128,0,51697:0:0:0:0:
448,192,51697,128,2,52050:0:0:0:0:
320,192,51697,1,4,0:0:0:0:
192,192,52050,128,2,52403:0:0:0:0:
64,192,52050,1,4,0:0:0:0:
64,192,52403,128,0,52756:0:0:0:70:LR_Snare Drum 3.wav
448,192,52403,1,6,0:0:0:0:
448,192,52756,128,4,53109:0:0:0:0:
320,192,52756,1,2,0:0:0:0:
64,192,53109,128,2,53462:0:0:0:0:
192,192,53109,1,4,0:0:0:0:
448,192,53462,128,2,53815:0:0:0:0:
320,192,53462,1,4,0:0:0:0:
64,192,53815,1,0,0:0:0:70:LR_Tom Normal.wav
192,192,53991,1,0,0:0:0:70:LR_Snare Drum 3.wav
320,192,54168,1,0,0:0:0:70:LR_Snare Drum 2.wav
448,192,54344,128,4,54697:0:0:0:0:
64,192,54344,1,2,0:0:0:0:
192,192,54873,128,4,55226:0:0:0:0:
320,192,54873,1,2,0:0:0:0:
448,192,55226,1,0,0:0:0:70:LR_Tom Normal.wav
64,192,55403,128,2,55756:0:0:0:0:
320,192,55403,1,4,0:0:0:0:
320,192,55756,128,4,55932:0:0:0:0:
448,192,55756,1,2,0:0:0:0:
192,192,56021,128,4,56197:0:0:0:0:
64,192,56021,1,2,0:0:0:0:
320,192,56462,1,0,0:0:0:0:
64,192,56638,1,0,0:0:0:0:
448,192,56815,1,0,0:0:0:0:
320,192,56991,1,0,0:0:0:0:
192,192,57168,128,2,57521:0:0:0:0:
64,192,57168,1,4,0:0:0:0:
64,192,57697,128,2,58050:0:0:0:0:
448,192,57697,1,4,0:0:0:0:
320,192,58050,128,4,58403:0:0:0:0:
192,192,58050,1,2,0:0:0:0:
448,192,58403,128,4,58756:0:0:0:0:
64,192,58403,1,2,0:0:0:0:
320,192,58756,1,0,0:0:0:70:push_scratch.wav
64,192,58756,128,0,60168:0:0:0:50:LR_Snare Drum .wav
448,192,59109,1,0,0:0:0:50:LR_Snare Drum 3.wav
192,192,59109,1,0,0:0:0:0:
320,192,59462,1,0,0:0:0:50:LR_Snare Drum .wav
192,192,59815,1,0,0:0:0:50:LR_Snare Drum 3.wav
448,192,59815,1,0,0:0:0:0:
320,192,60168,128,0,61579:0:0:0:50:LR_Snare Drum .wav
64,192,60521,1,0,0:0:0:50:LR_Snare Drum 3.wav
448,192,60521,1,0,0:0:0:0:
192,192,60873,1,0,0:0:0:50:LR_Snare Drum .wav
64,192,61226,1,0,0:0:0:50:LR_Snare Drum 3.wav
448,192,61226,1,0,0:0:0:0:
192,192,61579,128,0,62991:0:0:0:50:LR_Snare Drum .wav
448,192,61932,1,0,0:0:0:50:LR_Snare Drum 3.wav
64,192,61932,1,0,0:0:0:0:
320,192,62285,1,0,0:0:0:50:LR_Snare Drum .wav
448,192,62638,1,0,0:0:0:50:LR_Snare Drum 3.wav
64,192,62638,1,0,0:0:0:0:
320,192,62991,128,0,63697:0:0:0:50:LR_Snare Drum .wav
64,192,63344,1,0,0:0:0:50:LR_Snare Drum 3.wav
192,192,63344,1,0,0:0:0:0:
64,192,63697,128,0,64403:0:0:0:50:LR_Snare Drum .wav
448,192,64050,1,0,0:0:0:50:LR_Snare Drum 3.wav
320,192,64050,1,0,0:0:0:0:
448,192,64403,128,0,65815:0:0:0:50:LR_Snare Drum .wav
192,192,64756,1,0,0:0:0:50:LR_Snare Drum 3.wav
64,192,64756,1,0,0:0:0:0:
320,192,65109,1,0,0:0:0:50:LR_Snare Drum .wav
192,192,65462,1,0,0:0:0:50:LR_Snare Drum 3.wav
64,192,65462,1,0,0:0:0:0:
192,192,65815,128,0,66521:0:0:0:50:LR_Snare Drum .wav
448,192,66168,1,0,0:0:0:50:LR_Snare Drum 3.wav
320,192,66168,1,0,0:0:0:0:
320,192,66521,128,0,67226:0:0:0:50:LR_Snare Drum .wav
64,192,66873,1,0,0:0:0:50:LR_Snare Drum 3.wav
192,192,66873,1,0,0:0:0:0:
64,192,67226,128,0,68638:0:0:0:50:LR_Snare Drum .wav
448,192,67579,1,0,0:0:0:50:LR_Snare Drum 3.wav
192,192,67579,1,0,0:0:0:0:
320,192,67932,1,0,0:0:0:50:LR_Snare Drum .wav
448,192,68285,1,0,0:0:0:50:LR_Snare Drum 3.wav
192,192,68285,1,0,0:0:0:0:
320,192,68638,128,0,69344:0:0:0:50:LR_Snare Drum .wav
64,192,68991,1,0,0:0:0:50:LR_Snare Drum 3.wav
192,192,68991,1,0,0:0:0:0:
192,192,69344,128,0,70050:0:0:0:50:LR_Snare Drum .wav
448,192,69697,1,0,0:0:0:50:LR_Snare Drum 3.wav
320,192,69697,1,0,0:0:0:0:
448,192,70050,1,2,0:0:0:0:
64,192,70050,1,0,0:0:0:50:LR_Snare Drum .wav
64,192,70403,1,0,0:0:0:50:LR_Snare Drum .wav
192,192,70403,1,0,0:0:0:0:
320,192,70756,1,0,0:0:0:50:LR_Snare Drum .wav
448,192,70756,1,0,0:0:0:0:
192,192,71021,1,0,0:0:0:50:Clap1.wav
448,192,71109,1,0,0:0:0:50:LR_Snare Drum .wav
192,192,71285,1,0,0:0:0:50:LR_Snare Drum 3.wav
64,192,71462,1,0,0:0:0:50:LR_Snare Drum .wav
320,192,71815,1,0,0:0:0:50:LR_Snare Drum .wav
448,192,71815,1,0,0:0:0:0:
64,192,72168,1,0,0:0:0:50:LR_Snare Drum .wav
448,192,72168,1,0,0:0:0:0:
192,192,72432,1,0,0:0:0:50:Clap1.wav
320,192,72521,1,0,0:0:0:50:LR_Snare Drum .wav
192,192,72697,1,0,0:0:0:50:LR_Snare Drum 3.wav
448,192,72873,1,0,0:0:0:50:LR_Snare Drum .wav
192,192,73226,1,0,0:0:0:50:LR_Snare Drum .wav
320,192,73226,1,0,0:0:0:0:
64,192,73579,1,0,0:0:0:50:LR_Snare Drum .wav
192,192,73579,1,0,0:0:0:0:
320,192,73844,1,0,0:0:0:50:Clap1.wav
64,192,73932,1,0,0:0:0:50:LR_Snare Drum .wav
320,192,74109,1,0,0:0:0:50:LR_Snare Drum 3.wav
192,192,74285,1,0,0:0:0:50:LR_Snare Drum .wav
448,192,74638,1,0,0:0:0:50:LR_Snare Drum .wav
64,192,74638,1,0,0:0:0:0:
320,192,74991,1,0,0:0:0:50:LR_Snare Drum .wav
192,192,74991,1,0,0:0:0:0:
64,192,75256,1,0,0:0:0:50:Clap1.wav
448,192,75344,1,0,0:0:0:50:LR_Snare Drum .wav
64,192,75521,1,0,0:0:0:50:LR_Snare Drum 3.wav
320,192,75697,1,0,0:0:0:60:LR_Snare Drum .wav
448,192,75697,1,8,0:0:0:0:
192,192,75873,128,0,76050:0:0:0:60:LR_Snare Drum 3.wav
448,192,76050,1,0,0:0:0:60:LR_Snare Drum .wav
320,192,76226,128,0,76403:0:0:0:60:LR_Snare Drum 3.wav
64,192,76403,1,0,0:0:0:60:LR_Snare Drum .wav
192,192,76579,128,0,76756:0:0:0:60:LR_Snare Drum 3.wav
448,192,76756,1,0,0:0:0:60:LR_Snare Drum .wav
320,192,76932,128,0,77109:0:0:0:60:LR_Snare Drum 3.wav
192,192,77109,1,0,0:0:0:60:LR_Snare Drum .wav
64,192,77285,128,0,77462:0:0:0:60:LR_Snare Drum 3.wav
320,192,77462,1,0,0:0:0:60:LR_Snare Drum .wav
448,192,77638,128,0,77815:0:0:0:60:LR_Snare Drum 3.wav
192,192,77815,1,0,0:0:0:60:LR_Snare Drum .wav
64,192,77991,128,0,78168:0:0:0:60:LR_Snare Drum 3.wav
320,192,78168,1,0,0:0:0:60:LR_Snare Drum .wav
448,192,78344,128,0,78521:0:0:0:60:LR_Snare Drum 3.wav
64,192,78521,128,0,79226:0:0:0:70:LR_Snare Drum .wav
192,192,78521,1,0,0:0:0:0:
320,192,78697,1,0,0:0:0:70:LR_Snare Drum 3.wav
448,192,78873,1,0,0:0:0:70:LR_Snare Drum .wav
192,192,79050,1,0,0:0:0:70:LR_Snare Drum .wav
448,192,79226,128,0,79932:0:0:0:70:LR_Snare Drum .wav
320,192,79226,1,0,0:0:0:0:
64,192,79403,1,0,0:0:0:70:LR_Snare Drum .wav
192,192,79579,1,0,0:0:0:70:LR_Snare Drum .wav
320,192,79756,1,2,0:0:0:0:
64,192,79932,1,6,0:0:0:0:
320,192,80285,128,0,80462:0:0:0:70:LR_Drum Rpd x2.wav
192,192,80462,128,0,80638:0:0:0:0:
448,192,80638,1,0,0:0:0:0:
320,192,80815,1,0,0:0:0:70:LR_Drum Rpd x2.wav
64,192,80991,128,0,81344:0:0:0:70:LR4_SnareBPDT.wav
192,192,80991,1,0,0:0:0:0:
320,192,81344,1,4,0:0:0:0:
448,192,81344,1,2,0:0:0:0:
64,192,81521,1,0,0:0:0:0:
192,192,81697,1,8,0:0:0:0:
448,192,81697,1,0,0:0:0:0:
320,192,81873,1,0,0:0:0:0:
64,192,82050,1,2,0:0:0:0:
192,192,82226,1,0,0:0:0:0:
320,192,82315,1,0,0:0:0:0:
448,192,82403,1,8,0:0:0:0:
64,192,82403,1,0,0:0:0:0:
192,192,82579,1,0,0:0:0:0:
320,192,82756,1,2,0:0:0:0:
64,192,82932,1,0,0:0:0:0:
448,192,83109,1,8,0:0:0:0:
192,192,83109,1,0,0:0:0:0:
320,192,83285,1,0,0:0:0:0:
64,192,83462,1,2,0:0:0:0:
448,192,83638,1,0,0:0:0:0:
320,192,83815,128,8,83991:0:0:0:0:
192,192,83815,1,0,0:0:0:0:
64,192,83991,128,0,84168:0:0:0:0:
448,192,84168,1,2,0:0:0:0:
192,192,84344,1,0,0:0:0:0:
64,192,84521,1,8,0:0:0:0:
448,192,84521,1,0,0:0:0:0:
320,192,84697,1,0,0:0:0:0:
192,192,84873,1,2,0:0:0:0:
64,192,85050,1,0,0:0:0:0:
448,192,85226,1,8,0:0:0:0:
320,192,85226,1,0,0:0:0:0:
192,192,85403,1,0,0:0:0:0:
64,192,85579,1,2,0:0:0:0:
448,192,85756,1,0,0:0:0:0:
320,192,85844,1,0,0:0:0:0:
192,192,85932,1,8,0:0:0:0:
64,192,85932,1,0,0:0:0:0:
448,192,86109,1,0,0:0:0:0:
320,192,86285,1,2,0:0:0:0:
64,192,86462,1,0,0:0:0:0:
192,192,86550,1,0,0:0:0:0:
320,192,86638,1,8,0:0:0:0:
448,192,86638,1,0,0:0:0:0:
64,192,86815,1,0,0:0:0:0:
448,192,86991,1,2,0:0:0:0:
320,192,87168,1,0,0:0:0:0:
192,192,87344,1,8,0:0:0:0:
64,192,87344,1,0,0:0:0:0:
448,192,87521,1,0,0:0:0:0:
64,192,87697,1,2,0:0:0:0:
192,192,87873,1,0,0:0:0:0:
320,192,87962,1,0,0:0:0:0:
448,192,88050,1,8,0:0:0:0:
64,192,88050,1,0,0:0:0:0:
192,192,88226,1,0,0:0:0:0:
448,192,88403,1,2,0:0:0:0:
320,192,88579,1,0,0:0:0:0:
64,192,88756,1,8,0:0:0:0:
192,192,88756,1,0,0:0:0:0:
448,192,88932,1,0,0:0:0:0:
320,192,89021,1,0,0:0:0:0:
64,192,89109,1,2,0:0:0:0:
192,192,89285,1,0,0:0:0:0:
448,192,89462,128,8,89638:0:0:0:0:
320,192,89462,1,0,0:0:0:0:
64,192,89638,128,0,89815:0:0:0:0:
320,192,89815,1,2,0:0:0:0:
192,192,89991,1,0,0:0:0:0:
448,192,90168,1,8,0:0:0:0:
64,192,90168,1,0,0:0:0:0:
320,192,90344,1,0,0:0:0:0:
64,192,90521,1,2,0:0:0:0:
192,192,90697,1,0,0:0:0:0:
448,192,90873,1,8,0:0:0:0:
320,192,90873,1,0,0:0:0:0:
64,192,91050,1,0,0:0:0:0:
192,192,91138,1,0,0:0:0:0:
320,192,91226,1,2,0:0:0:0:
448,192,91403,1,0,0:0:0:0:
64,192,91579,1,8,0:0:0:0:
192,192,91579,1,0,0:0:0:0:
320,192,91756,1,0,0:0:0:0:
192,192,91932,1,2,0:0:0:0:
448,192,92109,1,0,0:0:0:0:
64,192,92285,1,8,0:0:0:0:
320,192,92285,1,0,0:0:0:0:
192,192,92462,1,0,0:0:0:0:
448,192,92638,128,2,92991:0:0:0:0:
192,192,92991,1,8,0:0:0:0:
64,192,92991,1,4,0:0:0:0:
320,192,93168,1,0,0:0:0:0:
448,192,93344,1,2,0:0:0:0:
192,192,93521,1,0,0:0:0:0:
320,192,93609,1,0,0:0:0:0:
448,192,93697,1,8,0:0:0:0:
64,192,93697,1,0,0:0:0:0:
192,192,93873,1,0,0:0:0:0:
320,192,94050,1,2,0:0:0:0:
64,192,94226,1,0,0:0:0:0:
448,192,94403,1,8,0:0:0:0:
320,192,94403,1,0,0:0:0:0:
192,192,94579,1,0,0:0:0:0:
448,192,94756,1,2,0:0:0:0:
192,192,94932,1,0,0:0:0:0:
64,192,95109,128,8,95285:0:0:0:0:
320,192,95109,1,0,0:0:0:0:
448,192,95285,128,0,95462:0:0:0:0:
192,192,95462,1,2,0:0:0:0:
320,192,95638,1,0,0:0:0:0:
64,192,95815,1,8,0:0:0:0:
448,192,95815,1,0,0:0:0:0:
192,192,95991,1,0,0:0:0:0:
320,192,96168,1,2,0:0:0:0:
64,192,96344,1,0,0:0:0:0:
320,192,96521,1,8,0:0:0:0:
448,192,96521,1,0,0:0:0:0:
64,192,96697,1,0,0:0:0:0:
192,192,96785,1,0,0:0:0:0:
320,192,96873,1,2,0:0:0:0:
64,192,97050,1,0,0:0:0:0:
448,192,97226,1,8,0:0:0:0:
192,192,97226,1,0,0:0:0:0:
320,192,97403,1,0,0:0:0:0:
64,192,97579,1,2,0:0:0:0:
192,192,97756,1,0,0:0:0:0:
320,192,97844,1,0,0:0:0:0:
448,192,97932,1,8,0:0:0:0:
64,192,97932,1,0,0:0:0:0:
192,192,98109,1,0,0:0:0:0:
448,192,98285,1,2,0:0:0:0:
320,192,98462,1,0,0:0:0:0:
64,192,98638,1,8,0:0:0:0:
192,192,98638,1,0,0:0:0:0:
448,192,98815,1,0,0:0:0:0:
64,192,98991,1,2,0:0:0:0:
192,192,99168,1,0,0:0:0:0:
448,192,99344,1,8,0:0:0:0:
320,192,99344,1,0,0:0:0:0:
64,192,99521,1,0,0:0:0:0:
192,192,99697,1,2,0:0:0:0:
448,192,99873,1,0,0:0:0:0:
320,192,100050,1,8,0:0:0:0:
64,192,100050,1,0,0:0:0:0:
192,192,100226,1,0,0:0:0:0:
448,192,100403,1,2,0:0:0:0:
64,192,100579,1,0,0:0:0:0:
448,192,100756,128,8,100932:0:0:0:0:
320,192,100756,1,0,0:0:0:0:
192,192,100932,128,0,101109:0:0:0:0:
320,192,101109,1,2,0:0:0:0:
64,192,101285,1,0,0:0:0:0:
448,192,101462,1,8,0:0:0:0:
192,192,101462,1,0,0:0:0:0:
320,192,101638,1,0,0:0:0:0:
64,192,101815,1,2,0:0:0:0:
192,192,101991,1,0,0:0:0:0:
448,192,102168,1,8,0:0:0:0:
320,192,102168,1,0,0:0:0:0:
64,192,102344,1,0,0:0:0:0:
192,192,102432,1,0,0:0:0:0:
320,192,102521,128,2,102697:0:0:0:0:
448,192,102873,128,0,103050:0:0:0:70:snare.wav
64,192,102873,1,0,0:0:0:0:
192,192,103226,128,2,103403:0:0:0:0:
320,192,103403,128,0,103579:0:0:0:0:
64,192,103579,128,0,103756:0:0:0:70:snare.wav
448,192,103579,1,0,0:0:0:0:
192,192,103932,1,4,0:0:0:0:
448,192,103932,128,2,106756:0:0:0:0:
192,192,106756,128,0,108873:0:0:0:0:
320,192,108873,128,0,109579:0:0:0:0:
64,192,109579,128,0,110991:0:0:0:0:
448,192,110991,128,0,112403:0:0:0:0:
320,192,112403,128,0,114697:0:0:0:0:
64,192,114697,1,2,0:0:0:0:
448,192,114873,1,0,0:0:0:70:LR4_SnareBPDT.wav
192,192,114873,1,0,0:0:0:0:
320,192,115050,1,2,0:0:0:0:
64,192,115050,1,4,0:0:0:0:
192,192,115226,1,0,0:0:0:0:
448,192,115315,1,0,0:0:0:0:
