osu file format v14

[General]
AudioFilename: audio.mp3
AudioLeadIn: 0
PreviewTime: 81256
Countdown: 0
SampleSet: Soft
StackLeniency: 0.7
Mode: 3
LetterboxInBreaks: 0
SpecialStyle: 0
WidescreenStoryboard: 0

[Editor]
DistanceSpacing: 0.8
BeatDivisor: 4
GridSize: 4
TimelineZoom: 2.899999

[Metadata]
Title:Bye or not
TitleUnicode:Bye or not
Artist:PSYQUI feat. mikanzil
ArtistUnicode:PSYQUI feat. mikanzil
Creator:Scotty
Version:EXHAUST
Source:SOUND VOLTEX VIVID WAVE
Tags:famoss sdvx v 5 electronic bemani konami
BeatmapID:2180344
BeatmapSetID:1043170

[Difficulty]
HPDrainRate:8
CircleSize:4
OverallDifficulty:7.7
ApproachRate:5
SliderMultiplier:1.4
SliderTickRate:1

[Events]
//Background and Video events
0,0,"a.jpg",0,0
//Break Periods
//Storyboard Layer 0 (Background)
//Storyboard Layer 1 (Fail)
//Storyboard Layer 2 (Pass)
//Storyboard Layer 3 (Foreground)
//Storyboard Layer 4 (Overlay)
//Storyboard Sound Samples
Sample,20903,0,"Clap1.wav",70
Sample,21609,0,"Clap1.wav",70
Sample,21873,0,"Clap.wav",70
Sample,78785,0,"Clap1.wav",70
Sample,79491,0,"Clap1.wav",70
Sample,79756,0,"Clap.wav",70
Sample,103932,0,"push_scratch.wav",70

[TimingPoints]
874,352.941176470588,4,2,1,30,1,0
12168,-100,4,2,1,40,0,0
23462,-100,4,2,1,50,0,0
58756,-100,4,2,1,30,0,0
70050,-100,4,2,1,40,0,0
81344,-100,4,2,1,50,0,1
103932,-100,4,2,1,30,0,0

[HitObjects]
448,192,873,5,2,0:0:0:0:
320,192,873,1,0,0:0:0:0:
192,192,918,1,0,0:0:0:0:
64,192,962,1,0,0:0:0:0:
320,192,1226,1,0,0:0:0:0:
192,192,1579,1,0,0:0:0:0:
64,192,1932,1,0,0:0:0:0:
320,192,2285,1,0,0:0:0:0:
64,192,2329,1,0,0:0:0:0:
192,192,2638,1,0,0:0:0:0:
448,192,2991,1,0,0:0:0:0:
320,192,3344,1,0,0:0:0:0:
64,192,3697,1,0,0:0:0:0:
448,192,3741,1,0,0:0:0:0:
320,192,3785,1,0,0:0:0:0:
192,192,4050,1,0,0:0:0:0:
320,192,4403,1,0,0:0:0:0:
64,192,4447,1,0,0:0:0:0:
448,192,4756,1,0,0:0:0:0:
320,192,5109,1,0,0:0:0:0:
192,192,5153,1,0,0:0:0:0:
64,192,5462,1,0,0:0:0:0:
192,192,5815,1,0,0:0:0:0:
448,192,5859,1,0,0:0:0:0:
320,192,6168,1,0,0:0:0:0:
64,192,6521,1,0,0:0:0:0:
320,192,6565,1,0,0:0:0:0:
448,192,6609,1,0,0:0:0:0:
192,192,6873,1,0,0:0:0:0:
64,192,7226,1,0,0:0:0:0:
448,192,7579,1,0,0:0:0:0:
64,192,7932,1,0,0:0:0:0:
192,192,7976,1,0,0:0:0:0:
320,192,8021,1,0,0:0:0:0:
64,192,8285,1,0,0:0:0:0:
320,192,8638,1,0,0:0:0:0:
448,192,8991,1,0,0:0:0:0:
64,192,9344,1,0,0:0:0:0:
448,192,9388,1,0,0:0:0:0:
320,192,9432,1,0,0:0:0:0:
192,192,9697,1,0,0:0:0:0:
64,192,10050,1,0,0:0:0:0:
448,192,10403,1,0,0:0:0:0:
320,192,10756,1,0,0:0:0:0:
64,192,11109,1,0,0:0:0:0:
448,192,11462,1,0,0:0:0:0:
320,192,11815,1,0,0:0:0:0:
64,192,12168,5,2,0:0:0:0:
192,192,12168,1,0,0:0:0:50:LR_Snare Drum .wav
320,192,12344,1,0,0:0:0:50:LR_Snare Drum 3.wav
448,192,12344,1,0,0:0:0:0:
448,192,12521,1,0,0:0:0:50:LR_Snare Drum .wav
64,192,12521,1,0,0:0:0:0:
192,192,12697,1,0,0:0:0:50:LR_Snare Drum 3.wav
64,192,12697,1,0,0:0:0:0:
448,192,12873,1,0,0:0:0:50:LR_Snare Drum .wav
64,192,12873,1,0,0:0:0:0:
320,192,13050,1,0,0:0:0:50:LR_Snare Drum 3.wav
448,192,13050,1,0,0:0:0:0:
192,192,13138,1,0,0:0:0:50:Clap1.wav
448,192,13138,1,0,0:0:0:0:
64,192,13226,1,0,0:0:0:50:LR_Snare Drum .wav
320,192,13226,1,0,0:0:0:0:
192,192,13403,1,0,0:0:0:50:LR_Snare Drum 3.wav
64,192,13403,1,0,0:0:0:50:Clap.wav
448,192,13579,1,0,0:0:0:50:LR_Snare Drum .wav
320,192,13579,1,0,0:0:0:0:
64,192,13756,1,0,0:0:0:50:LR_Snare Drum 3.wav
448,192,13756,1,0,0:0:0:0:
448,192,13844,1,0,0:0:0:0:
192,192,13932,1,0,0:0:0:50:LR_Snare Drum .wav
64,192,13932,1,0,0:0:0:0:
448,192,14109,1,0,0:0:0:50:LR_Snare Drum 3.wav
320,192,14109,1,0,0:0:0:0:
64,192,14285,1,0,0:0:0:50:LR_Snare Drum .wav
448,192,14285,1,0,0:0:0:0:
192,192,14462,1,0,0:0:0:50:LR_Snare Drum 3.wav
64,192,14462,1,0,0:0:0:0:
64,192,14550,1,0,0:0:0:50:Clap1.wav
320,192,14550,1,0,0:0:0:0:
192,192,14638,1,0,0:0:0:50:LR_Snare Drum .wav
448,192,14638,1,0,0:0:0:0:
448,192,14815,1,0,0:0:0:50:LR_Snare Drum 3.wav
64,192,14815,1,0,0:0:0:50:Clap.wav
192,192,14991,1,0,0:0:0:50:LR_Snare Drum .wav
64,192,14991,1,0,0:0:0:0:
320,192,15168,1,0,0:0:0:50:LR_Snare Drum 3.wav
448,192,15168,1,0,0:0:0:0:
448,192,15344,1,0,0:0:0:50:LR_Snare Drum .wav
64,192,15344,1,0,0:0:0:0:
192,192,15521,1,0,0:0:0:50:LR_Snare Drum 3.wav
64,192,15521,1,0,0:0:0:0:
448,192,15697,1,0,0:0:0:50:LR_Snare Drum .wav
64,192,15697,1,0,0:0:0:0:
320,192,15873,1,0,0:0:0:50:LR_Snare Drum 3.wav
448,192,15873,1,0,0:0:0:0:
192,192,15962,1,0,0:0:0:50:Clap1.wav
448,192,15962,1,0,0:0:0:0:
320,192,16050,1,0,0:0:0:50:LR_Snare Drum .wav
64,192,16050,1,0,0:0:0:0:
192,192,16226,1,0,0:0:0:50:LR_Snare Drum 3.wav
64,192,16226,1,0,0:0:0:50:Clap.wav
320,192,16403,1,0,0:0:0:50:LR_Snare Drum .wav
448,192,16403,1,0,0:0:0:0:
448,192,16579,1,0,0:0:0:50:LR_Snare Drum 3.wav
64,192,16579,1,0,0:0:0:0:
448,192,16668,1,0,0:0:0:0:
192,192,16756,1,0,0:0:0:50:LR_Snare Drum .wav
64,192,16756,1,0,0:0:0:0:
320,192,16932,1,0,0:0:0:50:LR_Snare Drum 3.wav
448,192,16932,1,0,0:0:0:0:
448,192,17109,1,0,0:0:0:50:LR_Snare Drum .wav
64,192,17109,1,0,0:0:0:0:
192,192,17285,1,0,0:0:0:50:LR_Snare Drum 3.wav
64,192,17285,1,0,0:0:0:0:
320,192,17373,1,0,0:0:0:50:Clap1.wav
64,192,17373,1,0,0:0:0:0:
192,192,17462,1,0,0:0:0:50:LR_Snare Drum .wav
448,192,17462,1,0,0:0:0:0:
64,192,17638,1,0,0:0:0:50:LR_Snare Drum 3.wav
448,192,17638,1,0,0:0:0:50:Clap.wav
192,192,17815,1,0,0:0:0:60:LR_Snare Drum .wav
64,192,17815,1,0,0:0:0:0:
320,192,17991,1,0,0:0:0:60:LR_Snare Drum 3.wav
448,192,17991,1,0,0:0:0:0:
192,192,18079,1,0,0:0:0:60:Clap1.wav
448,192,18079,1,0,0:0:0:0:
320,192,18168,1,0,0:0:0:60:LR_Snare Drum .wav
64,192,18168,1,0,0:0:0:0:
192,192,18344,1,0,0:0:0:60:LR_Snare Drum 3.wav
64,192,18344,1,0,0:0:0:60:Clap.wav
448,192,18521,1,0,0:0:0:60:LR_Snare Drum .wav
320,192,18521,1,0,0:0:0:0:
192,192,18697,1,0,0:0:0:60:LR_Snare Drum 3.wav
64,192,18697,1,0,0:0:0:0:
320,192,18785,1,0,0:0:0:60:Clap1.wav
64,192,18785,1,0,0:0:0:0:
448,192,18873,1,0,0:0:0:60:LR_Snare Drum .wav
192,192,18873,1,0,0:0:0:0:
64,192,19050,1,0,0:0:0:60:LR_Snare Drum 3.wav
448,192,19050,1,0,0:0:0:60:Clap.wav
192,192,19226,1,0,0:0:0:60:LR_Snare Drum .wav
64,192,19226,1,0,0:0:0:0:
320,192,19315,1,0,0:0:0:0:
192,192,19403,1,0,0:0:0:60:LR_Snare Drum 3.wav
64,192,19403,1,0,0:0:0:0:
448,192,19491,1,0,0:0:0:60:Clap1.wav
192,192,19579,1,0,0:0:0:60:LR_Snare Drum .wav
64,192,19579,1,0,0:0:0:0:
320,192,19668,1,0,0:0:0:0:
192,192,19756,1,0,0:0:0:60:LR_Snare Drum 3.wav
64,192,19756,1,0,0:0:0:60:Clap.wav
448,192,19932,1,0,0:0:0:60:LR_Snare Drum .wav
320,192,19932,1,0,0:0:0:0:
192,192,20021,1,0,0:0:0:0:
320,192,20109,1,0,0:0:0:60:LR_Snare Drum 3.wav
448,192,20109,1,0,0:0:0:0:
64,192,20197,1,0,0:0:0:60:Clap1.wav
320,192,20285,1,0,0:0:0:60:LR_Snare Drum .wav
448,192,20285,1,0,0:0:0:0:
192,192,20373,1,0,0:0:0:0:
320,192,20462,1,0,0:0:0:60:LR_Snare Drum 3.wav
448,192,20462,1,0,0:0:0:60:Clap.wav
192,192,20638,1,0,0:0:0:70:LR_Snare Drum .wav
64,192,20638,1,0,0:0:0:0:
448,192,20726,1,0,0:0:0:70:LR_Snare Drum 3.wav
64,192,20815,1,0,0:0:0:70:LR_Snare Drum 3.wav
320,192,20815,1,0,0:0:0:0:
448,192,20903,1,0,0:0:0:70:LR_Snare Drum 3.wav
64,192,20991,1,0,0:0:0:70:LR_Snare Drum .wav
192,192,20991,1,0,0:0:0:0:
320,192,21079,1,0,0:0:0:70:LR_Snare Drum 3.wav
192,192,21168,1,0,0:0:0:70:LR_Snare Drum .wav
64,192,21168,1,0,0:0:0:70:Clap.wav
320,192,21256,1,0,0:0:0:70:LR_Snare Drum 3.wav
64,192,21344,1,0,0:0:0:70:LR_Snare Drum .wav
448,192,21344,1,0,0:0:0:0:
192,192,21432,1,0,0:0:0:70:LR_Snare Drum 3.wav
448,192,21521,1,0,0:0:0:70:LR_Snare Drum .wav
320,192,21521,1,0,0:0:0:0:
192,192,21609,1,0,0:0:0:70:LR_Snare Drum 3.wav
64,192,21697,1,0,0:0:0:70:LR_Snare Drum .wav
448,192,21697,1,0,0:0:0:0:
320,192,21785,1,0,0:0:0:70:LR_Snare Drum 3.wav
448,192,21873,1,0,0:0:0:70:LR_Snare Drum .wav
64,192,21873,1,2,0:0:0:0:
192,192,21962,1,0,0:0:0:70:LR_Snare Drum 3.wav
64,192,22050,128,2,22226:0:0:0:0:
448,192,22050,128,4,22226:0:0:0:0:
320,192,22050,128,0,22226:0:0:0:0:
64,192,22403,1,0,0:0:0:70:LR_Drum Rpd x2.wav
320,192,22403,1,0,0:0:0:0:
448,192,22579,1,0,0:0:0:0:
64,192,22668,1,0,0:0:0:70:LR_Drum Rpd x2.wav
192,192,22668,1,0,0:0:0:0:
320,192,22756,1,0,0:0:0:0:
64,192,22844,1,0,0:0:0:70:LR_Snare Drum 3.wav
192,192,22844,1,0,0:0:0:0:
320,192,22932,1,0,0:0:0:70:LR_Drum Rpd x2.wav
448,192,22932,1,0,0:0:0:0:
64,192,23109,1,0,0:0:0:70:LR_Drum Rpd x2.wav
64,192,23197,1,0,0:0:0:70:LR_Drum Rpd x2.wav
448,192,23285,1,0,0:0:0:70:LR_Drum Rpd x2.wav
192,192,23373,1,0,0:0:0:0:
448,192,23462,1,2,0:0:0:0:
320,192,23462,1,0,0:0:0:0:
64,192,23550,128,0,23638:0:0:0:0:
192,192,23638,1,0,0:0:0:0:
448,192,23726,128,0,23815:0:0:0:0:
64,192,23815,1,0,0:0:0:0:
64,192,23903,1,0,0:0:0:0:
320,192,23991,128,0,24079:0:0:0:0:
448,192,24079,1,0,0:0:0:0:
192,192,24168,128,0,24344:0:0:0:0:
64,192,24256,128,0,24432:0:0:0:0:
320,192,24344,1,0,0:0:0:0:
448,192,24432,128,0,24521:0:0:0:0:
192,192,24521,128,0,24653:0:0:0:70:LR4_SnareBPDT.wav
320,192,24521,128,0,24609:0:0:0:0:
64,192,24521,128,0,24697:0:0:0:0:
448,192,24697,128,0,24785:0:0:0:0:
320,192,24741,128,0,24785:0:0:0:0:
448,192,24873,128,4,24962:0:0:0:0:
64,192,24873,128,2,25226:0:0:0:0:
192,192,24873,1,0,0:0:0:0:
448,192,25050,128,0,25226:0:0:0:0:
320,192,25138,128,0,25226:0:0:0:0:
192,192,25226,1,0,0:0:0:0:
64,192,25403,1,0,0:0:0:0:
320,192,25447,1,0,0:0:0:0:
448,192,25491,1,0,0:0:0:0:
320,192,25579,128,2,25756:0:0:0:0:
192,192,25579,128,0,25756:0:0:0:0:
64,192,25579,128,0,25756:0:0:0:0:
448,192,25844,128,2,26021:0:0:0:0:
320,192,25844,128,0,26021:0:0:0:0:
64,192,25844,128,0,26021:0:0:0:0:
448,192,26109,128,2,26197:0:0:0:0:
192,192,26109,128,0,26197:0:0:0:0:
64,192,26109,128,0,26197:0:0:0:0:
320,192,26285,1,2,0:0:0:0:
192,192,26285,1,4,0:0:0:0:
448,192,26285,1,0,0:0:0:70:push_scratch.wav
64,192,26462,1,0,0:0:0:0:
320,192,26550,1,0,0:0:0:0:
448,192,26638,1,8,0:0:0:0:
64,192,26638,1,0,0:0:0:0:
192,192,26638,128,0,26726:0:0:0:0:
192,192,26815,128,0,26903:0:0:0:0:
448,192,26991,1,2,0:0:0:0:
320,192,26991,128,0,27079:0:0:0:0:
64,192,27079,128,0,27256:0:0:0:0:
320,192,27256,1,2,0:0:0:0:
64,192,27344,1,8,0:0:0:0:
192,192,27344,1,0,0:0:0:0:
448,192,27344,128,0,27432:0:0:0:0:
448,192,27521,1,2,0:0:0:0:
320,192,27521,128,0,27609:0:0:0:0:
192,192,27609,1,0,0:0:0:0:
448,192,27697,128,2,27962:0:0:0:0:
64,192,27697,128,0,27873:0:0:0:0:
320,192,27785,128,0,27962:0:0:0:0:
448,192,28050,128,8,28315:0:0:0:0:
64,192,28050,128,0,28226:0:0:0:0:
192,192,28050,1,0,0:0:0:0:
320,192,28138,128,0,28315:0:0:0:0:
448,192,28403,128,2,28668:0:0:0:0:
64,192,28403,128,0,28491:0:0:0:0:
320,192,28491,128,0,28668:0:0:0:0:
64,192,28579,128,0,28668:0:0:0:0:
192,192,28668,1,2,0:0:0:0:
64,192,28756,1,8,0:0:0:0:
320,192,28756,1,0,0:0:0:0:
448,192,28756,128,0,28932:0:0:0:0:
192,192,28932,1,2,0:0:0:0:
64,192,28932,128,0,29109:0:0:0:0:
448,192,29109,1,2,0:0:0:0:
320,192,29109,1,0,0:0:0:0:
192,192,29285,1,0,0:0:0:0:
192,192,29373,1,0,0:0:0:0:
448,192,29462,1,8,0:0:0:0:
320,192,29462,1,0,0:0:0:0:
64,192,29462,1,0,0:0:0:0:
320,192,29638,128,0,29815:0:0:0:0:
192,192,29815,1,2,0:0:0:0:
64,192,29815,1,0,0:0:0:0:
320,192,29903,1,0,0:0:0:0:
448,192,29991,1,0,0:0:0:0:
64,192,30079,128,2,30168:0:0:0:0:
448,192,30168,1,8,0:0:0:0:
192,192,30168,1,0,0:0:0:0:
320,192,30168,1,0,0:0:0:0:
64,192,30344,128,2,30432:0:0:0:0:
320,192,30344,1,0,0:0:0:0:
64,192,30521,128,2,30785:0:0:0:0:
448,192,30521,128,0,30697:0:0:0:0:
192,192,30609,128,0,30785:0:0:0:0:
64,192,30873,128,8,31138:0:0:0:0:
320,192,30873,1,0,0:0:0:0:
448,192,30873,128,0,31050:0:0:0:0:
192,192,30962,128,0,31138:0:0:0:0:
64,192,31226,128,2,31491:0:0:0:0:
448,192,31226,128,0,31403:0:0:0:0:
192,192,31315,128,0,31491:0:0:0:0:
320,192,31491,1,2,0:0:0:0:
448,192,31579,1,8,0:0:0:0:
192,192,31579,1,0,0:0:0:0:
64,192,31579,128,0,31756:0:0:0:0:
320,192,31756,1,2,0:0:0:0:
448,192,31756,128,0,31932:0:0:0:0:
192,192,31932,1,2,0:0:0:0:
64,192,31932,1,0,0:0:0:0:
320,192,32021,1,0,0:0:0:0:
448,192,32109,128,0,32197:0:0:0:0:
192,192,32109,128,0,32153:0:0:0:0:
320,192,32285,128,8,32329:0:0:0:0:
64,192,32285,128,0,32373:0:0:0:0:
448,192,32285,1,0,0:0:0:0:
192,192,32462,1,0,0:0:0:0:
192,192,32550,1,0,0:0:0:0:
64,192,32638,128,2,32815:0:0:0:0:
448,192,32638,128,0,32726:0:0:0:0:
192,192,32726,128,0,32815:0:0:0:0:
64,192,32903,128,2,33079:0:0:0:0:
448,192,32903,128,0,32991:0:0:0:0:
192,192,32991,128,8,33079:0:0:0:0:
320,192,32991,1,0,0:0:0:0:
64,192,33168,128,2,33344:0:0:0:0:
448,192,33168,128,0,33256:0:0:0:0:
192,192,33256,128,0,33344:0:0:0:0:
448,192,33344,128,2,33609:0:0:0:0:
320,192,33344,128,0,33521:0:0:0:0:
64,192,33432,128,0,33609:0:0:0:0:
448,192,33697,128,8,33962:0:0:0:0:
320,192,33697,128,0,33873:0:0:0:0:
192,192,33697,1,0,0:0:0:0:
64,192,33785,128,0,33962:0:0:0:0:
448,192,34050,128,2,34315:0:0:0:0:
64,192,34050,128,0,34138:0:0:0:0:
320,192,34138,128,0,34315:0:0:0:0:
64,192,34226,128,0,34315:0:0:0:0:
192,192,34315,1,2,0:0:0:0:
64,192,34403,1,8,0:0:0:0:
320,192,34403,1,0,0:0:0:0:
448,192,34403,1,0,0:0:0:0:
192,192,34579,1,2,0:0:0:0:
64,192,34579,1,0,0:0:0:0:
448,192,34756,1,2,0:0:0:0:
64,192,34756,1,4,0:0:0:0:
320,192,34756,1,0,0:0:0:0:
192,192,34932,128,0,35021:0:0:0:0:
192,192,35109,128,8,35197:0:0:0:0:
448,192,35109,1,0,0:0:0:0:
320,192,35109,1,0,0:0:0:0:
64,192,35285,128,0,35462:0:0:0:0:
192,192,35462,1,2,0:0:0:0:
320,192,35462,1,0,0:0:0:0:
448,192,35550,128,0,35726:0:0:0:0:
192,192,35726,1,2,0:0:0:0:
320,192,35815,1,8,0:0:0:0:
64,192,35815,1,0,0:0:0:0:
448,192,35815,128,0,35991:0:0:0:0:
192,192,35991,1,2,0:0:0:0:
64,192,35991,1,0,0:0:0:0:
64,192,36168,128,0,36256:0:0:0:0:
320,192,36344,1,2,0:0:0:0:
448,192,36344,1,0,0:0:0:0:
448,192,36521,1,2,0:0:0:0:
64,192,36521,1,4,0:0:0:0:
192,192,36521,128,0,36609:0:0:0:70:push_scratch.wav
64,192,36697,1,0,0:0:0:0:
320,192,36873,128,2,37050:0:0:0:0:
448,192,36873,1,0,0:0:0:0:
64,192,36962,128,0,37138:0:0:0:0:
192,192,37138,1,2,0:0:0:0:
448,192,37226,128,8,37315:0:0:0:0:
320,192,37226,1,0,0:0:0:0:
64,192,37226,1,0,0:0:0:0:
320,192,37403,128,2,37579:0:0:0:0:
192,192,37403,1,0,0:0:0:0:
64,192,37579,128,2,37668:0:0:0:0:
192,192,37579,128,0,37623:0:0:0:0:
320,192,37756,128,0,37800:0:0:0:0:
448,192,37756,128,0,37844:0:0:0:0:
64,192,37932,1,8,0:0:0:0:
448,192,37932,1,0,0:0:0:0:
192,192,37932,128,0,38021:0:0:0:0:
192,192,38109,128,0,38197:0:0:0:0:
448,192,38285,128,2,38462:0:0:0:0:
320,192,38285,1,0,0:0:0:0:
64,192,38373,128,0,38550:0:0:0:0:
192,192,38550,1,2,0:0:0:0:
320,192,38638,1,8,0:0:0:0:
64,192,38638,1,0,0:0:0:0:
448,192,38638,128,0,38815:0:0:0:0:
320,192,38815,128,2,38991:0:0:0:0:
192,192,38815,1,0,0:0:0:0:
192,192,38991,1,2,0:0:0:0:
64,192,38991,128,0,39168:0:0:0:0:
448,192,39168,1,0,0:0:0:0:
320,192,39344,128,8,39521:0:0:0:0:
448,192,39344,1,0,0:0:0:0:
64,192,39344,1,0,0:0:0:0:
192,192,39521,1,0,0:0:0:0:
448,192,39697,128,2,39873:0:0:0:0:
320,192,39697,1,0,0:0:0:0:
64,192,39785,128,0,39962:0:0:0:0:
320,192,39962,128,2,40050:0:0:0:0:
448,192,40050,1,8,0:0:0:0:
64,192,40050,1,0,0:0:0:0:
192,192,40050,128,0,40226:0:0:0:0:
320,192,40226,1,2,0:0:0:0:
448,192,40226,128,0,40315:0:0:0:0:
64,192,40403,128,2,40579:0:0:0:0:
192,192,40403,1,0,0:0:0:0:
320,192,40491,128,0,40668:0:0:0:0:
192,192,40668,1,0,0:0:0:0:
448,192,40756,128,8,40932:0:0:0:0:
64,192,40756,1,0,0:0:0:0:
320,192,40756,1,0,0:0:0:0:
192,192,40932,1,0,0:0:0:0:
320,192,41021,1,0,0:0:0:0:
192,192,41109,1,2,0:0:0:0:
64,192,41109,128,0,41285:0:0:0:0:
448,192,41373,128,2,41462:0:0:0:0:
320,192,41462,1,8,0:0:0:0:
64,192,41462,1,0,0:0:0:0:
192,192,41462,1,0,0:0:0:0:
192,192,41638,1,2,0:0:0:0:
448,192,41638,128,0,41726:0:0:0:0:
320,192,41815,1,2,0:0:0:0:
64,192,41815,128,0,41991:0:0:0:0:
448,192,41991,1,0,0:0:0:0:
448,192,42168,128,8,42344:0:0:0:0:
320,192,42168,1,0,0:0:0:0:
64,192,42168,1,0,0:0:0:0:
192,192,42344,1,0,0:0:0:0:
320,192,42521,128,2,42697:0:0:0:0:
448,192,42521,1,0,0:0:0:0:
64,192,42609,128,0,42785:0:0:0:0:
192,192,42785,1,2,0:0:0:0:
448,192,42873,128,8,42962:0:0:0:0:
64,192,42873,1,0,0:0:0:0:
320,192,42873,1,0,0:0:0:0:
192,192,43050,128,2,43138:0:0:0:0:
64,192,43050,1,0,0:0:0:0:
448,192,43226,1,2,0:0:0:0:
320,192,43226,1,0,0:0:0:0:
64,192,43403,128,0,43491:0:0:0:0:
192,192,43403,128,0,43447:0:0:0:0:
448,192,43579,128,8,43668:0:0:0:0:
64,192,43579,1,0,0:0:0:0:
320,192,43579,128,0,43623:0:0:0:0:
192,192,43756,128,0,43932:0:0:0:0:
64,192,43932,128,2,44109:0:0:0:0:
448,192,43932,1,0,0:0:0:0:
320,192,44021,128,0,44197:0:0:0:0:
192,192,44197,1,2,0:0:0:0:
320,192,44285,1,8,0:0:0:0:
64,192,44285,1,0,0:0:0:0:
448,192,44285,128,0,44462:0:0:0:0:
64,192,44462,1,2,0:0:0:0:
192,192,44462,128,0,44638:0:0:0:0:
64,192,44638,128,2,44903:0:0:0:0:
448,192,44638,128,0,44903:0:0:0:0:
320,192,44726,128,0,44903:0:0:0:0:
192,192,44991,1,0,0:0:0:70:LR4_SnareBPDT.wav
448,192,44991,1,0,0:0:0:0:
64,192,44991,1,0,0:0:0:0:
448,192,45256,128,2,45344:0:0:0:0:
320,192,45256,128,4,45344:0:0:0:0:
64,192,45256,128,0,45344:0:0:0:0:
64,192,45521,128,2,45609:0:0:0:0:
192,192,45521,128,4,45609:0:0:0:0:
448,192,45521,128,0,45609:0:0:0:0:
320,192,45697,128,0,45756:0:0:0:0:
192,192,45873,128,0,45932:0:0:0:0:
64,192,46050,1,2,0:0:0:0:
320,192,46050,1,4,0:0:0:0:
448,192,46050,1,0,0:0:0:0:
192,192,46226,128,0,46403:0:0:0:0:
320,192,46403,128,0,46491:0:0:0:0:
64,192,46579,128,0,46756:0:0:0:0:
448,192,46756,128,0,47021:0:0:0:0:
192,192,47021,1,0,0:0:0:0:
448,192,47109,128,0,47197:0:0:0:0:
64,192,47197,128,0,47285:0:0:0:0:
448,192,47285,128,0,47462:0:0:0:0:
192,192,47285,1,0,0:0:0:0:
320,192,47462,128,2,47550:0:0:0:0:
192,192,47462,128,4,47594:0:0:0:0:
64,192,47462,128,0,47726:0:0:0:70:push_scratch.wav
448,192,47594,128,0,47726:0:0:0:0:
320,192,47638,128,0,47726:0:0:0:70:LR_Snare Drum 2.wav
192,192,47815,128,2,47903:0:0:0:0:
320,192,47815,128,0,47947:0:0:0:0:
448,192,47815,128,0,48079:0:0:0:0:
64,192,47947,128,0,48079:0:0:0:0:
192,192,47991,128,0,48079:0:0:0:70:LR_Snare Drum 2.wav
64,192,48168,1,0,0:0:0:70:LR_Tom Normal.wav
448,192,48168,1,0,0:0:0:70:LR_Snare Drum 3.wav
320,192,48256,1,0,0:0:0:70:LR_Snare Drum 3.wav
64,192,48344,1,0,0:0:0:70:LR_Snare Drum 3.wav
320,192,48432,1,0,0:0:0:70:LR_Snare Drum 3.wav
448,192,48521,1,0,0:0:0:70:LR_Snare Drum 2.wav
192,192,48521,1,0,0:0:0:0:
64,192,48697,128,4,49138:0:0:0:0:
320,192,48697,128,2,49138:0:0:0:0:
192,192,48697,128,0,49138:0:0:0:0:
448,192,48873,128,0,48962:0:0:0:70:LR_Snare Drum 2.wav
448,192,49050,128,0,49138:0:0:0:70:LR_Snare Drum 2.wav
448,192,49226,128,4,49491:0:0:0:0:
320,192,49226,128,2,49491:0:0:0:0:
64,192,49226,128,0,49491:0:0:0:0:
192,192,49403,128,0,49491:0:0:0:70:LR_Snare Drum 2.wav
448,192,49579,1,0,0:0:0:70:LR_Tom Normal.wav
64,192,49579,1,0,0:0:0:70:LR_Snare Drum 3.wav
192,192,49668,1,0,0:0:0:70:LR_Snare Drum 3.wav
64,192,49756,128,2,50021:0:0:0:0:
320,192,49756,128,4,50021:0:0:0:0:
448,192,49756,128,0,50021:0:0:0:70:LR_Snare Drum 3.wav
448,192,50109,128,4,50550:0:0:0:0:
192,192,50109,128,2,50550:0:0:0:0:
320,192,50109,128,0,50550:0:0:0:0:
64,192,50285,128,0,50550:0:0:0:70:LR_Snare Drum 2.wav
448,192,50638,128,4,50991:0:0:0:0:
192,192,50638,128,2,50815:0:0:0:0:
320,192,50638,128,0,50903:0:0:0:0:
64,192,50991,1,0,0:0:0:70:LR_Snare Drum 3.wav
192,192,50991,1,0,0:0:0:70:LR_Tom Normal.wav
320,192,50991,1,0,0:0:0:0:
448,192,51079,1,0,0:0:0:70:LR_Snare Drum 3.wav
64,192,51168,1,0,0:0:0:70:LR_Snare Drum 3.wav
448,192,51256,1,0,0:0:0:70:LR_Snare Drum 3.wav
192,192,51344,128,0,51432:0:0:0:70:LR_Snare Drum 2.wav
320,192,51388,128,0,51432:0:0:0:0:
64,192,51521,128,0,51609:0:0:0:0:
192,192,51565,128,0,51609:0:0:0:0:
448,192,51697,128,2,51962:0:0:0:0:
320,192,51697,128,4,51962:0:0:0:0:
64,192,51697,128,0,51962:0:0:0:0:
192,192,52050,128,2,52315:0:0:0:0:
448,192,52050,128,4,52315:0:0:0:0:
64,192,52050,128,0,52315:0:0:0:0:
320,192,52403,128,0,52668:0:0:0:70:LR_Snare Drum 3.wav
192,192,52403,128,4,52668:0:0:0:0:
64,192,52403,128,2,52668:0:0:0:0:
448,192,52756,128,4,53021:0:0:0:0:
320,192,52756,128,2,53021:0:0:0:0:
64,192,52756,128,0,53021:0:0:0:0:
192,192,53109,128,2,53373:0:0:0:0:
448,192,53109,128,4,53373:0:0:0:0:
64,192,53109,128,0,53373:0:0:0:0:
448,192,53462,128,2,53726:0:0:0:0:
192,192,53462,128,4,53726:0:0:0:0:
64,192,53462,128,0,53726:0:0:0:0:
320,192,53815,1,0,0:0:0:70:LR_Tom Normal.wav
64,192,53815,1,0,0:0:0:70:LR_Snare Drum 3.wav
448,192,53815,1,0,0:0:0:0:
192,192,53903,1,0,0:0:0:70:LR_Snare Drum 3.wav
320,192,53991,1,0,0:0:0:70:LR_Snare Drum 3.wav
192,192,54079,1,0,0:0:0:70:LR_Snare Drum 3.wav
64,192,54168,1,0,0:0:0:70:LR_Snare Drum 2.wav
448,192,54168,1,0,0:0:0:0:
64,192,54344,128,4,54785:0:0:0:0:
192,192,54344,128,2,54785:0:0:0:0:
448,192,54344,128,0,54785:0:0:0:0:
320,192,54521,128,0,54609:0:0:0:70:LR_Snare Drum 2.wav
320,192,54697,128,0,54785:0:0:0:70:LR_Snare Drum 2.wav
192,192,54873,128,4,55138:0:0:0:0:
64,192,54873,128,2,55138:0:0:0:0:
448,192,54873,128,0,55138:0:0:0:0:
448,192,55226,1,0,0:0:0:70:LR_Tom Normal.wav
64,192,55226,1,0,0:0:0:70:LR_Snare Drum 3.wav
192,192,55403,128,2,55668:0:0:0:0:
320,192,55403,128,4,55668:0:0:0:0:
448,192,55403,128,0,55668:0:0:0:70:LR_Snare Drum 3.wav
320,192,55756,128,4,55932:0:0:0:0:
448,192,55756,128,2,55932:0:0:0:0:
64,192,55756,128,0,55932:0:0:0:0:
192,192,55844,128,0,55932:0:0:0:0:
448,192,56021,128,4,56197:0:0:0:0:
64,192,56021,128,2,56197:0:0:0:0:
320,192,56021,128,0,56197:0:0:0:0:
192,192,56109,128,0,56197:0:0:0:0:
320,192,56285,128,0,56403:0:0:0:0:
64,192,56462,1,0,0:0:0:0:
448,192,56550,1,0,0:0:0:0:
192,192,56638,128,0,56726:0:0:0:0:
448,192,56726,128,0,56815:0:0:0:0:
64,192,56815,1,0,0:0:0:0:
320,192,56903,1,0,0:0:0:0:
192,192,56991,1,0,0:0:0:0:
64,192,57168,128,2,57609:0:0:0:0:
192,192,57168,128,4,57609:0:0:0:0:
448,192,57168,128,0,57609:0:0:0:0:
320,192,57344,128,0,57432:0:0:0:0:
320,192,57521,128,0,57609:0:0:0:70:LR_Snare Drum 2.wav
192,192,57697,128,2,57962:0:0:0:0:
448,192,57697,128,4,57962:0:0:0:0:
64,192,57697,128,0,57962:0:0:0:0:
320,192,58050,128,4,58315:0:0:0:0:
448,192,58050,128,2,58315:0:0:0:0:
64,192,58050,128,0,58315:0:0:0:0:
448,192,58403,128,4,58668:0:0:0:0:
192,192,58403,128,2,58668:0:0:0:0:
64,192,58403,128,0,58668:0:0:0:0:
320,192,58756,128,0,59021:0:0:0:70:push_scratch.wav
448,192,58756,1,0,0:0:0:50:LR_Snare Drum .wav
448,192,59109,128,0,59373:0:0:0:50:LR_Snare Drum 3.wav
64,192,59109,1,0,0:0:0:0:
320,192,59462,128,0,59726:0:0:0:50:LR_Snare Drum .wav
448,192,59462,1,0,0:0:0:0:
448,192,59815,128,0,60079:0:0:0:50:LR_Snare Drum 3.wav
64,192,59815,1,0,0:0:0:0:
448,192,60168,1,0,0:0:0:50:LR_Snare Drum .wav
320,192,60168,128,0,60432:0:0:0:0:
64,192,60212,1,0,0:0:0:0:
192,192,60256,1,0,0:0:0:0:
192,192,60521,1,0,0:0:0:50:LR_Snare Drum 3.wav
448,192,60521,128,0,60785:0:0:0:0:
64,192,60873,1,0,0:0:0:50:LR_Snare Drum .wav
192,192,60873,128,0,61138:0:0:0:0:
64,192,61226,1,0,0:0:0:50:LR_Snare Drum 3.wav
448,192,61226,128,0,61403:0:0:0:0:
320,192,61403,128,0,61579:0:0:0:0:
192,192,61579,1,0,0:0:0:50:LR_Snare Drum .wav
64,192,61579,128,0,61844:0:0:0:0:
448,192,61623,1,0,0:0:0:0:
320,192,61668,1,0,0:0:0:0:
320,192,61932,1,0,0:0:0:50:LR_Snare Drum 3.wav
64,192,61932,128,0,62197:0:0:0:0:
192,192,62285,1,0,0:0:0:50:LR_Snare Drum .wav
64,192,62285,128,0,62550:0:0:0:0:
320,192,62329,1,0,0:0:0:0:
448,192,62638,1,0,0:0:0:50:LR_Snare Drum 3.wav
192,192,62638,128,0,62903:0:0:0:0:
192,192,62991,1,0,0:0:0:50:LR_Snare Drum .wav
64,192,62991,128,0,63256:0:0:0:0:
448,192,63035,1,0,0:0:0:0:
320,192,63079,1,0,0:0:0:0:
448,192,63344,1,0,0:0:0:50:LR_Snare Drum 3.wav
192,192,63344,128,0,63609:0:0:0:0:
192,192,63697,1,0,0:0:0:50:LR_Snare Drum .wav
64,192,63697,128,0,63873:0:0:0:0:
448,192,63741,1,0,0:0:0:0:
320,192,63873,128,0,64050:0:0:0:0:
448,192,64050,1,0,0:0:0:50:LR_Snare Drum 3.wav
192,192,64050,128,0,64315:0:0:0:0:
448,192,64403,1,0,0:0:0:50:LR_Snare Drum .wav
320,192,64403,128,0,64668:0:0:0:0:
64,192,64447,1,0,0:0:0:0:
192,192,64491,1,0,0:0:0:0:
192,192,64756,1,0,0:0:0:50:LR_Snare Drum 3.wav
448,192,64756,128,0,65021:0:0:0:0:
320,192,65109,128,0,65373:0:0:0:50:LR_Snare Drum .wav
448,192,65109,1,0,0:0:0:0:
448,192,65462,128,0,65726:0:0:0:50:LR_Snare Drum 3.wav
192,192,65462,1,0,0:0:0:0:
448,192,65815,1,0,0:0:0:50:LR_Snare Drum .wav
320,192,65815,128,0,66079:0:0:0:0:
192,192,65859,1,0,0:0:0:0:
64,192,65903,1,0,0:0:0:0:
192,192,66168,1,0,0:0:0:50:LR_Snare Drum 3.wav
448,192,66168,128,0,66432:0:0:0:0:
192,192,66521,1,0,0:0:0:50:LR_Snare Drum .wav
64,192,66521,128,0,66785:0:0:0:0:
448,192,66873,1,0,0:0:0:50:LR_Snare Drum 3.wav
192,192,66873,128,0,67050:0:0:0:0:
64,192,67050,128,0,67226:0:0:0:0:
320,192,67226,1,0,0:0:0:50:LR_Snare Drum .wav
448,192,67226,128,0,67491:0:0:0:0:
192,192,67271,1,0,0:0:0:0:
64,192,67315,1,0,0:0:0:0:
192,192,67579,1,0,0:0:0:50:LR_Snare Drum 3.wav
448,192,67579,128,0,67844:0:0:0:0:
320,192,67932,1,0,0:0:0:50:LR_Snare Drum .wav
448,192,67932,128,0,68197:0:0:0:0:
64,192,67976,1,0,0:0:0:0:
192,192,68285,1,0,0:0:0:50:LR_Snare Drum 3.wav
448,192,68285,128,0,68550:0:0:0:0:
192,192,68638,1,0,0:0:0:50:LR_Snare Drum .wav
64,192,68638,128,0,68903:0:0:0:0:
320,192,68682,1,0,0:0:0:0:
192,192,68991,1,0,0:0:0:50:LR_Snare Drum 3.wav
448,192,68991,128,0,69256:0:0:0:0:
448,192,69344,1,0,0:0:0:50:LR_Snare Drum .wav
320,192,69344,128,0,69609:0:0:0:0:
192,192,69697,128,0,69962:0:0:0:50:LR_Snare Drum 3.wav
448,192,69697,1,0,0:0:0:0:
192,192,70050,1,2,0:0:0:0:
64,192,70050,1,0,0:0:0:50:LR_Snare Drum .wav
448,192,70050,1,0,0:0:0:0:
320,192,70226,1,0,0:0:0:50:LR_Snare Drum 3.wav
64,192,70403,1,0,0:0:0:50:LR_Snare Drum .wav
192,192,70403,1,0,0:0:0:0:
448,192,70579,1,0,0:0:0:50:LR_Snare Drum 3.wav
192,192,70756,1,0,0:0:0:50:LR_Snare Drum .wav
64,192,70756,1,0,0:0:0:0:
448,192,70932,1,0,0:0:0:50:LR_Snare Drum 3.wav
64,192,71021,1,0,0:0:0:50:Clap1.wav
320,192,71021,1,0,0:0:0:0:
192,192,71109,1,0,0:0:0:50:LR_Snare Drum .wav
64,192,71109,1,0,0:0:0:0:
320,192,71285,1,0,0:0:0:50:LR_Snare Drum 3.wav
64,192,71285,1,0,0:0:0:50:Clap.wav
320,192,71462,1,0,0:0:0:50:LR_Snare Drum .wav
448,192,71462,1,0,0:0:0:0:
192,192,71638,1,0,0:0:0:50:LR_Snare Drum 3.wav
192,192,71726,1,0,0:0:0:0:
320,192,71815,1,0,0:0:0:50:LR_Snare Drum .wav
448,192,71815,1,0,0:0:0:0:
64,192,71991,1,0,0:0:0:50:LR_Snare Drum 3.wav
320,192,72168,1,0,0:0:0:50:LR_Snare Drum .wav
448,192,72168,1,0,0:0:0:0:
64,192,72344,1,0,0:0:0:50:LR_Snare Drum 3.wav
192,192,72432,1,0,0:0:0:50:Clap1.wav
448,192,72432,1,0,0:0:0:0:
320,192,72521,1,0,0:0:0:50:LR_Snare Drum .wav
448,192,72521,1,0,0:0:0:0:
192,192,72697,1,0,0:0:0:50:LR_Snare Drum 3.wav
448,192,72697,1,0,0:0:0:50:Clap.wav
192,192,72873,1,0,0:0:0:50:LR_Snare Drum .wav
64,192,72873,1,0,0:0:0:0:
320,192,73050,1,0,0:0:0:50:LR_Snare Drum 3.wav
192,192,73226,1,0,0:0:0:50:LR_Snare Drum .wav
64,192,73226,1,0,0:0:0:0:
448,192,73403,1,0,0:0:0:50:LR_Snare Drum 3.wav
192,192,73579,1,0,0:0:0:50:LR_Snare Drum .wav
64,192,73579,1,0,0:0:0:0:
448,192,73756,1,0,0:0:0:50:LR_Snare Drum 3.wav
64,192,73844,1,0,0:0:0:50:Clap1.wav
320,192,73844,1,0,0:0:0:0:
192,192,73932,1,0,0:0:0:50:LR_Snare Drum .wav
64,192,73932,1,0,0:0:0:0:
320,192,74109,1,0,0:0:0:50:LR_Snare Drum 3.wav
64,192,74109,1,0,0:0:0:50:Clap.wav
448,192,74285,1,0,0:0:0:50:LR_Snare Drum .wav
320,192,74285,1,0,0:0:0:0:
192,192,74462,128,0,74638:0:0:0:50:LR_Snare Drum 3.wav
64,192,74550,1,0,0:0:0:0:
448,192,74638,1,0,0:0:0:50:LR_Snare Drum .wav
320,192,74638,1,0,0:0:0:0:
320,192,74815,128,0,74991:0:0:0:50:LR_Snare Drum 3.wav
192,192,74991,1,0,0:0:0:50:LR_Snare Drum .wav
64,192,74991,1,0,0:0:0:0:
448,192,75168,128,0,75344:0:0:0:50:LR_Snare Drum 3.wav
320,192,75256,1,0,0:0:0:50:Clap1.wav
64,192,75256,1,0,0:0:0:0:
192,192,75344,1,0,0:0:0:50:LR_Snare Drum .wav
64,192,75344,1,0,0:0:0:0:
448,192,75521,128,0,75697:0:0:0:50:LR_Snare Drum 3.wav
320,192,75521,1,0,0:0:0:50:Clap.wav
320,192,75697,1,0,0:0:0:60:LR_Snare Drum .wav
192,192,75697,1,8,0:0:0:0:
64,192,75697,1,0,0:0:0:0:
64,192,75873,128,0,76050:0:0:0:60:LR_Snare Drum 3.wav
448,192,75873,1,0,0:0:0:0:
192,192,75962,1,0,0:0:0:60:Clap1.wav
320,192,76050,1,0,0:0:0:60:LR_Snare Drum .wav
448,192,76050,1,0,0:0:0:0:
64,192,76226,128,0,76403:0:0:0:60:LR_Snare Drum 3.wav
448,192,76226,1,0,0:0:0:60:Clap.wav
320,192,76403,1,0,0:0:0:60:LR_Snare Drum .wav
448,192,76403,1,0,0:0:0:0:
64,192,76579,128,0,76756:0:0:0:60:LR_Snare Drum 3.wav
448,192,76579,1,0,0:0:0:0:
192,192,76668,1,0,0:0:0:60:Clap1.wav
320,192,76756,1,0,0:0:0:60:LR_Snare Drum .wav
448,192,76756,1,0,0:0:0:0:
64,192,76932,128,0,77109:0:0:0:60:LR_Snare Drum 3.wav
448,192,76932,1,0,0:0:0:60:Clap.wav
320,192,77109,1,0,0:0:0:60:LR_Snare Drum .wav
192,192,77109,1,0,0:0:0:0:
448,192,77285,128,0,77462:0:0:0:60:LR_Snare Drum 3.wav
64,192,77285,1,0,0:0:0:0:
320,192,77373,1,0,0:0:0:60:Clap1.wav
192,192,77462,1,0,0:0:0:60:LR_Snare Drum .wav
64,192,77462,1,0,0:0:0:0:
448,192,77638,128,0,77815:0:0:0:60:LR_Snare Drum 3.wav
64,192,77638,1,0,0:0:0:60:Clap.wav
320,192,77726,1,0,0:0:0:0:
64,192,77815,1,0,0:0:0:60:LR_Snare Drum .wav
192,192,77815,1,0,0:0:0:0:
448,192,77991,128,0,78168:0:0:0:60:LR_Snare Drum 3.wav
64,192,77991,1,0,0:0:0:0:
320,192,78079,1,0,0:0:0:60:Clap1.wav
192,192,78168,1,0,0:0:0:60:LR_Snare Drum .wav
64,192,78168,1,0,0:0:0:0:
448,192,78344,128,0,78521:0:0:0:60:LR_Snare Drum 3.wav
64,192,78344,1,0,0:0:0:60:Clap.wav
320,192,78432,1,0,0:0:0:0:
192,192,78521,1,0,0:0:0:70:LR_Snare Drum .wav
64,192,78521,1,0,0:0:0:0:
448,192,78609,1,0,0:0:0:70:LR_Snare Drum 3.wav
192,192,78697,1,0,0:0:0:70:LR_Snare Drum 3.wav
320,192,78697,1,0,0:0:0:0:
64,192,78785,1,0,0:0:0:70:LR_Snare Drum 3.wav
320,192,78873,1,0,0:0:0:70:LR_Snare Drum .wav
448,192,78873,1,0,0:0:0:0:
64,192,78962,1,0,0:0:0:70:LR_Snare Drum 3.wav
192,192,79050,1,0,0:0:0:70:LR_Snare Drum .wav
320,192,79050,1,0,0:0:0:70:Clap.wav
448,192,79138,1,0,0:0:0:70:LR_Snare Drum 3.wav
64,192,79226,1,0,0:0:0:70:LR_Snare Drum .wav
192,192,79226,1,0,0:0:0:0:
448,192,79315,1,0,0:0:0:70:LR_Snare Drum 3.wav
192,192,79403,1,0,0:0:0:70:LR_Snare Drum .wav
320,192,79403,1,0,0:0:0:0:
64,192,79491,1,0,0:0:0:70:LR_Snare Drum 3.wav
320,192,79579,1,0,0:0:0:70:LR_Snare Drum .wav
448,192,79579,1,0,0:0:0:0:
64,192,79668,1,0,0:0:0:70:LR_Snare Drum 3.wav
192,192,79756,1,0,0:0:0:70:LR_Snare Drum .wav
320,192,79756,1,2,0:0:0:0:
448,192,79844,1,0,0:0:0:70:LR_Snare Drum 3.wav
192,192,79932,128,2,80109:0:0:0:0:
320,192,79932,128,4,80109:0:0:0:0:
64,192,79932,128,0,80109:0:0:0:0:
64,192,80285,1,0,0:0:0:70:LR_Drum Rpd x2.wav
448,192,80285,1,0,0:0:0:0:
192,192,80329,1,0,0:0:0:0:
320,192,80373,1,0,0:0:0:0:
448,192,80418,1,0,0:0:0:0:
64,192,80462,1,0,0:0:0:0:
64,192,80550,1,0,0:0:0:70:LR_Drum Rpd x2.wav
448,192,80638,128,0,80726:0:0:0:0:
192,192,80726,1,0,0:0:0:70:LR_Snare Drum 3.wav
320,192,80815,128,0,80903:0:0:0:70:LR_Drum Rpd x2.wav
192,192,80815,1,0,0:0:0:0:
64,192,80991,128,0,81256:0:0:0:70:LR4_SnareBPDT.wav
448,192,80991,1,0,0:0:0:0:
192,192,81079,128,0,81256:0:0:0:0:
320,192,81123,128,0,81256:0:0:0:0:
320,192,81344,1,4,0:0:0:0:
448,192,81344,128,2,81609:0:0:0:0:
64,192,81344,128,0,81432:0:0:0:70:push_scratch.wav
192,192,81521,1,0,0:0:0:0:
320,192,81609,1,0,0:0:0:0:
448,192,81697,128,8,81962:0:0:0:0:
192,192,81697,128,0,81785:0:0:0:0:
64,192,81697,1,0,0:0:0:0:
320,192,81873,1,0,0:0:0:0:
64,192,81962,1,0,0:0:0:0:
448,192,82050,128,2,82315:0:0:0:0:
320,192,82050,128,0,82138:0:0:0:0:
192,192,82226,1,0,0:0:0:0:
320,192,82315,1,0,0:0:0:0:
448,192,82403,128,8,82668:0:0:0:0:
192,192,82403,128,0,82491:0:0:0:0:
64,192,82403,1,0,0:0:0:0:
64,192,82579,128,0,82668:0:0:0:0:
320,192,82756,1,2,0:0:0:0:
448,192,82756,1,0,0:0:0:0:
192,192,82844,1,0,0:0:0:0:
64,192,82932,128,0,83021:0:0:0:0:
448,192,82932,128,0,83109:0:0:0:0:
192,192,83109,128,8,83197:0:0:0:0:
64,192,83109,1,0,0:0:0:0:
320,192,83109,1,0,0:0:0:0:
448,192,83197,128,0,83373:0:0:0:0:
64,192,83285,1,0,0:0:0:0:
192,192,83373,1,0,0:0:0:0:
320,192,83462,128,2,83550:0:0:0:0:
64,192,83462,128,0,83726:0:0:0:0:
448,192,83638,1,0,0:0:0:0:
192,192,83726,128,0,83815:0:0:0:0:
320,192,83815,1,8,0:0:0:0:
448,192,83815,1,0,0:0:0:0:
64,192,83903,128,0,84079:0:0:0:0:
448,192,83991,128,0,84168:0:0:0:0:
320,192,84079,128,0,84168:0:0:0:0:
64,192,84168,128,2,84432:0:0:0:0:
192,192,84168,128,0,84256:0:0:0:0:
448,192,84344,1,0,0:0:0:0:
192,192,84432,1,0,0:0:0:0:
64,192,84521,128,8,84785:0:0:0:0:
320,192,84521,128,0,84609:0:0:0:0:
448,192,84521,1,0,0:0:0:0:
192,192,84697,1,0,0:0:0:0:
320,192,84785,1,0,0:0:0:0:
64,192,84873,128,2,85138:0:0:0:0:
448,192,84873,128,0,84962:0:0:0:0:
192,192,85050,1,0,0:0:0:0:
320,192,85138,128,0,85226:0:0:0:0:
192,192,85226,1,8,0:0:0:0:
448,192,85226,1,0,0:0:0:0:
64,192,85226,1,0,0:0:0:0:
192,192,85403,128,0,85491:0:0:0:0:
448,192,85579,128,2,85668:0:0:0:0:
320,192,85579,1,0,0:0:0:0:
64,192,85756,1,0,0:0:0:0:
64,192,85844,1,0,0:0:0:0:
192,192,85932,128,8,86021:0:0:0:0:
448,192,85932,1,0,0:0:0:0:
320,192,85932,1,0,0:0:0:0:
320,192,86109,1,0,0:0:0:0:
320,192,86197,1,0,0:0:0:0:
64,192,86285,128,2,86373:0:0:0:0:
192,192,86285,1,0,0:0:0:0:
448,192,86462,1,0,0:0:0:0:
448,192,86550,128,0,86638:0:0:0:0:
64,192,86638,1,8,0:0:0:0:
320,192,86638,1,0,0:0:0:0:
192,192,86638,1,0,0:0:0:0:
448,192,86815,128,0,86903:0:0:0:0:
64,192,86991,128,2,87256:0:0:0:0:
192,192,86991,128,0,87079:0:0:0:0:
448,192,87168,1,0,0:0:0:0:
192,192,87256,1,0,0:0:0:0:
64,192,87344,128,8,87609:0:0:0:0:
448,192,87344,1,0,0:0:0:0:
320,192,87344,128,0,87432:0:0:0:0:
192,192,87521,1,0,0:0:0:0:
320,192,87609,1,0,0:0:0:0:
64,192,87697,128,2,87962:0:0:0:0:
448,192,87697,128,0,87785:0:0:0:0:
192,192,87873,1,0,0:0:0:0:
320,192,87962,1,0,0:0:0:0:
192,192,88050,128,8,88138:0:0:0:0:
64,192,88050,1,0,0:0:0:0:
448,192,88050,128,0,88226:0:0:0:0:
64,192,88226,128,0,88403:0:0:0:0:
320,192,88226,128,0,88315:0:0:0:0:
320,192,88403,1,2,0:0:0:0:
448,192,88403,1,0,0:0:0:0:
192,192,88491,1,0,0:0:0:0:
192,192,88579,128,0,88668:0:0:0:0:
448,192,88756,1,8,0:0:0:0:
64,192,88756,1,0,0:0:0:0:
320,192,88756,128,0,88844:0:0:0:0:
64,192,88932,1,0,0:0:0:0:
64,192,89021,1,0,0:0:0:0:
320,192,89109,1,2,0:0:0:0:
448,192,89109,128,0,89197:0:0:0:0:
192,192,89285,1,0,0:0:0:0:
320,192,89373,128,0,89462:0:0:0:0:
192,192,89462,1,8,0:0:0:0:
64,192,89462,1,0,0:0:0:0:
448,192,89550,128,0,89726:0:0:0:0:
64,192,89638,128,0,89815:0:0:0:0:
192,192,89726,128,0,89815:0:0:0:0:
448,192,89815,128,2,90079:0:0:0:0:
320,192,89815,128,0,89903:0:0:0:0:
64,192,89991,1,0,0:0:0:0:
192,192,90079,1,0,0:0:0:0:
448,192,90168,128,8,90432:0:0:0:0:
64,192,90168,128,0,90256:0:0:0:0:
320,192,90168,1,0,0:0:0:0:
192,192,90344,1,0,0:0:0:0:
64,192,90432,1,0,0:0:0:0:
448,192,90521,128,2,90785:0:0:0:0:
192,192,90521,128,0,90609:0:0:0:0:
320,192,90697,1,0,0:0:0:0:
64,192,90785,128,0,90873:0:0:0:0:
192,192,90873,1,8,0:0:0:0:
320,192,90873,1,0,0:0:0:0:
448,192,90873,1,0,0:0:0:0:
192,192,91050,128,0,91138:0:0:0:0:
320,192,91138,128,0,91226:0:0:0:0:
448,192,91226,128,2,91403:0:0:0:0:
64,192,91226,1,0,0:0:0:0:
64,192,91403,128,0,91491:0:0:0:0:
320,192,91491,1,0,0:0:0:0:
192,192,91579,128,8,91668:0:0:0:0:
448,192,91579,1,0,0:0:0:0:
64,192,91579,1,0,0:0:0:0:
64,192,91756,128,0,91844:0:0:0:0:
320,192,91932,128,2,92109:0:0:0:0:
448,192,91932,1,0,0:0:0:0:
64,192,92109,1,0,0:0:0:0:
192,192,92197,1,0,0:0:0:0:
320,192,92285,128,8,92462:0:0:0:0:
448,192,92285,1,0,0:0:0:0:
64,192,92285,1,0,0:0:0:0:
192,192,92462,1,0,0:0:0:0:
320,192,92550,1,0,0:0:0:0:
64,192,92638,128,2,92756:0:0:0:0:
448,192,92638,1,0,0:0:0:0:
192,192,92697,128,0,92815:0:0:0:0:
320,192,92756,128,0,92873:0:0:0:0:
448,192,92815,128,0,92932:0:0:0:0:
320,192,92991,1,8,0:0:0:0:
64,192,92991,128,4,93079:0:0:0:0:
192,192,92991,1,0,0:0:0:70:push_scratch.wav
448,192,93168,1,0,0:0:0:0:
448,192,93256,1,0,0:0:0:0:
320,192,93344,1,2,0:0:0:0:
64,192,93344,128,0,93432:0:0:0:0:
192,192,93521,1,0,0:0:0:0:
192,192,93609,1,0,0:0:0:0:
64,192,93697,1,8,0:0:0:0:
448,192,93697,1,0,0:0:0:0:
320,192,93697,128,0,93785:0:0:0:0:
192,192,93873,128,0,93962:0:0:0:0:
448,192,94050,1,2,0:0:0:0:
320,192,94050,1,0,0:0:0:0:
64,192,94138,1,0,0:0:0:0:
64,192,94226,128,0,94315:0:0:0:0:
320,192,94403,128,8,94491:0:0:0:0:
192,192,94403,1,0,0:0:0:0:
448,192,94403,1,0,0:0:0:0:
64,192,94579,1,0,0:0:0:0:
192,192,94668,1,0,0:0:0:0:
448,192,94756,128,2,94844:0:0:0:0:
320,192,94756,1,0,0:0:0:0:
192,192,94932,1,0,0:0:0:0:
320,192,95021,128,0,95109:0:0:0:0:
192,192,95109,1,8,0:0:0:0:
64,192,95109,1,0,0:0:0:0:
448,192,95197,128,0,95373:0:0:0:0:
64,192,95285,128,0,95462:0:0:0:0:
192,192,95373,128,0,95462:0:0:0:0:
448,192,95462,128,2,95726:0:0:0:0:
320,192,95462,128,0,95550:0:0:0:0:
64,192,95638,1,0,0:0:0:0:
192,192,95726,1,0,0:0:0:0:
448,192,95815,128,8,96079:0:0:0:0:
64,192,95815,128,0,95903:0:0:0:0:
320,192,95815,1,0,0:0:0:0:
192,192,95991,1,0,0:0:0:0:
320,192,96079,1,0,0:0:0:0:
448,192,96168,128,2,96432:0:0:0:0:
192,192,96168,128,0,96256:0:0:0:0:
320,192,96344,1,0,0:0:0:0:
64,192,96432,128,0,96521:0:0:0:0:
192,192,96521,1,8,0:0:0:0:
320,192,96521,1,0,0:0:0:0:
448,192,96521,1,0,0:0:0:0:
192,192,96697,128,0,96785:0:0:0:0:
320,192,96785,128,0,96873:0:0:0:0:
448,192,96873,128,2,96962:0:0:0:0:
64,192,96873,1,0,0:0:0:0:
192,192,97050,1,0,0:0:0:0:
192,192,97138,1,0,0:0:0:0:
64,192,97226,1,8,0:0:0:0:
320,192,97226,1,0,0:0:0:0:
448,192,97226,128,0,97315:0:0:0:0:
192,192,97403,1,0,0:0:0:0:
320,192,97491,1,0,0:0:0:0:
64,192,97579,128,2,97668:0:0:0:0:
448,192,97579,1,0,0:0:0:0:
320,192,97756,1,0,0:0:0:0:
320,192,97844,128,0,97932:0:0:0:0:
64,192,97932,1,8,0:0:0:0:
192,192,97932,1,0,0:0:0:0:
448,192,97932,1,0,0:0:0:0:
320,192,98109,128,0,98197:0:0:0:0:
64,192,98285,128,2,98550:0:0:0:0:
192,192,98285,128,0,98373:0:0:0:0:
448,192,98462,1,0,0:0:0:0:
192,192,98550,1,0,0:0:0:0:
64,192,98638,128,8,98903:0:0:0:0:
320,192,98638,128,0,98726:0:0:0:0:
448,192,98638,1,0,0:0:0:0:
192,192,98815,1,0,0:0:0:0:
320,192,98903,1,0,0:0:0:0:
64,192,98991,128,2,99256:0:0:0:0:
448,192,98991,128,0,99079:0:0:0:0:
320,192,99168,1,0,0:0:0:0:
192,192,99256,1,0,0:0:0:0:
64,192,99344,128,8,99609:0:0:0:0:
320,192,99344,128,0,99432:0:0:0:0:
448,192,99344,1,0,0:0:0:0:
192,192,99521,128,0,99609:0:0:0:0:
448,192,99697,128,2,99962:0:0:0:0:
320,192,99697,1,0,0:0:0:0:
64,192,99873,128,0,99962:0:0:0:0:
448,192,100050,128,8,100315:0:0:0:0:
320,192,100050,1,0,0:0:0:0:
192,192,100050,128,0,100138:0:0:0:0:
64,192,100226,1,0,0:0:0:0:
192,192,100315,1,0,0:0:0:0:
448,192,100403,128,2,100668:0:0:0:0:
320,192,100403,128,0,100491:0:0:0:0:
192,192,100579,1,0,0:0:0:0:
64,192,100668,128,0,100756:0:0:0:0:
320,192,100756,1,8,0:0:0:0:
192,192,100756,1,0,0:0:0:0:
448,192,100844,128,0,101021:0:0:0:0:
64,192,100932,128,0,101109:0:0:0:0:
192,192,101021,128,0,101109:0:0:0:0:
448,192,101109,1,2,0:0:0:0:
320,192,101109,128,0,101197:0:0:0:0:
192,192,101285,1,0,0:0:0:0:
320,192,101373,1,0,0:0:0:0:
64,192,101462,1,8,0:0:0:0:
448,192,101462,1,0,0:0:0:0:
192,192,101462,128,0,101550:0:0:0:0:
320,192,101638,1,0,0:0:0:0:
64,192,101726,1,0,0:0:0:0:
192,192,101815,1,2,0:0:0:0:
448,192,101815,128,0,101903:0:0:0:0:
320,192,101991,1,0,0:0:0:0:
64,192,102079,128,0,102168:0:0:0:0:
192,192,102168,1,8,0:0:0:0:
320,192,102168,1,0,0:0:0:0:
448,192,102168,1,0,0:0:0:0:
192,192,102344,128,0,102432:0:0:0:0:
320,192,102432,128,0,102521:0:0:0:0:
448,192,102521,1,2,0:0:0:0:
64,192,102521,1,0,0:0:0:0:
192,192,102697,128,0,102873:0:0:0:0:
64,192,102873,1,0,0:0:0:70:snare.wav
448,192,102873,128,0,102962:0:0:0:0:
320,192,102873,1,0,0:0:0:0:
192,192,103050,128,0,103226:0:0:0:0:
320,192,103138,1,0,0:0:0:0:
64,192,103226,128,2,103315:0:0:0:0:
192,192,103403,128,0,103579:0:0:0:0:
448,192,103403,128,0,103491:0:0:0:0:
320,192,103579,128,0,103668:0:0:0:70:snare.wav
448,192,103579,1,0,0:0:0:0:
64,192,103579,1,0,0:0:0:0:
192,192,103756,128,0,103932:0:0:0:0:
64,192,103932,1,4,0:0:0:0:
448,192,103932,128,2,104197:0:0:0:0:
320,192,103976,1,0,0:0:0:0:
192,192,104021,1,0,0:0:0:0:
320,192,104285,128,0,104550:0:0:0:0:
192,192,104285,1,0,0:0:0:0:
448,192,104638,128,0,104903:0:0:0:0:
64,192,104638,1,0,0:0:0:0:
320,192,104991,128,0,105256:0:0:0:0:
192,192,104991,1,0,0:0:0:0:
448,192,105344,128,0,105609:0:0:0:0:
64,192,105344,1,0,0:0:0:0:
192,192,105388,1,0,0:0:0:0:
192,192,105697,128,0,105962:0:0:0:0:
320,192,105697,1,0,0:0:0:0:
64,192,106050,128,0,106315:0:0:0:0:
448,192,106050,1,0,0:0:0:0:
64,192,106403,1,0,0:0:0:0:
320,192,106756,1,0,0:0:0:0:
192,192,106800,1,0,0:0:0:0:
64,192,106844,1,0,0:0:0:0:
448,192,107109,1,0,0:0:0:0:
64,192,107462,1,0,0:0:0:0:
192,192,107506,1,0,0:0:0:0:
320,192,107815,1,0,0:0:0:0:
448,192,108168,1,0,0:0:0:0:
192,192,108212,1,0,0:0:0:0:
64,192,108521,1,0,0:0:0:0:
192,192,108873,1,0,0:0:0:0:
320,192,108918,1,0,0:0:0:0:
448,192,109226,1,0,0:0:0:0:
64,192,109579,128,0,109844:0:0:0:0:
192,192,109579,1,0,0:0:0:0:
320,192,109623,1,0,0:0:0:0:
448,192,109668,1,0,0:0:0:0:
192,192,109932,128,0,110197:0:0:0:0:
320,192,109932,1,0,0:0:0:0:
64,192,110285,128,0,110550:0:0:0:0:
448,192,110285,1,0,0:0:0:0:
192,192,110638,128,0,110903:0:0:0:0:
320,192,110638,1,0,0:0:0:0:
192,192,110991,1,0,0:0:0:0:
64,192,110991,128,0,111256:0:0:0:0:
448,192,111035,1,0,0:0:0:0:
320,192,111079,1,0,0:0:0:0:
320,192,111344,128,0,111609:0:0:0:0:
192,192,111344,1,0,0:0:0:0:
448,192,111697,128,0,111962:0:0:0:0:
64,192,111697,1,0,0:0:0:0:
320,192,112050,1,0,0:0:0:0:
64,192,112403,1,0,0:0:0:0:
320,192,112447,1,0,0:0:0:0:
448,192,112491,1,0,0:0:0:0:
192,192,112756,1,0,0:0:0:0:
448,192,113109,1,0,0:0:0:0:
320,192,113462,1,0,0:0:0:0:
192,192,113815,1,0,0:0:0:0:
448,192,113859,1,0,0:0:0:0:
64,192,114168,1,0,0:0:0:0:
320,192,114521,1,0,0:0:0:0:
192,192,114697,1,2,0:0:0:0:
64,192,114697,1,0,0:0:0:0:
448,192,114873,1,0,0:0:0:70:LR4_SnareBPDT.wav
64,192,114873,1,0,0:0:0:0:
320,192,114873,1,0,0:0:0:0:
192,192,115050,1,2,0:0:0:0:
320,192,115050,1,4,0:0:0:0:
448,192,115050,1,0,0:0:0:0:
64,192,115226,128,0,115403:0:0:0:0:
192,192,115315,128,0,115403:0:0:0:0:
