osu file format v14

[General]
AudioFilename: audio.mp3
AudioLeadIn: 0
PreviewTime: 81256
Countdown: 0
SampleSet: Soft
StackLeniency: 0.7
Mode: 3
LetterboxInBreaks: 0
SpecialStyle: 0
WidescreenStoryboard: 1

[Editor]
DistanceSpacing: 0.8
BeatDivisor: 4
GridSize: 4
TimelineZoom: 2.899999

[Metadata]
Title:Bye or not
TitleUnicode:Bye or not
Artist:PSYQUI feat. mikanzil
ArtistUnicode:PSYQUI feat. mikanzil
Creator:Scotty
Version:ADVANCED
Source:SOUND VOLTEX VIVID WAVE
Tags:famoss sdvx v 5 electronic bemani konami
BeatmapID:2182135
BeatmapSetID:1043170

[Difficulty]
HPDrainRate:7.5
CircleSize:4
OverallDifficulty:7.5
ApproachRate:5
SliderMultiplier:1.4
SliderTickRate:1

[Events]
//Background and Video events
0,0,"a.jpg",0,0
//Break Periods
//Storyboard Layer 0 (Background)
//Storyboard Layer 1 (Fail)
//Storyboard Layer 2 (Pass)
//Storyboard Layer 3 (Foreground)
//Storyboard Layer 4 (Overlay)
//Storyboard Sound Samples
Sample,13403,0,"Clap.wav",50
Sample,14815,0,"Clap.wav",50
Sample,16226,0,"Clap.wav",50
Sample,17638,0,"Clap.wav",50
Sample,18344,0,"Clap.wav",60
Sample,19050,0,"Clap.wav",60
Sample,19756,0,"Clap.wav",60
Sample,20462,0,"Clap.wav",60
Sample,20903,0,"Clap1.wav",70
Sample,21168,0,"Clap.wav",70
Sample,21609,0,"Clap1.wav",70
Sample,21873,0,"Clap.wav",70
Sample,21873,0,"LR_Snare Drum .wav",70
Sample,26285,0,"push_scratch.wav",70
Sample,47462,0,"push_scratch.wav",70
Sample,48168,0,"LR_Snare Drum 3.wav",70
Sample,49579,0,"LR_Snare Drum 3.wav",70
Sample,49756,0,"LR_Snare Drum 3.wav",70
Sample,50991,0,"LR_Tom Normal.wav",70
Sample,53815,0,"LR_Snare Drum 3.wav",70
Sample,55226,0,"LR_Snare Drum 3.wav",70
Sample,55403,0,"LR_Snare Drum 3.wav",70
Sample,71285,0,"Clap.wav",50
Sample,72697,0,"Clap.wav",50
Sample,74109,0,"Clap.wav",50
Sample,75521,0,"Clap.wav",50
Sample,76226,0,"Clap.wav",60
Sample,76932,0,"Clap.wav",60
Sample,77638,0,"Clap.wav",60
Sample,78344,0,"Clap.wav",60
Sample,78785,0,"Clap1.wav",70
Sample,79050,0,"Clap.wav",70
Sample,79491,0,"Clap1.wav",70
Sample,79756,0,"LR_Snare Drum .wav",70
Sample,79756,0,"Clap.wav",70
Sample,92991,0,"push_scratch.wav",70

[TimingPoints]
874,352.941176470588,4,2,1,30,1,0
12168,-100,4,2,1,40,0,0
23462,-100,4,2,1,50,0,0
58756,-100,4,2,1,30,0,0
70050,-100,4,2,1,40,0,0
81344,-100,4,2,1,50,0,1
103932,-100,4,2,1,30,0,0

[HitObjects]
64,192,873,5,2,0:0:0:0:
448,192,873,1,0,0:0:0:0:
320,192,1226,1,0,0:0:0:0:
192,192,1579,1,0,0:0:0:0:
64,192,1932,1,0,0:0:0:0:
448,192,2285,1,0,0:0:0:0:
320,192,2638,1,0,0:0:0:0:
192,192,2991,1,0,0:0:0:0:
64,192,3344,1,0,0:0:0:0:
320,192,3697,1,0,0:0:0:0:
64,192,4050,1,0,0:0:0:0:
448,192,4403,1,0,0:0:0:0:
192,192,4756,1,0,0:0:0:0:
320,192,5109,1,0,0:0:0:0:
64,192,5462,1,0,0:0:0:0:
192,192,5815,1,0,0:0:0:0:
320,192,6168,1,0,0:0:0:0:
448,192,6521,1,0,0:0:0:0:
64,192,6873,1,0,0:0:0:0:
320,192,7226,1,0,0:0:0:0:
192,192,7579,1,0,0:0:0:0:
448,192,7932,1,0,0:0:0:0:
64,192,8285,1,0,0:0:0:0:
320,192,8638,1,0,0:0:0:0:
448,192,8991,1,0,0:0:0:0:
64,192,9344,1,0,0:0:0:0:
320,192,9697,1,0,0:0:0:0:
192,192,10050,1,0,0:0:0:0:
448,192,10403,1,0,0:0:0:0:
64,192,10756,1,0,0:0:0:0:
320,192,11109,1,0,0:0:0:0:
448,192,11462,1,0,0:0:0:0:
320,192,11815,1,0,0:0:0:0:
192,192,12168,1,2,0:0:0:0:
64,192,12168,1,0,0:0:0:50:LR_Snare Drum .wav
192,192,12344,1,0,0:0:0:50:LR_Snare Drum 3.wav
448,192,12521,1,0,0:0:0:50:LR_Snare Drum .wav
64,192,12521,1,0,0:0:0:0:
448,192,12697,1,0,0:0:0:50:LR_Snare Drum 3.wav
192,192,12873,1,0,0:0:0:50:LR_Snare Drum .wav
64,192,12873,1,0,0:0:0:0:
448,192,13050,1,0,0:0:0:50:LR_Snare Drum 3.wav
192,192,13138,1,0,0:0:0:50:Clap1.wav
64,192,13138,1,0,0:0:0:0:
320,192,13226,1,0,0:0:0:50:LR_Snare Drum .wav
448,192,13226,1,0,0:0:0:0:
320,192,13403,1,0,0:0:0:50:LR_Snare Drum 3.wav
192,192,13579,1,0,0:0:0:50:LR_Snare Drum .wav
64,192,13579,1,0,0:0:0:0:
448,192,13756,1,0,0:0:0:50:LR_Snare Drum 3.wav
64,192,13756,1,0,0:0:0:0:
192,192,13844,1,0,0:0:0:0:
320,192,13932,1,0,0:0:0:50:LR_Snare Drum .wav
448,192,13932,1,0,0:0:0:0:
320,192,14109,1,0,0:0:0:50:LR_Snare Drum 3.wav
192,192,14285,1,0,0:0:0:50:LR_Snare Drum .wav
448,192,14285,1,0,0:0:0:0:
64,192,14462,1,0,0:0:0:50:LR_Snare Drum 3.wav
320,192,14550,1,0,0:0:0:50:Clap1.wav
448,192,14550,1,0,0:0:0:0:
192,192,14638,1,0,0:0:0:50:LR_Snare Drum .wav
64,192,14638,1,0,0:0:0:0:
192,192,14815,1,0,0:0:0:50:LR_Snare Drum 3.wav
320,192,14991,1,0,0:0:0:50:LR_Snare Drum .wav
448,192,14991,1,0,0:0:0:0:
320,192,15168,1,0,0:0:0:50:LR_Snare Drum 3.wav
64,192,15344,1,0,0:0:0:50:LR_Snare Drum .wav
448,192,15344,1,0,0:0:0:0:
64,192,15521,1,0,0:0:0:50:LR_Snare Drum 3.wav
448,192,15697,1,0,0:0:0:50:LR_Snare Drum .wav
320,192,15697,1,0,0:0:0:0:
64,192,15873,1,0,0:0:0:50:LR_Snare Drum 3.wav
320,192,15962,1,0,0:0:0:50:Clap1.wav
448,192,15962,1,0,0:0:0:0:
192,192,16050,1,0,0:0:0:50:LR_Snare Drum .wav
64,192,16050,1,0,0:0:0:0:
192,192,16226,1,0,0:0:0:50:LR_Snare Drum 3.wav
448,192,16403,1,0,0:0:0:50:LR_Snare Drum .wav
320,192,16403,1,0,0:0:0:0:
192,192,16579,1,0,0:0:0:50:LR_Snare Drum 3.wav
448,192,16579,1,0,0:0:0:0:
320,192,16668,1,0,0:0:0:0:
64,192,16756,1,0,0:0:0:50:LR_Snare Drum .wav
192,192,16756,1,0,0:0:0:0:
448,192,16932,1,0,0:0:0:50:LR_Snare Drum 3.wav
192,192,17109,1,0,0:0:0:50:LR_Snare Drum .wav
64,192,17109,1,0,0:0:0:0:
448,192,17285,1,0,0:0:0:50:LR_Snare Drum 3.wav
192,192,17373,1,0,0:0:0:50:Clap1.wav
64,192,17373,1,0,0:0:0:0:
320,192,17462,1,0,0:0:0:50:LR_Snare Drum .wav
448,192,17462,1,0,0:0:0:0:
320,192,17638,1,0,0:0:0:50:LR_Snare Drum 3.wav
64,192,17815,1,0,0:0:0:60:LR_Snare Drum .wav
192,192,17815,1,0,0:0:0:0:
448,192,17991,1,0,0:0:0:60:LR_Snare Drum 3.wav
192,192,18079,1,0,0:0:0:60:Clap1.wav
64,192,18079,1,0,0:0:0:0:
320,192,18168,1,0,0:0:0:60:LR_Snare Drum .wav
448,192,18168,1,0,0:0:0:0:
64,192,18344,1,0,0:0:0:60:LR_Snare Drum 3.wav
448,192,18521,1,0,0:0:0:60:LR_Snare Drum .wav
320,192,18521,1,0,0:0:0:0:
64,192,18697,1,0,0:0:0:60:LR_Snare Drum 3.wav
320,192,18785,1,0,0:0:0:60:Clap1.wav
448,192,18785,1,0,0:0:0:0:
192,192,18873,1,0,0:0:0:60:LR_Snare Drum .wav
64,192,18873,1,0,0:0:0:0:
448,192,19050,1,0,0:0:0:60:LR_Snare Drum 3.wav
192,192,19226,1,0,0:0:0:60:LR_Snare Drum .wav
64,192,19226,1,0,0:0:0:0:
448,192,19315,1,0,0:0:0:0:
64,192,19403,1,0,0:0:0:60:LR_Snare Drum 3.wav
192,192,19491,1,0,0:0:0:60:Clap1.wav
320,192,19579,1,0,0:0:0:60:LR_Snare Drum .wav
448,192,19579,1,0,0:0:0:0:
64,192,19668,1,0,0:0:0:0:
448,192,19756,1,0,0:0:0:60:LR_Snare Drum 3.wav
320,192,19844,1,0,0:0:0:0:
192,192,19932,1,0,0:0:0:60:LR_Snare Drum .wav
64,192,19932,1,0,0:0:0:0:
448,192,20021,1,0,0:0:0:0:
192,192,20109,1,0,0:0:0:60:LR_Snare Drum 3.wav
64,192,20197,1,0,0:0:0:60:Clap1.wav
320,192,20285,1,0,0:0:0:60:LR_Snare Drum .wav
448,192,20285,1,0,0:0:0:0:
192,192,20373,1,0,0:0:0:0:
64,192,20462,1,0,0:0:0:60:LR_Snare Drum 3.wav
448,192,20550,1,0,0:0:0:0:
192,192,20638,1,0,0:0:0:70:LR_Snare Drum .wav
320,192,20726,1,0,0:0:0:70:LR_Snare Drum 3.wav
192,192,20815,1,0,0:0:0:70:LR_Snare Drum 3.wav
320,192,20903,1,0,0:0:0:70:LR_Snare Drum 3.wav
64,192,20991,1,0,0:0:0:70:LR_Snare Drum .wav
448,192,21079,1,0,0:0:0:70:LR_Snare Drum 3.wav
64,192,21168,1,0,0:0:0:70:LR_Snare Drum .wav
448,192,21256,1,0,0:0:0:70:LR_Snare Drum 3.wav
192,192,21344,1,0,0:0:0:70:LR_Snare Drum .wav
64,192,21432,1,0,0:0:0:70:LR_Snare Drum 3.wav
320,192,21521,1,0,0:0:0:70:LR_Snare Drum .wav
192,192,21609,1,0,0:0:0:70:LR_Snare Drum 3.wav
448,192,21697,1,0,0:0:0:70:LR_Snare Drum .wav
64,192,21785,1,0,0:0:0:70:LR_Snare Drum 3.wav
192,192,21873,1,2,0:0:0:0:
320,192,21962,1,0,0:0:0:70:LR_Snare Drum 3.wav
448,192,22050,1,2,0:0:0:0:
192,192,22050,1,4,0:0:0:0:
64,192,22050,128,0,22226:0:0:0:0:
192,192,22403,1,0,0:0:0:70:LR_Drum Rpd x2.wav
448,192,22403,1,0,0:0:0:0:
320,192,22668,1,0,0:0:0:70:LR_Drum Rpd x2.wav
64,192,22756,1,0,0:0:0:0:
320,192,22844,1,0,0:0:0:70:LR_Snare Drum 3.wav
192,192,22932,1,0,0:0:0:70:LR_Drum Rpd x2.wav
448,192,23109,1,0,0:0:0:70:LR_Drum Rpd x2.wav
64,192,23197,1,0,0:0:0:70:LR_Drum Rpd x2.wav
448,192,23285,1,0,0:0:0:70:LR_Drum Rpd x2.wav
64,192,23373,1,0,0:0:0:0:
448,192,23462,1,2,0:0:0:0:
320,192,23462,1,0,0:0:0:0:
192,192,23638,1,0,0:0:0:0:
64,192,23726,128,0,23815:0:0:0:0:
448,192,23815,1,0,0:0:0:0:
192,192,23903,1,0,0:0:0:0:
320,192,23991,128,0,24079:0:0:0:0:
448,192,24079,1,0,0:0:0:0:
192,192,24168,128,0,24256:0:0:0:0:
64,192,24256,128,0,24432:0:0:0:0:
448,192,24432,128,0,24521:0:0:0:0:
192,192,24521,1,0,0:0:0:70:LR4_SnareBPDT.wav
64,192,24521,1,0,0:0:0:0:
320,192,24521,128,0,24873:0:0:0:0:
64,192,24873,128,4,25226:0:0:0:0:
448,192,24873,128,2,25050:0:0:0:0:
192,192,24873,1,0,0:0:0:0:
448,192,25226,1,0,0:0:0:0:
192,192,25403,128,0,25579:0:0:0:0:
64,192,25579,128,2,25756:0:0:0:0:
448,192,25579,128,0,25756:0:0:0:0:
448,192,25844,128,2,26021:0:0:0:0:
64,192,25844,128,0,26021:0:0:0:0:
64,192,26109,128,2,26285:0:0:0:0:
448,192,26109,128,0,26285:0:0:0:0:
192,192,26285,1,2,0:0:0:0:
320,192,26285,1,4,0:0:0:0:
64,192,26462,1,0,0:0:0:0:
192,192,26550,1,0,0:0:0:0:
448,192,26638,1,8,0:0:0:0:
320,192,26638,1,0,0:0:0:0:
448,192,26815,1,0,0:0:0:0:
64,192,26991,128,2,27168:0:0:0:0:
192,192,26991,1,0,0:0:0:0:
320,192,27256,1,2,0:0:0:0:
64,192,27344,1,8,0:0:0:0:
448,192,27344,1,0,0:0:0:0:
192,192,27521,128,2,27697:0:0:0:0:
320,192,27697,128,2,27873:0:0:0:0:
448,192,27697,128,0,27873:0:0:0:0:
320,192,28050,128,8,28226:0:0:0:0:
448,192,28050,128,0,28226:0:0:0:0:
320,192,28403,128,2,28579:0:0:0:0:
448,192,28403,128,0,28579:0:0:0:0:
192,192,28668,1,2,0:0:0:0:
64,192,28756,1,8,0:0:0:0:
448,192,28756,1,0,0:0:0:0:
320,192,28932,1,2,0:0:0:0:
320,192,29109,1,2,0:0:0:0:
64,192,29285,1,0,0:0:0:0:
192,192,29373,1,0,0:0:0:0:
320,192,29462,1,8,0:0:0:0:
448,192,29462,1,0,0:0:0:0:
64,192,29638,128,0,29815:0:0:0:0:
448,192,29815,1,2,0:0:0:0:
320,192,29903,1,0,0:0:0:0:
64,192,29991,1,0,0:0:0:0:
192,192,30079,1,2,0:0:0:0:
320,192,30168,1,8,0:0:0:0:
448,192,30168,1,0,0:0:0:0:
192,192,30344,128,2,30521:0:0:0:0:
64,192,30521,128,2,30697:0:0:0:0:
320,192,30521,128,0,30697:0:0:0:0:
64,192,30873,128,8,31050:0:0:0:0:
320,192,30873,128,0,31050:0:0:0:0:
320,192,31226,128,2,31403:0:0:0:0:
64,192,31226,128,0,31403:0:0:0:0:
192,192,31491,1,2,0:0:0:0:
448,192,31579,1,8,0:0:0:0:
320,192,31579,1,0,0:0:0:0:
64,192,31756,1,2,0:0:0:0:
64,192,31932,1,2,0:0:0:0:
448,192,32109,128,0,32197:0:0:0:0:
448,192,32285,128,8,32373:0:0:0:0:
192,192,32285,1,0,0:0:0:0:
64,192,32462,1,0,0:0:0:0:
192,192,32550,1,0,0:0:0:0:
448,192,32638,128,2,32815:0:0:0:0:
320,192,32638,128,0,32815:0:0:0:0:
64,192,32903,1,2,0:0:0:0:
448,192,32991,128,8,33079:0:0:0:0:
320,192,32991,128,0,33079:0:0:0:0:
448,192,33168,128,2,33344:0:0:0:0:
320,192,33168,128,0,33344:0:0:0:0:
64,192,33344,128,2,33521:0:0:0:0:
192,192,33344,128,0,33521:0:0:0:0:
64,192,33697,128,8,33873:0:0:0:0:
192,192,33697,128,0,33873:0:0:0:0:
64,192,34050,128,2,34226:0:0:0:0:
192,192,34050,128,0,34226:0:0:0:0:
320,192,34315,1,2,0:0:0:0:
64,192,34403,1,8,0:0:0:0:
448,192,34403,1,0,0:0:0:0:
192,192,34579,1,2,0:0:0:0:
320,192,34756,1,2,0:0:0:0:
448,192,34756,1,4,0:0:0:0:
64,192,34756,1,0,0:0:0:0:
192,192,34932,1,0,0:0:0:0:
192,192,35109,1,8,0:0:0:0:
448,192,35109,1,0,0:0:0:0:
192,192,35285,128,0,35462:0:0:0:0:
448,192,35462,128,2,35638:0:0:0:0:
320,192,35462,1,0,0:0:0:0:
64,192,35726,1,2,0:0:0:0:
448,192,35815,128,8,35991:0:0:0:0:
192,192,35815,1,0,0:0:0:0:
64,192,35991,1,2,0:0:0:0:
320,192,36168,128,0,36256:0:0:0:0:
192,192,36344,1,2,0:0:0:0:
320,192,36521,1,2,0:0:0:0:
448,192,36521,1,4,0:0:0:0:
64,192,36521,128,0,36697:0:0:0:70:push_scratch.wav
192,192,36697,1,0,0:0:0:0:
320,192,36873,1,2,0:0:0:0:
64,192,36873,128,0,37050:0:0:0:0:
448,192,37138,1,2,0:0:0:0:
64,192,37226,128,8,37403:0:0:0:0:
192,192,37226,1,0,0:0:0:0:
320,192,37403,1,2,0:0:0:0:
320,192,37579,128,2,37668:0:0:0:0:
448,192,37579,1,0,0:0:0:0:
64,192,37756,128,0,37844:0:0:0:0:
448,192,37932,128,8,38021:0:0:0:0:
192,192,37932,1,0,0:0:0:0:
320,192,38109,128,0,38197:0:0:0:0:
64,192,38285,128,2,38462:0:0:0:0:
448,192,38285,1,0,0:0:0:0:
320,192,38550,1,2,0:0:0:0:
64,192,38638,128,8,38815:0:0:0:0:
192,192,38638,1,0,0:0:0:0:
448,192,38815,1,2,0:0:0:0:
448,192,38991,128,2,39168:0:0:0:0:
64,192,38991,1,0,0:0:0:0:
192,192,39168,1,0,0:0:0:0:
448,192,39344,128,8,39521:0:0:0:0:
320,192,39344,1,0,0:0:0:0:
64,192,39521,1,0,0:0:0:0:
448,192,39697,128,2,39873:0:0:0:0:
192,192,39697,1,0,0:0:0:0:
64,192,39962,1,2,0:0:0:0:
192,192,40050,1,8,0:0:0:0:
320,192,40050,1,0,0:0:0:0:
448,192,40226,1,2,0:0:0:0:
448,192,40403,1,2,0:0:0:0:
64,192,40579,1,0,0:0:0:0:
192,192,40668,1,0,0:0:0:0:
320,192,40756,1,8,0:0:0:0:
448,192,40756,1,0,0:0:0:0:
192,192,40932,1,0,0:0:0:0:
320,192,41021,1,0,0:0:0:0:
64,192,41109,1,2,0:0:0:0:
192,192,41197,1,0,0:0:0:0:
448,192,41285,1,0,0:0:0:0:
320,192,41373,1,2,0:0:0:0:
64,192,41462,1,8,0:0:0:0:
192,192,41462,1,0,0:0:0:0:
448,192,41550,1,0,0:0:0:0:
192,192,41638,1,2,0:0:0:0:
64,192,41815,128,2,41991:0:0:0:0:
320,192,41815,1,0,0:0:0:0:
448,192,41991,1,0,0:0:0:0:
64,192,42168,128,8,42344:0:0:0:0:
192,192,42168,1,0,0:0:0:0:
448,192,42344,1,0,0:0:0:0:
64,192,42521,128,2,42697:0:0:0:0:
320,192,42521,1,0,0:0:0:0:
192,192,42785,1,2,0:0:0:0:
448,192,42873,1,8,0:0:0:0:
64,192,42873,1,0,0:0:0:0:
320,192,43050,1,2,0:0:0:0:
320,192,43226,1,2,0:0:0:0:
64,192,43403,128,0,43491:0:0:0:0:
64,192,43579,128,8,43668:0:0:0:0:
320,192,43579,1,0,0:0:0:0:
448,192,43756,1,0,0:0:0:0:
320,192,43844,1,0,0:0:0:0:
192,192,43932,128,2,44109:0:0:0:0:
64,192,43932,1,0,0:0:0:0:
64,192,44197,1,2,0:0:0:0:
192,192,44285,128,8,44462:0:0:0:0:
448,192,44285,1,0,0:0:0:0:
448,192,44462,1,2,0:0:0:0:
192,192,44550,128,0,44638:0:0:0:0:
320,192,44638,128,2,44815:0:0:0:0:
448,192,44638,128,0,44991:0:0:0:0:
192,192,44991,1,0,0:0:0:70:LR4_SnareBPDT.wav
320,192,44991,1,0,0:0:0:0:
64,192,45079,128,0,45256:0:0:0:0:
320,192,45256,128,2,45344:0:0:0:0:
448,192,45256,128,4,45344:0:0:0:0:
320,192,45521,128,2,45609:0:0:0:0:
448,192,45521,128,4,45609:0:0:0:0:
192,192,45697,1,0,0:0:0:0:
64,192,45873,1,0,0:0:0:0:
320,192,46050,1,2,0:0:0:0:
192,192,46050,1,4,0:0:0:0:
448,192,46050,1,0,0:0:0:0:
64,192,46226,128,0,46403:0:0:0:0:
320,192,46403,128,0,46491:0:0:0:0:
192,192,46579,128,0,46756:0:0:0:0:
448,192,46756,128,0,47109:0:0:0:0:
64,192,46756,128,0,46844:0:0:0:0:
64,192,47109,1,0,0:0:0:0:
320,192,47197,1,0,0:0:0:0:
192,192,47285,128,0,47462:0:0:0:0:
448,192,47462,1,2,0:0:0:0:
64,192,47462,128,4,47815:0:0:0:0:
320,192,47638,128,0,47815:0:0:0:70:LR_Snare Drum 2.wav
448,192,47815,128,2,48168:0:0:0:0:
192,192,47815,1,0,0:0:0:0:
320,192,47991,128,0,48168:0:0:0:70:LR_Snare Drum 2.wav
64,192,48168,1,0,0:0:0:70:LR_Tom Normal.wav
192,192,48256,1,0,0:0:0:70:LR_Snare Drum 3.wav
448,192,48344,1,0,0:0:0:70:LR_Snare Drum 3.wav
320,192,48432,1,0,0:0:0:70:LR_Snare Drum 3.wav
192,192,48521,1,0,0:0:0:70:LR_Snare Drum 2.wav
64,192,48521,1,0,0:0:0:0:
448,192,48697,128,4,49050:0:0:0:0:
320,192,48697,1,2,0:0:0:0:
192,192,48873,128,0,48962:0:0:0:70:LR_Snare Drum 2.wav
192,192,49050,128,0,49138:0:0:0:70:LR_Snare Drum 2.wav
448,192,49226,128,4,49579:0:0:0:0:
64,192,49226,1,2,0:0:0:0:
320,192,49403,128,0,49579:0:0:0:70:LR_Snare Drum 2.wav
192,192,49579,1,0,0:0:0:70:LR_Tom Normal.wav
64,192,49756,128,2,50109:0:0:0:0:
448,192,49756,1,4,0:0:0:0:
192,192,49932,128,0,50109:0:0:0:70:LR_Snare Drum 2.wav
448,192,50109,128,4,50462:0:0:0:0:
320,192,50109,1,2,0:0:0:0:
192,192,50285,128,0,50462:0:0:0:70:LR_Snare Drum 2.wav
64,192,50462,1,0,0:0:0:70:LR_Snare Drum 3.wav
192,192,50638,128,4,50991:0:0:0:0:
448,192,50638,1,2,0:0:0:0:
320,192,50815,128,0,50991:0:0:0:70:LR_Snare Drum 2.wav
448,192,50991,1,0,0:0:0:70:LR_Snare Drum 3.wav
64,192,51079,1,0,0:0:0:70:LR_Snare Drum 3.wav
320,192,51168,1,0,0:0:0:70:LR_Snare Drum 3.wav
192,192,51256,1,0,0:0:0:70:LR_Snare Drum 3.wav
448,192,51344,128,0,51432:0:0:0:70:LR_Snare Drum 2.wav
192,192,51521,128,0,51609:0:0:0:0:
448,192,51697,128,2,52050:0:0:0:0:
64,192,51697,1,4,0:0:0:0:
320,192,51873,128,0,52050:0:0:0:70:LR_Snare Drum 2.wav
192,192,52050,128,2,52403:0:0:0:0:
64,192,52050,1,4,0:0:0:0:
320,192,52226,128,0,52403:0:0:0:70:LR_Snare Drum 2.wav
64,192,52403,128,0,52756:0:0:0:70:LR_Snare Drum 3.wav
448,192,52403,1,6,0:0:0:0:
192,192,52579,128,0,52756:0:0:0:70:LR_Snare Drum 3.wav
448,192,52756,128,4,53109:0:0:0:0:
320,192,52756,1,2,0:0:0:0:
64,192,52932,128,0,53109:0:0:0:70:LR_Snare Drum 2.wav
320,192,53109,128,2,53462:0:0:0:0:
192,192,53109,1,4,0:0:0:0:
64,192,53285,128,0,53462:0:0:0:70:LR_Snare Drum 2.wav
448,192,53462,128,2,53815:0:0:0:0:
192,192,53462,1,4,0:0:0:0:
320,192,53638,128,0,53815:0:0:0:70:LR_Snare Drum 2.wav
64,192,53815,1,0,0:0:0:70:LR_Tom Normal.wav
192,192,53903,1,0,0:0:0:70:LR_Snare Drum 3.wav
448,192,53991,1,0,0:0:0:70:LR_Snare Drum 3.wav
64,192,54079,1,0,0:0:0:70:LR_Snare Drum 3.wav
320,192,54168,1,0,0:0:0:70:LR_Snare Drum 2.wav
64,192,54344,128,4,54697:0:0:0:0:
448,192,54344,1,2,0:0:0:0:
320,192,54521,128,0,54609:0:0:0:70:LR_Snare Drum 2.wav
320,192,54697,128,0,54785:0:0:0:70:LR_Snare Drum 2.wav
448,192,54873,128,4,55226:0:0:0:0:
192,192,54873,1,2,0:0:0:0:
320,192,55050,128,0,55226:0:0:0:70:LR_Snare Drum 2.wav
64,192,55226,1,0,0:0:0:70:LR_Tom Normal.wav
192,192,55403,128,2,55756:0:0:0:0:
448,192,55403,1,4,0:0:0:0:
320,192,55579,128,0,55756:0:0:0:70:LR_Snare Drum 2.wav
64,192,55756,128,4,55932:0:0:0:0:
448,192,55756,1,2,0:0:0:0:
192,192,55844,128,0,55932:0:0:0:0:
64,192,56021,128,4,56197:0:0:0:0:
448,192,56021,1,2,0:0:0:0:
192,192,56109,128,0,56197:0:0:0:0:
192,192,56462,1,0,0:0:0:0:
320,192,56550,1,0,0:0:0:0:
448,192,56638,128,0,56726:0:0:0:0:
64,192,56726,128,0,56815:0:0:0:0:
192,192,56815,1,0,0:0:0:0:
320,192,56903,1,0,0:0:0:0:
64,192,56991,1,0,0:0:0:0:
192,192,57168,1,2,0:0:0:0:
448,192,57168,128,4,57521:0:0:0:0:
64,192,57344,128,0,57432:0:0:0:0:
64,192,57521,128,0,57609:0:0:0:70:LR_Snare Drum 2.wav
448,192,57697,1,2,0:0:0:0:
320,192,57697,128,4,58050:0:0:0:0:
192,192,57873,128,0,58050:0:0:0:0:
448,192,58050,128,4,58403:0:0:0:0:
64,192,58050,1,2,0:0:0:0:
192,192,58226,128,0,58403:0:0:0:0:
320,192,58403,1,4,0:0:0:0:
64,192,58403,128,2,58756:0:0:0:0:
192,192,58579,128,0,58756:0:0:0:0:
320,192,58756,1,0,0:0:0:70:push_scratch.wav
448,192,58756,128,0,58932:0:0:0:50:LR_Snare Drum .wav
320,192,59109,128,0,59285:0:0:0:50:LR_Snare Drum 3.wav
64,192,59109,1,0,0:0:0:0:
448,192,59462,128,0,59638:0:0:0:50:LR_Snare Drum .wav
320,192,59462,1,0,0:0:0:0:
320,192,59815,128,0,59991:0:0:0:50:LR_Snare Drum 3.wav
64,192,59815,1,0,0:0:0:0:
448,192,60168,128,0,60344:0:0:0:50:LR_Snare Drum .wav
320,192,60168,1,0,0:0:0:0:
192,192,60521,128,0,60697:0:0:0:50:LR_Snare Drum 3.wav
448,192,60521,1,0,0:0:0:0:
320,192,60873,128,0,61226:0:0:0:50:LR_Snare Drum .wav
192,192,60873,1,0,0:0:0:0:
64,192,61226,1,0,0:0:0:50:LR_Snare Drum 3.wav
448,192,61226,1,0,0:0:0:0:
64,192,61579,128,0,61756:0:0:0:50:LR_Snare Drum .wav
192,192,61579,1,0,0:0:0:0:
64,192,61932,128,0,62109:0:0:0:50:LR_Snare Drum 3.wav
448,192,61932,1,0,0:0:0:0:
64,192,62285,128,0,62462:0:0:0:50:LR_Snare Drum .wav
192,192,62285,1,0,0:0:0:0:
448,192,62638,128,0,62815:0:0:0:50:LR_Snare Drum 3.wav
192,192,62638,1,0,0:0:0:0:
64,192,62991,128,0,63168:0:0:0:50:LR_Snare Drum .wav
192,192,62991,1,0,0:0:0:0:
448,192,63344,128,0,63521:0:0:0:50:LR_Snare Drum 3.wav
64,192,63344,1,0,0:0:0:0:
192,192,63697,128,0,63873:0:0:0:50:LR_Snare Drum .wav
64,192,63697,1,0,0:0:0:0:
320,192,63873,128,0,64050:0:0:0:0:
64,192,64050,128,0,64403:0:0:0:50:LR_Snare Drum 3.wav
448,192,64050,1,0,0:0:0:0:
448,192,64403,128,0,64579:0:0:0:50:LR_Snare Drum .wav
320,192,64403,1,0,0:0:0:0:
320,192,64756,128,0,64932:0:0:0:50:LR_Snare Drum 3.wav
64,192,64756,1,0,0:0:0:0:
448,192,65109,128,0,65285:0:0:0:50:LR_Snare Drum .wav
320,192,65109,1,0,0:0:0:0:
320,192,65462,128,0,65638:0:0:0:50:LR_Snare Drum 3.wav
64,192,65462,1,0,0:0:0:0:
448,192,65815,128,0,65991:0:0:0:50:LR_Snare Drum .wav
320,192,65815,1,0,0:0:0:0:
320,192,66168,128,0,66344:0:0:0:50:LR_Snare Drum 3.wav
64,192,66168,1,0,0:0:0:0:
192,192,66521,128,0,66873:0:0:0:50:LR_Snare Drum .wav
320,192,66521,1,0,0:0:0:0:
448,192,66873,1,0,0:0:0:50:LR_Snare Drum 3.wav
64,192,66873,1,0,0:0:0:0:
64,192,67226,128,0,67403:0:0:0:50:LR_Snare Drum .wav
192,192,67226,1,0,0:0:0:0:
64,192,67579,128,0,67756:0:0:0:50:LR_Snare Drum 3.wav
320,192,67579,1,0,0:0:0:0:
64,192,67932,128,0,68109:0:0:0:50:LR_Snare Drum .wav
192,192,67932,1,0,0:0:0:0:
64,192,68285,128,0,68462:0:0:0:50:LR_Snare Drum 3.wav
320,192,68285,1,0,0:0:0:0:
192,192,68638,128,0,68815:0:0:0:50:LR_Snare Drum .wav
64,192,68638,1,0,0:0:0:0:
448,192,68991,128,0,69168:0:0:0:50:LR_Snare Drum 3.wav
192,192,68991,1,0,0:0:0:0:
320,192,69344,128,0,69521:0:0:0:50:LR_Snare Drum .wav
448,192,69344,1,0,0:0:0:0:
192,192,69697,128,0,70050:0:0:0:50:LR_Snare Drum 3.wav
448,192,69697,1,0,0:0:0:0:
448,192,70050,1,2,0:0:0:0:
320,192,70050,1,0,0:0:0:50:LR_Snare Drum .wav
64,192,70050,1,0,0:0:0:0:
64,192,70226,1,0,0:0:0:50:LR_Snare Drum 3.wav
192,192,70403,1,0,0:0:0:50:LR_Snare Drum .wav
448,192,70403,1,0,0:0:0:0:
448,192,70579,1,0,0:0:0:50:LR_Snare Drum 3.wav
64,192,70756,1,0,0:0:0:50:LR_Snare Drum .wav
192,192,70756,1,0,0:0:0:0:
448,192,70932,1,0,0:0:0:50:LR_Snare Drum 3.wav
192,192,71021,1,0,0:0:0:50:Clap1.wav
64,192,71021,1,0,0:0:0:0:
320,192,71109,1,0,0:0:0:50:LR_Snare Drum .wav
448,192,71109,1,0,0:0:0:0:
320,192,71285,1,0,0:0:0:50:LR_Snare Drum 3.wav
192,192,71462,1,0,0:0:0:50:LR_Snare Drum .wav
64,192,71462,1,0,0:0:0:0:
320,192,71638,1,0,0:0:0:50:LR_Snare Drum 3.wav
192,192,71726,1,0,0:0:0:0:
448,192,71815,1,0,0:0:0:50:LR_Snare Drum .wav
64,192,71815,1,0,0:0:0:0:
448,192,71991,1,0,0:0:0:50:LR_Snare Drum 3.wav
192,192,72168,1,0,0:0:0:50:LR_Snare Drum .wav
64,192,72168,1,0,0:0:0:0:
448,192,72344,1,0,0:0:0:50:LR_Snare Drum 3.wav
64,192,72432,1,0,0:0:0:50:Clap1.wav
192,192,72432,1,0,0:0:0:0:
320,192,72521,1,0,0:0:0:50:LR_Snare Drum .wav
448,192,72521,1,0,0:0:0:0:
320,192,72697,1,0,0:0:0:50:LR_Snare Drum 3.wav
192,192,72873,1,0,0:0:0:50:LR_Snare Drum .wav
64,192,72873,1,0,0:0:0:0:
64,192,73050,1,0,0:0:0:50:LR_Snare Drum 3.wav
448,192,73226,1,0,0:0:0:50:LR_Snare Drum .wav
192,192,73226,1,0,0:0:0:0:
192,192,73403,1,0,0:0:0:50:LR_Snare Drum 3.wav
320,192,73579,1,0,0:0:0:50:LR_Snare Drum .wav
448,192,73579,1,0,0:0:0:0:
64,192,73756,1,0,0:0:0:50:LR_Snare Drum 3.wav
320,192,73844,1,0,0:0:0:50:Clap1.wav
448,192,73844,1,0,0:0:0:0:
192,192,73932,1,0,0:0:0:50:LR_Snare Drum .wav
64,192,73932,1,0,0:0:0:0:
192,192,74109,1,0,0:0:0:50:LR_Snare Drum 3.wav
448,192,74285,1,0,0:0:0:50:LR_Snare Drum .wav
320,192,74285,1,0,0:0:0:0:
320,192,74462,1,0,0:0:0:50:LR_Snare Drum 3.wav
192,192,74550,1,0,0:0:0:0:
64,192,74638,1,0,0:0:0:50:LR_Snare Drum .wav
448,192,74638,1,0,0:0:0:0:
64,192,74815,1,0,0:0:0:50:LR_Snare Drum 3.wav
320,192,74991,1,0,0:0:0:50:LR_Snare Drum .wav
448,192,74991,1,0,0:0:0:0:
64,192,75168,1,0,0:0:0:50:LR_Snare Drum 3.wav
320,192,75256,1,0,0:0:0:50:Clap1.wav
448,192,75256,1,0,0:0:0:0:
192,192,75344,1,0,0:0:0:50:LR_Snare Drum .wav
64,192,75344,1,0,0:0:0:0:
192,192,75521,1,0,0:0:0:50:LR_Snare Drum 3.wav
448,192,75697,1,0,0:0:0:60:LR_Snare Drum .wav
64,192,75697,1,8,0:0:0:0:
320,192,75697,1,0,0:0:0:0:
448,192,75873,1,0,0:0:0:60:LR_Snare Drum 3.wav
320,192,75962,1,0,0:0:0:60:Clap1.wav
192,192,76050,1,0,0:0:0:60:LR_Snare Drum .wav
64,192,76050,1,0,0:0:0:0:
448,192,76226,1,0,0:0:0:60:LR_Snare Drum 3.wav
320,192,76403,1,0,0:0:0:60:LR_Snare Drum .wav
64,192,76403,1,0,0:0:0:0:
448,192,76579,1,0,0:0:0:60:LR_Snare Drum 3.wav
320,192,76668,1,0,0:0:0:60:Clap1.wav
192,192,76756,1,0,0:0:0:60:LR_Snare Drum .wav
64,192,76756,1,0,0:0:0:0:
320,192,76932,1,0,0:0:0:60:LR_Snare Drum 3.wav
192,192,77109,1,0,0:0:0:60:LR_Snare Drum .wav
448,192,77109,1,0,0:0:0:0:
64,192,77285,1,0,0:0:0:60:LR_Snare Drum 3.wav
192,192,77373,1,0,0:0:0:60:Clap1.wav
320,192,77462,1,0,0:0:0:60:LR_Snare Drum .wav
448,192,77462,1,0,0:0:0:0:
192,192,77638,1,0,0:0:0:60:LR_Snare Drum 3.wav
448,192,77726,1,0,0:0:0:0:
64,192,77815,1,0,0:0:0:60:LR_Snare Drum .wav
320,192,77815,1,0,0:0:0:0:
448,192,77991,1,0,0:0:0:60:LR_Snare Drum 3.wav
320,192,78079,1,0,0:0:0:60:Clap1.wav
192,192,78168,1,0,0:0:0:60:LR_Snare Drum .wav
64,192,78168,1,0,0:0:0:0:
448,192,78344,1,0,0:0:0:60:LR_Snare Drum 3.wav
64,192,78432,1,0,0:0:0:0:
192,192,78521,1,0,0:0:0:70:LR_Snare Drum .wav
320,192,78609,1,0,0:0:0:70:LR_Snare Drum 3.wav
192,192,78697,1,0,0:0:0:70:LR_Snare Drum 3.wav
320,192,78785,1,0,0:0:0:70:LR_Snare Drum 3.wav
192,192,78873,1,0,0:0:0:70:LR_Snare Drum .wav
448,192,78962,1,0,0:0:0:70:LR_Snare Drum 3.wav
64,192,79050,1,0,0:0:0:70:LR_Snare Drum .wav
448,192,79138,1,0,0:0:0:70:LR_Snare Drum 3.wav
64,192,79226,1,0,0:0:0:70:LR_Snare Drum .wav
448,192,79315,1,0,0:0:0:70:LR_Snare Drum 3.wav
192,192,79403,1,0,0:0:0:70:LR_Snare Drum .wav
320,192,79491,1,0,0:0:0:70:LR_Snare Drum 3.wav
64,192,79579,1,0,0:0:0:70:LR_Snare Drum .wav
192,192,79668,1,0,0:0:0:70:LR_Snare Drum 3.wav
448,192,79756,128,2,79932:0:0:0:0:
320,192,79844,128,0,79932:0:0:0:70:LR_Snare Drum 3.wav
192,192,79932,1,2,0:0:0:0:
64,192,79932,128,4,80109:0:0:0:0:
448,192,80285,128,0,80462:0:0:0:70:LR_Drum Rpd x2.wav
64,192,80462,1,0,0:0:0:0:
192,192,80550,1,0,0:0:0:70:LR_Drum Rpd x2.wav
320,192,80638,128,0,80726:0:0:0:0:
192,192,80815,128,0,80903:0:0:0:70:LR_Drum Rpd x2.wav
64,192,80991,128,0,81256:0:0:0:70:LR4_SnareBPDT.wav
320,192,80991,1,0,0:0:0:0:
192,192,81168,128,0,81256:0:0:0:0:
64,192,81344,1,4,0:0:0:0:
448,192,81344,1,2,0:0:0:0:
320,192,81344,128,0,81432:0:0:0:70:push_scratch.wav
192,192,81521,1,0,0:0:0:0:
320,192,81609,1,0,0:0:0:0:
448,192,81697,128,8,81785:0:0:0:0:
64,192,81697,1,0,0:0:0:0:
192,192,81873,1,0,0:0:0:0:
320,192,82050,128,2,82138:0:0:0:0:
448,192,82050,1,0,0:0:0:0:
64,192,82226,1,0,0:0:0:0:
320,192,82315,1,0,0:0:0:0:
448,192,82403,1,8,0:0:0:0:
192,192,82403,128,0,82579:0:0:0:0:
64,192,82579,128,0,82668:0:0:0:0:
448,192,82756,1,2,0:0:0:0:
192,192,82844,1,0,0:0:0:0:
64,192,82932,128,0,83021:0:0:0:0:
320,192,83109,128,8,83197:0:0:0:0:
448,192,83109,1,0,0:0:0:0:
64,192,83285,1,0,0:0:0:0:
192,192,83373,1,0,0:0:0:0:
448,192,83462,128,2,83550:0:0:0:0:
320,192,83462,1,0,0:0:0:0:
64,192,83638,1,0,0:0:0:0:
320,192,83726,128,0,83815:0:0:0:0:
448,192,83815,1,0,0:0:0:0:
192,192,83815,1,8,0:0:0:0:
64,192,83903,128,0,83991:0:0:0:0:
320,192,83991,128,0,84079:0:0:0:0:
192,192,84079,128,0,84168:0:0:0:0:
448,192,84168,128,2,84256:0:0:0:0:
64,192,84168,1,0,0:0:0:0:
320,192,84344,1,0,0:0:0:0:
64,192,84432,1,0,0:0:0:0:
192,192,84521,128,8,84609:0:0:0:0:
448,192,84521,1,0,0:0:0:0:
64,192,84697,1,0,0:0:0:0:
320,192,84873,128,2,84962:0:0:0:0:
192,192,84873,1,0,0:0:0:0:
448,192,85050,1,0,0:0:0:0:
64,192,85138,128,0,85226:0:0:0:0:
448,192,85226,1,8,0:0:0:0:
192,192,85226,1,0,0:0:0:0:
320,192,85403,128,0,85579:0:0:0:0:
448,192,85579,128,2,85668:0:0:0:0:
64,192,85579,1,0,0:0:0:0:
320,192,85756,1,0,0:0:0:0:
448,192,85844,1,0,0:0:0:0:
192,192,85932,128,8,86021:0:0:0:0:
64,192,85932,1,0,0:0:0:0:
320,192,86109,1,0,0:0:0:0:
64,192,86285,128,2,86373:0:0:0:0:
448,192,86285,1,0,0:0:0:0:
192,192,86462,1,0,0:0:0:0:
320,192,86550,128,0,86638:0:0:0:0:
64,192,86638,1,8,0:0:0:0:
448,192,86638,1,0,0:0:0:0:
320,192,86815,128,0,86903:0:0:0:0:
64,192,86991,128,2,87079:0:0:0:0:
448,192,86991,1,0,0:0:0:0:
320,192,87168,1,0,0:0:0:0:
64,192,87256,1,0,0:0:0:0:
192,192,87344,128,8,87432:0:0:0:0:
448,192,87344,1,0,0:0:0:0:
64,192,87521,1,0,0:0:0:0:
320,192,87697,128,2,87785:0:0:0:0:
448,192,87697,1,0,0:0:0:0:
64,192,87873,1,0,0:0:0:0:
320,192,87962,1,0,0:0:0:0:
448,192,88050,1,8,0:0:0:0:
192,192,88050,128,0,88226:0:0:0:0:
64,192,88226,128,0,88315:0:0:0:0:
320,192,88403,1,2,0:0:0:0:
192,192,88491,1,0,0:0:0:0:
64,192,88579,128,0,88668:0:0:0:0:
320,192,88756,128,8,88844:0:0:0:0:
448,192,88756,1,0,0:0:0:0:
192,192,88932,1,0,0:0:0:0:
320,192,89021,1,0,0:0:0:0:
448,192,89109,128,2,89197:0:0:0:0:
64,192,89109,1,0,0:0:0:0:
192,192,89285,1,0,0:0:0:0:
320,192,89373,128,0,89462:0:0:0:0:
64,192,89462,1,0,0:0:0:0:
448,192,89462,1,8,0:0:0:0:
192,192,89550,128,0,89638:0:0:0:0:
320,192,89638,128,0,89726:0:0:0:0:
448,192,89726,128,0,89815:0:0:0:0:
64,192,89815,128,2,89903:0:0:0:0:
192,192,89815,1,0,0:0:0:0:
320,192,89991,1,0,0:0:0:0:
64,192,90079,1,0,0:0:0:0:
192,192,90168,128,8,90256:0:0:0:0:
448,192,90168,1,0,0:0:0:0:
320,192,90344,1,0,0:0:0:0:
448,192,90521,128,2,90609:0:0:0:0:
64,192,90521,1,0,0:0:0:0:
192,192,90697,1,0,0:0:0:0:
64,192,90785,128,0,90873:0:0:0:0:
448,192,90873,1,8,0:0:0:0:
320,192,90873,1,0,0:0:0:0:
192,192,91050,128,0,91138:0:0:0:0:
320,192,91138,128,0,91226:0:0:0:0:
448,192,91226,128,2,91315:0:0:0:0:
64,192,91226,1,0,0:0:0:0:
192,192,91403,1,0,0:0:0:0:
320,192,91491,1,0,0:0:0:0:
64,192,91579,128,8,91668:0:0:0:0:
448,192,91579,1,0,0:0:0:0:
320,192,91756,1,0,0:0:0:0:
192,192,91932,128,2,92021:0:0:0:0:
64,192,91932,1,0,0:0:0:0:
320,192,92109,128,0,92197:0:0:0:0:
64,192,92285,128,8,92373:0:0:0:0:
448,192,92285,1,0,0:0:0:0:
192,192,92462,1,0,0:0:0:0:
64,192,92550,1,0,0:0:0:0:
448,192,92638,128,2,92903:0:0:0:0:
320,192,92726,128,0,92903:0:0:0:0:
192,192,92815,128,0,92903:0:0:0:0:
448,192,92991,1,8,0:0:0:0:
64,192,92991,128,4,93079:0:0:0:0:
320,192,93168,1,0,0:0:0:0:
192,192,93256,1,0,0:0:0:0:
64,192,93344,1,2,0:0:0:0:
448,192,93344,128,0,93432:0:0:0:0:
320,192,93521,1,0,0:0:0:0:
64,192,93609,1,0,0:0:0:0:
192,192,93697,128,8,93873:0:0:0:0:
448,192,93697,1,0,0:0:0:0:
64,192,93873,128,0,93962:0:0:0:0:
448,192,94050,1,2,0:0:0:0:
320,192,94138,1,0,0:0:0:0:
64,192,94226,128,0,94315:0:0:0:0:
320,192,94403,128,8,94491:0:0:0:0:
448,192,94403,1,0,0:0:0:0:
64,192,94579,1,0,0:0:0:0:
192,192,94668,1,0,0:0:0:0:
448,192,94756,128,2,94844:0:0:0:0:
320,192,94756,1,0,0:0:0:0:
192,192,94932,1,0,0:0:0:0:
64,192,95021,128,0,95109:0:0:0:0:
320,192,95109,1,0,0:0:0:0:
448,192,95109,1,8,0:0:0:0:
192,192,95197,128,0,95285:0:0:0:0:
320,192,95285,128,0,95373:0:0:0:0:
64,192,95373,128,0,95462:0:0:0:0:
448,192,95462,128,2,95550:0:0:0:0:
192,192,95462,1,0,0:0:0:0:
320,192,95638,1,0,0:0:0:0:
192,192,95726,1,0,0:0:0:0:
64,192,95815,128,8,95903:0:0:0:0:
448,192,95815,1,0,0:0:0:0:
192,192,95991,1,0,0:0:0:0:
320,192,96168,128,2,96256:0:0:0:0:
448,192,96168,1,0,0:0:0:0:
64,192,96344,1,0,0:0:0:0:
192,192,96432,128,0,96521:0:0:0:0:
320,192,96521,1,8,0:0:0:0:
448,192,96521,1,0,0:0:0:0:
64,192,96697,128,0,96785:0:0:0:0:
192,192,96785,128,0,96873:0:0:0:0:
448,192,96873,128,2,96962:0:0:0:0:
320,192,96873,1,0,0:0:0:0:
64,192,97050,1,0,0:0:0:0:
192,192,97138,1,0,0:0:0:0:
320,192,97226,128,8,97315:0:0:0:0:
448,192,97226,1,0,0:0:0:0:
192,192,97403,1,0,0:0:0:0:
64,192,97579,128,2,97668:0:0:0:0:
448,192,97579,1,0,0:0:0:0:
320,192,97756,1,0,0:0:0:0:
192,192,97844,128,0,97932:0:0:0:0:
64,192,97932,1,8,0:0:0:0:
448,192,97932,1,0,0:0:0:0:
192,192,98109,128,0,98197:0:0:0:0:
64,192,98285,128,2,98462:0:0:0:0:
448,192,98285,1,0,0:0:0:0:
320,192,98462,1,0,0:0:0:0:
192,192,98550,1,0,0:0:0:0:
64,192,98638,128,8,98815:0:0:0:0:
448,192,98638,1,0,0:0:0:0:
192,192,98815,1,0,0:0:0:0:
64,192,98991,128,2,99168:0:0:0:0:
320,192,98991,1,0,0:0:0:0:
448,192,99168,1,0,0:0:0:0:
320,192,99256,1,0,0:0:0:0:
64,192,99344,128,8,99521:0:0:0:0:
192,192,99344,1,0,0:0:0:0:
320,192,99521,1,0,0:0:0:0:
448,192,99697,128,2,99873:0:0:0:0:
192,192,99697,1,0,0:0:0:0:
64,192,99873,1,0,0:0:0:0:
448,192,100050,128,8,100226:0:0:0:0:
320,192,100050,1,0,0:0:0:0:
64,192,100226,1,0,0:0:0:0:
192,192,100315,1,0,0:0:0:0:
448,192,100403,128,2,100579:0:0:0:0:
320,192,100403,1,0,0:0:0:0:
64,192,100579,1,0,0:0:0:0:
448,192,100756,128,8,100932:0:0:0:0:
192,192,100756,1,0,0:0:0:0:
320,192,100932,1,0,0:0:0:0:
448,192,101109,1,2,0:0:0:0:
64,192,101109,1,0,0:0:0:0:
320,192,101285,1,0,0:0:0:0:
192,192,101373,1,0,0:0:0:0:
448,192,101462,1,8,0:0:0:0:
64,192,101462,1,0,0:0:0:0:
320,192,101638,1,0,0:0:0:0:
192,192,101726,1,0,0:0:0:0:
64,192,101815,1,2,0:0:0:0:
192,192,101991,1,0,0:0:0:0:
320,192,102079,1,0,0:0:0:0:
448,192,102168,1,8,0:0:0:0:
64,192,102168,1,0,0:0:0:0:
192,192,102344,1,0,0:0:0:0:
448,192,102432,1,0,0:0:0:0:
320,192,102521,1,2,0:0:0:0:
64,192,102521,1,0,0:0:0:0:
448,192,102697,128,0,102873:0:0:0:0:
64,192,102873,1,0,0:0:0:70:snare.wav
192,192,102873,1,0,0:0:0:0:
448,192,103050,128,0,103226:0:0:0:0:
192,192,103226,128,2,103403:0:0:0:0:
448,192,103403,128,0,103579:0:0:0:0:
192,192,103579,128,0,103756:0:0:0:70:snare.wav
64,192,103579,1,0,0:0:0:0:
448,192,103756,128,0,103932:0:0:0:0:
320,192,103932,1,4,0:0:0:0:
192,192,103932,1,2,0:0:0:0:
64,192,103932,128,0,104109:0:0:0:70:push_scratch.wav
192,192,104285,128,0,104462:0:0:0:0:
448,192,104285,1,0,0:0:0:0:
64,192,104638,128,0,104815:0:0:0:0:
320,192,104638,1,0,0:0:0:0:
192,192,104991,128,0,105168:0:0:0:0:
64,192,104991,1,0,0:0:0:0:
64,192,105344,128,0,105521:0:0:0:0:
448,192,105344,1,0,0:0:0:0:
192,192,105697,128,0,105873:0:0:0:0:
320,192,105697,1,0,0:0:0:0:
320,192,106050,128,0,106403:0:0:0:0:
448,192,106050,1,0,0:0:0:0:
64,192,106403,1,0,0:0:0:0:
192,192,106756,1,0,0:0:0:0:
448,192,107109,1,0,0:0:0:0:
320,192,107462,1,0,0:0:0:0:
64,192,107815,1,0,0:0:0:0:
448,192,108168,1,0,0:0:0:0:
192,192,108521,1,0,0:0:0:0:
320,192,108873,1,0,0:0:0:0:
448,192,109226,1,0,0:0:0:0:
448,192,109579,128,0,109756:0:0:0:0:
64,192,109579,1,0,0:0:0:0:
320,192,109932,128,0,110109:0:0:0:0:
192,192,109932,1,0,0:0:0:0:
448,192,110285,128,0,110462:0:0:0:0:
320,192,110285,1,0,0:0:0:0:
320,192,110638,128,0,110815:0:0:0:0:
64,192,110638,1,0,0:0:0:0:
448,192,110991,128,0,111168:0:0:0:0:
192,192,110991,1,0,0:0:0:0:
320,192,111344,128,0,111521:0:0:0:0:
448,192,111344,1,0,0:0:0:0:
64,192,111697,128,0,112050:0:0:0:0:
192,192,111697,1,0,0:0:0:0:
448,192,112050,1,0,0:0:0:0:
320,192,112403,1,0,0:0:0:0:
192,192,112756,1,0,0:0:0:0:
448,192,113109,1,0,0:0:0:0:
64,192,113462,1,0,0:0:0:0:
320,192,113815,1,0,0:0:0:0:
192,192,114168,1,0,0:0:0:0:
448,192,114521,1,0,0:0:0:0:
320,192,114697,1,2,0:0:0:0:
64,192,114873,1,0,0:0:0:70:LR4_SnareBPDT.wav
192,192,114873,1,0,0:0:0:0:
64,192,115050,1,2,0:0:0:0:
448,192,115050,1,4,0:0:0:0:
320,192,115050,1,0,0:0:0:0:
192,192,115226,128,0,115403:0:0:0:0:
448,192,115315,128,0,115403:0:0:0:0:
