osu file format v14

[General]
AudioFilename: audio.mp3
AudioLeadIn: 0
PreviewTime: 25085
Countdown: 0
SampleSet: Normal
StackLeniency: 0.7
Mode: 1
LetterboxInBreaks: 0
WidescreenStoryboard: 1

[Editor]
Bookmarks: 16138,47462,58756,70050,79932,83991,95021,102697,103932
DistanceSpacing: 1.3
BeatDivisor: 4
GridSize: 32
TimelineZoom: 2.4

[Metadata]
Title:Bye or not
TitleUnicode:Bye or not
Artist:PSYQUI feat. mikanzil
ArtistUnicode:PSYQUI feat. mikanzil
Creator:FreezingAnimenz
Version:Muzukashii
Source:SOUND VOLTEX VIVID WAVE
Tags:SDVX V 5 Five electronic future core video game instrumental japanese bemani konami Production Confirmation Commemorative Original Song Contest 制作決定記念オリジナル楽曲コンテスト
BeatmapID:4190598
BeatmapSetID:2013740

[Difficulty]
HPDrainRate:6
CircleSize:2
OverallDifficulty:5
ApproachRate:9
SliderMultiplier:1.4
SliderTickRate:1

[Events]
//Background and Video events
0,0,"bg.jpg",0,75
//Break Periods
//Storyboard Layer 0 (Background)
//Storyboard Layer 1 (Fail)
//Storyboard Layer 2 (Pass)
//Storyboard Layer 3 (Foreground)
//Storyboard Layer 4 (Overlay)
//Storyboard Sound Samples

[TimingPoints]
33,352.941176470588,4,1,0,50,1,8
1444,352.941176470588,4,1,0,50,1,0
1444,-100,4,1,0,50,0,0
12555,-100,4,1,0,50,0,0
12732,-100,4,1,0,70,0,0
25443,352.941176470588,4,1,0,70,1,0
26854,-100,4,1,0,90,0,1
36737,-100,4,1,0,90,0,0
37090,-100,4,1,0,90,0,1
48031,-100,4,1,0,90,0,0
57736,-100,4,1,0,70,0,0
81913,-100,4,1,0,90,0,1
93207,-100,4,1,0,90,0,0
93560,-100,4,1,0,90,0,1
104501,-100,4,1,0,50,0,0
115795,-100,4,1,0,50,0,0

[HitObjects]
384,192,1444,5,4,1:0:0:0:
256,192,1796,1,8,1:0:0:0:
256,192,2149,1,8,1:0:0:0:
256,192,2502,1,0,1:0:0:0:
256,192,2679,1,8,1:0:0:0:
256,192,3032,1,8,1:0:0:0:
256,192,3385,1,0,1:0:0:0:
256,192,3738,1,8,1:0:0:0:
256,192,3914,1,8,1:0:0:0:
256,192,4091,1,0,1:0:0:0:
256,192,4267,1,8,1:0:0:0:
256,192,4620,1,0,1:0:0:0:
256,192,4796,1,8,1:0:0:0:
256,192,5149,1,8,1:0:0:0:
256,192,5502,1,0,1:0:0:0:
256,192,5855,1,8,1:0:0:0:
256,192,6208,1,0,1:0:0:0:
256,192,6561,1,8,1:0:0:0:
256,192,7091,1,0,1:0:0:0:
256,192,7443,1,8,1:0:0:0:
256,192,7796,1,8,1:0:0:0:
256,192,8149,1,8,1:0:0:0:
256,192,8326,1,0,1:0:0:0:
256,192,8679,1,8,1:0:0:0:
256,192,9032,1,0,1:0:0:0:
256,192,9385,1,8,1:0:0:0:
256,192,9561,1,8,1:0:0:0:
256,192,9738,1,0,1:0:0:0:
256,192,9914,1,8,1:0:0:0:
256,192,10267,1,8,1:0:0:0:
256,192,10620,1,0,1:0:0:0:
256,192,10973,1,0,1:0:0:0:
256,192,11149,1,0,1:0:0:0:
256,192,11326,1,8,1:0:0:0:
256,192,11502,1,0,1:0:0:0:
256,192,11855,1,8,1:0:0:0:
256,192,12032,1,8,0:0:0:0:
384,192,12738,1,4,1:0:0:0:
256,192,13091,1,8,1:0:0:0:
256,192,13267,1,0,1:0:0:0:
256,192,13443,1,0,1:0:0:0:
256,192,13532,1,0,0:0:0:0:
256,192,13620,1,0,0:0:0:0:
256,192,13796,1,0,1:0:0:0:
256,192,13973,1,8,1:0:0:0:
256,192,14326,1,8,1:0:0:0:
256,192,14502,1,8,1:0:0:0:
256,192,14679,1,0,0:0:0:0:
256,192,14767,1,0,0:0:0:0:
256,192,14855,1,0,1:0:0:0:
256,192,15032,1,8,1:0:0:0:
256,192,15208,1,8,1:0:0:0:
256,192,15385,1,0,1:0:0:0:
256,192,15561,1,8,1:0:0:0:
256,192,15914,1,0,1:0:0:0:
256,192,16091,1,8,1:0:0:0:
256,192,16267,1,0,1:0:0:0:
256,192,16355,1,0,0:0:0:0:
256,192,16443,1,0,1:0:0:0:
256,192,16620,1,0,1:0:0:0:
256,192,16796,1,8,1:0:0:0:
256,192,16973,1,0,0:0:0:0:
256,192,17061,1,0,0:0:0:0:
256,192,17149,1,0,1:0:0:0:
256,192,17326,1,8,1:0:0:0:
256,192,17502,1,0,1:0:0:0:
256,192,17679,1,0,1:0:0:0:
256,192,17855,1,8,1:0:0:0:
256,192,18385,1,0,1:0:0:0:
256,192,18561,1,0,1:0:0:0:
256,192,18649,1,0,1:0:0:0:
256,192,18738,1,0,1:0:0:0:
256,192,18914,1,0,1:0:0:0:
256,192,19091,1,8,1:0:0:0:
256,192,19267,1,0,0:0:0:0:
256,192,19355,1,0,0:0:0:0:
256,192,19443,1,0,1:0:0:0:
256,192,19620,1,0,1:0:0:0:
256,192,19973,1,8,1:0:0:0:
256,192,20326,1,0,0:0:0:0:
256,192,20502,1,8,1:0:0:0:
256,192,20679,1,8,1:0:0:0:
256,192,20855,1,0,1:0:0:0:
256,192,21032,1,0,1:0:0:0:
256,192,21208,1,8,1:0:0:0:
256,192,21296,1,8,1:0:0:0:
256,192,21385,1,8,1:0:0:0:
256,192,21561,1,0,1:0:0:0:
256,192,21738,1,8,1:0:0:0:
256,192,21914,1,0,1:0:0:0:
256,192,22002,1,0,1:0:0:0:
256,192,22091,1,0,1:0:0:0:
256,192,22267,1,8,1:0:0:0:
256,192,22355,1,8,1:0:0:0:
256,192,22443,1,8,1:0:0:0:
384,192,22620,1,4,1:0:0:0:
384,192,24032,1,0,1:0:0:0:
256,192,24296,1,8,1:0:0:0:
256,192,24561,1,8,1:0:0:0:
256,192,24738,1,0,1:0:0:0:
256,192,25091,1,12,1:0:0:0:
256,192,25443,1,4,1:0:0:0:
256,192,26148,1,12,1:0:0:0:
256,192,26413,1,12,1:0:0:0:
256,192,26678,1,12,1:0:0:0:
256,192,26854,1,4,1:0:0:0:
256,192,27207,1,8,1:0:0:0:
256,192,27384,1,0,1:0:0:0:
256,192,27560,1,8,1:0:0:0:
256,192,27825,1,8,1:0:0:0:
256,192,28090,1,0,1:0:0:0:
256,192,28266,1,8,1:0:0:0:
256,192,28619,1,0,1:0:0:0:
256,192,28972,1,8,1:0:0:0:
256,192,29501,1,8,1:0:0:0:
256,192,29590,1,8,1:0:0:0:
256,192,29678,1,8,1:0:0:0:
256,192,30031,1,0,1:0:0:0:
256,192,30207,1,0,1:0:0:0:
256,192,30295,1,0,1:0:0:0:
256,192,30384,1,0,1:0:0:0:
256,192,30648,1,8,1:0:0:0:
256,192,30913,1,8,1:0:0:0:
256,192,31090,1,0,1:0:0:0:
256,192,31442,1,8,1:0:0:0:
256,192,31795,1,8,1:0:0:0:
256,192,31972,1,8,0:0:0:0:
256,192,32060,1,8,1:0:0:0:
256,192,32148,1,8,1:0:0:0:
256,192,32325,1,0,1:0:0:0:
256,192,32678,1,0,1:0:0:0:
256,192,32766,1,0,1:0:0:0:
256,192,32854,1,0,1:0:0:0:
256,192,33031,1,0,1:0:0:0:
256,192,33207,1,8,1:0:0:0:
256,192,33472,1,8,1:0:0:0:
256,192,33737,1,0,1:0:0:0:
256,192,33913,1,8,1:0:0:0:
256,192,34266,1,0,1:0:0:0:
256,192,34619,1,8,1:0:0:0:
256,192,34795,1,8,1:0:0:0:
256,192,34972,1,0,1:0:0:0:
256,192,35148,1,8,1:0:0:0:
448,320,35325,1,12,0:0:0:0:
256,192,35501,1,0,1:0:0:0:
256,192,35678,1,8,0:0:0:0:
256,192,36031,1,8,1:0:0:0:
256,192,36207,1,8,1:0:0:0:
256,192,36384,1,0,1:0:0:0:
256,192,36913,1,0,1:0:0:0:
256,192,37090,1,12,1:0:0:0:
256,192,37442,1,0,1:0:0:0:
256,192,37795,1,8,1:0:0:0:
256,192,37972,1,0,1:0:0:0:
256,192,38325,1,8,1:0:0:0:
256,192,38413,1,8,1:0:0:0:
256,192,38501,1,8,1:0:0:0:
256,192,38678,1,0,1:0:0:0:
256,192,38854,1,8,1:0:0:0:
256,192,39119,1,8,1:0:0:0:
256,192,39384,1,0,1:0:0:0:
256,192,39560,1,8,1:0:0:0:
256,192,39913,1,0,1:0:0:0:
256,192,40266,1,8,1:0:0:0:
256,192,40795,1,8,1:0:0:0:
256,192,40884,1,8,0:0:0:0:
256,192,40972,1,8,1:0:0:0:
249,189,41325,1,0,0:0:0:0:
256,192,41501,1,0,1:0:0:0:
256,192,41590,1,0,1:0:0:0:
256,192,41678,1,0,1:0:0:0:
256,192,41942,1,8,1:0:0:0:
256,192,42207,1,8,1:0:0:0:
256,192,42384,1,0,1:0:0:0:
256,192,42737,1,8,1:0:0:0:
256,192,43090,1,8,1:0:0:0:
256,192,43266,1,8,1:0:0:0:
256,192,43354,1,8,0:0:0:0:
256,192,43442,1,8,1:0:0:0:
256,192,43619,1,0,1:0:0:0:
256,192,43972,1,0,1:0:0:0:
256,192,44060,1,0,1:0:0:0:
256,192,44148,1,0,1:0:0:0:
256,192,44325,1,8,1:0:0:0:
256,192,44501,1,8,1:0:0:0:
256,192,44766,1,8,1:0:0:0:
256,192,45031,1,0,1:0:0:0:
384,192,45207,1,4,1:0:0:0:
256,192,45825,1,12,1:0:0:0:
256,192,46090,1,12,1:0:0:0:
256,192,46619,1,4,1:0:0:0:
256,192,46972,1,8,1:0:0:0:
256,192,47325,1,8,1:0:0:0:
64,320,48031,1,4,0:0:0:0:
64,320,48384,1,4,0:0:0:0:
256,192,48737,1,0,1:0:0:0:
256,192,48825,1,0,1:0:0:0:
256,192,48913,1,0,1:0:0:0:
448,320,49266,1,12,0:0:0:0:
256,192,49619,1,0,1:0:0:0:
448,320,49795,1,12,0:0:0:0:
256,192,50148,1,0,1:0:0:0:
448,320,50325,1,12,0:0:0:0:
64,320,50678,1,4,0:0:0:0:
64,320,51207,1,4,0:0:0:0:
256,192,51560,1,0,1:0:0:0:
256,192,51648,1,0,1:0:0:0:
256,192,51737,1,0,1:0:0:0:
256,192,51913,1,8,1:0:0:0:
256,192,52090,1,0,1:0:0:0:
448,320,52266,1,12,0:0:0:0:
448,320,52619,1,12,0:0:0:0:
64,320,52972,1,4,0:0:0:0:
448,320,53325,1,12,0:0:0:0:
64,320,53678,1,4,0:0:0:0:
64,320,54031,1,4,0:0:0:0:
256,192,54384,1,0,1:0:0:0:
256,192,54472,1,0,1:0:0:0:
256,192,54560,1,0,1:0:0:0:
448,320,54913,1,12,0:0:0:0:
256,192,55266,1,0,1:0:0:0:
448,320,55442,1,12,0:0:0:0:
256,192,55795,1,0,1:0:0:0:
448,320,55972,1,12,0:0:0:0:
64,320,56325,1,4,0:0:0:0:
64,320,56590,1,4,0:0:0:0:
256,192,57031,5,0,0:0:0:0:
256,192,57207,1,8,1:0:0:0:
256,192,57295,1,8,1:0:0:0:
256,192,57384,1,8,1:0:0:0:
256,192,57560,1,0,1:0:0:0:
384,192,57737,1,12,1:0:0:0:
448,320,58266,1,12,0:0:0:0:
64,320,58619,1,4,0:0:0:0:
64,320,58972,1,4,0:0:0:0:
448,320,59325,1,12,0:0:0:0:
256,192,59678,1,0,1:0:0:0:
256,192,60031,1,8,1:0:0:0:
256,192,60384,1,0,1:0:0:0:
256,192,60737,1,8,1:0:0:0:
256,192,61090,1,8,1:0:0:0:
256,192,61442,1,0,1:0:0:0:
256,192,61795,1,0,1:0:0:0:
256,192,61972,1,0,1:0:0:0:
256,192,62148,1,8,1:0:0:0:
256,192,62501,1,8,1:0:0:0:
256,192,62854,1,8,1:0:0:0:
256,192,63207,1,0,1:0:0:0:
256,192,63560,1,8,1:0:0:0:
256,192,63913,1,0,1:0:0:0:
256,192,64266,1,8,1:0:0:0:
256,192,64442,1,0,1:0:0:0:
256,192,64619,1,0,1:0:0:0:
256,192,64972,1,0,1:0:0:0:
256,192,65325,1,8,1:0:0:0:
256,192,65678,1,0,1:0:0:0:
256,192,66031,1,8,1:0:0:0:
256,192,66384,1,0,1:0:0:0:
256,192,66737,1,0,1:0:0:0:
256,192,67090,1,8,1:0:0:0:
256,192,67442,1,0,1:0:0:0:
256,192,67619,1,0,1:0:0:0:
256,192,67795,1,8,1:0:0:0:
256,192,68148,1,0,1:0:0:0:
256,192,68501,1,8,1:0:0:0:
256,192,68854,1,8,1:0:0:0:
256,192,69207,1,8,1:0:0:0:
256,192,69560,1,0,0:0:0:0:
256,192,69913,1,0,1:0:0:0:
256,192,70266,1,8,1:0:0:0:
384,192,70619,1,4,1:0:0:0:
256,192,70972,1,8,1:0:0:0:
256,192,71148,1,0,1:0:0:0:
256,192,71325,1,8,1:0:0:0:
256,192,71413,1,8,0:0:0:0:
256,192,71501,1,8,1:0:0:0:
256,192,71678,1,0,1:0:0:0:
256,192,71854,1,8,0:0:0:0:
256,192,72207,1,0,1:0:0:0:
256,192,72384,1,8,1:0:0:0:
256,192,72737,1,0,1:0:0:0:
256,192,72913,1,8,1:0:0:0:
256,192,73001,1,8,1:0:0:0:
256,192,73090,1,8,1:0:0:0:
256,192,73266,1,0,1:0:0:0:
256,192,73442,1,8,1:0:0:0:
256,192,73795,1,8,1:0:0:0:
256,192,73972,1,0,1:0:0:0:
256,192,74325,1,8,1:0:0:0:
256,192,74413,1,8,1:0:0:0:
256,192,74501,1,8,1:0:0:0:
256,192,74678,1,0,1:0:0:0:
256,192,75031,1,8,1:0:0:0:
256,192,75207,1,8,1:0:0:0:
256,192,75384,1,0,1:0:0:0:
256,192,75560,1,0,1:0:0:0:
256,192,75737,1,8,1:0:0:0:
256,192,76266,1,0,1:0:0:0:
256,192,76442,1,0,1:0:0:0:
256,192,76531,1,0,1:0:0:0:
256,192,76619,1,0,1:0:0:0:
256,192,76795,1,0,1:0:0:0:
256,192,76972,1,8,1:0:0:0:
256,192,77325,1,8,1:0:0:0:
256,192,77501,1,0,1:0:0:0:
256,192,77678,1,8,1:0:0:0:
256,192,77766,1,8,1:0:0:0:
256,192,77854,1,8,1:0:0:0:
256,192,78207,1,0,0:0:0:0:
256,192,78384,1,8,1:0:0:0:
256,192,78560,1,8,1:0:0:0:
256,192,78737,1,0,1:0:0:0:
256,192,78913,1,0,1:0:0:0:
256,192,79090,1,8,1:0:0:0:
256,192,79178,1,8,1:0:0:0:
256,192,79266,1,8,1:0:0:0:
256,192,79442,1,0,1:0:0:0:
256,192,79619,1,8,1:0:0:0:
256,192,79795,1,0,1:0:0:0:
256,192,79884,1,0,1:0:0:0:
256,192,79972,1,0,1:0:0:0:
256,192,80148,1,8,1:0:0:0:
256,192,80237,1,8,1:0:0:0:
256,192,80325,1,8,1:0:0:0:
384,192,80501,1,4,1:0:0:0:
384,192,81913,5,12,1:0:0:0:
256,192,82266,1,0,1:0:0:0:
256,192,82354,1,0,0:0:0:0:
256,192,82442,1,0,0:0:0:0:
256,192,82619,1,8,1:0:0:0:
256,192,82972,1,8,1:0:0:0:
256,192,83148,1,0,1:0:0:0:
256,192,83501,1,0,1:0:0:0:
256,192,83590,1,0,1:0:0:0:
256,192,83678,1,0,1:0:0:0:
256,192,83854,1,0,1:0:0:0:
256,192,84031,1,8,1:0:0:0:
256,192,84295,1,8,1:0:0:0:
256,192,84560,1,0,1:0:0:0:
256,192,84737,1,8,1:0:0:0:
256,192,84913,1,0,1:0:0:0:
256,192,85001,1,0,1:0:0:0:
256,192,85090,1,0,1:0:0:0:
256,192,85266,1,0,1:0:0:0:
256,192,85442,1,8,1:0:0:0:
256,192,85972,1,0,1:0:0:0:
256,192,86148,1,8,1:0:0:0:
256,192,86325,1,8,1:0:0:0:
256,192,86413,1,8,1:0:0:0:
256,192,86501,1,8,1:0:0:0:
256,192,86678,1,0,1:0:0:0:
256,192,86854,1,0,1:0:0:0:
256,192,87031,1,8,0:0:0:0:
256,192,87119,1,8,1:0:0:0:
256,192,87295,1,8,0:0:0:0:
256,192,87384,1,8,1:0:0:0:
256,192,87560,1,0,1:0:0:0:
256,192,87913,1,8,1:0:0:0:
256,192,88090,1,0,1:0:0:0:
250,199,88178,1,0,0:0:0:0:
256,192,88266,1,0,1:0:0:0:
256,192,88619,1,8,1:0:0:0:
256,192,88795,1,0,1:0:0:0:
256,192,89148,1,0,1:0:0:0:
256,192,89237,1,0,1:0:0:0:
256,192,89325,1,0,1:0:0:0:
256,192,89501,1,0,1:0:0:0:
256,192,89678,1,8,1:0:0:0:
256,192,89942,1,8,1:0:0:0:
256,192,90207,1,0,1:0:0:0:
256,192,90384,1,8,1:0:0:0:
256,192,90560,1,0,1:0:0:0:
256,192,90648,1,0,1:0:0:0:
256,192,90737,1,0,1:0:0:0:
256,192,90913,1,0,1:0:0:0:
256,192,91090,1,8,1:0:0:0:
256,192,91619,1,8,1:0:0:0:
256,192,91707,1,8,0:0:0:0:
256,192,91795,1,8,1:0:0:0:
256,192,91972,1,0,0:0:0:0:
256,192,92148,1,8,1:0:0:0:
255,180,92501,1,0,0:0:0:0:
256,192,92678,1,8,1:0:0:0:
256,192,92854,1,0,1:0:0:0:
256,192,93560,1,4,1:0:0:0:
256,192,93737,1,8,1:0:0:0:
256,192,93825,1,8,0:0:0:0:
256,192,93913,1,8,1:0:0:0:
256,192,94266,1,8,1:0:0:0:
256,192,94442,1,0,1:0:0:0:
256,192,94795,1,0,1:0:0:0:
256,192,94884,1,0,1:0:0:0:
256,192,94972,1,0,1:0:0:0:
256,192,95148,1,0,0:0:0:0:
256,192,95325,1,8,1:0:0:0:
256,192,95590,1,8,1:0:0:0:
256,192,95854,1,0,1:0:0:0:
256,192,96031,1,8,1:0:0:0:
256,192,96207,1,8,0:0:0:0:
256,192,96295,1,8,0:0:0:0:
256,192,96384,1,8,1:0:0:0:
256,192,96560,1,0,1:0:0:0:
256,192,96737,1,8,1:0:0:0:
256,192,97266,1,0,1:0:0:0:
256,192,97442,1,8,1:0:0:0:
256,192,97619,1,8,1:0:0:0:
256,192,97707,1,8,1:0:0:0:
256,192,97795,1,8,1:0:0:0:
256,192,97972,1,8,0:0:0:0:
256,192,98148,1,0,1:0:0:0:
256,192,98325,1,8,0:0:0:0:
256,192,98413,1,8,1:0:0:0:
256,192,98590,1,8,0:0:0:0:
256,192,98678,1,8,1:0:0:0:
256,192,98854,1,0,1:0:0:0:
256,192,99207,1,0,1:0:0:0:
256,192,99384,1,8,1:0:0:0:
256,192,99472,1,8,0:0:0:0:
256,192,99560,1,8,1:0:0:0:
256,192,99737,1,0,0:0:0:0:
256,192,99913,1,8,1:0:0:0:
256,192,100090,1,0,1:0:0:0:
256,192,100442,1,0,1:0:0:0:
256,192,100531,1,0,1:0:0:0:
256,192,100619,1,0,1:0:0:0:
256,192,100795,1,8,1:0:0:0:
256,192,100972,1,0,1:0:0:0:
256,192,101148,1,8,1:0:0:0:
256,192,101237,1,8,1:0:0:0:
256,192,101413,1,0,1:0:0:0:
256,192,101501,1,0,1:0:0:0:
256,192,101678,1,8,1:0:0:0:
256,192,102031,1,0,1:0:0:0:
256,192,102207,1,0,1:0:0:0:
256,192,102384,1,8,1:0:0:0:
256,192,102560,1,0,0:0:0:0:
256,192,102648,1,0,1:0:0:0:
256,192,102825,1,8,0:0:0:0:
256,192,102913,1,8,0:0:0:0:
448,64,103090,1,8,0:0:0:0:
256,192,103266,1,0,0:0:0:0:
256,192,103442,1,8,1:0:0:0:
256,192,103795,1,0,1:0:0:0:
256,192,103972,1,8,1:0:0:0:
256,192,104148,1,0,1:0:0:0:
384,192,104501,1,12,1:0:0:0:
256,192,105207,1,8,1:0:0:0:
256,192,105560,1,0,1:0:0:0:
256,192,105913,1,8,1:0:0:0:
256,192,106266,1,8,1:0:0:0:
256,192,106619,1,0,1:0:0:0:
256,192,107325,1,8,1:0:0:0:
256,192,107678,1,8,1:0:0:0:
256,192,108031,1,0,1:0:0:0:
256,192,108384,1,0,1:0:0:0:
256,192,108737,1,8,1:0:0:0:
256,192,109090,1,0,1:0:0:0:
256,192,109442,1,8,1:0:0:0:
256,192,110148,1,8,1:0:0:0:
256,192,110501,1,0,1:0:0:0:
256,192,110854,1,8,1:0:0:0:
256,192,111207,1,0,1:0:0:0:
256,192,111560,1,8,1:0:0:0:
256,192,111913,1,8,1:0:0:0:
256,192,112266,1,0,1:0:0:0:
256,192,112972,1,8,1:0:0:0:
256,192,113148,1,0,1:0:0:0:
256,192,113325,1,8,1:0:0:0:
256,192,113501,1,8,1:0:0:0:
256,192,113678,1,0,1:0:0:0:
256,192,114031,1,0,1:0:0:0:
256,192,114207,1,8,1:0:0:0:
256,192,114384,12,0,115442,1:0:0:0:
64,320,115619,5,4,0:0:0:0:
