osu file format v14

[General]
AudioFilename: audio.mp3
AudioLeadIn: 0
PreviewTime: 25085
Countdown: 0
SampleSet: Normal
StackLeniency: 0.7
Mode: 1
LetterboxInBreaks: 0
WidescreenStoryboard: 0

[Editor]
Bookmarks: 47462,58756,70050,79932,83991,95021,102697,103932
DistanceSpacing: 1.3
BeatDivisor: 4
GridSize: 32
TimelineZoom: 2.2

[Metadata]
Title:Bye or not
TitleUnicode:Bye or not
Artist:PSYQUI feat. mikanzil
ArtistUnicode:PSYQUI feat. mikanzil
Creator:FreezingAnimenz
Version:Farewell
Source:SOUND VOLTEX VIVID WAVE
Tags:SDVX V 5 Five electronic future core video game instrumental japanese bemani konami Production Confirmation Commemorative Original Song Contest 制作決定記念オリジナル楽曲コンテスト
BeatmapID:4190595
BeatmapSetID:2013740

[Difficulty]
HPDrainRate:6
CircleSize:2
OverallDifficulty:6.5
ApproachRate:9
SliderMultiplier:1.4
SliderTickRate:1

[Events]
//Background and Video events
0,0,"bg.jpg",0,75
//Break Periods
//Storyboard Layer 0 (Background)
//Storyboard Layer 1 (Fail)
//Storyboard Layer 2 (Pass)
//Storyboard Layer 3 (Foreground)
//Storyboard Layer 4 (Overlay)
//Storyboard Sound Samples

[TimingPoints]
33,352.941176470588,4,1,0,100,1,8
33,-125,4,1,0,50,0,0
1444,352.941176470588,4,1,0,100,1,0
1444,-125,4,1,0,50,0,0
12561,-111.111111111111,4,1,0,70,0,0
18375,-111.111111111111,4,1,0,70,0,0
18552,-109.929488601028,4,1,0,70,0,0
18640,-109.128860508965,4,1,0,70,0,0
18728,-108.256413869967,4,1,0,70,0,0
18905,-106.354330617868,4,1,0,70,0,0
19081,-104.336539443264,4,1,0,70,0,0
19169,-103.297433535731,4,1,0,70,0,0
19258,-102.232647401021,4,1,0,70,0,0
19346,-101.169976597282,4,1,0,70,0,0
19434,-100.100754145283,4,1,0,70,0,0
19610,-97.9532526985809,4,1,0,70,0,0
19699,-96.8671664284318,4,1,0,70,0,0
19786,-95.8078036433068,4,1,0,70,0,0
19787,-95.795646372724,4,1,0,70,0,0
19875,-94.7280022485815,4,1,0,70,0,0
19963,-93.6655535705272,4,1,0,70,0,0
20052,-92.5974855092665,4,1,0,70,0,0
20140,-91.5488030026689,4,1,0,70,0,0
20228,-90.5083280625783,4,1,0,70,0,0
20316,-89.4768051771001,4,1,0,70,0,0
20502,-87.4316541119278,4,1,0,70,0,0
20590,-86.4306070292368,4,1,0,70,0,0
20678,-85.4405766712549,4,1,0,70,0,0
20767,-84.4508414403436,4,1,0,70,0,0
20855,-83.4839213286104,4,1,0,70,0,0
20943,-82.5288556398626,4,1,0,70,0,0
21031,-81.585823987259,4,1,0,70,0,0
21119,-80.6549654320445,4,1,0,70,0,0
21199,-79.7260152057282,4,1,0,70,0,0
21208,-79.7363828022933,4,1,0,70,0,0
21296,-78.8199195516776,4,1,0,70,0,0
21384,-77.9262121588057,4,1,0,70,0,0
21472,-77.0449085175341,4,1,0,70,0,0
21561,-76.1661983539168,4,1,0,70,0,0
21649,-75.3097996755188,4,1,0,70,0,0
21737,-74.465722651074,4,1,0,70,0,0
21825,-73.6339048880661,4,1,0,70,0,0
21914,-72.8050253696325,4,1,0,70,0,0
22002,-71.9976204396642,4,1,0,70,0,0
22090,-71.2022073317356,4,1,0,70,0,0
22178,-70.418675878021,4,1,0,70,0,0
22267,-69.6382044477228,4,1,0,70,0,0
22355,-68.8782044693927,4,1,0,70,0,0
22443,-68.1297075502204,4,1,0,70,0,0
22531,-67.3925757908647,4,1,0,70,0,0
22619,-66.6666666666667,4,1,0,70,0,0
22972,-80,4,1,0,70,0,0
23149,-82.7505372142997,4,1,0,70,0,0
23237,-84.2147117296223,4,1,0,70,0,0
23414,-87.2682323856613,4,1,0,70,0,0
23502,-88.8795635753252,4,1,0,70,0,0
23590,-90.5708787684413,4,1,0,70,0,0
23678,-92.3076923076923,4,1,0,70,0,0
23767,-94.1124194623417,4,1,0,70,0,0
23855,-95.9891230455473,4,1,0,70,0,0
24031,-100,4,1,0,70,0,0
24728,-100,4,1,0,70,0,0
24816,-100,4,1,0,70,0,0
24904,-100,4,1,0,70,0,0
25002,-100,4,1,0,70,0,0
25091,-100,4,1,0,70,0,0
25443,352.941176470588,4,1,0,100,1,0
25443,-66.6666666666667,4,1,0,70,0,0
25620,-83.3333333333333,4,1,0,70,0,0
25972,-71.4285714285714,4,1,0,70,0,0
26031,-69.7582243361078,4,1,0,70,0,0
26090,-68.1642137877614,4,1,0,70,0,0
26148,-66.6666877639779,4,1,0,70,0,0
26405,-68.1647027183636,4,1,0,70,0,0
26669,-72.6612586056659,4,1,0,70,0,0
26854,-77.3450178816329,4,1,0,90,0,1
27031,-83.3333333333333,4,1,0,90,0,1
35316,-83.3333333333333,4,1,0,90,0,1
35404,-84.1101694915254,4,1,0,90,0,1
35492,-84.901625320787,4,1,0,90,0,1
35581,-85.7173701824463,4,1,0,90,0,1
35669,-86.5395095367847,4,1,0,90,0,1
35845,-88.2320257806423,4,1,0,90,0,1
36022,-90.0022670596237,4,1,0,90,0,1
36198,-91.8343742771224,4,1,0,90,0,1
36286,-92.7786866090208,4,1,0,90,0,1
36375,-93.7536899279726,4,1,0,90,0,1
36551,-95.7433980465453,4,1,0,90,0,1
36737,-97.8314440611138,4,1,0,90,0,0
36905,-100,4,1,0,90,0,0
37090,-71.4285714285714,4,1,0,90,0,1
37266,-72.0030199342088,4,1,0,90,0,1
37433,-72.5794190432121,4,1,0,90,0,1
37522,-72.8692584055977,4,1,0,90,0,1
37610,-73.1534650964824,4,1,0,90,0,1
37698,-73.4343231847902,4,1,0,90,0,1
37786,-73.7108403171427,4,1,0,90,0,1
37875,-73.985065347209,4,1,0,90,0,1
37963,-74.2498269864341,4,1,0,90,0,1
38139,-74.7563260168657,4,1,0,90,0,1
38316,-75.2281676787036,4,1,0,90,0,1
38404,-75.4463672179948,4,1,0,90,0,1
38492,-75.6524733885246,4,1,0,90,0,1
38669,-76.0269677039251,4,1,0,90,0,1
38845,-76.3410644882899,4,1,0,90,0,1
38933,-76.4745700532581,4,1,0,90,0,1
39022,-76.592804780331,4,1,0,90,0,1
39110,-76.6925855938902,4,1,0,90,0,1
39198,-76.7748877599951,4,1,0,90,0,1
39286,-76.8393394692916,4,1,0,90,0,1
39375,-76.8860692265797,4,1,0,90,0,1
39463,-76.9138144098152,4,1,0,90,0,1
39551,-76.9230769230769,4,1,0,90,0,1
45385,-90.9090909090909,4,1,0,90,0,1
45738,-71.4285714285714,4,1,0,90,0,1
46081,-71.4285714285714,4,1,0,90,0,1
46257,-74.7627951486687,4,1,0,90,0,1
46433,-78.4235378292899,4,1,0,90,0,1
46532,-58.8235294117647,4,1,0,90,0,1
46786,-86.9565217391304,4,1,0,90,0,1
46875,-85.1012536162006,4,1,0,90,0,1
46963,-83.3333333333333,4,1,0,90,0,1
47051,-81.6373728029602,4,1,0,90,0,1
47139,-80.0090661831369,4,1,0,90,0,1
47228,-78.4270162186181,4,1,0,90,0,1
47316,-76.9230769230769,4,1,0,90,0,1
47404,-75.4757323070344,4,1,0,90,0,1
47492,-74.0818467995803,4,1,0,90,0,1
47581,-72.7235269880511,4,1,0,90,0,1
47669,-71.4285714285714,4,1,0,90,0,1
47758,-70.1649771417213,4,1,0,90,0,1
47845,-68.9722547870262,4,1,0,90,0,1
47934,-67.7933550989053,4,1,0,90,0,1
48031,-66.6666666666667,4,1,0,90,0,0
48384,-66.6666666666667,4,1,0,70,0,0
48736,-83.3333333333333,4,1,0,70,0,0
48824,-80.012077294686,4,1,0,70,0,0
48912,-76.945412311266,4,1,0,70,0,0
48971,-75.0176928520878,4,1,0,70,0,0
49030,-73.1842032587683,4,1,0,70,0,0
49089,-71.4381992182235,4,1,0,70,0,0
49177,-68.9834699986984,4,1,0,70,0,0
49266,-66.6666666666667,4,1,0,70,0,0
49442,-83.3333333333333,4,1,0,70,0,0
49619,-76.9063180827887,4,1,0,70,0,0
49795,-66.6666666666667,4,1,0,70,0,0
50148,-76.9230769230769,4,1,0,70,0,0
50325,-66.6666666666667,4,1,0,70,0,0
50678,-66.6666666666667,4,1,0,70,0,0
50767,-83.3333333333333,4,1,0,70,0,0
51207,-71.4285714285714,4,1,0,70,0,0
51560,-83.3333333333333,4,1,0,70,0,0
51736,-79.9909358712894,4,1,0,70,0,0
51825,-78.4270162186181,4,1,0,70,0,0
51913,-76.9230769230769,4,1,0,70,0,0
51957,-78.125,4,1,0,70,0,0
52089,-76.9230769230769,4,1,0,70,0,0
52134,-78.125,4,1,0,70,0,0
52266,-66.6666666666667,4,1,0,70,0,0
52619,-66.6666666666667,4,1,0,70,0,0
52972,-66.6666666666667,4,1,0,70,0,0
53325,-66.6666666666667,4,1,0,70,0,0
53678,-66.6666666666667,4,1,0,70,0,0
54031,-66.6666666666667,4,1,0,70,0,0
54384,-83.3333333333333,4,1,0,70,0,0
54560,-80.0090661831369,4,1,0,70,0,0
54648,-78.4444444444444,4,1,0,70,0,0
54736,-76.9230769230769,4,1,0,70,0,0
54913,-66.6666666666667,4,1,0,70,0,0
55002,-83.3333333333333,4,1,0,70,0,0
55266,-76.9230769230769,4,1,0,70,0,0
55442,-66.6666666666667,4,1,0,70,0,0
55795,-71.4285714285714,4,1,0,70,0,0
55875,-68.9520841449162,4,1,0,70,0,0
55972,-66.6666666666667,4,1,0,70,0,0
56325,-66.6666666666667,4,1,0,70,0,0
56414,-83.3333333333333,4,1,0,70,0,0
56589,-66.6666666666667,4,1,0,70,0,0
57031,-83.3333333333333,4,1,0,70,0,0
57119,-81.6358024691358,4,1,0,70,0,0
57207,-80.0060496067756,4,1,0,70,0,0
57295,-78.9493321393926,4,1,0,70,0,0
57384,-76.9174845510723,4,1,0,70,0,0
57472,-75.469006348527,4,1,0,70,0,0
57560,-74.0740740740741,4,1,0,70,0,0
57736,-66.6666666666667,4,1,0,70,0,0
57912,-76.9230769230769,4,1,0,70,0,0
58090,-71.4285714285714,4,1,0,70,0,0
58169,-68.9655172413793,4,1,0,70,0,0
58266,-66.6414237031427,4,1,0,70,0,0
58619,-66.6666666666667,4,1,0,70,0,0
58972,-66.6666666666667,4,1,0,70,0,0
59326,-66.6666666666667,4,1,0,70,0,0
59414,-83.3333333333333,4,1,0,70,0,0
59581,-83.5598863671076,4,1,0,70,0,0
59669,-83.7851082728414,4,1,0,70,0,0
59845,-84.2392141163428,4,1,0,70,0,0
60022,-84.7008917513005,4,1,0,70,0,0
60198,-85.1650062266501,4,1,0,70,0,0
60286,-85.398976023976,4,1,0,70,0,0
60375,-85.6369157561907,4,1,0,70,0,0
60551,-86.1113734378443,4,1,0,70,0,0
60728,-86.5938588160811,4,1,0,70,0,0
60904,-87.0790093588846,4,1,0,70,0,0
60992,-87.3236289344315,4,1,0,70,0,0
61081,-87.5724301309345,4,1,0,70,0,0
61257,-88.0686391294549,4,1,0,70,0,0
61433,-88.5705034806541,4,1,0,70,0,0
61610,-89.0810212322522,4,1,0,70,0,0
61786,-89.5945237783309,4,1,0,70,0,0
61963,-90.1169494317246,4,1,0,70,0,0
62139,-90.6424997514828,4,1,0,70,0,0
62316,-91.1772548496767,4,1,0,70,0,0
62404,-91.4454770341646,4,1,0,70,0,0
62492,-91.7152819687521,4,1,0,70,0,0
62669,-92.2628081891463,4,1,0,70,0,0
62845,-92.8137617480406,4,1,0,70,0,0
62933,-93.0917134592479,4,1,0,70,0,0
63022,-93.3745221190606,4,1,0,70,0,0
63110,-93.6558477129553,4,1,0,70,0,0
63198,-93.9388736263736,4,1,0,70,0,0
63375,-94.5133538333967,4,1,0,70,0,0
63551,-95.0915980116105,4,1,0,70,0,0
63728,-95.68030779993,4,1,0,70,0,0
63816,-95.975721002035,4,1,0,70,0,0
63904,-96.2729640318153,4,1,0,70,0,0
64081,-96.876438715161,4,1,0,70,0,0
64257,-97.4840525996935,4,1,0,70,0,0
64433,-98.099336560875,4,1,0,70,0,0
64610,-98.7259997112747,4,1,0,70,0,0
64963,-100,4,1,0,70,0,0
70610,-100,4,1,0,70,0,0
70786,-99.7347321644421,4,1,0,70,0,0
70875,-99.5492566196798,4,1,0,70,0,0
70963,-99.3469695371225,4,1,0,70,0,0
71139,-98.9000809580792,4,1,0,70,0,0
71316,-98.4072597692316,4,1,0,70,0,0
71405,-98.1463693334786,4,1,0,70,0,0
71492,-97.8841101384776,4,1,0,70,0,0
71581,-97.6091774048973,4,1,0,70,0,0
71669,-97.3313644946566,4,1,0,70,0,0
71845,-96.76007511455,4,1,0,70,0,0
72022,-96.1674748099216,4,1,0,70,0,0
72198,-95.5632177763978,4,1,0,70,0,0
72286,-95.2562541027347,4,1,0,70,0,0
72375,-94.9428914430983,4,1,0,70,0,0
72551,-94.3155531259969,4,1,0,70,0,0
72728,-93.6758374136923,4,1,0,70,0,0
72816,-93.3549791674404,4,1,0,70,0,0
72904,-93.0324872867271,4,1,0,70,0,0
72992,-92.7085208815613,4,1,0,70,0,0
73081,-92.3795257921999,4,1,0,70,0,0
73257,-91.7254973592402,4,1,0,70,0,0
73433,-91.0677578976161,4,1,0,70,0,0
73610,-90.4034658792947,4,1,0,70,0,0
73698,-90.0724073406742,4,1,0,70,0,0
73786,-89.7409530100298,4,1,0,70,0,0
73963,-89.0734379943323,4,1,0,70,0,0
74139,-88.4091314694895,4,1,0,70,0,0
74228,-88.0731837806394,4,1,0,70,0,0
74316,-87.7410922770699,4,1,0,70,0,0
74404,-87.4091481902887,4,1,0,70,0,0
74492,-87.0774144610183,4,1,0,70,0,0
74669,-86.4110541007926,4,1,0,70,0,0
74845,-85.7499886511779,4,1,0,70,0,0
75022,-85.0871154523634,4,1,0,70,0,0
75110,-84.7583953045324,4,1,0,70,0,0
75198,-84.4302933481744,4,1,0,70,0,0
75375,-83.7723956162313,4,1,0,70,0,0
75551,-83.1211597095102,4,1,0,70,0,0
75639,-82.7967298139016,4,1,0,70,0,0
75728,-82.4694625713475,4,1,0,70,0,0
75816,-82.1467428302179,4,1,0,70,0,0
75904,-81.8249173905179,4,1,0,70,0,0
76081,-81.1804271751134,4,1,0,70,0,0
76257,-80.5434782257248,4,1,0,70,0,0
76345,-80.2265202188747,4,1,0,70,0,0
76433,-79.9106017557776,4,1,0,70,0,0
76522,-79.5921711034095,4,1,0,70,0,0
76610,-79.2784031774216,4,1,0,70,0,0
76786,-78.6541746540793,4,1,0,70,0,0
76963,-78.0309567535289,4,1,0,70,0,0
77051,-77.7228469319498,4,1,0,70,0,0
77139,-77.4159101448102,4,1,0,70,0,0
77228,-77.1066915122603,4,1,0,70,0,0
77316,-76.8021518184178,4,1,0,70,0,0
77492,-76.1967099643265,4,1,0,70,0,0
77669,-75.5927868885671,4,1,0,70,0,0
77757,-75.2944048018176,4,1,0,70,0,0
77845,-74.9972777824643,4,1,0,70,0,0
77934,-74.6980583677452,4,1,0,70,0,0
78022,-74.4034774473811,4,1,0,70,0,0
78198,-73.8181479842342,4,1,0,70,0,0
78384,-73.2346824296232,4,1,0,70,0,0
78472,-72.9465465062955,4,1,0,70,0,0
78560,-72.6597100881798,4,1,0,70,0,0
78648,-72.3741766100775,4,1,0,70,0,0
78737,-72.0867267551753,4,1,0,70,0,0
78825,-71.8038227266924,4,1,0,70,0,0
78913,-71.522229576078,4,1,0,70,0,0
79001,-71.2419491906887,4,1,0,70,0,0
79091,-70.959820596632,4,1,0,70,0,0
79178,-70.682184973483,4,1,0,70,0,0
79266,-70.4058657415781,4,1,0,70,0,0
79354,-70.1308634651092,4,1,0,70,0,0
79442,-69.8571784096623,4,1,0,70,0,0
79531,-69.5817230327836,4,1,0,70,0,0
79619,-69.310687041318,4,1,0,70,0,0
79707,-69.0409673819939,4,1,0,70,0,0
79795,-68.772563235019,4,1,0,70,0,0
79884,-68.5024459744349,4,1,0,70,0,0
79972,-68.236684338322,4,1,0,70,0,0
80060,-67.9722343080818,4,1,0,70,0,0
80148,-67.7090941403508,4,1,0,70,0,0
80237,-67.444294025267,4,1,0,70,0,0
80325,-67.183782355514,4,1,0,70,0,0
80384,-66.9245740781663,4,1,0,70,0,0
80442,-71.718813490451,4,1,0,70,0,0
80501,-66.6666666666667,4,1,0,70,0,0
80845,-76.9230769230769,4,1,0,70,0,0
80904,-77.7220315113106,4,1,0,70,0,0
80963,-78.5377568264698,4,1,0,70,0,0
81031,-79.3707865168539,4,1,0,70,0,0
81090,-80.6466343958352,4,1,0,70,0,0
81148,-72.2842223814887,4,1,0,70,0,0
81207,-81.9641696834679,4,1,0,70,0,0
81286,-83.3254694724922,4,1,0,70,0,0
81384,-84.7490162203666,4,1,0,70,0,0
81472,-86.2052133164112,4,1,0,70,0,0
81560,-87.7123274063773,4,1,0,70,0,0
81736,-90.9090909090909,4,1,0,70,0,0
81913,-66.6666666666667,4,1,0,90,0,1
82089,-71.4285714285714,4,1,0,90,0,1
82169,-72.2937230825509,4,1,0,90,0,1
82257,-73.1688625194878,4,1,0,90,0,1
82433,-74.9027305724082,4,1,0,90,0,1
82522,-75.7457130846035,4,1,0,90,0,1
82610,-76.5392529686224,4,1,0,90,0,1
82698,-77.2796656939842,4,1,0,90,0,1
82786,-77.9538491524918,4,1,0,90,0,1
82875,-78.5555753599286,4,1,0,90,0,1
82963,-79.0597270099679,4,1,0,90,0,1
83139,-79.7584842256359,4,1,0,90,0,1
83316,-80,4,1,0,90,0,1
93207,-80,4,1,0,90,0,0
93266,-82.1917808219178,4,1,0,90,0,0
93325,-84.5070422535211,4,1,0,90,0,0
93384,-86.9565217391304,4,1,0,90,0,0
93472,-74.0973971452561,4,1,0,90,0,0
93560,-66.6666666666667,4,1,0,90,0,1
93736,-71.4285714285714,4,1,0,90,0,1
93904,-72.3606511265355,4,1,0,90,0,1
94081,-73.3086783030961,4,1,0,90,0,1
94169,-73.7795228062611,4,1,0,90,0,1
94257,-74.2475269694516,4,1,0,90,0,1
94433,-75.1671440822208,4,1,0,90,0,1
94610,-76.0562521744226,4,1,0,90,0,1
94698,-76.4797466943209,4,1,0,90,0,1
94786,-76.8881369518257,4,1,0,90,0,1
94875,-77.2836955575616,4,1,0,90,0,1
94963,-77.6554811954087,4,1,0,90,0,1
95139,-78.3335123176522,4,1,0,90,0,1
95316,-78.9148301556215,4,1,0,90,0,1
95492,-79.3795699470088,4,1,0,90,0,1
95581,-79.5679669607282,4,1,0,90,0,1
95757,-79.8426962249923,4,1,0,90,0,1
95845,-79.9296398301032,4,1,0,90,0,1
95933,-79.9821826534733,4,1,0,90,0,1
96022,-80,4,1,0,90,0,1
98845,-80,4,1,0,90,0,1
99022,-79.8969749502734,4,1,0,90,0,1
99110,-79.8260551584057,4,1,0,90,0,1
99198,-79.7477258947092,4,1,0,90,0,1
99375,-79.5730550188323,4,1,0,90,0,1
99463,-79.4793015204469,4,1,0,90,0,1
99551,-79.381679501172,4,1,0,90,0,1
99639,-79.2805829305236,4,1,0,90,0,1
99728,-79.1751310507292,4,1,0,90,0,1
99816,-79.0679637507467,4,1,0,90,0,1
99904,-78.9581410822209,4,1,0,90,0,1
100081,-78.7299775738199,4,1,0,90,0,1
100257,-78.4945312120686,4,1,0,90,0,1
100345,-78.3739363305021,4,1,0,90,0,1
100433,-78.2515790264786,4,1,0,90,0,1
100522,-78.1261422824101,4,1,0,90,0,1
100610,-78.0005388249057,4,1,0,90,0,1
100786,-77.7449678679857,4,1,0,90,0,1
100963,-77.4825834370939,4,1,0,90,0,1
101139,-77.2168861532841,4,1,0,90,0,1
101228,-77.0808591405945,4,1,0,90,0,1
101404,-76.8088311926065,4,1,0,90,0,1
101492,-76.6714061819128,4,1,0,90,0,1
101581,-76.5315252300169,4,1,0,90,0,1
101669,-76.3923752012611,4,1,0,90,0,1
101845,-76.1117294874722,4,1,0,90,0,1
101933,-75.9703100857791,4,1,0,90,0,1
102022,-75.8265890634722,4,1,0,90,0,1
102110,-75.6838304592877,4,1,0,90,0,1
102198,-75.5404558209893,4,1,0,90,0,1
102286,-75.3964963747388,4,1,0,90,0,1
102375,-75.2503367957263,4,1,0,90,0,1
102551,-74.9597462943909,4,1,0,90,0,1
102639,-74.8137304468117,4,1,0,90,0,1
102728,-74.6656018450993,4,1,0,90,0,1
102816,-74.5187140973394,4,1,0,90,0,1
102904,-74.3714290679923,4,1,0,90,0,1
102992,-74.2237696580398,4,1,0,90,0,1
103081,-74.0740740740741,4,1,0,90,0,1
103266,-76.0819343908825,4,1,0,90,0,1
103442,-78.2016780117144,4,1,0,90,0,1
103531,-79.3192035966602,4,1,0,90,0,1
103619,-80.4560260586319,4,1,0,90,0,1
103795,-82.8303152246814,4,1,0,90,0,1
103972,-85.3637463279765,4,1,0,90,0,1
104148,-88.0413473534129,4,1,0,90,0,1
104325,-89.2857142857143,4,1,0,90,0,1
104501,-90.9090909090909,4,1,0,90,0,1
104678,-111.111111111111,4,1,0,50,0,0
105198,-111.111111111111,4,1,0,50,0,0
105551,-111.111111111111,4,1,0,50,0,0
105904,-111.111111111111,4,1,0,50,0,0
106257,-111.111111111111,4,1,0,50,0,0
106610,-111.111111111111,4,1,0,50,0,0
107316,-111.111111111111,4,1,0,50,0,0
107492,-111.111111111111,4,1,0,50,0,0
107669,-111.111111111111,4,1,0,50,0,0
107845,-111.111111111111,4,1,0,50,0,0
108022,-111.111111111111,4,1,0,50,0,0
108375,-111.111111111111,4,1,0,50,0,0
108551,-111.111111111111,4,1,0,50,0,0
108728,-111.111111111111,4,1,0,50,0,0
109081,-111.111111111111,4,1,0,50,0,0
109433,-111.111111111111,4,1,0,50,0,0
110139,-111.111111111111,4,1,0,50,0,0
110492,-111.111111111111,4,1,0,50,0,0
110845,-111.111111111111,4,1,0,50,0,0
111198,-111.111111111111,4,1,0,50,0,0
111551,-111.111111111111,4,1,0,50,0,0
111904,-111.111111111111,4,1,0,50,0,0
112257,-111.111111111111,4,1,0,50,0,0
112963,-105.306694732655,4,1,0,50,0,0
113148,-103.004817521549,4,1,0,50,0,0
113325,-100.512064875335,4,1,0,50,0,0
113501,-97.907354680576,4,1,0,50,0,0
113678,-95.2035464605668,4,1,0,50,0,0
114031,-89.6936379933479,4,1,0,50,0,0
114207,-86.9409174186069,4,1,0,50,0,0
114384,-84.1963819336672,4,1,0,50,0,0
114560,-81.5066299626609,4,1,0,50,0,0
114736,-78.8534883525138,4,1,0,50,0,0
115089,-73.7533800267992,4,1,0,50,0,0
115266,-71.3179809429696,4,1,0,50,0,0
115442,-68.959272869509,4,1,0,50,0,0
115610,-66.6666666666667,4,1,0,50,0,0
115795,-100,4,1,0,50,0,0

[HitObjects]
256,192,1444,5,4,0:0:0:0:
64,64,1796,1,8,0:0:0:0:
448,64,2149,1,8,0:0:0:0:
448,64,2502,1,0,0:0:0:0:
64,64,2679,1,8,0:0:0:0:
448,64,3032,1,8,0:0:0:0:
256,64,3385,1,0,0:0:0:0:
448,64,3738,1,8,0:0:0:0:
256,192,3914,1,0,0:0:0:0:
64,64,4091,1,0,0:0:0:0:
448,64,4267,1,8,0:0:0:0:
448,64,4620,1,0,0:0:0:0:
64,64,4796,1,8,0:0:0:0:
448,64,5149,1,8,0:0:0:0:
256,64,5502,1,8,0:0:0:0:
448,64,5679,1,0,0:0:0:0:
256,192,5855,5,0,0:0:0:0:
448,64,6208,1,8,0:0:0:0:
448,64,6561,1,0,0:0:0:0:
448,64,6738,1,8,0:0:0:0:
64,64,7091,1,0,0:0:0:0:
448,64,7443,1,8,0:0:0:0:
64,64,7620,1,0,0:0:0:0:
64,64,7796,1,8,0:0:0:0:
64,64,8149,1,0,0:0:0:0:
448,64,8326,1,8,0:0:0:0:
448,64,8679,1,8,0:0:0:0:
64,64,8855,1,8,0:0:0:0:
64,64,9032,1,0,0:0:0:0:
448,64,9385,1,8,0:0:0:0:
64,64,9561,1,8,0:0:0:0:
64,64,9738,1,0,0:0:0:0:
448,64,9914,1,8,0:0:0:0:
448,64,10267,1,8,0:0:0:0:
64,64,10620,1,8,0:0:0:0:
64,64,10973,1,0,0:0:0:0:
448,64,11149,1,0,0:0:0:0:
448,64,11326,1,8,0:0:0:0:
64,64,11502,1,8,0:0:0:0:
448,64,11855,1,8,0:0:0:0:
448,64,12032,1,8,0:0:0:0:
64,64,12385,1,0,0:0:0:0:
64,64,12738,1,4,0:0:0:0:
64,64,12914,1,0,0:0:0:0:
448,64,13091,1,8,0:0:0:0:
64,64,13267,1,0,0:0:0:0:
448,64,13355,1,8,0:0:0:0:
64,64,13443,1,0,0:0:0:0:
448,64,13620,1,8,0:0:0:0:
256,64,13708,1,8,0:0:0:0:
394,76,13796,1,0,0:0:0:0:
64,64,13973,1,0,0:0:0:0:
448,64,14149,1,8,0:0:0:0:
448,64,14326,1,0,0:0:0:0:
64,64,14502,1,8,0:0:0:0:
122,85,14679,1,0,0:0:0:0:
64,64,14767,1,0,0:0:0:0:
448,64,14855,1,8,0:0:0:0:
64,64,15032,1,8,0:0:0:0:
256,64,15120,1,8,0:0:0:0:
64,64,15208,1,0,0:0:0:0:
448,64,15385,1,8,0:0:0:0:
64,64,15561,1,0,0:0:0:0:
64,64,15738,1,0,0:0:0:0:
448,64,15914,1,8,0:0:0:0:
64,64,16091,1,0,0:0:0:0:
256,64,16179,1,0,0:0:0:0:
448,64,16267,1,8,0:0:0:0:
448,64,16355,1,0,0:0:0:0:
448,64,16443,1,8,0:0:0:0:
256,64,16532,1,8,0:0:0:0:
64,64,16620,1,0,0:0:0:0:
64,64,16796,1,0,0:0:0:0:
448,64,16973,1,8,0:0:0:0:
64,64,17149,1,0,0:0:0:0:
448,64,17238,1,8,0:0:0:0:
448,64,17326,1,8,0:0:0:0:
64,64,17502,1,0,0:0:0:0:
256,64,17591,1,8,0:0:0:0:
64,64,17679,1,0,0:0:0:0:
256,64,17767,1,0,0:0:0:0:
448,64,17855,1,8,0:0:0:0:
448,64,17943,1,8,0:0:0:0:
64,64,18032,1,0,0:0:0:0:
448,64,18208,1,8,0:0:0:0:
64,64,18385,1,0,0:0:0:0:
64,64,18561,1,0,0:0:0:0:
64,64,18649,1,0,0:0:0:0:
448,64,18738,1,8,0:0:0:0:
64,64,18914,1,0,0:0:0:0:
448,64,19091,1,8,0:0:0:0:
64,64,19179,1,8,0:0:0:0:
448,64,19267,1,0,0:0:0:0:
64,64,19355,1,8,0:0:0:0:
64,64,19443,1,0,0:0:0:0:
448,64,19620,1,8,0:0:0:0:
448,64,19708,1,8,0:0:0:0:
64,64,19796,1,0,0:0:0:0:
64,64,19885,1,0,0:0:0:0:
448,64,19973,1,8,0:0:0:0:
448,64,20061,1,0,0:0:0:0:
256,64,20149,1,8,0:0:0:0:
64,64,20238,1,8,0:0:0:0:
448,64,20326,1,0,0:0:0:0:
448,64,20502,1,8,0:0:0:0:
448,64,20591,1,8,0:0:0:0:
64,64,20679,1,0,0:0:0:0:
64,64,20767,1,0,0:0:0:0:
448,64,20855,1,8,0:0:0:0:
256,64,20943,1,0,0:0:0:0:
448,64,21032,1,8,0:0:0:0:
64,64,21120,1,0,0:0:0:0:
448,64,21208,1,8,0:0:0:0:
256,64,21296,1,8,0:0:0:0:
64,64,21385,1,0,0:0:0:0:
256,64,21473,1,0,0:0:0:0:
256,64,21561,1,8,0:0:0:0:
64,64,21649,1,0,0:0:0:0:
448,64,21738,1,8,0:0:0:0:
448,64,21826,1,8,0:0:0:0:
256,64,21914,1,8,0:0:0:0:
64,64,22002,1,0,0:0:0:0:
448,64,22091,1,8,0:0:0:0:
256,64,22179,1,0,0:0:0:0:
448,64,22267,1,8,0:0:0:0:
256,64,22355,1,8,0:0:0:0:
256,64,22443,1,0,0:0:0:0:
64,64,22532,1,0,0:0:0:0:
256,320,22620,5,12,0:0:0:0:
256,64,22973,1,8,0:0:0:0:
64,64,23149,1,0,0:0:0:0:
64,64,23238,1,0,0:0:0:0:
448,64,23414,1,0,0:0:0:0:
448,64,23502,1,8,0:0:0:0:
448,64,23591,1,8,0:0:0:0:
64,64,23679,1,0,0:0:0:0:
64,64,23767,1,0,0:0:0:0:
256,64,23855,1,8,0:0:0:0:
256,64,24032,1,0,0:0:0:0:
256,64,24120,1,0,0:0:0:0:
64,64,24208,1,0,0:0:0:0:
448,64,24296,1,8,0:0:0:0:
448,64,24473,1,8,0:0:0:0:
64,64,24561,1,0,0:0:0:0:
256,64,24738,1,8,0:0:0:0:
256,64,24826,1,8,0:0:0:0:
256,64,24914,1,0,0:0:0:0:
64,64,25002,1,0,0:0:0:0:
448,64,25091,1,12,0:0:0:0:
448,320,25443,1,4,0:0:0:0:
256,64,25795,1,8,0:0:0:0:
256,192,25972,1,0,0:0:0:0:
261,183,26031,1,0,0:0:0:0:
261,183,26090,1,0,0:0:0:0:
256,320,26148,1,12,0:0:0:0:
256,320,26413,1,12,0:0:0:0:
256,320,26678,1,12,0:0:0:0:
256,320,26854,1,4,0:0:0:0:
256,64,27031,1,8,0:0:0:0:
64,64,27119,1,0,0:0:0:0:
448,64,27207,1,8,0:0:0:0:
256,64,27384,1,0,0:0:0:0:
448,64,27560,1,8,0:0:0:0:
256,192,27737,1,0,0:0:0:0:
64,64,27825,1,8,0:0:0:0:
448,64,27913,1,0,0:0:0:0:
256,64,28001,1,0,0:0:0:0:
256,64,28090,1,8,0:0:0:0:
256,192,28266,1,8,0:0:0:0:
256,192,28531,1,0,0:0:0:0:
256,192,28619,1,8,0:0:0:0:
256,192,28795,1,0,0:0:0:0:
256,192,28972,1,8,0:0:0:0:
256,192,29148,1,0,0:0:0:0:
248,186,29237,1,8,0:0:0:0:
256,192,29325,1,0,0:0:0:0:
256,64,29501,1,8,0:0:0:0:
256,192,29560,1,0,0:0:0:0:
256,192,29619,1,0,0:0:0:0:
248,186,29678,1,8,0:0:0:0:
248,186,29854,1,0,0:0:0:0:
248,186,29942,1,0,0:0:0:0:
248,186,30031,1,8,0:0:0:0:
256,64,30207,1,0,0:0:0:0:
252,185,30384,1,8,0:0:0:0:
248,186,30472,1,0,0:0:0:0:
248,186,30560,1,0,0:0:0:0:
248,186,30648,1,8,0:0:0:0:
248,186,30737,1,0,0:0:0:0:
248,186,30825,1,0,0:0:0:0:
248,186,30913,1,8,0:0:0:0:
247,186,31090,1,0,0:0:0:0:
252,185,31266,1,0,0:0:0:0:
252,185,31354,1,0,0:0:0:0:
252,185,31442,1,8,0:0:0:0:
248,186,31619,1,0,0:0:0:0:
248,186,31795,1,8,0:0:0:0:
248,186,31884,1,8,0:0:0:0:
248,186,31972,1,0,0:0:0:0:
248,186,32060,1,0,0:0:0:0:
248,186,32148,1,8,0:0:0:0:
252,185,32325,1,0,0:0:0:0:
248,186,32501,1,8,0:0:0:0:
256,64,32590,1,8,0:0:0:0:
248,186,32678,1,0,0:0:0:0:
248,186,32854,1,8,0:0:0:0:
256,64,33031,1,0,0:0:0:0:
248,186,33119,1,0,0:0:0:0:
252,185,33207,1,8,0:0:0:0:
248,191,33295,1,0,0:0:0:0:
248,186,33472,1,0,0:0:0:0:
248,186,33560,1,8,0:0:0:0:
248,186,33737,1,0,0:0:0:0:
256,64,33913,1,8,0:0:0:0:
248,186,34001,1,8,0:0:0:0:
256,64,34090,1,0,0:0:0:0:
64,64,34266,1,8,0:0:0:0:
248,186,34354,1,0,0:0:0:0:
248,186,34442,1,8,0:0:0:0:
248,186,34619,1,0,0:0:0:0:
248,186,34795,1,8,0:0:0:0:
248,186,34884,1,0,0:0:0:0:
251,184,34972,1,8,0:0:0:0:
251,184,35060,1,8,0:0:0:0:
251,184,35148,1,0,0:0:0:0:
248,186,35325,1,8,0:0:0:0:
248,186,35413,1,0,0:0:0:0:
248,186,35501,1,0,0:0:0:0:
248,186,35590,1,0,0:0:0:0:
248,186,35678,1,8,0:0:0:0:
248,186,35854,1,0,0:0:0:0:
251,184,36031,1,0,0:0:0:0:
248,186,36207,1,8,0:0:0:0:
248,186,36295,1,8,0:0:0:0:
248,186,36384,1,0,0:0:0:0:
248,186,36560,1,0,0:0:0:0:
448,64,36737,1,8,0:0:0:0:
64,64,36913,1,0,0:0:0:0:
256,320,37090,1,12,0:0:0:0:
256,64,37266,1,0,0:0:0:0:
250,194,37442,1,8,0:0:0:0:
256,64,37531,1,8,0:0:0:0:
251,184,37619,1,0,0:0:0:0:
251,184,37707,1,0,0:0:0:0:
251,184,37795,1,8,0:0:0:0:
251,184,37884,1,8,0:0:0:0:
248,186,37972,1,0,0:0:0:0:
256,64,38148,1,8,0:0:0:0:
256,64,38325,1,0,0:0:0:0:
256,64,38413,1,0,0:0:0:0:
256,190,38501,1,8,0:0:0:0:
256,190,38678,1,0,0:0:0:0:
256,190,38854,1,8,0:0:0:0:
248,186,38942,1,8,0:0:0:0:
248,186,39031,1,0,0:0:0:0:
256,190,39119,1,0,0:0:0:0:
256,190,39207,1,8,0:0:0:0:
256,64,39295,1,0,0:0:0:0:
256,64,39384,1,8,0:0:0:0:
256,64,39472,1,8,0:0:0:0:
256,64,39560,1,0,0:0:0:0:
256,64,39737,1,0,0:0:0:0:
256,64,39913,1,8,0:0:0:0:
256,64,40090,1,0,0:0:0:0:
256,190,40266,1,8,0:0:0:0:
256,64,40354,1,0,0:0:0:0:
256,190,40442,1,0,0:0:0:0:
256,190,40531,1,0,0:0:0:0:
256,190,40619,1,8,0:0:0:0:
256,181,40795,1,0,0:0:0:0:
256,181,40854,1,0,0:0:0:0:
256,64,40913,1,0,0:0:0:0:
256,181,40972,1,8,0:0:0:0:
256,181,41148,1,0,0:0:0:0:
256,190,41237,1,0,0:0:0:0:
256,190,41325,1,8,0:0:0:0:
256,64,41501,1,8,0:0:0:0:
256,64,41678,1,0,0:0:0:0:
256,181,41766,1,8,0:0:0:0:
253,190,41854,1,0,0:0:0:0:
253,190,41942,1,8,0:0:0:0:
256,181,42031,1,8,0:0:0:0:
253,190,42119,1,0,0:0:0:0:
253,190,42207,1,8,0:0:0:0:
249,183,42384,1,8,0:0:0:0:
256,64,42472,1,8,0:0:0:0:
253,190,42560,1,0,0:0:0:0:
249,183,42737,1,8,0:0:0:0:
253,190,42913,1,0,0:0:0:0:
256,181,43001,1,0,0:0:0:0:
253,190,43090,1,8,0:0:0:0:
253,190,43266,1,0,0:0:0:0:
257,188,43354,1,0,0:0:0:0:
257,188,43442,1,8,0:0:0:0:
253,190,43531,1,8,0:0:0:0:
253,190,43619,1,0,0:0:0:0:
249,183,43795,1,0,0:0:0:0:
256,64,43884,1,8,0:0:0:0:
253,190,43972,1,0,0:0:0:0:
253,190,44148,1,8,0:0:0:0:
257,188,44325,1,0,0:0:0:0:
256,64,44413,1,0,0:0:0:0:
253,190,44501,1,8,0:0:0:0:
256,64,44590,1,8,0:0:0:0:
253,190,44678,1,0,0:0:0:0:
253,190,44766,1,8,0:0:0:0:
256,64,44854,1,0,0:0:0:0:
253,190,44942,1,0,0:0:0:0:
256,64,45031,1,8,0:0:0:0:
256,320,45207,1,12,0:0:0:0:
256,64,45560,1,0,0:0:0:0:
253,190,45825,1,12,0:0:0:0:
257,188,46090,1,12,0:0:0:0:
256,64,46266,1,0,0:0:0:0:
253,190,46442,1,0,0:0:0:0:
256,320,46619,1,12,0:0:0:0:
253,190,46795,1,0,0:0:0:0:
253,190,46884,1,0,0:0:0:0:
257,188,46972,1,8,0:0:0:0:
256,64,47060,1,8,0:0:0:0:
253,190,47148,1,0,0:0:0:0:
256,64,47237,1,0,0:0:0:0:
253,190,47325,1,8,0:0:0:0:
256,64,47413,1,0,0:0:0:0:
256,64,47501,1,8,0:0:0:0:
256,64,47590,1,8,0:0:0:0:
256,64,47678,1,0,0:0:0:0:
256,64,47766,1,0,0:0:0:0:
253,190,47854,1,0,0:0:0:0:
64,64,47942,1,0,0:0:0:0:
253,190,48031,1,12,0:0:0:0:
253,190,48384,1,12,0:0:0:0:
253,190,48737,1,8,0:0:0:0:
256,64,48825,1,8,0:0:0:0:
253,190,48913,1,0,0:0:0:0:
253,190,48972,1,0,0:0:0:0:
253,190,49031,1,0,0:0:0:0:
448,64,49090,1,8,0:0:0:0:
448,64,49178,1,8,0:0:0:0:
64,320,49267,1,4,0:0:0:0:
253,190,49619,1,0,0:0:0:0:
448,320,49795,1,12,0:0:0:0:
64,64,50148,1,0,0:0:0:0:
448,320,50325,1,12,0:0:0:0:
448,320,50678,1,12,0:0:0:0:
448,320,51207,1,12,0:0:0:0:
253,190,51560,1,0,0:0:0:0:
253,190,51737,1,0,0:0:0:0:
256,64,51825,1,0,0:0:0:0:
253,190,51913,1,8,0:0:0:0:
259,191,51957,1,8,0:0:0:0:
253,190,52090,1,0,0:0:0:0:
259,191,52134,1,0,0:0:0:0:
448,64,52266,1,12,0:0:0:0:
448,320,52619,1,12,0:0:0:0:
253,190,52972,1,4,0:0:0:0:
64,320,53325,1,4,0:0:0:0:
448,320,53678,1,12,0:0:0:0:
448,320,54031,1,12,0:0:0:0:
253,190,54384,1,8,0:0:0:0:
256,64,54560,1,0,0:0:0:0:
253,190,54648,1,0,0:0:0:0:
253,190,54737,1,0,0:0:0:0:
448,320,54913,1,12,0:0:0:0:
253,190,55266,1,0,0:0:0:0:
246,181,55442,1,12,0:0:0:0:
253,190,55795,1,0,0:0:0:0:
64,64,55884,1,0,0:0:0:0:
253,190,55972,1,12,0:0:0:0:
64,320,56325,1,4,0:0:0:0:
253,190,56590,1,4,0:0:0:0:
253,190,57031,1,0,0:0:0:0:
253,190,57119,1,0,0:0:0:0:
249,202,57207,1,8,0:0:0:0:
249,202,57295,1,0,0:0:0:0:
253,190,57384,1,8,0:0:0:0:
253,190,57472,1,8,0:0:0:0:
253,190,57560,1,0,0:0:0:0:
448,320,57737,1,12,0:0:0:0:
253,190,58090,1,0,0:0:0:0:
64,64,58178,1,0,0:0:0:0:
448,320,58266,1,12,0:0:0:0:
253,190,58619,1,4,0:0:0:0:
253,190,58972,1,4,0:0:0:0:
256,320,59325,1,12,0:0:0:0:
253,190,59501,1,0,0:0:0:0:
253,190,59590,1,0,0:0:0:0:
253,190,59678,1,8,0:0:0:0:
253,190,59854,1,0,0:0:0:0:
253,190,60031,1,8,0:0:0:0:
253,190,60207,1,8,0:0:0:0:
253,190,60295,1,8,0:0:0:0:
253,190,60384,1,8,0:0:0:0:
253,190,60560,1,0,0:0:0:0:
253,190,60737,1,8,0:0:0:0:
253,190,60913,1,0,0:0:0:0:
253,190,61001,1,8,0:0:0:0:
253,190,61090,1,8,0:0:0:0:
253,190,61266,1,0,0:0:0:0:
253,190,61442,1,8,0:0:0:0:
256,64,61619,1,8,0:0:0:0:
253,190,61795,1,0,0:0:0:0:
253,190,61972,1,0,0:0:0:0:
253,190,62148,1,8,0:0:0:0:
253,190,62325,1,0,0:0:0:0:
253,190,62413,1,0,0:0:0:0:
253,190,62501,1,8,0:0:0:0:
253,190,62678,1,0,0:0:0:0:
256,64,62854,1,8,0:0:0:0:
253,190,62942,1,8,0:0:0:0:
253,190,63031,1,0,0:0:0:0:
253,190,63119,1,8,0:0:0:0:
253,190,63207,1,0,0:0:0:0:
253,190,63384,1,0,0:0:0:0:
253,190,63560,1,8,0:0:0:0:
253,190,63737,1,8,0:0:0:0:
253,190,63825,1,8,0:0:0:0:
253,190,63913,1,8,0:0:0:0:
253,190,64090,1,0,0:0:0:0:
253,190,64266,1,0,0:0:0:0:
253,190,64442,1,8,0:0:0:0:
253,190,64619,1,8,0:0:0:0:
253,190,64972,1,8,0:0:0:0:
253,190,65148,1,8,0:0:0:0:
253,190,65237,1,8,0:0:0:0:
253,190,65325,1,8,0:0:0:0:
253,190,65501,1,0,0:0:0:0:
253,190,65678,1,8,0:0:0:0:
253,190,65854,1,0,0:0:0:0:
253,190,65942,1,8,0:0:0:0:
253,190,66031,1,8,0:0:0:0:
253,190,66207,1,0,0:0:0:0:
253,190,66384,1,8,0:0:0:0:
253,190,66560,1,8,0:0:0:0:
253,190,66648,1,8,0:0:0:0:
253,190,66737,1,0,0:0:0:0:
253,190,66913,1,0,0:0:0:0:
253,190,67090,1,8,0:0:0:0:
256,64,67266,1,8,0:0:0:0:
253,190,67442,1,0,0:0:0:0:
256,64,67619,1,0,0:0:0:0:
253,190,67795,1,8,0:0:0:0:
253,190,67972,1,0,0:0:0:0:
253,190,68060,1,0,0:0:0:0:
253,190,68148,1,8,0:0:0:0:
253,190,68325,1,8,0:0:0:0:
253,190,68501,1,0,0:0:0:0:
253,190,68590,1,8,0:0:0:0:
253,190,68678,1,0,0:0:0:0:
253,190,68766,1,0,0:0:0:0:
253,190,68854,1,8,0:0:0:0:
253,190,69031,1,0,0:0:0:0:
253,190,69207,1,8,0:0:0:0:
253,190,69384,1,0,0:0:0:0:
253,190,69472,1,0,0:0:0:0:
253,190,69560,1,8,0:0:0:0:
256,64,69737,1,8,0:0:0:0:
256,64,69913,1,0,0:0:0:0:
256,64,70090,1,8,0:0:0:0:
256,64,70178,5,8,0:0:0:0:
256,64,70266,1,8,0:0:0:0:
253,190,70442,1,0,0:0:0:0:
256,320,70619,1,12,0:0:0:0:
253,190,70795,1,0,0:0:0:0:
253,190,70884,1,0,0:0:0:0:
448,64,70972,1,8,0:0:0:0:
253,190,71148,1,0,0:0:0:0:
64,64,71325,1,8,0:0:0:0:
448,64,71413,1,8,0:0:0:0:
448,64,71501,1,0,0:0:0:0:
253,190,71590,1,8,0:0:0:0:
448,64,71678,1,0,0:0:0:0:
253,190,71854,1,8,0:0:0:0:
253,190,72031,1,0,0:0:0:0:
253,190,72207,1,0,0:0:0:0:
253,190,72295,1,0,0:0:0:0:
253,190,72384,1,8,0:0:0:0:
253,190,72560,1,0,0:0:0:0:
253,190,72737,1,8,0:0:0:0:
253,190,72825,1,8,0:0:0:0:
253,190,72913,1,0,0:0:0:0:
253,190,73001,1,0,0:0:0:0:
253,190,73090,1,8,0:0:0:0:
253,190,73266,1,0,0:0:0:0:
253,190,73442,1,8,0:0:0:0:
253,190,73619,1,0,0:0:0:0:
253,190,73707,1,8,0:0:0:0:
253,190,73795,1,0,0:0:0:0:
253,190,73972,1,8,0:0:0:0:
253,190,74148,1,0,0:0:0:0:
253,190,74237,1,0,0:0:0:0:
253,190,74325,1,8,0:0:0:0:
253,190,74413,1,8,0:0:0:0:
253,190,74501,1,0,0:0:0:0:
253,190,74678,1,8,0:0:0:0:
253,190,74854,1,0,0:0:0:0:
253,190,75031,1,8,0:0:0:0:
253,190,75119,1,8,0:0:0:0:
253,190,75207,1,0,0:0:0:0:
253,190,75384,1,8,0:0:0:0:
253,190,75560,1,0,0:0:0:0:
253,190,75648,1,0,0:0:0:0:
253,190,75737,1,8,0:0:0:0:
253,190,75825,1,8,0:0:0:0:
253,190,75913,1,8,0:0:0:0:
253,190,76090,1,0,0:0:0:0:
253,190,76266,1,8,0:0:0:0:
253,190,76354,1,8,0:0:0:0:
253,190,76442,1,0,0:0:0:0:
253,190,76531,1,0,0:0:0:0:
253,190,76619,1,8,0:0:0:0:
253,190,76795,1,0,0:0:0:0:
253,190,76972,1,8,0:0:0:0:
256,64,77060,1,0,0:0:0:0:
256,64,77148,1,8,0:0:0:0:
256,64,77237,1,8,0:0:0:0:
256,64,77325,1,0,0:0:0:0:
253,190,77501,1,8,0:0:0:0:
253,190,77678,1,0,0:0:0:0:
256,64,77766,1,0,0:0:0:0:
256,64,77854,1,8,0:0:0:0:
256,64,77942,1,0,0:0:0:0:
256,64,78031,1,8,0:0:0:0:
253,190,78207,1,8,0:0:0:0:
253,190,78384,1,0,0:0:0:0:
253,190,78472,1,0,0:0:0:0:
253,190,78560,1,8,0:0:0:0:
253,190,78648,1,0,0:0:0:0:
253,190,78737,1,8,0:0:0:0:
253,190,78825,1,8,0:0:0:0:
253,190,78913,1,0,0:0:0:0:
253,190,79001,1,0,0:0:0:0:
256,192,79090,5,8,0:0:0:0:
256,192,79178,1,8,0:0:0:0:
256,192,79266,1,8,0:0:0:0:
256,192,79354,1,0,0:0:0:0:
256,192,79442,1,8,0:0:0:0:
256,192,79531,1,8,0:0:0:0:
256,192,79619,1,0,0:0:0:0:
256,192,79707,1,0,0:0:0:0:
256,192,79795,1,8,0:0:0:0:
256,192,79884,1,0,0:0:0:0:
256,192,79972,1,8,0:0:0:0:
256,192,80060,1,0,0:0:0:0:
256,192,80148,1,8,0:0:0:0:
256,192,80237,1,8,0:0:0:0:
261,189,80325,5,0,0:0:0:0:
256,64,80413,1,0,0:0:0:0:
256,320,80501,5,12,0:0:0:0:
261,189,80854,1,8,0:0:0:0:
256,192,80913,1,8,0:0:0:0:
256,192,80972,1,8,0:0:0:0:
261,189,81031,1,0,0:0:0:0:
261,189,81119,1,0,0:0:0:0:
261,189,81207,1,8,0:0:0:0:
256,64,81295,1,8,0:0:0:0:
261,189,81384,1,0,0:0:0:0:
261,189,81472,1,0,0:0:0:0:
261,189,81560,1,8,0:0:0:0:
261,189,81737,1,0,0:0:0:0:
261,189,81913,1,12,0:0:0:0:
261,189,82090,1,0,0:0:0:0:
261,189,82178,1,0,0:0:0:0:
261,189,82266,1,8,0:0:0:0:
261,189,82442,1,0,0:0:0:0:
261,189,82531,1,0,0:0:0:0:
261,189,82619,1,8,0:0:0:0:
261,189,82707,1,8,0:0:0:0:
261,189,82795,1,0,0:0:0:0:
261,189,82884,1,0,0:0:0:0:
261,189,82972,1,8,0:0:0:0:
261,189,83148,1,0,0:0:0:0:
261,189,83325,1,8,0:0:0:0:
261,189,83413,1,8,0:0:0:0:
261,189,83501,1,0,0:0:0:0:
261,189,83590,1,0,0:0:0:0:
261,189,83678,1,8,0:0:0:0:
256,64,83854,1,0,0:0:0:0:
261,189,84031,1,8,0:0:0:0:
261,189,84207,1,0,0:0:0:0:
261,189,84295,1,8,0:0:0:0:
261,189,84472,1,8,0:0:0:0:
261,189,84560,1,0,0:0:0:0:
261,189,84648,1,0,0:0:0:0:
261,189,84737,1,8,0:0:0:0:
261,189,84913,1,0,0:0:0:0:
261,189,85001,1,0,0:0:0:0:
261,189,85090,1,8,0:0:0:0:
261,189,85266,1,0,0:0:0:0:
261,189,85442,1,8,0:0:0:0:
261,189,85531,1,0,0:0:0:0:
261,189,85619,1,0,0:0:0:0:
261,189,85707,1,8,0:0:0:0:
261,189,85795,1,0,0:0:0:0:
261,189,85884,1,0,0:0:0:0:
261,189,85972,1,8,0:0:0:0:
261,189,86148,1,8,0:0:0:0:
261,189,86325,1,0,0:0:0:0:
261,189,86413,1,0,0:0:0:0:
261,189,86501,1,8,0:0:0:0:
261,189,86678,1,8,0:0:0:0:
261,189,86854,1,0,0:0:0:0:
261,189,86942,1,8,0:0:0:0:
261,189,87031,1,8,0:0:0:0:
261,189,87119,1,0,0:0:0:0:
261,189,87207,1,8,0:0:0:0:
261,189,87295,1,8,0:0:0:0:
261,189,87384,1,0,0:0:0:0:
261,189,87560,1,8,0:0:0:0:
261,189,87737,1,0,0:0:0:0:
261,189,87825,1,0,0:0:0:0:
261,189,87913,1,8,0:0:0:0:
261,189,88090,1,0,0:0:0:0:
261,189,88178,1,0,0:0:0:0:
261,189,88266,1,8,0:0:0:0:
261,189,88354,1,8,0:0:0:0:
261,189,88442,1,0,0:0:0:0:
261,189,88531,1,0,0:0:0:0:
261,189,88619,1,8,0:0:0:0:
261,189,88795,1,8,0:0:0:0:
261,189,88972,1,0,0:0:0:0:
256,64,89060,1,8,0:0:0:0:
261,189,89148,1,0,0:0:0:0:
261,189,89325,1,8,0:0:0:0:
261,189,89413,1,8,0:0:0:0:
261,189,89501,1,0,0:0:0:0:
261,189,89590,1,0,0:0:0:0:
261,189,89678,1,8,0:0:0:0:
261,189,89854,1,0,0:0:0:0:
261,189,89942,1,8,0:0:0:0:
261,189,90119,1,0,0:0:0:0:
256,64,90207,1,8,0:0:0:0:
261,189,90295,5,0,0:0:0:0:
261,189,90384,1,8,0:0:0:0:
261,189,90560,1,0,0:0:0:0:
261,189,90648,1,0,0:0:0:0:
261,189,90737,1,8,0:0:0:0:
261,189,90913,1,0,0:0:0:0:
261,189,91090,1,8,0:0:0:0:
261,189,91178,1,0,0:0:0:0:
261,189,91266,1,0,0:0:0:0:
261,189,91354,1,8,0:0:0:0:
261,189,91442,1,0,0:0:0:0:
261,189,91531,1,0,0:0:0:0:
261,189,91619,1,8,0:0:0:0:
261,189,91707,1,0,0:0:0:0:
261,189,91795,1,8,0:0:0:0:
261,189,91972,1,0,0:0:0:0:
261,189,92060,1,0,0:0:0:0:
261,189,92148,1,8,0:0:0:0:
261,189,92325,1,0,0:0:0:0:
261,189,92413,1,0,0:0:0:0:
261,189,92501,1,8,0:0:0:0:
261,189,92590,1,8,0:0:0:0:
261,189,92678,1,0,0:0:0:0:
261,189,92854,1,8,0:0:0:0:
261,189,93031,1,8,0:0:0:0:
261,189,93207,1,0,0:0:0:0:
261,189,93266,1,0,0:0:0:0:
261,189,93325,1,0,0:0:0:0:
261,189,93384,1,0,0:0:0:0:
261,189,93560,1,12,0:0:0:0:
261,189,93737,5,0,0:0:0:0:
261,189,93913,1,8,0:0:0:0:
261,189,94090,1,0,0:0:0:0:
261,189,94178,1,0,0:0:0:0:
261,189,94266,1,8,0:0:0:0:
261,189,94442,1,8,0:0:0:0:
261,189,94619,1,0,0:0:0:0:
261,189,94707,1,0,0:0:0:0:
261,189,94795,1,8,0:0:0:0:
261,189,94884,1,0,0:0:0:0:
261,189,94972,1,8,0:0:0:0:
261,189,95148,1,0,0:0:0:0:
261,189,95325,1,8,0:0:0:0:
261,189,95501,1,0,0:0:0:0:
261,189,95590,1,8,0:0:0:0:
256,64,95766,1,8,0:0:0:0:
256,64,95854,1,0,0:0:0:0:
261,189,95942,1,0,0:0:0:0:
261,189,96031,1,8,0:0:0:0:
261,189,96207,1,0,0:0:0:0:
261,189,96295,1,0,0:0:0:0:
261,189,96384,1,8,0:0:0:0:
261,189,96560,1,0,0:0:0:0:
261,189,96737,1,8,0:0:0:0:
261,189,96913,1,0,0:0:0:0:
261,189,97001,1,8,0:0:0:0:
261,189,97178,1,0,0:0:0:0:
261,189,97266,1,0,0:0:0:0:
261,189,97354,1,8,0:0:0:0:
261,189,97442,1,8,0:0:0:0:
261,189,97619,1,0,0:0:0:0:
261,189,97707,1,0,0:0:0:0:
261,189,97795,1,8,0:0:0:0:
261,189,97972,1,0,0:0:0:0:
261,189,98060,1,8,0:0:0:0:
261,189,98148,1,8,0:0:0:0:
261,189,98237,1,0,0:0:0:0:
261,189,98325,1,0,0:0:0:0:
261,189,98413,1,8,0:0:0:0:
261,189,98590,1,0,0:0:0:0:
261,189,98678,1,8,0:0:0:0:
261,189,98854,1,8,0:0:0:0:
261,189,99031,1,0,0:0:0:0:
261,189,99119,1,0,0:0:0:0:
261,189,99207,1,8,0:0:0:0:
261,189,99384,1,0,0:0:0:0:
261,189,99472,1,0,0:0:0:0:
261,189,99560,1,8,0:0:0:0:
261,189,99648,1,8,0:0:0:0:
261,189,99737,1,0,0:0:0:0:
261,189,99825,1,0,0:0:0:0:
261,189,99913,1,8,0:0:0:0:
255,63,100090,1,8,0:0:0:0:
261,189,100266,1,0,0:0:0:0:
261,189,100354,1,0,0:0:0:0:
261,189,100442,1,8,0:0:0:0:
261,189,100531,1,0,0:0:0:0:
261,189,100619,1,8,0:0:0:0:
261,189,100795,1,0,0:0:0:0:
261,189,100972,1,8,0:0:0:0:
261,189,101148,1,0,0:0:0:0:
261,189,101237,1,8,0:0:0:0:
261,189,101413,1,8,0:0:0:0:
261,189,101501,1,0,0:0:0:0:
261,189,101590,1,0,0:0:0:0:
261,189,101678,1,8,0:0:0:0:
261,189,101854,1,0,0:0:0:0:
261,189,101942,1,0,0:0:0:0:
261,189,102031,1,8,0:0:0:0:
256,64,102119,1,8,0:0:0:0:
261,189,102207,1,0,0:0:0:0:
261,189,102295,1,0,0:0:0:0:
261,189,102384,1,8,0:0:0:0:
261,189,102560,1,8,0:0:0:0:
261,189,102648,1,8,0:0:0:0:
261,189,102737,1,0,0:0:0:0:
256,64,102825,1,8,0:0:0:0:
256,64,102913,1,0,0:0:0:0:
256,64,103001,1,0,0:0:0:0:
256,64,103090,1,8,0:0:0:0:
261,189,103266,1,0,0:0:0:0:
261,189,103442,1,8,0:0:0:0:
256,64,103531,1,8,0:0:0:0:
261,189,103619,1,0,0:0:0:0:
261,189,103795,1,8,0:0:0:0:
261,189,103972,1,8,0:0:0:0:
261,189,104148,1,0,0:0:0:0:
256,64,104325,1,0,0:0:0:0:
256,192,104501,5,12,0:0:0:0:
256,192,104854,1,0,0:0:0:0:
256,192,105207,1,8,0:0:0:0:
256,192,105560,1,0,0:0:0:0:
256,192,105913,1,8,0:0:0:0:
256,192,106266,1,8,0:0:0:0:
256,192,106619,1,0,0:0:0:0:
253,182,107325,1,8,0:0:0:0:
256,192,107501,1,0,0:0:0:0:
253,182,107678,1,8,0:0:0:0:
255,191,107854,1,0,0:0:0:0:
253,182,108031,1,0,0:0:0:0:
253,182,108384,1,8,0:0:0:0:
255,191,108560,1,0,0:0:0:0:
253,182,108737,1,8,0:0:0:0:
255,191,109090,1,0,0:0:0:0:
253,182,109442,1,8,0:0:0:0:
253,182,110148,1,8,0:0:0:0:
253,182,110501,1,0,0:0:0:0:
253,182,110854,1,8,0:0:0:0:
253,182,111207,1,0,0:0:0:0:
253,182,111560,1,8,0:0:0:0:
256,64,111913,1,8,0:0:0:0:
256,64,112266,1,0,0:0:0:0:
253,182,112972,1,8,0:0:0:0:
253,182,113148,5,0,0:0:0:0:
253,182,113325,1,8,0:0:0:0:
253,182,113501,1,0,0:0:0:0:
253,182,113678,1,0,0:0:0:0:
253,182,114031,1,8,0:0:0:0:
253,182,114207,1,0,0:0:0:0:
253,182,114384,1,8,0:0:0:0:
256,64,114560,1,8,0:0:0:0:
253,182,114737,1,0,0:0:0:0:
256,64,115090,1,0,0:0:0:0:
256,192,115266,5,0,0:0:0:0:
256,192,115442,1,0,0:0:0:0:
253,182,115619,1,12,0:0:0:0:
