osu file format v14

[General]
AudioFilename: audio.mp3
AudioLeadIn: 0
PreviewTime: 209757
Countdown: 0
SampleSet: Soft
StackLeniency: 0.7
Mode: 3
LetterboxInBreaks: 0
SpecialStyle: 0
WidescreenStoryboard: 0

[Editor]
Bookmarks: 233242
DistanceSpacing: 1
BeatDivisor: 4
GridSize: 32
TimelineZoom: 3

[Metadata]
Title:hype (lapix Remix)
TitleUnicode:hype (lapix Remix)
Artist:PSYQUI feat. Such
ArtistUnicode:PSYQUI feat. Such
Creator:Sato Mirai
Version:HYPE/rdive // Hard
Source:
Tags:
BeatmapID:2019922
BeatmapSetID:964874

[Difficulty]
HPDrainRate:8
CircleSize:4
OverallDifficulty:8
ApproachRate:5
SliderMultiplier:1.4
SliderTickRate:1

[Events]
//Background and Video events
0,0,"BG.jpg",0,0
//Break Periods
//Storyboard Layer 0 (Background)
//Storyboard Layer 1 (Fail)
//Storyboard Layer 2 (Pass)
//Storyboard Layer 3 (Foreground)
//Storyboard Sound Samples

[TimingPoints]
1300,342.857142857143,4,2,1,60,1,0
68500,-100,4,2,1,60,0,1
85300,-108.695652173913,4,2,1,60,0,1
87700,-99.9999999999999,4,2,1,60,0,1
89071,-100,4,2,1,60,0,0
211128,-100,4,2,1,60,0,1
219357,-100,4,2,1,60,0,0
222100,-100,4,2,1,60,0,1
233071,-100,4,2,1,60,0,0

[HitObjects]
64,192,1128,5,0,0:0:0:0:
320,192,1300,1,0,0:0:0:0:
448,192,1300,1,0,0:0:0:0:
192,192,1471,1,0,0:0:0:0:
64,192,1642,1,0,0:0:0:0:
192,192,1728,1,0,0:0:0:0:
320,192,1814,1,0,0:0:0:0:
448,192,1900,1,0,0:0:0:0:
64,192,1985,1,0,0:0:0:0:
192,192,2157,1,0,0:0:0:0:
448,192,2328,1,0,0:0:0:0:
320,192,2414,1,0,0:0:0:0:
192,192,2500,1,0,0:0:0:0:
64,192,2585,1,0,0:0:0:0:
320,192,2671,1,0,0:0:0:0:
448,192,2671,1,0,0:0:0:0:
192,192,3014,1,0,0:0:0:0:
64,192,3014,1,0,0:0:0:0:
320,192,3185,128,0,3357:0:0:0:0:
64,192,3357,1,0,0:0:0:0:
192,192,3442,1,0,0:0:0:0:
320,192,3528,1,0,0:0:0:0:
448,192,3614,1,0,0:0:0:0:
64,192,3700,1,0,0:0:0:0:
192,192,3700,1,0,0:0:0:0:
192,192,4042,1,0,0:0:0:0:
320,192,4042,1,0,0:0:0:0:
64,192,4385,1,0,0:0:0:0:
448,192,4385,1,0,0:0:0:0:
192,192,4557,128,0,4728:0:0:0:0:
448,192,4728,1,0,0:0:0:0:
320,192,4814,1,0,0:0:0:0:
192,192,4900,1,0,0:0:0:0:
64,192,4985,1,0,0:0:0:0:
320,192,5071,1,0,0:0:0:0:
448,192,5071,1,0,0:0:0:0:
192,192,5242,1,0,0:0:0:0:
64,192,5414,128,0,5757:0:0:0:0:
448,192,5414,1,0,0:0:0:0:
320,192,5757,128,0,6100:0:0:0:0:
192,192,5757,1,0,0:0:0:0:
192,192,6100,128,0,6442:0:0:0:0:
448,192,6100,1,0,0:0:0:0:
448,192,6442,128,0,6614:0:0:0:0:
64,192,6442,1,0,0:0:0:0:
320,192,6614,128,0,6785:0:0:0:0:
64,192,6785,1,0,0:0:0:0:
192,192,6871,1,0,0:0:0:0:
320,192,6957,1,0,0:0:0:0:
448,192,7042,1,0,0:0:0:0:
64,192,7128,128,0,7471:0:0:0:0:
192,192,7128,1,0,0:0:0:0:
192,192,7471,128,0,7814:0:0:0:0:
320,192,7471,1,0,0:0:0:0:
320,192,7814,128,0,8157:0:0:0:0:
448,192,7814,1,0,0:0:0:0:
192,192,8157,1,0,0:0:0:0:
64,192,8328,128,0,8500:0:0:0:0:
320,192,8500,1,0,0:0:0:0:
448,192,8671,128,0,8842:0:0:0:0:
64,192,8842,1,0,0:0:0:0:
192,192,8928,1,0,0:0:0:0:
448,192,9014,1,0,0:0:0:0:
320,192,9100,1,0,0:0:0:0:
64,192,9185,1,0,0:0:0:0:
192,192,9185,1,0,0:0:0:0:
448,192,9528,1,0,0:0:0:0:
192,192,9528,1,0,0:0:0:0:
64,192,9871,1,0,0:0:0:0:
320,192,9871,1,0,0:0:0:0:
192,192,10042,128,0,10214:0:0:0:0:
320,192,10214,1,0,0:0:0:0:
448,192,10300,1,0,0:0:0:0:
192,192,10385,1,0,0:0:0:0:
64,192,10471,1,0,0:0:0:0:
320,192,10557,1,0,0:0:0:0:
448,192,10557,1,0,0:0:0:0:
64,192,10900,1,0,0:0:0:0:
192,192,11071,128,0,11242:0:0:0:0:
320,192,11242,1,0,0:0:0:0:
448,192,11414,128,0,11585:0:0:0:0:
64,192,11585,1,0,0:0:0:0:
192,192,11671,1,0,0:0:0:0:
320,192,11757,1,0,0:0:0:0:
448,192,11842,1,0,0:0:0:0:
64,192,11928,1,0,0:0:0:0:
192,192,11928,1,0,0:0:0:0:
320,192,12271,1,0,0:0:0:0:
448,192,12271,128,0,12442:0:0:0:0:
64,192,12614,1,0,0:0:0:0:
192,192,12614,1,0,0:0:0:0:
192,192,12957,1,0,0:0:0:0:
320,192,12957,1,0,0:0:0:0:
320,192,13300,1,0,0:0:0:0:
448,192,13300,1,0,0:0:0:0:
64,192,13642,1,0,0:0:0:0:
448,192,13814,128,0,13985:0:0:0:0:
192,192,13985,1,0,0:0:0:0:
320,192,14157,128,0,14328:0:0:0:0:
64,192,14328,1,0,0:0:0:0:
192,192,14414,1,0,0:0:0:0:
448,192,14500,1,0,0:0:0:0:
320,192,14585,1,0,0:0:0:0:
192,192,14671,1,0,0:0:0:0:
64,192,14671,1,0,0:0:0:0:
448,192,15014,1,0,0:0:0:0:
192,192,15014,1,0,0:0:0:0:
64,192,15357,1,0,0:0:0:0:
320,192,15357,1,0,0:0:0:0:
448,192,15528,128,0,15700:0:0:0:0:
192,192,15700,1,0,0:0:0:0:
320,192,15785,1,0,0:0:0:0:
64,192,15871,1,0,0:0:0:0:
192,192,15957,1,0,0:0:0:0:
320,192,16042,1,0,0:0:0:0:
448,192,16042,1,0,0:0:0:0:
192,192,16385,128,0,16728:0:0:0:0:
64,192,16385,1,0,0:0:0:0:
448,192,16728,128,0,17071:0:0:0:0:
320,192,16728,1,0,0:0:0:0:
64,192,17071,128,0,17414:0:0:0:0:
192,192,17071,1,0,0:0:0:0:
320,192,17414,128,0,17585:0:0:0:0:
192,192,17414,1,0,0:0:0:0:
448,192,17585,128,0,17757:0:0:0:0:
64,192,17757,1,0,0:0:0:0:
192,192,17842,1,0,0:0:0:0:
320,192,17928,1,0,0:0:0:0:
448,192,18014,1,0,0:0:0:0:
320,192,18100,128,0,18442:0:0:0:0:
64,192,18100,1,0,0:0:0:0:
192,192,18442,128,0,18785:0:0:0:0:
448,192,18442,1,0,0:0:0:0:
64,192,18785,128,0,19128:0:0:0:0:
320,192,18785,1,0,0:0:0:0:
448,192,19128,128,0,19471:0:0:0:0:
192,192,19128,1,0,0:0:0:0:
192,192,19471,128,0,19814:0:0:0:0:
320,192,19471,1,0,0:0:0:0:
320,192,19814,128,0,20157:0:0:0:0:
64,192,19814,1,0,0:0:0:0:
64,192,20157,128,0,20500:0:0:0:0:
448,192,20157,1,0,0:0:0:0:
448,192,20500,128,0,20671:0:0:0:0:
192,192,20500,1,0,0:0:0:0:
320,192,20671,128,0,20842:0:0:0:0:
192,192,20842,128,0,21014:0:0:0:0:
64,192,21014,128,0,21185:0:0:0:0:
448,192,21185,128,0,21357:0:0:0:0:
192,192,21357,128,0,21528:0:0:0:0:
320,192,21528,128,0,21700:0:0:0:0:
448,192,21700,128,0,21871:0:0:0:0:
64,192,21871,5,0,0:0:0:0:
192,192,21957,1,0,0:0:0:0:
320,192,22042,1,0,0:0:0:0:
448,192,22128,1,0,0:0:0:0:
64,192,22214,1,0,0:0:0:0:
192,192,22300,1,0,0:0:0:0:
320,192,22385,1,0,0:0:0:0:
448,192,22471,1,0,0:0:0:0:
64,192,22557,1,0,0:0:0:0:
192,192,22642,1,0,0:0:0:0:
448,192,22728,1,0,0:0:0:0:
320,192,22814,1,0,0:0:0:0:
192,192,22900,1,0,0:0:0:0:
64,192,22985,1,0,0:0:0:0:
448,192,23071,1,0,0:0:0:0:
320,192,23157,1,0,0:0:0:0:
192,192,23242,1,0,0:0:0:0:
64,192,23242,1,0,0:0:0:0:
64,192,24614,1,0,0:0:0:0:
448,192,24614,1,0,0:0:0:0:
192,192,25985,1,0,0:0:0:0:
320,192,25985,1,0,0:0:0:0:
320,192,27014,1,0,0:0:0:0:
192,192,27357,1,0,0:0:0:0:
448,192,27357,1,0,0:0:0:0:
64,192,28557,1,0,0:0:0:0:
192,192,28557,1,0,0:0:0:0:
64,192,29757,1,0,0:0:0:0:
448,192,29757,1,0,0:0:0:0:
192,192,30100,1,0,0:0:0:0:
320,192,30100,1,0,0:0:0:0:
320,192,31471,1,0,0:0:0:0:
448,192,31471,1,0,0:0:0:0:
192,192,32157,1,0,0:0:0:0:
320,192,32157,1,0,0:0:0:0:
64,192,32500,1,0,0:0:0:0:
192,192,32671,1,0,0:0:0:0:
448,192,32842,1,0,0:0:0:0:
320,192,32842,1,0,0:0:0:0:
64,192,34042,1,0,0:0:0:0:
320,192,34042,1,0,0:0:0:0:
192,192,34900,1,0,0:0:0:0:
448,192,34900,1,0,0:0:0:0:
64,192,35585,1,0,0:0:0:0:
192,192,35585,1,0,0:0:0:0:
192,192,36185,1,0,0:0:0:0:
320,192,36614,1,0,0:0:0:0:
448,192,36614,1,0,0:0:0:0:
192,192,36785,1,0,0:0:0:0:
64,192,36957,1,0,0:0:0:0:
448,192,36957,1,0,0:0:0:0:
320,192,37300,1,0,0:0:0:0:
64,192,37985,1,0,0:0:0:0:
192,192,38328,1,0,0:0:0:0:
320,192,38328,1,0,0:0:0:0:
448,192,38671,1,0,0:0:0:0:
64,192,38842,1,0,0:0:0:0:
320,192,39185,1,0,0:0:0:0:
192,192,39357,1,0,0:0:0:0:
64,192,39357,1,0,0:0:0:0:
448,192,39528,1,0,0:0:0:0:
320,192,39528,1,0,0:0:0:0:
64,192,40042,1,0,0:0:0:0:
320,192,40042,1,0,0:0:0:0:
64,192,40385,1,0,0:0:0:0:
448,192,40385,1,0,0:0:0:0:
320,192,40557,1,0,0:0:0:0:
192,192,40728,1,0,0:0:0:0:
64,192,40900,1,0,0:0:0:0:
448,192,41071,1,0,0:0:0:0:
320,192,41071,1,0,0:0:0:0:
192,192,41414,1,0,0:0:0:0:
64,192,41757,1,0,0:0:0:0:
320,192,42100,1,0,0:0:0:0:
448,192,42100,1,0,0:0:0:0:
192,192,42442,1,0,0:0:0:0:
64,192,42442,1,0,0:0:0:0:
320,192,42785,1,0,0:0:0:0:
448,192,43128,1,0,0:0:0:0:
64,192,43471,1,0,0:0:0:0:
192,192,43814,1,0,0:0:0:0:
448,192,43814,1,0,0:0:0:0:
320,192,44157,1,0,0:0:0:0:
64,192,44500,1,0,0:0:0:0:
192,192,44671,1,0,0:0:0:0:
320,192,44842,1,0,0:0:0:0:
448,192,45014,1,0,0:0:0:0:
192,192,45357,1,0,0:0:0:0:
320,192,45528,1,0,0:0:0:0:
448,192,45871,1,0,0:0:0:0:
64,192,45871,128,0,46557:0:0:0:0:
320,192,46557,1,0,0:0:0:0:
192,192,46900,1,0,0:0:0:0:
448,192,47071,1,0,0:0:0:0:
320,192,47157,1,0,0:0:0:0:
192,192,47242,1,0,0:0:0:0:
64,192,47328,1,0,0:0:0:0:
448,192,47585,1,0,0:0:0:0:
320,192,47757,1,0,0:0:0:0:
64,192,47928,1,0,0:0:0:0:
192,192,47928,1,0,0:0:0:0:
448,192,48100,1,0,0:0:0:0:
192,192,48271,1,0,0:0:0:0:
192,192,48614,1,0,0:0:0:0:
320,192,48785,1,0,0:0:0:0:
64,192,48957,1,0,0:0:0:0:
192,192,49042,1,0,0:0:0:0:
448,192,49128,1,0,0:0:0:0:
320,192,49214,1,0,0:0:0:0:
192,192,49300,1,0,0:0:0:0:
64,192,49300,1,0,0:0:0:0:
448,192,49642,1,0,0:0:0:0:
320,192,49985,1,0,0:0:0:0:
192,192,50328,1,0,0:0:0:0:
448,192,50500,1,0,0:0:0:0:
64,192,50671,1,0,0:0:0:0:
320,192,50671,1,0,0:0:0:0:
192,192,50757,1,0,0:0:0:0:
320,192,50842,1,0,0:0:0:0:
448,192,50928,1,0,0:0:0:0:
64,192,51014,1,0,0:0:0:0:
192,192,51100,1,0,0:0:0:0:
320,192,51185,1,0,0:0:0:0:
448,192,51357,1,0,0:0:0:0:
64,192,51700,1,0,0:0:0:0:
320,192,51700,1,0,0:0:0:0:
448,192,52042,1,0,0:0:0:0:
320,192,52042,1,0,0:0:0:0:
64,192,52214,1,0,0:0:0:0:
320,192,52300,1,0,0:0:0:0:
448,192,52557,1,0,0:0:0:0:
320,192,52642,1,0,0:0:0:0:
192,192,52728,1,0,0:0:0:0:
64,192,52900,1,0,0:0:0:0:
448,192,53071,1,0,0:0:0:0:
192,192,53242,1,0,0:0:0:0:
320,192,53414,1,0,0:0:0:0:
448,192,53585,1,0,0:0:0:0:
64,192,53757,1,0,0:0:0:0:
192,192,54100,1,0,0:0:0:0:
448,192,54271,1,0,0:0:0:0:
320,192,54357,1,0,0:0:0:0:
192,192,54442,1,0,0:0:0:0:
64,192,54528,1,0,0:0:0:0:
448,192,54614,1,0,0:0:0:0:
192,192,54785,1,0,0:0:0:0:
320,192,54785,1,0,0:0:0:0:
64,192,55128,1,0,0:0:0:0:
192,192,55128,1,0,0:0:0:0:
448,192,55471,1,0,0:0:0:0:
64,192,55471,1,0,0:0:0:0:
320,192,55814,1,0,0:0:0:0:
448,192,55814,1,0,0:0:0:0:
192,192,55985,1,0,0:0:0:0:
64,192,56157,1,0,0:0:0:0:
320,192,56157,1,0,0:0:0:0:
448,192,56328,1,0,0:0:0:0:
320,192,56414,1,0,0:0:0:0:
192,192,56500,1,0,0:0:0:0:
64,192,56500,1,0,0:0:0:0:
192,192,56842,1,0,0:0:0:0:
320,192,56842,1,0,0:0:0:0:
320,192,57185,1,0,0:0:0:0:
448,192,57185,1,0,0:0:0:0:
64,192,57528,1,0,0:0:0:0:
192,192,57528,1,0,0:0:0:0:
320,192,57700,1,0,0:0:0:0:
448,192,57871,1,0,0:0:0:0:
192,192,58042,1,0,0:0:0:0:
320,192,58214,1,0,0:0:0:0:
64,192,58385,1,0,0:0:0:0:
192,192,58557,1,0,0:0:0:0:
448,192,58728,1,0,0:0:0:0:
320,192,58900,1,0,0:0:0:0:
192,192,59071,1,0,0:0:0:0:
64,192,59242,1,0,0:0:0:0:
320,192,59414,1,0,0:0:0:0:
192,192,59585,1,0,0:0:0:0:
448,192,59757,1,0,0:0:0:0:
320,192,59928,1,0,0:0:0:0:
64,192,60100,1,0,0:0:0:0:
192,192,60271,1,0,0:0:0:0:
320,192,60442,1,0,0:0:0:0:
448,192,60614,1,0,0:0:0:0:
192,192,60785,1,0,0:0:0:0:
320,192,60957,1,0,0:0:0:0:
64,192,61128,1,0,0:0:0:0:
192,192,61300,1,0,0:0:0:0:
320,192,61471,1,0,0:0:0:0:
448,192,61471,1,0,0:0:0:0:
64,192,61642,1,0,0:0:0:0:
192,192,61642,1,0,0:0:0:0:
320,192,61985,1,0,0:0:0:0:
192,192,62328,1,0,0:0:0:0:
64,192,62671,1,0,0:0:0:0:
448,192,63014,1,0,0:0:0:0:
320,192,63100,1,0,0:0:0:0:
192,192,63185,1,0,0:0:0:0:
64,192,63271,1,0,0:0:0:0:
448,192,63357,1,0,0:0:0:0:
320,192,63442,1,0,0:0:0:0:
192,192,63528,1,0,0:0:0:0:
64,192,63614,1,0,0:0:0:0:
448,192,63700,1,0,0:0:0:0:
320,192,63785,1,0,0:0:0:0:
192,192,63871,1,0,0:0:0:0:
64,192,63957,1,0,0:0:0:0:
448,192,64042,1,0,0:0:0:0:
320,192,64128,1,0,0:0:0:0:
64,192,64214,1,0,0:0:0:0:
192,192,64300,1,0,0:0:0:0:
320,192,64385,1,0,0:0:0:0:
448,192,64471,1,0,0:0:0:0:
64,192,64557,1,0,0:0:0:0:
192,192,64642,1,0,0:0:0:0:
320,192,64728,1,0,0:0:0:0:
448,192,64814,1,0,0:0:0:0:
64,192,64900,1,0,0:0:0:0:
192,192,64985,1,0,0:0:0:0:
320,192,65071,1,0,0:0:0:0:
448,192,65157,1,0,0:0:0:0:
64,192,65242,1,0,0:0:0:0:
192,192,65328,1,0,0:0:0:0:
320,192,65414,1,0,0:0:0:0:
448,192,65500,1,0,0:0:0:0:
64,192,65585,1,0,0:0:0:0:
192,192,65671,1,0,0:0:0:0:
448,192,65757,1,0,0:0:0:0:
320,192,65842,1,0,0:0:0:0:
192,192,65928,1,0,0:0:0:0:
64,192,66014,1,0,0:0:0:0:
448,192,66100,1,0,0:0:0:0:
320,192,66185,1,0,0:0:0:0:
192,192,66271,1,0,0:0:0:0:
64,192,66357,1,0,0:0:0:0:
448,192,66442,1,0,0:0:0:0:
320,192,66528,1,0,0:0:0:0:
192,192,66614,1,0,0:0:0:0:
64,192,66700,1,0,0:0:0:0:
448,192,66785,1,0,0:0:0:0:
320,192,66871,1,0,0:0:0:0:
192,192,66957,1,0,0:0:0:0:
64,192,67042,1,0,0:0:0:0:
448,192,67128,1,0,0:0:0:0:
320,192,67214,1,0,0:0:0:0:
64,192,67300,1,0,0:0:0:0:
192,192,67385,1,0,0:0:0:0:
320,192,67471,1,0,0:0:0:0:
448,192,67471,1,0,0:0:0:0:
320,192,67814,1,0,0:0:0:0:
192,192,67814,1,0,0:0:0:0:
64,192,68157,1,0,0:0:0:0:
448,192,68157,1,0,0:0:0:0:
320,192,68500,128,0,68842:0:0:0:0:
448,192,68500,128,0,68842:0:0:0:0:
64,192,68842,1,0,0:0:0:0:
192,192,68842,1,0,0:0:0:0:
320,192,69014,1,0,0:0:0:0:
64,192,69185,1,0,0:0:0:0:
192,192,69185,1,0,0:0:0:0:
320,192,69357,1,0,0:0:0:0:
64,192,69528,1,0,0:0:0:0:
192,192,69528,1,0,0:0:0:0:
320,192,69700,1,0,0:0:0:0:
64,192,69871,1,0,0:0:0:0:
192,192,69871,1,0,0:0:0:0:
320,192,70042,1,0,0:0:0:0:
64,192,70214,1,0,0:0:0:0:
192,192,70214,1,0,0:0:0:0:
320,192,70385,1,0,0:0:0:0:
64,192,70557,1,0,0:0:0:0:
192,192,70557,1,0,0:0:0:0:
320,192,70728,1,0,0:0:0:0:
64,192,70900,1,0,0:0:0:0:
192,192,70985,1,0,0:0:0:0:
320,192,71071,1,0,0:0:0:0:
448,192,71157,1,0,0:0:0:0:
64,192,71242,128,0,71585:0:0:0:0:
192,192,71242,128,0,71585:0:0:0:0:
448,192,71585,1,0,0:0:0:0:
320,192,71585,1,0,0:0:0:0:
192,192,71757,1,0,0:0:0:0:
448,192,71928,1,0,0:0:0:0:
320,192,71928,1,0,0:0:0:0:
192,192,72100,1,0,0:0:0:0:
448,192,72271,1,0,0:0:0:0:
320,192,72271,1,0,0:0:0:0:
192,192,72442,1,0,0:0:0:0:
448,192,72614,1,0,0:0:0:0:
320,192,72614,1,0,0:0:0:0:
64,192,72700,1,0,0:0:0:0:
192,192,72785,1,0,0:0:0:0:
320,192,72871,1,0,0:0:0:0:
448,192,72957,1,0,0:0:0:0:
64,192,73128,1,0,0:0:0:0:
192,192,73300,128,0,73471:0:0:0:0:
448,192,73300,1,0,0:0:0:0:
448,192,73642,128,0,73814:0:0:0:0:
192,192,73642,1,0,0:0:0:0:
192,192,73985,128,0,74328:0:0:0:0:
64,192,73985,128,0,74328:0:0:0:0:
320,192,74328,1,0,0:0:0:0:
448,192,74328,1,0,0:0:0:0:
64,192,74500,1,0,0:0:0:0:
320,192,74671,1,0,0:0:0:0:
448,192,74671,1,0,0:0:0:0:
64,192,74842,1,0,0:0:0:0:
320,192,75014,1,0,0:0:0:0:
448,192,75014,1,0,0:0:0:0:
64,192,75185,1,0,0:0:0:0:
320,192,75357,1,0,0:0:0:0:
448,192,75357,1,0,0:0:0:0:
64,192,75528,128,0,75700:0:0:0:0:
320,192,75700,1,0,0:0:0:0:
448,192,75700,1,0,0:0:0:0:
64,192,75871,1,0,0:0:0:0:
320,192,76042,1,0,0:0:0:0:
448,192,76042,1,0,0:0:0:0:
64,192,76214,1,0,0:0:0:0:
448,192,76385,1,0,0:0:0:0:
320,192,76471,1,0,0:0:0:0:
192,192,76557,1,0,0:0:0:0:
64,192,76642,1,0,0:0:0:0:
448,192,76728,128,0,77071:0:0:0:0:
320,192,76728,128,0,77071:0:0:0:0:
64,192,77071,1,0,0:0:0:0:
192,192,77071,1,0,0:0:0:0:
448,192,77242,1,0,0:0:0:0:
64,192,77414,1,0,0:0:0:0:
192,192,77414,1,0,0:0:0:0:
448,192,77585,1,0,0:0:0:0:
64,192,77757,1,0,0:0:0:0:
192,192,77757,1,0,0:0:0:0:
448,192,77928,1,0,0:0:0:0:
320,192,78100,128,0,78442:0:0:0:0:
192,192,78100,1,0,0:0:0:0:
64,192,78442,1,0,0:0:0:0:
448,192,78442,1,0,0:0:0:0:
320,192,78785,128,0,79128:0:0:0:0:
192,192,78785,1,0,0:0:0:0:
64,192,79128,1,0,0:0:0:0:
448,192,79128,1,0,0:0:0:0:
192,192,79471,128,0,79814:0:0:0:0:
320,192,79471,128,0,79814:0:0:0:0:
64,192,79814,1,0,0:0:0:0:
448,192,79814,1,0,0:0:0:0:
192,192,79985,1,0,0:0:0:0:
448,192,80157,1,0,0:0:0:0:
64,192,80157,1,0,0:0:0:0:
320,192,80328,1,0,0:0:0:0:
64,192,80500,1,0,0:0:0:0:
448,192,80500,1,0,0:0:0:0:
192,192,80671,1,0,0:0:0:0:
448,192,80842,1,0,0:0:0:0:
64,192,80842,1,0,0:0:0:0:
320,192,81014,1,0,0:0:0:0:
64,192,81185,1,0,0:0:0:0:
448,192,81185,1,0,0:0:0:0:
192,192,81357,1,0,0:0:0:0:
448,192,81528,1,0,0:0:0:0:
64,192,81528,1,0,0:0:0:0:
320,192,81700,1,0,0:0:0:0:
64,192,81871,1,0,0:0:0:0:
192,192,81957,1,0,0:0:0:0:
320,192,82042,1,0,0:0:0:0:
448,192,82128,1,0,0:0:0:0:
64,192,82214,128,0,82557:0:0:0:0:
192,192,82214,128,0,82557:0:0:0:0:
320,192,82557,1,0,0:0:0:0:
448,192,82557,1,0,0:0:0:0:
192,192,82728,1,0,0:0:0:0:
64,192,82900,1,0,0:0:0:0:
448,192,82900,1,0,0:0:0:0:
320,192,83071,1,0,0:0:0:0:
192,192,83242,1,0,0:0:0:0:
64,192,83242,1,0,0:0:0:0:
448,192,83414,1,0,0:0:0:0:
320,192,83585,1,0,0:0:0:0:
192,192,83585,1,0,0:0:0:0:
64,192,83757,1,0,0:0:0:0:
448,192,83928,1,0,0:0:0:0:
320,192,83928,1,0,0:0:0:0:
192,192,84100,1,0,0:0:0:0:
64,192,84271,1,0,0:0:0:0:
448,192,84271,1,0,0:0:0:0:
320,192,84442,1,0,0:0:0:0:
64,192,84614,1,0,0:0:0:0:
448,192,84614,1,0,0:0:0:0:
192,192,84785,1,0,0:0:0:0:
320,192,84957,128,0,85300:0:0:0:0:
448,192,84957,128,0,85300:0:0:0:0:
64,192,85300,1,0,0:0:0:0:
192,192,85300,1,0,0:0:0:0:
448,192,85471,1,0,0:0:0:0:
192,192,85642,1,0,0:0:0:0:
320,192,85642,1,0,0:0:0:0:
64,192,85814,1,0,0:0:0:0:
448,192,85985,1,0,0:0:0:0:
192,192,85985,1,0,0:0:0:0:
320,192,86157,1,0,0:0:0:0:
448,192,86328,1,0,0:0:0:0:
64,192,86328,1,0,0:0:0:0:
192,192,86500,1,0,0:0:0:0:
64,192,86671,1,0,0:0:0:0:
320,192,86671,1,0,0:0:0:0:
448,192,86842,1,0,0:0:0:0:
320,192,87014,1,0,0:0:0:0:
192,192,87014,1,0,0:0:0:0:
64,192,87185,1,0,0:0:0:0:
192,192,87357,1,0,0:0:0:0:
448,192,87357,1,0,0:0:0:0:
320,192,87528,1,0,0:0:0:0:
64,192,87700,128,0,88042:0:0:0:0:
192,192,87700,128,0,88042:0:0:0:0:
320,192,88042,1,0,0:0:0:0:
448,192,88042,1,0,0:0:0:0:
64,192,88214,1,0,0:0:0:0:
192,192,88300,1,0,0:0:0:0:
320,192,88385,1,0,0:0:0:0:
448,192,88385,1,0,0:0:0:0:
192,192,88557,1,0,0:0:0:0:
320,192,88728,1,0,0:0:0:0:
448,192,88728,1,0,0:0:0:0:
64,192,88900,1,0,0:0:0:0:
192,192,88985,1,0,0:0:0:0:
448,192,89071,1,0,0:0:0:0:
320,192,89071,128,0,89414:0:0:0:0:
192,192,89414,128,0,89757:0:0:0:0:
64,192,89757,128,0,90100:0:0:0:0:
448,192,90100,128,0,90442:0:0:0:0:
192,192,90100,1,0,0:0:0:0:
64,192,90442,128,0,90785:0:0:0:0:
320,192,90442,128,0,90785:0:0:0:0:
192,192,90785,1,0,0:0:0:0:
448,192,90785,1,0,0:0:0:0:
320,192,90957,1,0,0:0:0:0:
64,192,91128,1,0,0:0:0:0:
192,192,91128,1,0,0:0:0:0:
320,192,91300,1,0,0:0:0:0:
448,192,91471,1,0,0:0:0:0:
64,192,91471,1,0,0:0:0:0:
192,192,91642,1,0,0:0:0:0:
320,192,91814,1,0,0:0:0:0:
448,192,91814,1,0,0:0:0:0:
192,192,91985,1,0,0:0:0:0:
64,192,92157,1,0,0:0:0:0:
448,192,92157,1,0,0:0:0:0:
320,192,92328,1,0,0:0:0:0:
192,192,92500,1,0,0:0:0:0:
64,192,92500,1,0,0:0:0:0:
448,192,92671,1,0,0:0:0:0:
320,192,92842,1,0,0:0:0:0:
64,192,92842,1,0,0:0:0:0:
192,192,93014,1,0,0:0:0:0:
320,192,93185,1,0,0:0:0:0:
448,192,93185,1,0,0:0:0:0:
64,192,93357,1,0,0:0:0:0:
192,192,93528,1,0,0:0:0:0:
320,192,93528,1,0,0:0:0:0:
448,192,93700,1,0,0:0:0:0:
64,192,93871,1,0,0:0:0:0:
192,192,93871,1,0,0:0:0:0:
320,192,94042,1,0,0:0:0:0:
448,192,94214,1,0,0:0:0:0:
64,192,94214,1,0,0:0:0:0:
192,192,94385,1,0,0:0:0:0:
320,192,94557,1,0,0:0:0:0:
448,192,94557,1,0,0:0:0:0:
192,192,94728,1,0,0:0:0:0:
64,192,94900,1,0,0:0:0:0:
448,192,94900,1,0,0:0:0:0:
320,192,95071,1,0,0:0:0:0:
192,192,95242,1,0,0:0:0:0:
64,192,95242,1,0,0:0:0:0:
320,192,95414,1,0,0:0:0:0:
448,192,95585,1,0,0:0:0:0:
192,192,95585,1,0,0:0:0:0:
64,192,95757,1,0,0:0:0:0:
320,192,95928,1,0,0:0:0:0:
448,192,95928,1,0,0:0:0:0:
192,192,96100,1,0,0:0:0:0:
64,192,96271,1,0,0:0:0:0:
448,192,96271,1,0,0:0:0:0:
320,192,96442,1,0,0:0:0:0:
192,192,96614,1,0,0:0:0:0:
64,192,96614,1,0,0:0:0:0:
320,192,96785,1,0,0:0:0:0:
448,192,96957,1,0,0:0:0:0:
64,192,96957,1,0,0:0:0:0:
192,192,97128,1,0,0:0:0:0:
320,192,97300,1,0,0:0:0:0:
448,192,97300,1,0,0:0:0:0:
64,192,97471,1,0,0:0:0:0:
192,192,97642,1,0,0:0:0:0:
320,192,97642,1,0,0:0:0:0:
448,192,97814,1,0,0:0:0:0:
64,192,97985,1,0,0:0:0:0:
192,192,97985,1,0,0:0:0:0:
320,192,98157,1,0,0:0:0:0:
448,192,98328,1,0,0:0:0:0:
192,192,98328,1,0,0:0:0:0:
64,192,98500,1,0,0:0:0:0:
320,192,98671,1,0,0:0:0:0:
448,192,98671,1,0,0:0:0:0:
192,192,98842,1,0,0:0:0:0:
64,192,99014,1,0,0:0:0:0:
448,192,99014,1,0,0:0:0:0:
320,192,99185,1,0,0:0:0:0:
192,192,99357,1,0,0:0:0:0:
64,192,99357,1,0,0:0:0:0:
320,192,99528,1,0,0:0:0:0:
448,192,99700,1,0,0:0:0:0:
192,192,99700,1,0,0:0:0:0:
64,192,99871,1,0,0:0:0:0:
320,192,100042,1,0,0:0:0:0:
448,192,100042,1,0,0:0:0:0:
192,192,100385,1,0,0:0:0:0:
320,192,100385,1,0,0:0:0:0:
64,192,100728,1,0,0:0:0:0:
192,192,100728,1,0,0:0:0:0:
64,192,101071,1,0,0:0:0:0:
448,192,101071,1,0,0:0:0:0:
192,192,101242,1,0,0:0:0:0:
320,192,101414,128,0,101757:0:0:0:0:
448,192,101414,128,0,101757:0:0:0:0:
64,192,101757,1,0,0:0:0:0:
192,192,101928,1,0,0:0:0:0:
320,192,102100,1,0,0:0:0:0:
448,192,102100,1,0,0:0:0:0:
192,192,102271,1,0,0:0:0:0:
64,192,102442,1,0,0:0:0:0:
448,192,102442,1,0,0:0:0:0:
320,192,102614,1,0,0:0:0:0:
192,192,102785,1,0,0:0:0:0:
64,192,102785,1,0,0:0:0:0:
320,192,102957,1,0,0:0:0:0:
448,192,103128,1,0,0:0:0:0:
64,192,103128,1,0,0:0:0:0:
192,192,103300,1,0,0:0:0:0:
320,192,103471,1,0,0:0:0:0:
448,192,103471,1,0,0:0:0:0:
192,192,103642,1,0,0:0:0:0:
64,192,103814,1,0,0:0:0:0:
320,192,103814,1,0,0:0:0:0:
448,192,103985,1,0,0:0:0:0:
64,192,104157,1,0,0:0:0:0:
192,192,104157,1,0,0:0:0:0:
320,192,104328,1,0,0:0:0:0:
448,192,104500,1,0,0:0:0:0:
192,192,104500,1,0,0:0:0:0:
64,192,104671,1,0,0:0:0:0:
320,192,104842,1,0,0:0:0:0:
448,192,104842,1,0,0:0:0:0:
192,192,105014,1,0,0:0:0:0:
64,192,105185,1,0,0:0:0:0:
448,192,105185,1,0,0:0:0:0:
320,192,105357,1,0,0:0:0:0:
192,192,105528,1,0,0:0:0:0:
64,192,105528,1,0,0:0:0:0:
320,192,105700,1,0,0:0:0:0:
448,192,105871,1,0,0:0:0:0:
64,192,105871,1,0,0:0:0:0:
192,192,106042,1,0,0:0:0:0:
320,192,106214,1,0,0:0:0:0:
448,192,106214,1,0,0:0:0:0:
192,192,106385,1,0,0:0:0:0:
64,192,106557,1,0,0:0:0:0:
448,192,106557,1,0,0:0:0:0:
320,192,106728,1,0,0:0:0:0:
192,192,106814,1,0,0:0:0:0:
64,192,106900,1,0,0:0:0:0:
448,192,106900,1,0,0:0:0:0:
64,192,107242,1,0,0:0:0:0:
448,192,107242,1,0,0:0:0:0:
192,192,107585,1,0,0:0:0:0:
320,192,107585,1,0,0:0:0:0:
192,192,107928,1,0,0:0:0:0:
320,192,107928,1,0,0:0:0:0:
64,192,108271,1,0,0:0:0:0:
192,192,108271,1,0,0:0:0:0:
64,192,108614,1,0,0:0:0:0:
192,192,108614,1,0,0:0:0:0:
448,192,108957,1,0,0:0:0:0:
320,192,108957,1,0,0:0:0:0:
320,192,109300,1,0,0:0:0:0:
448,192,109300,1,0,0:0:0:0:
192,192,109642,1,0,0:0:0:0:
320,192,109642,1,0,0:0:0:0:
192,192,109985,1,0,0:0:0:0:
320,192,109985,1,0,0:0:0:0:
64,192,110328,1,0,0:0:0:0:
320,192,110328,1,0,0:0:0:0:
192,192,110500,1,0,0:0:0:0:
448,192,110671,1,0,0:0:0:0:
320,192,110671,1,0,0:0:0:0:
192,192,110842,1,0,0:0:0:0:
64,192,111014,1,0,0:0:0:0:
448,192,111014,1,0,0:0:0:0:
320,192,111357,128,0,111700:0:0:0:0:
192,192,111700,128,0,112385:0:0:0:0:
448,192,112385,128,0,113071:0:0:0:0:
64,192,112385,1,0,0:0:0:0:
192,192,113071,128,0,113757:0:0:0:0:
64,192,113757,128,0,114442:0:0:0:0:
320,192,114442,128,0,115128:0:0:0:0:
448,192,115128,128,0,115814:0:0:0:0:
192,192,115814,128,0,116157:0:0:0:0:
320,192,116157,128,0,116500:0:0:0:0:
64,192,116500,128,0,117185:0:0:0:0:
192,192,117185,128,0,117528:0:0:0:0:
320,192,117528,128,0,117871:0:0:0:0:
448,192,117871,128,0,118557:0:0:0:0:
192,192,117871,1,0,0:0:0:0:
64,192,118557,128,0,119242:0:0:0:0:
320,192,118557,1,0,0:0:0:0:
320,192,119242,128,0,119928:0:0:0:0:
448,192,119242,1,0,0:0:0:0:
448,192,119928,128,0,120614:0:0:0:0:
64,192,119928,1,0,0:0:0:0:
64,192,120614,128,0,121300:0:0:0:0:
320,192,120614,1,0,0:0:0:0:
448,192,121300,128,0,121985:0:0:0:0:
192,192,121300,1,0,0:0:0:0:
64,192,122157,1,0,0:0:0:0:
320,192,122157,1,0,0:0:0:0:
64,192,122414,1,0,0:0:0:0:
320,192,122414,1,0,0:0:0:0:
448,192,122671,1,0,0:0:0:0:
192,192,122671,1,0,0:0:0:0:
320,192,122842,1,0,0:0:0:0:
192,192,123014,1,0,0:0:0:0:
64,192,123014,1,0,0:0:0:0:
448,192,123185,1,0,0:0:0:0:
320,192,123271,1,0,0:0:0:0:
64,192,123357,128,0,123700:0:0:0:0:
192,192,123357,128,0,123700:0:0:0:0:
320,192,123700,1,0,0:0:0:0:
448,192,123700,1,0,0:0:0:0:
192,192,123871,1,0,0:0:0:0:
320,192,123957,1,0,0:0:0:0:
448,192,124042,1,0,0:0:0:0:
192,192,124214,1,0,0:0:0:0:
320,192,124214,1,0,0:0:0:0:
64,192,124385,1,0,0:0:0:0:
448,192,124385,1,0,0:0:0:0:
320,192,124557,128,0,124728:0:0:0:0:
64,192,124728,1,0,0:0:0:0:
192,192,124814,1,0,0:0:0:0:
320,192,124900,1,0,0:0:0:0:
448,192,124900,1,0,0:0:0:0:
192,192,125071,1,0,0:0:0:0:
64,192,125071,1,0,0:0:0:0:
448,192,125242,1,0,0:0:0:0:
320,192,125328,1,0,0:0:0:0:
192,192,125414,1,0,0:0:0:0:
448,192,125585,1,0,0:0:0:0:
64,192,125585,1,0,0:0:0:0:
320,192,125757,1,0,0:0:0:0:
192,192,125757,1,0,0:0:0:0:
64,192,125928,1,0,0:0:0:0:
192,192,126014,1,0,0:0:0:0:
448,192,126100,128,0,126442:0:0:0:0:
320,192,126100,128,0,126442:0:0:0:0:
64,192,126442,1,0,0:0:0:0:
192,192,126442,1,0,0:0:0:0:
448,192,126614,1,0,0:0:0:0:
320,192,126700,1,0,0:0:0:0:
192,192,126785,1,0,0:0:0:0:
64,192,126785,128,0,126957:0:0:0:0:
320,192,126957,1,0,0:0:0:0:
448,192,126957,1,0,0:0:0:0:
192,192,127128,1,0,0:0:0:0:
64,192,127128,1,0,0:0:0:0:
448,192,127300,128,0,127642:0:0:0:0:
320,192,127300,1,0,0:0:0:0:
64,192,127642,1,0,0:0:0:0:
320,192,127642,1,0,0:0:0:0:
192,192,127814,1,0,0:0:0:0:
448,192,127814,1,0,0:0:0:0:
64,192,127985,128,0,128328:0:0:0:0:
320,192,127985,1,0,0:0:0:0:
192,192,128328,1,0,0:0:0:0:
448,192,128328,1,0,0:0:0:0:
320,192,128500,1,0,0:0:0:0:
64,192,128500,1,0,0:0:0:0:
448,192,128671,1,0,0:0:0:0:
320,192,128842,128,0,129185:0:0:0:0:
192,192,128842,128,0,129185:0:0:0:0:
448,192,129185,1,0,0:0:0:0:
64,192,129185,1,0,0:0:0:0:
192,192,129357,1,0,0:0:0:0:
320,192,129442,1,0,0:0:0:0:
448,192,129528,1,0,0:0:0:0:
320,192,129700,1,0,0:0:0:0:
192,192,129700,1,0,0:0:0:0:
448,192,129871,1,0,0:0:0:0:
64,192,129871,1,0,0:0:0:0:
192,192,130042,128,0,130214:0:0:0:0:
448,192,130214,1,0,0:0:0:0:
320,192,130300,1,0,0:0:0:0:
192,192,130385,1,0,0:0:0:0:
64,192,130385,1,0,0:0:0:0:
320,192,130557,1,0,0:0:0:0:
448,192,130557,1,0,0:0:0:0:
64,192,130728,1,0,0:0:0:0:
192,192,130814,1,0,0:0:0:0:
320,192,130900,1,0,0:0:0:0:
64,192,131071,1,0,0:0:0:0:
448,192,131071,1,0,0:0:0:0:
192,192,131242,1,0,0:0:0:0:
320,192,131242,1,0,0:0:0:0:
448,192,131414,1,0,0:0:0:0:
320,192,131500,1,0,0:0:0:0:
64,192,131585,128,0,131928:0:0:0:0:
192,192,131585,128,0,131928:0:0:0:0:
448,192,131928,1,0,0:0:0:0:
320,192,131928,1,0,0:0:0:0:
64,192,132100,1,0,0:0:0:0:
192,192,132185,1,0,0:0:0:0:
320,192,132271,1,0,0:0:0:0:
448,192,132271,128,0,132442:0:0:0:0:
192,192,132442,1,0,0:0:0:0:
64,192,132442,1,0,0:0:0:0:
320,192,132614,1,0,0:0:0:0:
448,192,132614,1,0,0:0:0:0:
64,192,132785,128,0,133128:0:0:0:0:
192,192,132785,1,0,0:0:0:0:
448,192,133128,1,0,0:0:0:0:
192,192,133128,1,0,0:0:0:0:
320,192,133300,1,0,0:0:0:0:
64,192,133300,1,0,0:0:0:0:
448,192,133471,128,0,133814:0:0:0:0:
192,192,133471,1,0,0:0:0:0:
192,192,133814,1,0,0:0:0:0:
64,192,133814,1,0,0:0:0:0:
320,192,133985,1,0,0:0:0:0:
448,192,133985,1,0,0:0:0:0:
64,192,134157,1,0,0:0:0:0:
320,192,134328,128,0,134671:0:0:0:0:
448,192,134328,128,0,134671:0:0:0:0:
64,192,134671,1,0,0:0:0:0:
192,192,134671,1,0,0:0:0:0:
320,192,134842,1,0,0:0:0:0:
192,192,134928,1,0,0:0:0:0:
64,192,135014,1,0,0:0:0:0:
448,192,135014,128,0,135185:0:0:0:0:
192,192,135185,128,0,135357:0:0:0:0:
64,192,135185,1,0,0:0:0:0:
320,192,135357,1,0,0:0:0:0:
448,192,135528,128,0,135700:0:0:0:0:
64,192,135700,1,0,0:0:0:0:
192,192,135785,1,0,0:0:0:0:
320,192,135871,1,0,0:0:0:0:
448,192,135871,1,0,0:0:0:0:
192,192,136042,1,0,0:0:0:0:
64,192,136042,1,0,0:0:0:0:
448,192,136214,1,0,0:0:0:0:
320,192,136300,1,0,0:0:0:0:
192,192,136385,1,0,0:0:0:0:
64,192,136557,1,0,0:0:0:0:
448,192,136557,1,0,0:0:0:0:
192,192,136728,1,0,0:0:0:0:
320,192,136728,1,0,0:0:0:0:
64,192,136900,1,0,0:0:0:0:
192,192,136985,1,0,0:0:0:0:
320,192,137071,1,0,0:0:0:0:
448,192,137071,1,0,0:0:0:0:
320,192,137242,1,0,0:0:0:0:
192,192,137328,1,0,0:0:0:0:
64,192,137414,1,0,0:0:0:0:
448,192,137414,1,0,0:0:0:0:
320,192,137585,1,0,0:0:0:0:
64,192,137757,128,0,137928:0:0:0:0:
448,192,137928,1,0,0:0:0:0:
192,192,138100,1,0,0:0:0:0:
320,192,138100,1,0,0:0:0:0:
64,192,138271,128,0,138614:0:0:0:0:
448,192,138614,1,0,0:0:0:0:
64,192,138785,1,0,0:0:0:0:
192,192,138785,1,0,0:0:0:0:
320,192,138957,128,0,139128:0:0:0:0:
64,192,139128,1,0,0:0:0:0:
192,192,139214,1,0,0:0:0:0:
320,192,139300,1,0,0:0:0:0:
448,192,139300,1,0,0:0:0:0:
192,192,139471,1,0,0:0:0:0:
64,192,139471,1,0,0:0:0:0:
448,192,139642,1,0,0:0:0:0:
192,192,139814,128,0,140157:0:0:0:0:
64,192,139814,128,0,140157:0:0:0:0:
448,192,140157,1,0,0:0:0:0:
320,192,140157,1,0,0:0:0:0:
192,192,140328,1,0,0:0:0:0:
320,192,140414,128,0,140585:0:0:0:0:
448,192,140671,1,0,0:0:0:0:
64,192,140842,1,0,0:0:0:0:
192,192,140842,1,0,0:0:0:0:
448,192,141014,128,0,141185:0:0:0:0:
320,192,141185,1,0,0:0:0:0:
192,192,141271,1,0,0:0:0:0:
64,192,141357,1,0,0:0:0:0:
448,192,141357,1,0,0:0:0:0:
320,192,141528,1,0,0:0:0:0:
192,192,141528,1,0,0:0:0:0:
64,192,141700,1,0,0:0:0:0:
192,192,141785,1,0,0:0:0:0:
320,192,141871,1,0,0:0:0:0:
448,192,142042,1,0,0:0:0:0:
192,192,142042,1,0,0:0:0:0:
64,192,142214,1,0,0:0:0:0:
320,192,142214,1,0,0:0:0:0:
192,192,142300,1,0,0:0:0:0:
320,192,142385,1,0,0:0:0:0:
448,192,142557,128,0,142900:0:0:0:0:
64,192,142557,128,0,142900:0:0:0:0:
192,192,142900,1,0,0:0:0:0:
320,192,142900,1,0,0:0:0:0:
448,192,143071,1,0,0:0:0:0:
320,192,143157,1,0,0:0:0:0:
192,192,143242,128,0,143414:0:0:0:0:
320,192,143500,1,0,0:0:0:0:
64,192,143585,1,0,0:0:0:0:
448,192,143585,1,0,0:0:0:0:
192,192,143757,1,0,0:0:0:0:
320,192,143842,1,0,0:0:0:0:
64,192,143928,128,0,144271:0:0:0:0:
448,192,143928,1,0,0:0:0:0:
192,192,144271,128,0,144614:0:0:0:0:
320,192,144614,128,0,144957:0:0:0:0:
448,192,144957,128,0,145300:0:0:0:0:
64,192,144957,1,0,0:0:0:0:
64,192,145300,1,0,0:0:0:0:
192,192,145300,1,0,0:0:0:0:
320,192,145642,1,0,0:0:0:0:
192,192,145642,1,0,0:0:0:0:
448,192,145985,1,0,0:0:0:0:
192,192,145985,1,0,0:0:0:0:
64,192,146328,1,0,0:0:0:0:
192,192,146328,1,0,0:0:0:0:
320,192,146671,1,0,0:0:0:0:
448,192,146671,1,0,0:0:0:0:
192,192,147014,1,0,0:0:0:0:
320,192,147014,1,0,0:0:0:0:
64,192,147357,1,0,0:0:0:0:
448,192,147357,1,0,0:0:0:0:
320,192,147700,1,0,0:0:0:0:
448,192,147700,1,0,0:0:0:0:
192,192,147871,1,0,0:0:0:0:
64,192,148042,1,0,0:0:0:0:
448,192,148042,1,0,0:0:0:0:
320,192,148385,1,0,0:0:0:0:
192,192,148385,1,0,0:0:0:0:
320,192,148728,1,0,0:0:0:0:
448,192,148728,1,0,0:0:0:0:
64,192,149071,1,0,0:0:0:0:
320,192,149071,1,0,0:0:0:0:
192,192,149414,1,0,0:0:0:0:
448,192,149414,1,0,0:0:0:0:
64,192,149757,1,0,0:0:0:0:
448,192,149757,1,0,0:0:0:0:
64,192,150100,1,0,0:0:0:0:
192,192,150100,1,0,0:0:0:0:
192,192,150442,1,0,0:0:0:0:
320,192,150442,1,0,0:0:0:0:
448,192,150785,1,0,0:0:0:0:
320,192,150785,1,0,0:0:0:0:
64,192,151128,1,0,0:0:0:0:
320,192,151128,1,0,0:0:0:0:
192,192,151471,1,0,0:0:0:0:
448,192,151471,1,0,0:0:0:0:
64,192,151814,1,0,0:0:0:0:
192,192,151814,1,0,0:0:0:0:
320,192,152157,1,0,0:0:0:0:
448,192,152157,1,0,0:0:0:0:
192,192,152500,1,0,0:0:0:0:
320,192,152500,1,0,0:0:0:0:
64,192,152842,1,0,0:0:0:0:
192,192,152842,1,0,0:0:0:0:
192,192,153185,1,0,0:0:0:0:
448,192,153185,1,0,0:0:0:0:
320,192,153528,1,0,0:0:0:0:
448,192,153528,1,0,0:0:0:0:
192,192,153871,1,0,0:0:0:0:
64,192,153871,1,0,0:0:0:0:
192,192,154214,1,0,0:0:0:0:
448,192,154214,1,0,0:0:0:0:
320,192,154557,1,0,0:0:0:0:
64,192,154557,1,0,0:0:0:0:
192,192,154900,1,0,0:0:0:0:
320,192,154900,1,0,0:0:0:0:
448,192,155242,1,0,0:0:0:0:
64,192,155242,1,0,0:0:0:0:
192,192,155585,1,0,0:0:0:0:
64,192,155585,1,0,0:0:0:0:
448,192,155928,1,0,0:0:0:0:
320,192,155928,1,0,0:0:0:0:
192,192,156271,1,0,0:0:0:0:
320,192,156271,1,0,0:0:0:0:
192,192,156614,1,0,0:0:0:0:
64,192,156614,1,0,0:0:0:0:
320,192,156957,1,0,0:0:0:0:
192,192,156957,1,0,0:0:0:0:
448,192,157300,1,0,0:0:0:0:
192,192,157300,1,0,0:0:0:0:
64,192,157642,1,0,0:0:0:0:
192,192,157642,1,0,0:0:0:0:
192,192,157985,1,0,0:0:0:0:
320,192,157985,1,0,0:0:0:0:
320,192,158328,1,0,0:0:0:0:
448,192,158328,1,0,0:0:0:0:
64,192,158671,1,0,0:0:0:0:
448,192,158671,1,0,0:0:0:0:
320,192,159014,1,0,0:0:0:0:
448,192,159014,1,0,0:0:0:0:
192,192,159357,1,0,0:0:0:0:
64,192,159357,1,0,0:0:0:0:
320,192,159700,1,0,0:0:0:0:
192,192,159700,1,0,0:0:0:0:
64,192,160042,1,0,0:0:0:0:
320,192,160042,1,0,0:0:0:0:
448,192,160385,1,0,0:0:0:0:
192,192,160385,1,0,0:0:0:0:
64,192,160728,1,0,0:0:0:0:
320,192,160728,1,0,0:0:0:0:
320,192,161071,1,0,0:0:0:0:
448,192,161071,1,0,0:0:0:0:
192,192,161414,1,0,0:0:0:0:
64,192,161414,1,0,0:0:0:0:
448,192,161757,1,0,0:0:0:0:
320,192,161757,1,0,0:0:0:0:
192,192,162100,1,0,0:0:0:0:
448,192,162100,1,0,0:0:0:0:
64,192,162442,1,0,0:0:0:0:
192,192,162442,1,0,0:0:0:0:
448,192,162785,1,0,0:0:0:0:
192,192,162785,1,0,0:0:0:0:
320,192,163128,1,0,0:0:0:0:
64,192,163128,1,0,0:0:0:0:
448,192,163471,1,0,0:0:0:0:
320,192,163471,1,0,0:0:0:0:
64,192,163814,1,0,0:0:0:0:
192,192,163814,1,0,0:0:0:0:
192,192,164157,1,0,0:0:0:0:
320,192,164157,1,0,0:0:0:0:
320,192,164500,1,0,0:0:0:0:
448,192,164500,1,0,0:0:0:0:
64,192,164842,1,0,0:0:0:0:
448,192,164842,1,0,0:0:0:0:
192,192,165185,1,0,0:0:0:0:
320,192,165185,1,0,0:0:0:0:
64,192,165528,1,0,0:0:0:0:
192,192,165528,1,0,0:0:0:0:
448,192,165871,128,0,166214:0:0:0:0:
320,192,165871,1,0,0:0:0:0:
320,192,166214,128,0,166557:0:0:0:0:
192,192,166214,1,0,0:0:0:0:
192,192,166557,128,0,166900:0:0:0:0:
64,192,166557,1,0,0:0:0:0:
64,192,166900,128,0,167242:0:0:0:0:
448,192,166900,1,0,0:0:0:0:
320,192,167242,1,0,0:0:0:0:
448,192,167242,1,0,0:0:0:0:
192,192,167757,1,0,0:0:0:0:
320,192,167928,1,0,0:0:0:0:
64,192,168614,1,0,0:0:0:0:
192,192,168614,1,0,0:0:0:0:
320,192,169128,1,0,0:0:0:0:
192,192,169300,1,0,0:0:0:0:
192,192,169985,1,0,0:0:0:0:
448,192,169985,1,0,0:0:0:0:
320,192,170500,1,0,0:0:0:0:
448,192,170671,1,0,0:0:0:0:
64,192,171185,1,0,0:0:0:0:
320,192,171185,1,0,0:0:0:0:
448,192,171357,1,0,0:0:0:0:
192,192,171871,1,0,0:0:0:0:
64,192,172042,1,0,0:0:0:0:
320,192,172385,1,0,0:0:0:0:
448,192,172385,1,0,0:0:0:0:
192,192,172557,1,0,0:0:0:0:
64,192,172728,1,0,0:0:0:0:
448,192,172728,1,0,0:0:0:0:
192,192,173242,1,0,0:0:0:0:
320,192,173414,1,0,0:0:0:0:
448,192,173928,1,0,0:0:0:0:
320,192,174014,1,0,0:0:0:0:
192,192,174100,1,0,0:0:0:0:
64,192,174100,1,0,0:0:0:0:
64,192,174614,1,0,0:0:0:0:
192,192,174785,1,0,0:0:0:0:
320,192,174785,1,0,0:0:0:0:
192,192,175300,1,0,0:0:0:0:
320,192,175385,1,0,0:0:0:0:
448,192,175471,1,0,0:0:0:0:
64,192,175471,1,0,0:0:0:0:
192,192,175985,1,0,0:0:0:0:
448,192,176157,1,0,0:0:0:0:
192,192,176842,1,0,0:0:0:0:
320,192,176842,1,0,0:0:0:0:
448,192,177357,1,0,0:0:0:0:
64,192,177528,1,0,0:0:0:0:
192,192,177528,1,0,0:0:0:0:
192,192,178214,1,0,0:0:0:0:
448,192,178214,1,0,0:0:0:0:
320,192,178557,1,0,0:0:0:0:
64,192,178900,1,0,0:0:0:0:
320,192,179242,1,0,0:0:0:0:
192,192,179414,1,0,0:0:0:0:
64,192,179585,1,0,0:0:0:0:
448,192,179585,1,0,0:0:0:0:
320,192,179757,1,0,0:0:0:0:
64,192,180100,1,0,0:0:0:0:
448,192,180442,1,0,0:0:0:0:
192,192,180700,1,0,0:0:0:0:
320,192,180957,1,0,0:0:0:0:
448,192,180957,1,0,0:0:0:0:
64,192,181300,1,0,0:0:0:0:
192,192,181642,1,0,0:0:0:0:
320,192,181642,1,0,0:0:0:0:
448,192,181985,1,0,0:0:0:0:
64,192,182328,1,0,0:0:0:0:
320,192,182328,1,0,0:0:0:0:
192,192,182671,1,0,0:0:0:0:
448,192,182671,1,0,0:0:0:0:
320,192,183014,1,0,0:0:0:0:
64,192,183014,1,0,0:0:0:0:
448,192,183357,1,0,0:0:0:0:
64,192,183700,1,0,0:0:0:0:
192,192,183700,1,0,0:0:0:0:
320,192,184385,1,0,0:0:0:0:
448,192,184728,1,0,0:0:0:0:
192,192,184900,1,0,0:0:0:0:
64,192,185071,1,0,0:0:0:0:
448,192,185071,1,0,0:0:0:0:
192,192,185757,1,0,0:0:0:0:
320,192,185928,1,0,0:0:0:0:
448,192,186100,128,0,188842:0:0:0:0:
64,192,186442,128,0,188842:0:0:0:0:
192,192,188842,1,0,0:0:0:0:
320,192,188842,1,0,0:0:0:0:
448,192,189185,1,0,0:0:0:0:
64,192,189185,1,0,0:0:0:0:
320,192,189528,1,0,0:0:0:0:
64,192,189700,1,0,0:0:0:0:
192,192,189785,1,0,0:0:0:0:
320,192,189871,1,0,0:0:0:0:
448,192,189957,1,0,0:0:0:0:
64,192,190214,1,0,0:0:0:0:
192,192,190385,1,0,0:0:0:0:
448,192,190557,1,0,0:0:0:0:
320,192,190557,1,0,0:0:0:0:
64,192,190728,1,0,0:0:0:0:
320,192,190900,1,0,0:0:0:0:
320,192,191242,1,0,0:0:0:0:
192,192,191414,1,0,0:0:0:0:
448,192,191585,1,0,0:0:0:0:
320,192,191671,1,0,0:0:0:0:
64,192,191757,1,0,0:0:0:0:
192,192,191842,1,0,0:0:0:0:
320,192,191928,1,0,0:0:0:0:
448,192,191928,1,0,0:0:0:0:
64,192,192271,1,0,0:0:0:0:
192,192,192614,1,0,0:0:0:0:
320,192,192957,1,0,0:0:0:0:
64,192,193128,1,0,0:0:0:0:
448,192,193300,1,0,0:0:0:0:
192,192,193300,1,0,0:0:0:0:
320,192,193385,1,0,0:0:0:0:
192,192,193471,1,0,0:0:0:0:
64,192,193557,1,0,0:0:0:0:
448,192,193642,1,0,0:0:0:0:
320,192,193728,1,0,0:0:0:0:
192,192,193814,1,0,0:0:0:0:
64,192,193985,1,0,0:0:0:0:
448,192,194328,1,0,0:0:0:0:
192,192,194328,1,0,0:0:0:0:
64,192,194671,1,0,0:0:0:0:
192,192,194671,1,0,0:0:0:0:
448,192,194842,1,0,0:0:0:0:
192,192,194928,1,0,0:0:0:0:
64,192,195185,1,0,0:0:0:0:
192,192,195271,1,0,0:0:0:0:
320,192,195357,1,0,0:0:0:0:
448,192,195528,1,0,0:0:0:0:
64,192,195700,1,0,0:0:0:0:
320,192,195871,1,0,0:0:0:0:
192,192,196042,1,0,0:0:0:0:
64,192,196214,1,0,0:0:0:0:
448,192,196385,1,0,0:0:0:0:
320,192,196728,1,0,0:0:0:0:
64,192,196900,1,0,0:0:0:0:
192,192,196985,1,0,0:0:0:0:
320,192,197071,1,0,0:0:0:0:
448,192,197157,1,0,0:0:0:0:
64,192,197242,1,0,0:0:0:0:
320,192,197414,1,0,0:0:0:0:
192,192,197414,1,0,0:0:0:0:
448,192,197757,1,0,0:0:0:0:
320,192,197757,1,0,0:0:0:0:
64,192,198100,1,0,0:0:0:0:
448,192,198100,1,0,0:0:0:0:
192,192,198442,1,0,0:0:0:0:
64,192,198442,1,0,0:0:0:0:
320,192,198614,1,0,0:0:0:0:
448,192,198785,1,0,0:0:0:0:
192,192,198785,1,0,0:0:0:0:
64,192,198957,1,0,0:0:0:0:
192,192,199042,1,0,0:0:0:0:
320,192,199128,1,0,0:0:0:0:
448,192,199128,1,0,0:0:0:0:
320,192,199471,1,0,0:0:0:0:
192,192,199471,1,0,0:0:0:0:
192,192,199814,1,0,0:0:0:0:
64,192,199814,1,0,0:0:0:0:
320,192,200157,1,0,0:0:0:0:
448,192,200157,1,0,0:0:0:0:
192,192,200328,1,0,0:0:0:0:
320,192,200414,1,0,0:0:0:0:
192,192,200585,1,0,0:0:0:0:
320,192,200671,1,0,0:0:0:0:
448,192,200842,1,0,0:0:0:0:
64,192,200842,1,0,0:0:0:0:
320,192,201014,1,0,0:0:0:0:
192,192,201100,1,0,0:0:0:0:
320,192,201271,1,0,0:0:0:0:
192,192,201357,1,0,0:0:0:0:
64,192,201528,1,0,0:0:0:0:
320,192,201614,1,0,0:0:0:0:
64,192,201700,1,0,0:0:0:0:
192,192,201785,1,0,0:0:0:0:
320,192,201871,1,0,0:0:0:0:
448,192,202042,1,0,0:0:0:0:
64,192,202128,1,0,0:0:0:0:
448,192,202385,1,0,0:0:0:0:
192,192,202471,1,0,0:0:0:0:
448,192,202642,1,0,0:0:0:0:
192,192,202728,1,0,0:0:0:0:
320,192,202900,1,0,0:0:0:0:
448,192,202900,1,0,0:0:0:0:
64,192,202985,1,0,0:0:0:0:
192,192,203071,1,0,0:0:0:0:
320,192,203157,1,0,0:0:0:0:
448,192,203242,1,0,0:0:0:0:
64,192,203500,1,0,0:0:0:0:
192,192,203585,1,0,0:0:0:0:
320,192,203757,1,0,0:0:0:0:
448,192,203928,1,0,0:0:0:0:
64,192,204100,1,0,0:0:0:0:
320,192,204271,1,0,0:0:0:0:
64,192,204528,1,0,0:0:0:0:
320,192,204700,1,0,0:0:0:0:
192,192,204785,1,0,0:0:0:0:
64,192,204871,1,0,0:0:0:0:
448,192,204957,1,0,0:0:0:0:
320,192,205042,1,0,0:0:0:0:
192,192,205128,1,0,0:0:0:0:
64,192,205214,1,0,0:0:0:0:
448,192,205300,1,0,0:0:0:0:
192,192,205471,1,0,0:0:0:0:
320,192,205557,1,0,0:0:0:0:
448,192,205642,1,0,0:0:0:0:
64,192,205642,1,0,0:0:0:0:
192,192,205728,1,0,0:0:0:0:
320,192,205814,1,0,0:0:0:0:
448,192,205900,1,0,0:0:0:0:
64,192,205985,1,0,0:0:0:0:
192,192,206071,1,0,0:0:0:0:
320,192,206157,1,0,0:0:0:0:
448,192,206242,1,0,0:0:0:0:
64,192,206328,1,0,0:0:0:0:
192,192,206414,1,0,0:0:0:0:
448,192,206500,1,0,0:0:0:0:
320,192,206585,1,0,0:0:0:0:
192,192,206671,1,0,0:0:0:0:
64,192,206757,1,0,0:0:0:0:
448,192,206842,1,0,0:0:0:0:
320,192,206928,1,0,0:0:0:0:
192,192,207014,1,0,0:0:0:0:
64,192,207100,1,0,0:0:0:0:
448,192,207185,1,0,0:0:0:0:
320,192,207271,1,0,0:0:0:0:
64,192,207357,1,0,0:0:0:0:
192,192,207442,1,0,0:0:0:0:
320,192,207528,1,0,0:0:0:0:
448,192,207614,1,0,0:0:0:0:
64,192,207700,1,0,0:0:0:0:
192,192,207785,1,0,0:0:0:0:
320,192,207871,1,0,0:0:0:0:
448,192,207957,1,0,0:0:0:0:
64,192,208042,1,0,0:0:0:0:
192,192,208128,1,0,0:0:0:0:
320,192,208214,1,0,0:0:0:0:
448,192,208300,1,0,0:0:0:0:
64,192,208385,1,0,0:0:0:0:
192,192,208471,1,0,0:0:0:0:
448,192,208557,1,0,0:0:0:0:
320,192,208642,1,0,0:0:0:0:
192,192,208728,1,0,0:0:0:0:
64,192,208814,1,0,0:0:0:0:
448,192,208900,1,0,0:0:0:0:
320,192,208985,1,0,0:0:0:0:
192,192,209071,1,0,0:0:0:0:
64,192,209157,1,0,0:0:0:0:
448,192,209242,1,0,0:0:0:0:
320,192,209328,1,0,0:0:0:0:
64,192,209414,1,0,0:0:0:0:
192,192,209500,1,0,0:0:0:0:
448,192,209585,1,0,0:0:0:0:
320,192,209671,1,0,0:0:0:0:
64,192,209757,1,0,0:0:0:0:
192,192,209842,1,0,0:0:0:0:
320,192,209928,1,0,0:0:0:0:
448,192,210014,1,0,0:0:0:0:
64,192,210100,128,0,210442:0:0:0:0:
448,192,210442,128,0,210785:0:0:0:0:
64,192,210785,1,0,0:0:0:0:
192,192,210785,1,0,0:0:0:0:
320,192,211128,1,0,0:0:0:0:
448,192,211128,1,0,0:0:0:0:
192,192,211300,128,0,211471:0:0:0:0:
64,192,211300,1,0,0:0:0:0:
448,192,211471,1,0,0:0:0:0:
192,192,211642,128,0,211814:0:0:0:0:
64,192,211642,1,0,0:0:0:0:
320,192,211814,1,0,0:0:0:0:
320,192,211985,128,0,212157:0:0:0:0:
448,192,211985,1,0,0:0:0:0:
64,192,212157,1,0,0:0:0:0:
320,192,212328,128,0,212500:0:0:0:0:
448,192,212328,1,0,0:0:0:0:
64,192,212500,1,0,0:0:0:0:
192,192,212671,1,0,0:0:0:0:
64,192,212842,128,0,213185:0:0:0:0:
448,192,212842,1,0,0:0:0:0:
320,192,213014,1,0,0:0:0:0:
192,192,213185,1,0,0:0:0:0:
320,192,213271,1,0,0:0:0:0:
448,192,213357,128,0,213528:0:0:0:0:
192,192,213528,1,0,0:0:0:0:
448,192,213700,128,0,213871:0:0:0:0:
320,192,213700,1,0,0:0:0:0:
64,192,213871,1,0,0:0:0:0:
192,192,213957,1,0,0:0:0:0:
320,192,214042,1,0,0:0:0:0:
448,192,214128,1,0,0:0:0:0:
64,192,214214,128,0,214557:0:0:0:0:
192,192,214214,1,0,0:0:0:0:
320,192,214385,1,0,0:0:0:0:
448,192,214557,1,0,0:0:0:0:
320,192,214642,1,0,0:0:0:0:
192,192,214728,128,0,214900:0:0:0:0:
64,192,214728,1,0,0:0:0:0:
448,192,214900,1,0,0:0:0:0:
192,192,215071,128,0,215242:0:0:0:0:
320,192,215071,1,0,0:0:0:0:
448,192,215242,1,0,0:0:0:0:
64,192,215242,1,0,0:0:0:0:
320,192,215414,1,0,0:0:0:0:
320,192,215585,128,0,215757:0:0:0:0:
192,192,215585,1,0,0:0:0:0:
64,192,215757,1,0,0:0:0:0:
192,192,215842,1,0,0:0:0:0:
320,192,215928,128,0,216100:0:0:0:0:
64,192,215928,1,0,0:0:0:0:
448,192,216100,128,0,216271:0:0:0:0:
192,192,216271,128,0,216614:0:0:0:0:
64,192,216271,1,0,0:0:0:0:
448,192,216614,128,0,216785:0:0:0:0:
64,192,216614,1,0,0:0:0:0:
320,192,216614,1,0,0:0:0:0:
448,192,216957,128,0,217128:0:0:0:0:
64,192,216957,1,0,0:0:0:0:
320,192,216957,1,0,0:0:0:0:
320,192,217300,1,0,0:0:0:0:
448,192,217300,1,0,0:0:0:0:
192,192,217471,128,0,217642:0:0:0:0:
64,192,217471,1,0,0:0:0:0:
448,192,217642,1,0,0:0:0:0:
192,192,217814,128,0,217985:0:0:0:0:
64,192,217814,1,0,0:0:0:0:
448,192,217985,1,0,0:0:0:0:
320,192,218157,1,0,0:0:0:0:
64,192,218328,128,0,218671:0:0:0:0:
192,192,218328,1,0,0:0:0:0:
448,192,218500,1,0,0:0:0:0:
192,192,218671,1,0,0:0:0:0:
320,192,218757,1,0,0:0:0:0:
448,192,218842,128,0,219014:0:0:0:0:
64,192,219014,1,0,0:0:0:0:
192,192,219014,1,0,0:0:0:0:
448,192,219185,128,0,219357:0:0:0:0:
320,192,219357,128,0,219700:0:0:0:0:
64,192,219357,1,0,0:0:0:0:
192,192,219700,128,0,220042:0:0:0:0:
448,192,219700,1,0,0:0:0:0:
448,192,220042,128,0,220385:0:0:0:0:
64,192,220042,1,0,0:0:0:0:
192,192,220385,128,0,220728:0:0:0:0:
320,192,220385,1,0,0:0:0:0:
320,192,220728,128,0,221071:0:0:0:0:
64,192,220728,1,0,0:0:0:0:
64,192,221071,128,0,221414:0:0:0:0:
448,192,221071,1,0,0:0:0:0:
448,192,221414,128,0,221757:0:0:0:0:
192,192,221414,1,0,0:0:0:0:
64,192,221757,128,0,222100:0:0:0:0:
320,192,221757,1,0,0:0:0:0:
448,192,222100,1,0,0:0:0:0:
192,192,222100,1,0,0:0:0:0:
64,192,222271,1,0,0:0:0:0:
448,192,222442,1,0,0:0:0:0:
192,192,222442,1,0,0:0:0:0:
320,192,222614,1,0,0:0:0:0:
64,192,222785,1,0,0:0:0:0:
192,192,222785,1,0,0:0:0:0:
192,192,223042,1,0,0:0:0:0:
320,192,223042,1,0,0:0:0:0:
320,192,223300,1,0,0:0:0:0:
448,192,223300,1,0,0:0:0:0:
64,192,223471,128,0,223642:0:0:0:0:
192,192,223471,1,0,0:0:0:0:
320,192,223642,128,0,223814:0:0:0:0:
192,192,223814,128,0,224157:0:0:0:0:
448,192,223814,1,0,0:0:0:0:
448,192,224157,1,0,0:0:0:0:
320,192,224157,1,0,0:0:0:0:
192,192,224414,1,0,0:0:0:0:
320,192,224414,1,0,0:0:0:0:
64,192,224671,1,0,0:0:0:0:
192,192,224757,1,0,0:0:0:0:
320,192,224842,1,0,0:0:0:0:
448,192,224842,1,0,0:0:0:0:
64,192,225014,1,0,0:0:0:0:
192,192,225185,128,0,225357:0:0:0:0:
320,192,225185,1,0,0:0:0:0:
448,192,225357,1,0,0:0:0:0:
320,192,225528,128,0,225700:0:0:0:0:
448,192,225700,1,0,0:0:0:0:
64,192,225871,1,0,0:0:0:0:
192,192,225957,1,0,0:0:0:0:
320,192,226042,1,0,0:0:0:0:
448,192,226042,1,0,0:0:0:0:
64,192,226128,1,0,0:0:0:0:
192,192,226214,128,0,226385:0:0:0:0:
320,192,226385,1,0,0:0:0:0:
448,192,226557,1,0,0:0:0:0:
320,192,226642,1,0,0:0:0:0:
64,192,226728,1,0,0:0:0:0:
192,192,226814,1,0,0:0:0:0:
448,192,226900,128,0,227242:0:0:0:0:
320,192,226900,1,0,0:0:0:0:
320,192,227242,128,0,227585:0:0:0:0:
64,192,227242,1,0,0:0:0:0:
192,192,227585,1,0,0:0:0:0:
448,192,227585,1,0,0:0:0:0:
320,192,227757,1,0,0:0:0:0:
192,192,227842,1,0,0:0:0:0:
64,192,227928,1,0,0:0:0:0:
448,192,227928,1,0,0:0:0:0:
320,192,228100,1,0,0:0:0:0:
192,192,228185,1,0,0:0:0:0:
64,192,228271,1,0,0:0:0:0:
448,192,228271,1,0,0:0:0:0:
192,192,228442,1,0,0:0:0:0:
448,192,228614,1,0,0:0:0:0:
320,192,228614,1,0,0:0:0:0:
64,192,228785,1,0,0:0:0:0:
192,192,228871,1,0,0:0:0:0:
320,192,228957,1,0,0:0:0:0:
448,192,228957,1,0,0:0:0:0:
192,192,229128,1,0,0:0:0:0:
64,192,229300,1,0,0:0:0:0:
448,192,229300,1,0,0:0:0:0:
320,192,229385,1,0,0:0:0:0:
192,192,229471,1,0,0:0:0:0:
64,192,229557,1,0,0:0:0:0:
320,192,229642,1,0,0:0:0:0:
448,192,229642,1,0,0:0:0:0:
192,192,229814,1,0,0:0:0:0:
320,192,229985,1,0,0:0:0:0:
448,192,229985,1,0,0:0:0:0:
64,192,230157,1,0,0:0:0:0:
320,192,230328,1,0,0:0:0:0:
448,192,230328,1,0,0:0:0:0:
192,192,230414,1,0,0:0:0:0:
64,192,230500,1,0,0:0:0:0:
448,192,230585,1,0,0:0:0:0:
320,192,230671,1,0,0:0:0:0:
192,192,230757,1,0,0:0:0:0:
64,192,230842,1,0,0:0:0:0:
448,192,230928,1,0,0:0:0:0:
64,192,231014,1,0,0:0:0:0:
192,192,231014,1,0,0:0:0:0:
320,192,231100,1,0,0:0:0:0:
448,192,231185,1,0,0:0:0:0:
64,192,231271,1,0,0:0:0:0:
192,192,231357,1,0,0:0:0:0:
320,192,231442,1,0,0:0:0:0:
448,192,231528,1,0,0:0:0:0:
64,192,231614,1,0,0:0:0:0:
320,192,231700,1,0,0:0:0:0:
448,192,231700,1,0,0:0:0:0:
192,192,231785,1,0,0:0:0:0:
64,192,231871,1,0,0:0:0:0:
448,192,231957,1,0,0:0:0:0:
320,192,232042,1,0,0:0:0:0:
192,192,232128,1,0,0:0:0:0:
64,192,232214,1,0,0:0:0:0:
448,192,232300,1,0,0:0:0:0:
320,192,232385,1,0,0:0:0:0:
64,192,232471,1,0,0:0:0:0:
192,192,232557,1,0,0:0:0:0:
320,192,232642,1,0,0:0:0:0:
448,192,232728,1,0,0:0:0:0:
64,192,232814,1,0,0:0:0:0:
192,192,232900,1,0,0:0:0:0:
320,192,232985,1,0,0:0:0:0:
448,192,233071,1,0,0:0:0:0:
64,192,233071,1,0,0:0:0:0:
320,192,233242,1,0,0:0:0:0:
64,192,233414,1,0,0:0:0:0:
192,192,233414,1,0,0:0:0:0:
320,192,233585,1,0,0:0:0:0:
448,192,233757,1,0,0:0:0:0:
64,192,233757,1,0,0:0:0:0:
192,192,233928,1,0,0:0:0:0:
320,192,234100,1,0,0:0:0:0:
448,192,234100,1,0,0:0:0:0:
192,192,234271,1,0,0:0:0:0:
64,192,234442,1,0,0:0:0:0:
448,192,234442,1,0,0:0:0:0:
320,192,234614,1,0,0:0:0:0:
192,192,234785,1,0,0:0:0:0:
64,192,234785,1,0,0:0:0:0:
448,192,234957,1,0,0:0:0:0:
320,192,235128,1,0,0:0:0:0:
64,192,235128,1,0,0:0:0:0:
192,192,235300,1,0,0:0:0:0:
320,192,235471,1,0,0:0:0:0:
448,192,235471,1,0,0:0:0:0:
64,192,235642,1,0,0:0:0:0:
192,192,235814,1,0,0:0:0:0:
320,192,235814,1,0,0:0:0:0:
448,192,235985,1,0,0:0:0:0:
64,192,236157,1,0,0:0:0:0:
192,192,236157,1,0,0:0:0:0:
320,192,236328,1,0,0:0:0:0:
448,192,236500,1,0,0:0:0:0:
64,192,236500,1,0,0:0:0:0:
192,192,236671,1,0,0:0:0:0:
320,192,236842,1,0,0:0:0:0:
448,192,236842,1,0,0:0:0:0:
192,192,237014,1,0,0:0:0:0:
64,192,237185,1,0,0:0:0:0:
448,192,237185,1,0,0:0:0:0:
320,192,237357,1,0,0:0:0:0:
192,192,237528,1,0,0:0:0:0:
64,192,237528,1,0,0:0:0:0:
320,192,237700,1,0,0:0:0:0:
448,192,237871,1,0,0:0:0:0:
192,192,237871,1,0,0:0:0:0:
64,192,238042,1,0,0:0:0:0:
320,192,238214,1,0,0:0:0:0:
448,192,238214,1,0,0:0:0:0:
192,192,238385,1,0,0:0:0:0:
64,192,238557,1,0,0:0:0:0:
448,192,238557,1,0,0:0:0:0:
320,192,238728,1,0,0:0:0:0:
192,192,238900,1,0,0:0:0:0:
64,192,238900,1,0,0:0:0:0:
320,192,239071,1,0,0:0:0:0:
448,192,239242,1,0,0:0:0:0:
64,192,239242,1,0,0:0:0:0:
192,192,239414,1,0,0:0:0:0:
320,192,239585,1,0,0:0:0:0:
448,192,239585,1,0,0:0:0:0:
64,192,239757,1,0,0:0:0:0:
192,192,239928,1,0,0:0:0:0:
320,192,239928,1,0,0:0:0:0:
448,192,240100,1,0,0:0:0:0:
64,192,240271,1,0,0:0:0:0:
192,192,240271,1,0,0:0:0:0:
320,192,240442,1,0,0:0:0:0:
448,192,240614,1,0,0:0:0:0:
192,192,240614,1,0,0:0:0:0:
64,192,240785,1,0,0:0:0:0:
320,192,240957,1,0,0:0:0:0:
448,192,240957,1,0,0:0:0:0:
192,192,241128,1,0,0:0:0:0:
64,192,241300,1,0,0:0:0:0:
448,192,241300,1,0,0:0:0:0:
320,192,241471,1,0,0:0:0:0:
192,192,241642,1,0,0:0:0:0:
64,192,241642,1,0,0:0:0:0:
320,192,241814,1,0,0:0:0:0:
448,192,241985,1,0,0:0:0:0:
192,192,241985,1,0,0:0:0:0:
64,192,242157,1,0,0:0:0:0:
320,192,242328,1,0,0:0:0:0:
448,192,242328,1,0,0:0:0:0:
64,192,242500,1,0,0:0:0:0:
192,192,242671,1,0,0:0:0:0:
320,192,242671,1,0,0:0:0:0:
448,192,242842,1,0,0:0:0:0:
64,192,243014,1,0,0:0:0:0:
192,192,243014,1,0,0:0:0:0:
320,192,243185,1,0,0:0:0:0:
64,192,243357,1,0,0:0:0:0:
448,192,243357,1,0,0:0:0:0:
192,192,243528,1,0,0:0:0:0:
320,192,243700,1,0,0:0:0:0:
448,192,243700,1,0,0:0:0:0:
192,192,243871,1,0,0:0:0:0:
64,192,244042,1,0,0:0:0:0:
448,192,244042,1,0,0:0:0:0:
192,192,244214,1,0,0:0:0:0:
320,192,244385,1,0,0:0:0:0:
448,192,244385,1,0,0:0:0:0:
192,192,244557,1,0,0:0:0:0:
64,192,244728,1,0,0:0:0:0:
448,192,244728,1,0,0:0:0:0:
320,192,244900,1,0,0:0:0:0:
192,192,245071,1,0,0:0:0:0:
64,192,245071,1,0,0:0:0:0:
320,192,245242,1,0,0:0:0:0:
448,192,245414,1,0,0:0:0:0:
64,192,245414,1,0,0:0:0:0:
192,192,245585,1,0,0:0:0:0:
320,192,245757,1,0,0:0:0:0:
448,192,245757,1,0,0:0:0:0:
192,192,245928,1,0,0:0:0:0:
64,192,246100,1,0,0:0:0:0:
320,192,246100,1,0,0:0:0:0:
448,192,246271,1,0,0:0:0:0:
64,192,246442,1,0,0:0:0:0:
192,192,246442,1,0,0:0:0:0:
320,192,246614,1,0,0:0:0:0:
448,192,246785,1,0,0:0:0:0:
192,192,246785,1,0,0:0:0:0:
64,192,246957,1,0,0:0:0:0:
320,192,247128,1,0,0:0:0:0:
448,192,247128,1,0,0:0:0:0:
192,192,247300,1,0,0:0:0:0:
64,192,247471,1,0,0:0:0:0:
448,192,247471,1,0,0:0:0:0:
320,192,247642,1,0,0:0:0:0:
192,192,247814,1,0,0:0:0:0:
64,192,247814,1,0,0:0:0:0:
320,192,247985,1,0,0:0:0:0:
448,192,248157,1,0,0:0:0:0:
64,192,248157,1,0,0:0:0:0:
192,192,248328,1,0,0:0:0:0:
320,192,248500,1,0,0:0:0:0:
448,192,248500,1,0,0:0:0:0:
192,192,248671,1,0,0:0:0:0:
64,192,248842,1,0,0:0:0:0:
448,192,248842,1,0,0:0:0:0:
320,192,249014,1,0,0:0:0:0:
64,192,249185,1,0,0:0:0:0:
192,192,249185,1,0,0:0:0:0:
320,192,249357,1,0,0:0:0:0:
64,192,249528,1,0,0:0:0:0:
448,192,249528,1,0,0:0:0:0:
320,192,249700,1,0,0:0:0:0:
192,192,249871,1,0,0:0:0:0:
448,192,249871,1,0,0:0:0:0:
64,192,250042,1,0,0:0:0:0:
192,192,250214,1,0,0:0:0:0:
320,192,250214,1,0,0:0:0:0:
448,192,250385,1,0,0:0:0:0:
64,192,250557,1,0,0:0:0:0:
192,192,250557,1,0,0:0:0:0:
320,192,250728,1,0,0:0:0:0:
448,192,250900,1,0,0:0:0:0:
64,192,250900,1,0,0:0:0:0:
192,192,251071,1,0,0:0:0:0:
448,192,251242,1,0,0:0:0:0:
320,192,251242,1,0,0:0:0:0:
192,192,251414,1,0,0:0:0:0:
448,192,251585,1,0,0:0:0:0:
64,192,251585,1,0,0:0:0:0:
320,192,251757,1,0,0:0:0:0:
192,192,251928,1,0,0:0:0:0:
64,192,251928,1,0,0:0:0:0:
320,192,252100,1,0,0:0:0:0:
192,192,252271,1,0,0:0:0:0:
448,192,252271,1,0,0:0:0:0:
64,192,252442,1,0,0:0:0:0:
320,192,252614,1,0,0:0:0:0:
448,192,252614,1,0,0:0:0:0:
192,192,252785,1,0,0:0:0:0:
448,192,252957,1,0,0:0:0:0:
64,192,252957,1,0,0:0:0:0:
192,192,253128,1,0,0:0:0:0:
448,192,253300,1,0,0:0:0:0:
320,192,253300,1,0,0:0:0:0:
64,192,253471,1,0,0:0:0:0:
192,192,253642,1,0,0:0:0:0:
320,192,253642,1,0,0:0:0:0:
448,192,253814,1,0,0:0:0:0:
64,192,253985,1,0,0:0:0:0:
192,192,254071,1,0,0:0:0:0:
320,192,254157,1,0,0:0:0:0:
448,192,254242,1,0,0:0:0:0:
64,192,254328,1,0,0:0:0:0:
192,192,254328,1,0,0:0:0:0:
448,192,254414,1,0,0:0:0:0:
320,192,254500,1,0,0:0:0:0:
192,192,254585,1,0,0:0:0:0:
64,192,254671,1,0,0:0:0:0:
448,192,254757,1,0,0:0:0:0:
320,192,254842,1,0,0:0:0:0:
64,192,255014,1,0,0:0:0:0:
192,192,255014,1,0,0:0:0:0:
448,192,255185,1,0,0:0:0:0:
64,192,255357,1,0,0:0:0:0:
192,192,255357,1,0,0:0:0:0:
320,192,255528,1,0,0:0:0:0:
448,192,255700,1,0,0:0:0:0:
64,192,255700,1,0,0:0:0:0:
320,192,255871,1,0,0:0:0:0:
192,192,255957,1,0,0:0:0:0:
64,192,256042,1,0,0:0:0:0:
448,192,256042,1,0,0:0:0:0:
192,192,256214,1,0,0:0:0:0:
320,192,256385,1,0,0:0:0:0:
448,192,256385,1,0,0:0:0:0:
192,192,256557,1,0,0:0:0:0:
320,192,256728,1,0,0:0:0:0:
448,192,256728,1,0,0:0:0:0:
64,192,256900,1,0,0:0:0:0:
192,192,257071,1,0,0:0:0:0:
320,192,257071,1,0,0:0:0:0:
448,192,257242,1,0,0:0:0:0:
320,192,257328,1,0,0:0:0:0:
192,192,257414,1,0,0:0:0:0:
64,192,257414,1,0,0:0:0:0:
448,192,257585,1,0,0:0:0:0:
192,192,257757,1,0,0:0:0:0:
320,192,257757,1,0,0:0:0:0:
64,192,257928,1,0,0:0:0:0:
192,192,258100,1,0,0:0:0:0:
320,192,258100,1,0,0:0:0:0:
448,192,258271,1,0,0:0:0:0:
64,192,258442,1,0,0:0:0:0:
192,192,258442,1,0,0:0:0:0:
448,192,258614,1,0,0:0:0:0:
320,192,258700,1,0,0:0:0:0:
64,192,258785,1,0,0:0:0:0:
192,192,258785,1,0,0:0:0:0:
448,192,258957,1,0,0:0:0:0:
320,192,259042,1,0,0:0:0:0:
192,192,259128,1,0,0:0:0:0:
64,192,259128,1,0,0:0:0:0:
320,192,259300,128,0,259471:0:0:0:0:
448,192,259471,1,0,0:0:0:0:
64,192,259471,1,0,0:0:0:0:
192,192,259642,128,0,259814:0:0:0:0:
320,192,259814,1,0,0:0:0:0:
448,192,259814,1,0,0:0:0:0:
320,192,259985,128,0,260157:0:0:0:0:
64,192,260157,1,0,0:0:0:0:
192,192,260157,1,0,0:0:0:0:
192,192,260328,128,0,260500:0:0:0:0:
320,192,260500,1,0,0:0:0:0:
448,192,260500,1,0,0:0:0:0:
64,192,260671,1,0,0:0:0:0:
320,192,260842,1,0,0:0:0:0:
448,192,260842,1,0,0:0:0:0:
192,192,261014,1,0,0:0:0:0:
448,192,261185,1,0,0:0:0:0:
64,192,261185,1,0,0:0:0:0:
192,192,261357,1,0,0:0:0:0:
320,192,261442,1,0,0:0:0:0:
64,192,261528,1,0,0:0:0:0:
448,192,261528,1,0,0:0:0:0:
320,192,261700,1,0,0:0:0:0:
64,192,261871,1,0,0:0:0:0:
192,192,261871,1,0,0:0:0:0:
320,192,262042,1,0,0:0:0:0:
64,192,262214,1,0,0:0:0:0:
192,192,262214,1,0,0:0:0:0:
448,192,262385,1,0,0:0:0:0:
192,192,262557,1,0,0:0:0:0:
320,192,262557,1,0,0:0:0:0:
64,192,262728,1,0,0:0:0:0:
192,192,262814,1,0,0:0:0:0:
448,192,262900,1,0,0:0:0:0:
320,192,262900,1,0,0:0:0:0:
64,192,263071,1,0,0:0:0:0:
192,192,263242,1,0,0:0:0:0:
320,192,263242,1,0,0:0:0:0:
448,192,263414,1,0,0:0:0:0:
192,192,263585,1,0,0:0:0:0:
320,192,263585,1,0,0:0:0:0:
64,192,263757,1,0,0:0:0:0:
320,192,263928,1,0,0:0:0:0:
448,192,263928,1,0,0:0:0:0:
64,192,264100,1,0,0:0:0:0:
192,192,264185,1,0,0:0:0:0:
320,192,264271,1,0,0:0:0:0:
448,192,264271,1,0,0:0:0:0:
64,192,264442,1,0,0:0:0:0:
192,192,264614,1,0,0:0:0:0:
320,192,264614,1,0,0:0:0:0:
64,192,264785,128,0,264957:0:0:0:0:
448,192,264957,1,0,0:0:0:0:
320,192,264957,1,0,0:0:0:0:
448,192,265128,128,0,265300:0:0:0:0:
64,192,265300,1,0,0:0:0:0:
192,192,265300,1,0,0:0:0:0:
64,192,265471,128,0,265642:0:0:0:0:
448,192,265642,1,0,0:0:0:0:
192,192,265642,1,0,0:0:0:0:
448,192,265814,128,0,265985:0:0:0:0:
64,192,265985,1,0,0:0:0:0:
192,192,265985,1,0,0:0:0:0:
448,192,266157,1,0,0:0:0:0:
64,192,266328,1,0,0:0:0:0:
192,192,266328,1,0,0:0:0:0:
320,192,266500,1,0,0:0:0:0:
448,192,266671,1,0,0:0:0:0:
64,192,266671,1,0,0:0:0:0:
320,192,266842,1,0,0:0:0:0:
192,192,266928,1,0,0:0:0:0:
64,192,267014,1,0,0:0:0:0:
448,192,267014,1,0,0:0:0:0:
192,192,267185,1,0,0:0:0:0:
320,192,267357,1,0,0:0:0:0:
448,192,267357,1,0,0:0:0:0:
192,192,267528,1,0,0:0:0:0:
320,192,267700,1,0,0:0:0:0:
448,192,267700,1,0,0:0:0:0:
64,192,267871,1,0,0:0:0:0:
192,192,268042,1,0,0:0:0:0:
320,192,268042,1,0,0:0:0:0:
448,192,268214,1,0,0:0:0:0:
320,192,268300,1,0,0:0:0:0:
192,192,268385,1,0,0:0:0:0:
64,192,268385,1,0,0:0:0:0:
448,192,268557,1,0,0:0:0:0:
192,192,268728,1,0,0:0:0:0:
320,192,268728,1,0,0:0:0:0:
64,192,268900,1,0,0:0:0:0:
192,192,269071,1,0,0:0:0:0:
320,192,269071,1,0,0:0:0:0:
448,192,269242,1,0,0:0:0:0:
64,192,269414,1,0,0:0:0:0:
192,192,269414,1,0,0:0:0:0:
448,192,269585,1,0,0:0:0:0:
320,192,269671,1,0,0:0:0:0:
64,192,269757,1,0,0:0:0:0:
192,192,269757,1,0,0:0:0:0:
320,192,269928,1,0,0:0:0:0:
448,192,270100,1,0,0:0:0:0:
64,192,270100,1,0,0:0:0:0:
320,192,270271,128,0,270442:0:0:0:0:
64,192,270442,1,0,0:0:0:0:
192,192,270442,1,0,0:0:0:0:
64,192,270614,128,0,270785:0:0:0:0:
448,192,270785,1,0,0:0:0:0:
320,192,270785,1,0,0:0:0:0:
320,192,270957,128,0,271128:0:0:0:0:
64,192,271128,1,0,0:0:0:0:
448,192,271128,1,0,0:0:0:0:
192,192,271300,128,0,271471:0:0:0:0:
320,192,271471,1,0,0:0:0:0:
448,192,271471,128,0,271642:0:0:0:0:
64,192,271814,1,0,0:0:0:0:
448,192,271814,128,0,271985:0:0:0:0:
448,192,272157,128,0,272328:0:0:0:0:
64,192,272157,1,0,0:0:0:0:
448,192,272500,128,0,272671:0:0:0:0:
64,192,272500,1,0,0:0:0:0:
448,192,272842,128,0,273014:0:0:0:0:
64,192,272842,1,0,0:0:0:0:
320,192,273014,128,0,273185:0:0:0:0:
64,192,273185,128,0,273357:0:0:0:0:
448,192,273185,1,0,0:0:0:0:
192,192,273357,128,0,273528:0:0:0:0:
320,192,273528,128,0,273700:0:0:0:0:
448,192,273528,1,0,0:0:0:0:
448,192,273700,128,0,273871:0:0:0:0:
192,192,273871,128,0,274042:0:0:0:0:
64,192,273871,1,0,0:0:0:0:
64,192,274042,128,0,274214:0:0:0:0:
448,192,274214,1,0,0:0:0:0:
320,192,274300,1,0,0:0:0:0:
192,192,274385,1,0,0:0:0:0:
64,192,274471,1,0,0:0:0:0:
448,192,274557,1,0,0:0:0:0:
320,192,274642,1,0,0:0:0:0:
64,192,274728,1,0,0:0:0:0:
192,192,274814,1,0,0:0:0:0:
320,192,274900,1,0,0:0:0:0:
448,192,274985,1,0,0:0:0:0:
64,192,275071,1,0,0:0:0:0:
192,192,275157,1,0,0:0:0:0:
448,192,275242,1,0,0:0:0:0:
320,192,275328,1,0,0:0:0:0:
192,192,275414,1,0,0:0:0:0:
64,192,275500,1,0,0:0:0:0:
320,192,275585,1,0,0:0:0:0:
448,192,275585,1,0,0:0:0:0:
192,192,275757,1,0,0:0:0:0:
320,192,275842,1,0,0:0:0:0:
192,192,275928,1,0,0:0:0:0:
64,192,275928,128,0,276271:0:0:0:0:
448,192,275928,128,0,276957:0:0:0:0:
192,192,276271,128,0,276614:0:0:0:0:
320,192,276614,128,0,276957:0:0:0:0:
64,192,276957,128,0,283814:0:0:0:0:
