osu file format v14

[General]
AudioFilename: audio.mp3
AudioLeadIn: 0
PreviewTime: 141859
Countdown: 1
SampleSet: None
StackLeniency: 0.7
Mode: 1
LetterboxInBreaks: 0
WidescreenStoryboard: 0

[Editor]
Bookmarks: 20495,47768,77768,99927,130950,170495,189586,200495,214132,238677
DistanceSpacing: 1
BeatDivisor: 4
GridSize: 32
TimelineZoom: 3.499998

[Metadata]
Title:Your voice so...
TitleUnicode:Your voice so...
Artist:PSYQUI feat. Such
ArtistUnicode:PSYQUI feat. Such
Creator:KinomiCandy
Version:Beautiful
Source:FÜGENE
Tags:AILIS MEGAREX future bass
BeatmapID:1884946
BeatmapSetID:902882

[Difficulty]
HPDrainRate:5
CircleSize:4
OverallDifficulty:6
ApproachRate:5
SliderMultiplier:1.5
SliderTickRate:1

[Events]
//Background and Video events
0,0,"bg.jpg",0,50
//Break Periods
2,67059,76568
//Storyboard Layer 0 (Background)
//Storyboard Layer 1 (Fail)
//Storyboard Layer 2 (Pass)
//Storyboard Layer 3 (Foreground)
//Storyboard Sound Samples

[TimingPoints]
1405,340.909090909091,4,1,0,85,1,0
1745,-111.111111111111,4,1,0,85,0,0
12143,-100,4,1,0,85,0,0
25865,-95.2380952380952,4,1,0,85,0,1
34771,-100,4,1,0,85,0,1
34814,-100,4,1,0,85,0,0
35495,-95.2380952380952,4,1,0,85,0,1
44956,-95.2380952380952,4,1,0,35,0,0
47342,-66.6666666666667,4,1,0,50,0,0
47683,-95.2380952380952,4,1,0,85,0,0
61405,-97.0873786407767,4,1,0,85,0,0
61490,-99.009900990099,4,1,0,85,0,0
61575,-101.010101010101,4,1,0,85,0,0
61660,-103.092783505155,4,1,0,85,0,0
61745,-105.263157894737,4,1,0,85,0,0
64217,-95.2380952380952,4,1,0,85,0,0
77683,-90.9090909090909,4,1,0,85,0,0
77853,-100,4,1,0,85,0,0
83137,-95.2380952380952,4,1,0,85,0,0
85865,-90.9090909090909,4,1,0,85,0,0
88592,-111.111111111111,4,1,0,50,0,0
88933,-66.6666666666667,4,1,0,85,0,0
89103,-95.2380952380952,4,1,0,85,0,0
94047,-90.9090909090909,4,1,0,85,0,0
94728,-95.2380952380952,4,1,0,85,0,0
99870,-90.9090909090909,4,1,0,85,0,0
100211,-86.9565217391304,4,1,0,85,0,0
100552,-83.3333333333333,4,1,0,85,0,0
100893,-80,4,1,0,85,0,0
101234,-76.9230769230769,4,1,0,85,0,0
101575,-74.0740740740741,4,1,0,85,0,0
102314,-95.2380952380952,4,1,0,85,0,0
109814,-92.5925925925926,4,1,0,85,0,0
110155,-95.2380952380952,4,1,0,85,0,0
110495,-92.5925925925926,4,1,0,85,0,0
110836,-95.2380952380952,4,1,0,85,0,0
111177,-92.5925925925926,4,1,0,85,0,0
111518,-95.2380952380952,4,1,0,85,0,0
111859,-92.5925925925926,4,1,0,85,0,0
112200,-95.2380952380952,4,1,0,85,0,0
112541,-92.5925925925926,4,1,0,85,0,0
112882,-95.2380952380952,4,1,0,85,0,0
113223,-92.5925925925926,4,1,0,85,0,0
113564,-95.2380952380952,4,1,0,85,0,0
113905,-92.5925925925926,4,1,0,85,0,0
114245,-95.2380952380952,4,1,0,85,0,0
114586,-92.5925925925926,4,1,0,85,0,0
114757,-95.2380952380952,4,1,0,85,0,0
115268,-92.5925925925926,4,1,0,85,0,0
115439,-95.2380952380952,4,1,0,85,0,0
115950,-92.5925925925926,4,1,0,85,0,0
116120,-95.2380952380952,4,1,0,85,0,0
116632,-92.5925925925926,4,1,0,85,0,0
116802,-95.2380952380952,4,1,0,85,0,0
119530,-93.4579439252336,4,1,0,85,0,0
119700,-92.5925925925926,4,1,0,85,0,0
119785,-91.743119266055,4,1,0,85,0,0
119870,-90.9090909090909,4,1,0,85,0,0
119956,-90.0900900900901,4,1,0,85,0,0
120041,-89.2857142857143,4,1,0,85,0,1
141774,-111.111111111111,4,1,0,85,0,1
141859,-111.111111111111,4,1,0,85,0,0
142200,-93.4579439252336,4,1,0,85,0,1
152853,-91.743119266055,4,1,0,85,0,1
162257,-93.4579439252336,4,1,0,75,0,1
165041,-93.4579439252336,4,1,0,85,0,0
165211,-100,4,1,0,85,0,0
170240,-95.2380952380952,4,1,0,85,0,0
173166,-98.0392156862745,4,1,0,85,0,0
173905,-95.2380952380952,4,1,0,85,0,0
178677,-100,4,1,0,85,0,0
179359,-95.2380952380952,4,1,0,85,0,0
189757,-108.695652173913,4,1,0,35,0,0
195211,-106.382978723404,4,1,0,45,0,0
199132,-104.166666666667,4,1,0,65,0,0
200495,-100,4,1,0,85,0,0
205865,-98.0392156862745,4,1,0,85,0,0
208592,-96.1538461538461,4,1,0,85,0,0
211348,-100,4,1,0,85,0,0
219501,-95.2380952380952,4,1,0,85,0,1
227512,-90.9090909090909,4,1,0,85,0,1
227598,-90.9090909090909,4,1,0,85,0,0
229132,-95.2380952380952,4,1,0,85,0,1
235893,-93.4579439252336,4,1,0,85,0,1
238677,-95.2380952380952,4,1,0,85,0,0
238762,-111.111111111111,4,1,0,85,0,0

[HitObjects]
256,192,1405,5,4,0:0:0:0:
256,192,2086,1,0,0:0:0:0:
256,192,2768,1,8,0:0:0:0:
256,192,3450,1,8,0:0:0:0:
256,192,4132,1,0,0:0:0:0:
256,192,4473,1,8,0:0:0:0:
256,192,4814,1,8,0:0:0:0:
256,192,5495,1,0,0:0:0:0:
256,192,5836,1,8,0:0:0:0:
256,192,6177,1,8,0:0:0:0:
256,192,6518,1,0,0:0:0:0:
256,192,6859,1,8,0:0:0:0:
256,192,7882,1,0,0:0:0:0:
256,192,8223,1,8,0:0:0:0:
256,192,8564,1,8,0:0:0:0:
256,192,8905,1,0,0:0:0:0:
256,192,9245,1,0,0:0:0:0:
256,192,9586,1,8,0:0:0:0:
256,192,10268,1,8,0:0:0:0:
256,192,10609,1,0,0:0:0:0:
256,192,10950,1,8,0:0:0:0:
256,192,11291,1,0,0:0:0:0:
256,192,11632,1,8,0:0:0:0:
256,192,11973,1,8,0:0:0:0:
256,192,12314,1,12,0:0:0:0:
256,192,12484,1,8,0:0:0:0:
256,192,12655,1,8,0:0:0:0:
256,192,12825,1,0,0:0:0:0:
256,192,12995,1,8,0:0:0:0:
256,192,13166,1,0,0:0:0:0:
256,192,13336,1,8,0:0:0:0:
256,192,13507,1,8,0:0:0:0:
256,192,13677,1,0,0:0:0:0:
256,192,13848,1,0,0:0:0:0:
256,192,14018,1,8,0:0:0:0:
256,192,14189,1,8,0:0:0:0:
256,192,14359,1,0,0:0:0:0:
256,192,14530,1,8,0:0:0:0:
256,192,14700,1,0,0:0:0:0:
256,192,14870,1,0,0:0:0:0:
256,192,15041,1,8,0:0:0:0:
256,192,15211,1,8,0:0:0:0:
256,192,15382,1,8,0:0:0:0:
256,192,15552,1,0,0:0:0:0:
256,192,15723,1,8,0:0:0:0:
256,192,15893,1,0,0:0:0:0:
256,192,16064,1,8,0:0:0:0:
256,192,16234,1,8,0:0:0:0:
256,192,16405,1,0,0:0:0:0:
256,192,16575,1,0,0:0:0:0:
256,192,16745,1,8,0:0:0:0:
256,192,16916,1,8,0:0:0:0:
256,192,17086,1,0,0:0:0:0:
256,192,17257,1,8,0:0:0:0:
256,192,17427,1,0,0:0:0:0:
256,192,17598,1,0,0:0:0:0:
256,192,17768,1,8,0:0:0:0:
256,192,17939,1,8,0:0:0:0:
256,192,18109,1,8,0:0:0:0:
256,192,18280,1,0,0:0:0:0:
256,192,18450,1,8,0:0:0:0:
256,192,18620,1,8,0:0:0:0:
256,192,18791,1,0,0:0:0:0:
256,192,18961,1,8,0:0:0:0:
256,192,19047,1,8,0:0:0:0:
256,192,19132,1,0,0:0:0:0:
256,192,19302,1,0,0:0:0:0:
256,192,19473,1,8,0:0:0:0:
256,192,19643,1,8,0:0:0:0:
256,192,19814,1,0,0:0:0:0:
256,192,19984,1,8,0:0:0:0:
256,192,20155,1,0,0:0:0:0:
256,192,20325,1,0,0:0:0:0:
256,192,20495,1,8,0:0:0:0:
256,192,20581,1,8,0:0:0:0:
256,192,20666,1,0,0:0:0:0:
256,192,20751,1,0,0:0:0:0:
256,192,20836,1,8,0:0:0:0:
256,192,20922,1,8,0:0:0:0:
256,192,21007,1,0,0:0:0:0:
256,192,21092,1,0,0:0:0:0:
256,192,21177,1,8,0:0:0:0:
256,192,21262,1,8,0:0:0:0:
256,192,21348,1,8,0:0:0:0:
256,192,21433,1,8,0:0:0:0:
256,192,21518,1,0,0:0:0:0:
256,192,21603,1,0,0:0:0:0:
256,192,21689,5,0,0:0:0:0:
256,192,21774,5,0,0:0:0:0:
256,192,21859,5,8,0:0:0:0:
256,192,21916,1,8,0:0:0:0:
256,192,21973,1,8,0:0:0:0:
256,192,22030,1,0,0:0:0:0:
256,192,22200,1,8,0:0:0:0:
256,192,22370,1,0,0:0:0:0:
256,192,22427,1,0,0:0:0:0:
256,192,22484,1,0,0:0:0:0:
256,192,22541,1,8,0:0:0:0:
256,192,22626,1,0,0:0:0:0:
256,192,22711,1,0,0:0:0:0:
256,192,22797,1,0,0:0:0:0:
256,192,22882,1,8,0:0:0:0:
256,192,23052,1,0,0:0:0:0:
256,192,23223,1,12,0:0:0:0:
256,192,23564,5,8,0:0:0:0:
256,192,23905,1,0,0:0:0:0:
256,192,23990,1,8,0:0:0:0:
256,192,24075,1,8,0:0:0:0:
256,192,24160,1,0,0:0:0:0:
256,192,24246,1,8,0:0:0:0:
256,192,24331,1,8,0:0:0:0:
256,192,24416,1,0,0:0:0:0:
256,192,24501,1,0,0:0:0:0:
256,192,24587,1,8,0:0:0:0:
256,192,24757,1,8,0:0:0:0:
256,192,24842,1,8,0:0:0:0:
256,192,24927,1,0,0:0:0:0:
256,192,25098,1,8,0:0:0:0:
256,192,25268,1,0,0:0:0:0:
256,192,25325,1,0,0:0:0:0:
256,192,25382,1,0,0:0:0:0:
256,192,25439,1,0,0:0:0:0:
256,192,25495,1,0,0:0:0:0:
256,192,25552,1,0,0:0:0:0:
256,192,25609,1,8,0:0:0:0:
256,192,25780,1,0,0:0:0:0:
256,192,25950,1,8,0:0:0:0:
256,192,26035,1,8,0:0:0:0:
256,192,26120,1,0,0:0:0:0:
256,192,26206,1,0,0:0:0:0:
256,192,26291,1,8,0:0:0:0:
256,192,26376,1,8,0:0:0:0:
256,192,26461,1,8,0:0:0:0:
256,192,26547,1,8,0:0:0:0:
256,192,26632,1,0,0:0:0:0:
256,192,26802,1,8,0:0:0:0:
256,192,26887,1,0,0:0:0:0:
256,192,27058,1,8,0:0:0:0:
256,192,27143,1,8,0:0:0:0:
256,192,27228,1,0,0:0:0:0:
256,192,27314,1,8,0:0:0:0:
256,192,27484,1,0,0:0:0:0:
256,192,27655,1,8,0:0:0:0:
256,192,27825,1,0,0:0:0:0:
256,192,27910,1,0,0:0:0:0:
256,192,27995,1,8,0:0:0:0:
256,192,28052,1,8,0:0:0:0:
256,192,28109,1,8,0:0:0:0:
256,192,28166,1,0,0:0:0:0:
256,192,28251,1,0,0:0:0:0:
256,192,28336,1,8,0:0:0:0:
256,192,28393,1,8,0:0:0:0:
256,192,28450,1,8,0:0:0:0:
256,192,28507,1,0,0:0:0:0:
256,192,28592,1,0,0:0:0:0:
256,192,28677,1,8,0:0:0:0:
256,192,28848,1,0,0:0:0:0:
256,192,29018,1,8,0:0:0:0:
256,192,29104,1,8,0:0:0:0:
256,192,29189,1,0,0:0:0:0:
256,192,29274,1,0,0:0:0:0:
256,192,29359,1,8,0:0:0:0:
256,192,29530,1,8,0:0:0:0:
256,192,29615,1,0,0:0:0:0:
256,192,29785,1,8,0:0:0:0:
256,192,29870,1,8,0:0:0:0:
256,192,29956,1,0,0:0:0:0:
256,192,30041,1,8,0:0:0:0:
256,192,30211,1,0,0:0:0:0:
256,192,30382,1,8,0:0:0:0:
256,192,30552,1,8,0:0:0:0:
256,192,30637,1,8,0:0:0:0:
256,192,30723,1,0,0:0:0:0:
256,192,30808,1,8,0:0:0:0:
256,192,30893,1,0,0:0:0:0:
256,192,30978,1,0,0:0:0:0:
256,192,31064,1,8,0:0:0:0:
256,192,31149,1,8,0:0:0:0:
256,192,31234,1,8,0:0:0:0:
256,192,31319,1,8,0:0:0:0:
256,192,31405,1,0,0:0:0:0:
256,192,31575,1,0,0:0:0:0:
256,192,31660,1,0,0:0:0:0:
256,192,31745,1,8,0:0:0:0:
256,192,31831,1,8,0:0:0:0:
256,192,31916,1,0,0:0:0:0:
256,192,32001,1,0,0:0:0:0:
256,192,32086,1,8,0:0:0:0:
256,192,32257,1,8,0:0:0:0:
256,192,32342,1,8,0:0:0:0:
256,192,32427,1,0,0:0:0:0:
256,192,32512,1,0,0:0:0:0:
256,192,32598,1,8,0:0:0:0:
256,192,32768,1,0,0:0:0:0:
256,192,32825,1,0,0:0:0:0:
256,192,32882,1,0,0:0:0:0:
256,192,32939,1,8,0:0:0:0:
256,192,33024,1,0,0:0:0:0:
256,192,33109,1,8,0:0:0:0:
256,192,33166,1,0,0:0:0:0:
256,192,33223,1,0,0:0:0:0:
256,192,33280,1,8,0:0:0:0:
256,192,33365,1,0,0:0:0:0:
256,192,33450,1,8,0:0:0:0:
256,192,33507,1,8,0:0:0:0:
256,192,33564,1,8,0:0:0:0:
256,192,33620,1,0,0:0:0:0:
256,192,33706,1,0,0:0:0:0:
256,192,33791,1,8,0:0:0:0:
256,192,33876,1,8,0:0:0:0:
256,192,33961,1,0,0:0:0:0:
256,192,34047,1,0,0:0:0:0:
256,192,34132,1,8,0:0:0:0:
256,192,34217,1,0,0:0:0:0:
256,192,34302,1,0,0:0:0:0:
256,192,34387,1,8,0:0:0:0:
256,192,34473,1,0,0:0:0:0:
256,192,34530,1,0,0:0:0:0:
256,192,34586,1,0,0:0:0:0:
256,192,34643,1,0,0:0:0:0:
256,192,34700,1,0,0:0:0:0:
256,192,34757,1,0,0:0:0:0:
256,192,34814,1,8,0:0:0:0:
256,192,35069,1,8,0:0:0:0:
256,192,35325,1,8,0:0:0:0:
256,192,35495,1,4,0:0:0:0:
256,192,35666,1,8,0:0:0:0:
256,192,35751,1,8,0:0:0:0:
256,192,35836,1,0,0:0:0:0:
256,192,36007,1,8,0:0:0:0:
256,192,36177,1,8,0:0:0:0:
256,192,36262,1,8,0:0:0:0:
256,192,36348,1,8,0:0:0:0:
256,192,36433,1,8,0:0:0:0:
256,192,36518,1,0,0:0:0:0:
256,192,36603,1,0,0:0:0:0:
256,192,36689,1,0,0:0:0:0:
256,192,36774,1,0,0:0:0:0:
256,192,36859,1,8,0:0:0:0:
256,192,37030,1,0,0:0:0:0:
256,192,37115,1,0,0:0:0:0:
256,192,37200,1,8,0:0:0:0:
256,192,37370,1,0,0:0:0:0:
256,192,37541,1,8,0:0:0:0:
256,192,37626,1,0,0:0:0:0:
256,192,37711,1,8,0:0:0:0:
256,192,37797,1,8,0:0:0:0:
256,192,37882,1,0,0:0:0:0:
256,192,37967,1,0,0:0:0:0:
256,192,38052,1,8,0:0:0:0:
256,192,38137,1,8,0:0:0:0:
256,192,38223,1,0,0:0:0:0:
256,192,38393,1,0,0:0:0:0:
256,192,38564,1,8,0:0:0:0:
256,192,38734,1,0,0:0:0:0:
256,192,38819,1,0,0:0:0:0:
256,192,38905,1,8,0:0:0:0:
256,192,38961,1,8,0:0:0:0:
256,192,39018,1,8,0:0:0:0:
256,192,39075,1,0,0:0:0:0:
256,192,39160,1,0,0:0:0:0:
256,192,39245,1,8,0:0:0:0:
256,192,39302,1,8,0:0:0:0:
256,192,39359,1,8,0:0:0:0:
256,192,39416,1,0,0:0:0:0:
256,192,39501,1,0,0:0:0:0:
256,192,39586,1,8,0:0:0:0:
256,192,39757,1,0,0:0:0:0:
256,192,39842,1,0,0:0:0:0:
256,192,39927,1,0,0:0:0:0:
256,192,40012,1,8,0:0:0:0:
256,192,40098,1,0,0:0:0:0:
256,192,40183,1,0,0:0:0:0:
256,192,40268,1,8,0:0:0:0:
256,192,40353,1,8,0:0:0:0:
256,192,40439,1,0,0:0:0:0:
256,192,40524,1,8,0:0:0:0:
256,192,40694,1,8,0:0:0:0:
256,192,40780,1,0,0:0:0:0:
256,192,40950,1,8,0:0:0:0:
256,192,41035,1,8,0:0:0:0:
256,192,41120,1,0,0:0:0:0:
256,192,41206,1,8,0:0:0:0:
256,192,41291,1,0,0:0:0:0:
256,192,41376,1,0,0:0:0:0:
256,192,41461,1,8,0:0:0:0:
256,192,41547,1,8,0:0:0:0:
256,192,41632,1,0,0:0:0:0:
256,192,41802,1,8,0:0:0:0:
256,192,41973,1,0,0:0:0:0:
256,192,42030,1,0,0:0:0:0:
256,192,42086,1,0,0:0:0:0:
256,192,42143,1,0,0:0:0:0:
256,192,42314,1,8,0:0:0:0:
256,192,42370,1,8,0:0:0:0:
256,192,42427,1,8,0:0:0:0:
256,192,42484,1,0,0:0:0:0:
256,192,42569,1,0,0:0:0:0:
256,192,42655,1,8,0:0:0:0:
256,192,42740,1,8,0:0:0:0:
256,192,42825,1,0,0:0:0:0:
256,192,42910,1,8,0:0:0:0:
256,192,42995,1,8,0:0:0:0:
256,192,43081,1,8,0:0:0:0:
256,192,43166,1,0,0:0:0:0:
256,192,43251,1,8,0:0:0:0:
256,192,43336,1,0,0:0:0:0:
256,192,43422,1,0,0:0:0:0:
256,192,43507,1,8,0:0:0:0:
256,192,43677,1,4,0:0:0:0:
256,192,44018,1,4,0:0:0:0:
256,192,44359,1,12,0:0:0:0:
256,192,44700,1,12,0:0:0:0:
256,192,45041,1,4,0:0:0:0:
256,192,47427,5,12,0:0:0:0:
256,192,47768,1,0,0:0:0:0:
256,192,47853,1,8,0:0:0:0:
256,192,47939,1,8,0:0:0:0:
256,192,48024,1,8,0:0:0:0:
256,192,48109,1,0,0:0:0:0:
256,192,48194,1,8,0:0:0:0:
256,192,48280,1,0,0:0:0:0:
256,192,48365,1,0,0:0:0:0:
256,192,48450,1,8,0:0:0:0:
256,192,48535,1,8,0:0:0:0:
256,192,48620,1,8,0:0:0:0:
256,192,48706,1,8,0:0:0:0:
256,192,48791,1,0,0:0:0:0:
256,192,48876,1,8,0:0:0:0:
256,192,48961,1,0,0:0:0:0:
256,192,49047,1,8,0:0:0:0:
256,192,49132,1,0,0:0:0:0:
256,192,49217,1,0,0:0:0:0:
256,192,49302,1,0,0:0:0:0:
256,192,49387,1,0,0:0:0:0:
256,192,49473,1,8,0:0:0:0:
256,192,49558,1,8,0:0:0:0:
256,192,49643,1,8,0:0:0:0:
256,192,49728,1,8,0:0:0:0:
256,192,49814,1,0,0:0:0:0:
256,192,49899,1,8,0:0:0:0:
256,192,49984,1,0,0:0:0:0:
256,192,50069,1,0,0:0:0:0:
256,192,50155,1,8,0:0:0:0:
256,192,50240,1,8,0:0:0:0:
256,192,50325,1,8,0:0:0:0:
256,192,50410,1,8,0:0:0:0:
256,192,50495,1,0,0:0:0:0:
256,192,50581,1,8,0:0:0:0:
256,192,50666,1,8,0:0:0:0:
256,192,50751,1,0,0:0:0:0:
256,192,50836,1,8,0:0:0:0:
256,192,50921,1,8,0:0:0:0:
256,192,51007,1,0,0:0:0:0:
256,192,51092,1,8,0:0:0:0:
256,192,51177,1,0,0:0:0:0:
256,192,51262,1,8,0:0:0:0:
256,192,51348,1,8,0:0:0:0:
256,192,51433,1,0,0:0:0:0:
256,192,51518,1,8,0:0:0:0:
256,192,51603,1,8,0:0:0:0:
256,192,51688,1,0,0:0:0:0:
256,192,51774,1,0,0:0:0:0:
256,192,51859,1,8,0:0:0:0:
256,192,51944,1,8,0:0:0:0:
256,192,52029,1,0,0:0:0:0:
256,192,52115,1,8,0:0:0:0:
256,192,52200,1,0,0:0:0:0:
256,192,52285,1,0,0:0:0:0:
256,192,52370,1,0,0:0:0:0:
256,192,52455,1,0,0:0:0:0:
256,192,52541,1,8,0:0:0:0:
256,192,52626,1,8,0:0:0:0:
256,192,52711,1,0,0:0:0:0:
256,192,52797,1,8,0:0:0:0:
256,192,52882,1,0,0:0:0:0:
256,192,52967,1,0,0:0:0:0:
256,192,53052,1,8,0:0:0:0:
256,192,53137,1,8,0:0:0:0:
256,192,53222,1,0,0:0:0:0:
256,192,53308,1,8,0:0:0:0:
256,192,53393,1,8,0:0:0:0:
256,192,53478,1,0,0:0:0:0:
256,192,53563,1,8,0:0:0:0:
256,192,53649,1,8,0:0:0:0:
256,192,53734,1,0,0:0:0:0:
256,192,53819,1,8,0:0:0:0:
256,192,53905,1,0,0:0:0:0:
256,192,53990,1,0,0:0:0:0:
256,192,54076,1,0,0:0:0:0:
256,192,54161,1,0,0:0:0:0:
256,192,54246,1,8,0:0:0:0:
256,192,54331,1,8,0:0:0:0:
256,192,54417,1,8,0:0:0:0:
256,192,54502,1,8,0:0:0:0:
256,192,54587,1,0,0:0:0:0:
256,192,54672,1,0,0:0:0:0:
256,192,54757,1,8,0:0:0:0:
256,192,54814,1,8,0:0:0:0:
256,192,54870,1,8,0:0:0:0:
256,192,54928,1,0,0:0:0:0:
256,192,55012,1,0,0:0:0:0:
256,192,55098,1,8,0:0:0:0:
256,192,55155,1,8,0:0:0:0:
256,192,55211,1,8,0:0:0:0:
256,192,55268,1,0,0:0:0:0:
256,192,55353,1,0,0:0:0:0:
256,192,55439,1,8,0:0:0:0:
256,192,55495,1,8,0:0:0:0:
256,192,55552,1,8,0:0:0:0:
256,192,55609,1,0,0:0:0:0:
256,192,55694,1,0,0:0:0:0:
256,192,55780,1,8,0:0:0:0:
256,192,55836,1,8,0:0:0:0:
256,192,55893,1,8,0:0:0:0:
256,192,56206,1,4,0:0:0:0:
256,192,56376,1,8,0:0:0:0:
256,192,56461,1,0,0:0:0:0:
256,192,56632,1,8,0:0:0:0:
256,192,56717,1,8,0:0:0:0:
256,192,56802,1,0,0:0:0:0:
256,192,56887,1,8,0:0:0:0:
256,192,57058,1,8,0:0:0:0:
256,192,57143,1,0,0:0:0:0:
256,192,57314,1,8,0:0:0:0:
256,192,57399,1,8,0:0:0:0:
256,192,57484,1,0,0:0:0:0:
256,192,57569,1,8,0:0:0:0:
256,192,57655,1,0,0:0:0:0:
256,192,57740,1,0,0:0:0:0:
256,192,57825,1,8,0:0:0:0:
256,192,57995,1,8,0:0:0:0:
256,192,58081,1,8,0:0:0:0:
256,192,58166,1,0,0:0:0:0:
256,192,58251,1,8,0:0:0:0:
256,192,58422,1,8,0:0:0:0:
256,192,58507,1,0,0:0:0:0:
256,192,58677,1,8,0:0:0:0:
256,192,58762,1,8,0:0:0:0:
256,192,58848,1,0,0:0:0:0:
256,192,58933,1,8,0:0:0:0:
256,192,59018,1,0,0:0:0:0:
256,192,59103,1,0,0:0:0:0:
256,192,59189,1,8,0:0:0:0:
256,192,59359,1,8,0:0:0:0:
256,192,59444,1,8,0:0:0:0:
256,192,59530,1,0,0:0:0:0:
256,192,59615,1,8,0:0:0:0:
256,192,59785,1,8,0:0:0:0:
256,192,59870,1,0,0:0:0:0:
256,192,60041,1,8,0:0:0:0:
256,192,60126,1,8,0:0:0:0:
256,192,60211,1,0,0:0:0:0:
256,192,60297,1,8,0:0:0:0:
256,192,60382,1,0,0:0:0:0:
256,192,60467,1,0,0:0:0:0:
256,192,60552,1,8,0:0:0:0:
256,192,60723,1,8,0:0:0:0:
256,192,60808,1,8,0:0:0:0:
256,192,60893,1,0,0:0:0:0:
256,192,60978,1,8,0:0:0:0:
256,192,61149,1,8,0:0:0:0:
256,192,61234,1,0,0:0:0:0:
256,192,61405,1,8,0:0:0:0:
256,192,61490,1,8,0:0:0:0:
256,192,61575,1,8,0:0:0:0:
256,192,61660,1,8,0:0:0:0:
256,192,61745,1,4,0:0:0:0:
256,192,61916,1,0,0:0:0:0:
256,192,62086,1,8,0:0:0:0:
256,192,62172,1,8,0:0:0:0:
256,192,62257,1,8,0:0:0:0:
256,192,62342,1,8,0:0:0:0:
256,192,62427,1,4,0:0:0:0:
256,192,62598,1,8,0:0:0:0:
256,192,62768,1,0,0:0:0:0:
256,192,62853,1,8,0:0:0:0:
256,192,62939,1,0,0:0:0:0:
256,192,63024,1,0,0:0:0:0:
256,192,63109,1,8,0:0:0:0:
256,192,63194,1,8,0:0:0:0:
256,192,63280,1,0,0:0:0:0:
256,192,63365,1,8,0:0:0:0:
256,192,63450,1,0,0:0:0:0:
256,192,63535,1,0,0:0:0:0:
256,192,63620,1,8,0:0:0:0:
256,192,63706,1,8,0:0:0:0:
256,192,63791,1,0,0:0:0:0:
256,192,63876,1,0,0:0:0:0:
256,192,63961,1,8,0:0:0:0:
256,192,64018,1,8,0:0:0:0:
256,192,64075,1,8,0:0:0:0:
256,192,64132,5,0,0:0:0:0:
256,192,64302,1,8,0:0:0:0:
256,192,64473,1,0,0:0:0:0:
256,192,64558,1,0,0:0:0:0:
256,192,64643,1,8,0:0:0:0:
256,192,64814,1,0,0:0:0:0:
256,192,64984,1,8,0:0:0:0:
256,192,65069,1,0,0:0:0:0:
256,192,65155,1,0,0:0:0:0:
256,192,65240,1,0,0:0:0:0:
256,192,65325,1,8,0:0:0:0:
256,192,65495,1,0,0:0:0:0:
256,192,65581,1,8,0:0:0:0:
256,192,65666,1,8,0:0:0:0:
256,192,65751,1,8,0:0:0:0:
256,192,65836,1,0,0:0:0:0:
256,192,65922,1,8,0:0:0:0:
256,192,66007,1,8,0:0:0:0:
256,192,66092,1,8,0:0:0:0:
256,192,66177,1,0,0:0:0:0:
256,192,66262,1,8,0:0:0:0:
256,192,66348,1,0,0:0:0:0:
256,192,66433,1,0,0:0:0:0:
256,192,66518,1,8,0:0:0:0:
256,192,66603,1,8,0:0:0:0:
256,192,66689,1,0,0:0:0:0:
256,192,66774,1,8,0:0:0:0:
256,192,66859,1,0,0:0:0:0:
256,192,77768,5,4,0:0:0:0:
256,192,77939,1,0,0:0:0:0:
256,192,78109,1,8,0:0:0:0:
256,192,78280,1,8,0:0:0:0:
256,192,78450,1,0,0:0:0:0:
256,192,78620,1,8,0:0:0:0:
256,192,78706,1,0,0:0:0:0:
256,192,78876,1,0,0:0:0:0:
256,192,78961,1,8,0:0:0:0:
256,192,79132,1,0,0:0:0:0:
256,192,79302,1,0,0:0:0:0:
256,192,79473,1,8,0:0:0:0:
256,192,79643,1,8,0:0:0:0:
256,192,79728,1,8,0:0:0:0:
256,192,79814,1,0,0:0:0:0:
256,192,79984,1,0,0:0:0:0:
256,192,80155,1,8,0:0:0:0:
256,192,80325,1,8,0:0:0:0:
256,192,80495,1,0,0:0:0:0:
256,192,80666,1,0,0:0:0:0:
256,192,80836,1,8,0:0:0:0:
256,192,80922,1,8,0:0:0:0:
256,192,81007,1,0,0:0:0:0:
256,192,81092,1,0,0:0:0:0:
256,192,81177,1,8,0:0:0:0:
256,192,81348,1,0,0:0:0:0:
256,192,81433,1,8,0:0:0:0:
256,192,81603,1,8,0:0:0:0:
256,192,81689,1,8,0:0:0:0:
256,192,81774,1,0,0:0:0:0:
256,192,81859,1,8,0:0:0:0:
256,192,82030,1,0,0:0:0:0:
256,192,82200,1,8,0:0:0:0:
256,192,82370,1,8,0:0:0:0:
256,192,82456,1,8,0:0:0:0:
256,192,82541,1,0,0:0:0:0:
256,192,82711,1,0,0:0:0:0:
256,192,82882,1,8,0:0:0:0:
256,192,83052,1,8,0:0:0:0:
256,192,83223,1,0,0:0:0:0:
256,192,83393,1,0,0:0:0:0:
256,192,83564,1,8,0:0:0:0:
256,192,83734,1,8,0:0:0:0:
256,192,83905,1,0,0:0:0:0:
256,192,84075,1,8,0:0:0:0:
256,192,84160,1,0,0:0:0:0:
256,192,84331,1,0,0:0:0:0:
256,192,84416,1,8,0:0:0:0:
256,192,84586,1,0,0:0:0:0:
256,192,84757,1,0,0:0:0:0:
256,192,84927,1,8,0:0:0:0:
256,192,85098,1,8,0:0:0:0:
256,192,85183,1,8,0:0:0:0:
256,192,85268,1,0,0:0:0:0:
256,192,85439,1,0,0:0:0:0:
256,192,85609,1,8,0:0:0:0:
256,192,85780,1,8,0:0:0:0:
256,192,85950,1,0,0:0:0:0:
256,192,86035,1,8,0:0:0:0:
256,192,86120,1,8,0:0:0:0:
256,192,86206,1,8,0:0:0:0:
256,192,86291,1,0,0:0:0:0:
256,192,86376,1,8,0:0:0:0:
256,192,86461,1,0,0:0:0:0:
256,192,86547,1,0,0:0:0:0:
256,192,86632,1,8,0:0:0:0:
256,192,86717,1,8,0:0:0:0:
256,192,86802,1,0,0:0:0:0:
256,192,86887,1,8,0:0:0:0:
256,192,86973,1,0,0:0:0:0:
256,192,87058,1,0,0:0:0:0:
256,192,87143,1,0,0:0:0:0:
256,192,87228,1,8,0:0:0:0:
256,192,87314,1,0,0:0:0:0:
256,192,87370,1,0,0:0:0:0:
256,192,87427,1,0,0:0:0:0:
256,192,87484,1,8,0:0:0:0:
256,192,87655,1,0,0:0:0:0:
256,192,87910,1,8,0:0:0:0:
256,192,87995,1,0,0:0:0:0:
256,192,88166,1,8,0:0:0:0:
256,192,88251,1,8,0:0:0:0:
256,192,88336,1,0,0:0:0:0:
256,192,88507,1,8,0:0:0:0:
256,192,88677,1,0,0:0:0:0:
256,192,88734,1,0,0:0:0:0:
256,192,88791,1,0,0:0:0:0:
256,192,88848,1,0,0:0:0:0:
256,192,89018,1,4,0:0:0:0:
256,192,89359,1,8,0:0:0:0:
256,192,89530,1,0,0:0:0:0:
256,192,89586,1,0,0:0:0:0:
256,192,89643,1,0,0:0:0:0:
256,192,89700,1,8,0:0:0:0:
256,192,89870,1,8,0:0:0:0:
256,192,90041,1,0,0:0:0:0:
256,192,90126,1,8,0:0:0:0:
256,192,90211,1,0,0:0:0:0:
256,192,90297,1,0,0:0:0:0:
256,192,90382,1,8,0:0:0:0:
256,192,90552,1,8,0:0:0:0:
256,192,90723,1,0,0:0:0:0:
256,192,90808,1,0,0:0:0:0:
256,192,90893,1,0,0:0:0:0:
256,192,90978,1,0,0:0:0:0:
256,192,91064,1,8,0:0:0:0:
256,192,91149,1,8,0:0:0:0:
256,192,91234,1,8,0:0:0:0:
256,192,91319,1,8,0:0:0:0:
256,192,91405,1,0,0:0:0:0:
256,192,91660,1,8,0:0:0:0:
256,192,91745,1,0,0:0:0:0:
256,192,91916,1,8,0:0:0:0:
256,192,92086,1,0,0:0:0:0:
256,192,92257,1,8,0:0:0:0:
256,192,92342,1,8,0:0:0:0:
256,192,92427,1,0,0:0:0:0:
256,192,92598,1,8,0:0:0:0:
256,192,92768,1,0,0:0:0:0:
256,192,92853,1,0,0:0:0:0:
256,192,92939,1,8,0:0:0:0:
256,192,93024,1,8,0:0:0:0:
256,192,93109,1,0,0:0:0:0:
256,192,93280,1,8,0:0:0:0:
256,192,93365,1,8,0:0:0:0:
256,192,93450,1,0,0:0:0:0:
256,192,93620,1,8,0:0:0:0:
256,192,93791,1,0,0:0:0:0:
256,192,93961,1,8,0:0:0:0:
256,192,94132,1,4,0:0:0:0:
256,192,94387,1,4,0:0:0:0:
256,192,94643,1,4,0:0:0:0:
256,192,94814,1,8,0:0:0:0:
256,192,94899,1,8,0:0:0:0:
256,192,94984,1,0,0:0:0:0:
256,192,95069,1,0,0:0:0:0:
256,192,95155,1,0,0:0:0:0:
256,192,95325,1,8,0:0:0:0:
256,192,95495,1,0,0:0:0:0:
256,192,95552,1,0,0:0:0:0:
256,192,95609,1,0,0:0:0:0:
256,192,95666,1,8,0:0:0:0:
256,192,95836,1,0,0:0:0:0:
256,192,96007,1,0,0:0:0:0:
256,192,96092,1,0,0:0:0:0:
256,192,96177,1,0,0:0:0:0:
256,192,96262,1,8,0:0:0:0:
256,192,96348,1,0,0:0:0:0:
256,192,96518,1,8,0:0:0:0:
256,192,96689,1,0,0:0:0:0:
256,192,96859,1,12,0:0:0:0:
256,192,97115,1,0,0:0:0:0:
256,192,97200,1,0,0:0:0:0:
256,192,97285,1,0,0:0:0:0:
256,192,97370,1,8,0:0:0:0:
256,192,97626,1,0,0:0:0:0:
256,192,97711,1,0,0:0:0:0:
256,192,97796,1,0,0:0:0:0:
256,192,97882,1,8,0:0:0:0:
256,192,98052,1,8,0:0:0:0:
256,192,98137,1,8,0:0:0:0:
256,192,98223,1,0,0:0:0:0:
256,192,98564,1,0,0:0:0:0:
256,192,98819,1,8,0:0:0:0:
256,192,98905,1,0,0:0:0:0:
256,192,99075,1,0,0:0:0:0:
256,192,99245,1,8,0:0:0:0:
256,192,99416,1,8,0:0:0:0:
256,192,99586,1,0,0:0:0:0:
256,192,99757,1,8,0:0:0:0:
256,192,99927,1,0,0:0:0:0:
256,192,100012,1,8,0:0:0:0:
256,192,100098,1,8,0:0:0:0:
256,192,100183,1,8,0:0:0:0:
256,192,100268,1,0,0:0:0:0:
256,192,100353,1,8,0:0:0:0:
256,192,100439,1,8,0:0:0:0:
256,192,100524,1,8,0:0:0:0:
256,192,100609,1,0,0:0:0:0:
256,192,100694,1,8,0:0:0:0:
256,192,100780,1,8,0:0:0:0:
256,192,100865,1,8,0:0:0:0:
256,192,100950,1,0,0:0:0:0:
256,192,101035,1,8,0:0:0:0:
256,192,101120,1,8,0:0:0:0:
256,192,101206,1,8,0:0:0:0:
256,192,101291,1,0,0:0:0:0:
256,192,101376,1,8,0:0:0:0:
256,192,101461,1,8,0:0:0:0:
256,192,101547,1,8,0:0:0:0:
256,192,101632,1,0,0:0:0:0:
256,192,101717,1,8,0:0:0:0:
256,192,101802,1,8,0:0:0:0:
256,192,101887,1,8,0:0:0:0:
256,192,101973,1,0,0:0:0:0:
256,192,102314,5,4,0:0:0:0:
256,192,102569,1,0,0:0:0:0:
256,192,102655,1,8,0:0:0:0:
256,192,102825,1,0,0:0:0:0:
256,192,102995,1,0,0:0:0:0:
256,192,103081,1,8,0:0:0:0:
256,192,103166,1,0,0:0:0:0:
256,192,103251,1,0,0:0:0:0:
256,192,103336,1,8,0:0:0:0:
256,192,103422,1,8,0:0:0:0:
256,192,103507,1,0,0:0:0:0:
256,192,103592,1,0,0:0:0:0:
256,192,103677,1,8,0:0:0:0:
256,192,103848,1,0,0:0:0:0:
256,192,103933,1,0,0:0:0:0:
256,192,104018,1,8,0:0:0:0:
256,192,104103,1,8,0:0:0:0:
256,192,104189,1,0,0:0:0:0:
256,192,104274,1,8,0:0:0:0:
256,192,104359,1,0,0:0:0:0:
256,192,104444,1,0,0:0:0:0:
256,192,104530,1,8,0:0:0:0:
256,192,104615,1,0,0:0:0:0:
256,192,104700,1,8,0:0:0:0:
256,192,104870,1,0,0:0:0:0:
256,192,105041,1,4,0:0:0:0:
256,192,105297,1,0,0:0:0:0:
256,192,105382,1,8,0:0:0:0:
256,192,105552,1,0,0:0:0:0:
256,192,105723,1,8,0:0:0:0:
256,192,105808,1,8,0:0:0:0:
256,192,105893,1,0,0:0:0:0:
256,192,105978,1,0,0:0:0:0:
256,192,106064,1,8,0:0:0:0:
256,192,106234,1,8,0:0:0:0:
256,192,106405,1,0,0:0:0:0:
256,192,106490,1,8,0:0:0:0:
256,192,106575,1,8,0:0:0:0:
256,192,106660,1,0,0:0:0:0:
256,192,106745,1,8,0:0:0:0:
256,192,106831,1,8,0:0:0:0:
256,192,106916,1,0,0:0:0:0:
256,192,107001,1,8,0:0:0:0:
256,192,107086,1,8,0:0:0:0:
256,192,107172,1,0,0:0:0:0:
256,192,107257,1,8,0:0:0:0:
256,192,107342,1,8,0:0:0:0:
256,192,107427,1,0,0:0:0:0:
256,192,107512,1,8,0:0:0:0:
256,192,107598,1,0,0:0:0:0:
256,192,107683,1,8,0:0:0:0:
256,192,107768,1,0,0:0:0:0:
256,192,107853,1,8,0:0:0:0:
256,192,107939,1,8,0:0:0:0:
256,192,108024,1,0,0:0:0:0:
256,192,108109,1,8,0:0:0:0:
256,192,108194,1,8,0:0:0:0:
256,192,108280,1,0,0:0:0:0:
256,192,108365,1,8,0:0:0:0:
256,192,108450,1,8,0:0:0:0:
256,192,108535,1,0,0:0:0:0:
256,192,108620,1,8,0:0:0:0:
256,192,108706,1,8,0:0:0:0:
256,192,108791,1,0,0:0:0:0:
256,192,108876,1,8,0:0:0:0:
256,192,108961,1,0,0:0:0:0:
256,192,109047,1,0,0:0:0:0:
256,192,109132,1,8,0:0:0:0:
256,192,109473,1,8,0:0:0:0:
256,192,109814,1,4,0:0:0:0:
256,192,110155,1,8,0:0:0:0:
256,192,110495,1,4,0:0:0:0:
256,192,110836,1,8,0:0:0:0:
256,192,111177,1,4,0:0:0:0:
256,192,111518,1,8,0:0:0:0:
256,192,111859,1,4,0:0:0:0:
256,192,112200,1,8,0:0:0:0:
256,192,112541,1,4,0:0:0:0:
256,192,112882,1,8,0:0:0:0:
256,192,113223,1,4,0:0:0:0:
256,192,113564,1,8,0:0:0:0:
256,192,113905,1,4,0:0:0:0:
256,192,114245,1,8,0:0:0:0:
256,192,114586,1,4,0:0:0:0:
256,192,114757,1,8,0:0:0:0:
256,192,114927,1,8,0:0:0:0:
256,192,115098,1,8,0:0:0:0:
256,192,115268,1,4,0:0:0:0:
256,192,115439,1,8,0:0:0:0:
256,192,115609,1,8,0:0:0:0:
256,192,115780,1,8,0:0:0:0:
256,192,115950,1,4,0:0:0:0:
256,192,116120,1,8,0:0:0:0:
256,192,116291,1,8,0:0:0:0:
256,192,116461,1,8,0:0:0:0:
256,192,116632,1,4,0:0:0:0:
256,192,116802,1,8,0:0:0:0:
256,192,116973,1,8,0:0:0:0:
256,192,117143,1,8,0:0:0:0:
256,192,117314,1,0,0:0:0:0:
256,192,117399,1,0,0:0:0:0:
256,192,117484,1,0,0:0:0:0:
256,192,117569,1,0,0:0:0:0:
256,192,117655,1,8,0:0:0:0:
256,192,117740,1,8,0:0:0:0:
256,192,117825,1,8,0:0:0:0:
256,192,117910,1,8,0:0:0:0:
256,192,117995,1,0,0:0:0:0:
256,192,118081,1,8,0:0:0:0:
256,192,118166,1,0,0:0:0:0:
256,192,118251,1,0,0:0:0:0:
256,192,118336,1,8,0:0:0:0:
256,192,118422,1,8,0:0:0:0:
256,192,118507,1,8,0:0:0:0:
256,192,118592,1,8,0:0:0:0:
256,192,118677,1,0,0:0:0:0:
256,192,118848,1,8,0:0:0:0:
256,192,118933,1,8,0:0:0:0:
256,192,119103,1,8,0:0:0:0:
256,192,119189,1,0,0:0:0:0:
256,192,119359,1,8,0:0:0:0:
256,192,119700,1,8,0:0:0:0:
256,192,119785,1,8,0:0:0:0:
256,192,119870,1,8,0:0:0:0:
256,192,119956,1,8,0:0:0:0:
256,192,120041,1,0,0:0:0:0:
256,192,120382,1,8,0:0:0:0:
256,192,120637,1,8,0:0:0:0:
256,192,120723,1,0,0:0:0:0:
256,192,120893,1,8,0:0:0:0:
256,192,121064,1,8,0:0:0:0:
256,192,121234,1,0,0:0:0:0:
256,192,121319,1,0,0:0:0:0:
256,192,121405,1,8,0:0:0:0:
256,192,121575,1,0,0:0:0:0:
256,192,121745,1,8,0:0:0:0:
256,192,121916,1,8,0:0:0:0:
256,192,122001,1,8,0:0:0:0:
256,192,122086,1,0,0:0:0:0:
256,192,122257,1,0,0:0:0:0:
256,192,122427,1,8,0:0:0:0:
256,192,122598,1,8,0:0:0:0:
256,192,122768,1,0,0:0:0:0:
256,192,122939,1,0,0:0:0:0:
256,192,123109,1,8,0:0:0:0:
256,192,123365,1,8,0:0:0:0:
256,192,123450,1,0,0:0:0:0:
256,192,123620,1,8,0:0:0:0:
256,192,123791,1,8,0:0:0:0:
256,192,123961,1,0,0:0:0:0:
256,192,124132,1,8,0:0:0:0:
256,192,124217,1,8,0:0:0:0:
256,192,124302,1,0,0:0:0:0:
256,192,124387,1,8,0:0:0:0:
256,192,124473,1,0,0:0:0:0:
256,192,124558,1,0,0:0:0:0:
256,192,124643,1,8,0:0:0:0:
256,192,124728,1,8,0:0:0:0:
256,192,124814,1,0,0:0:0:0:
256,192,124984,1,0,0:0:0:0:
256,192,125155,1,8,0:0:0:0:
256,192,125325,1,8,0:0:0:0:
256,192,125495,1,0,0:0:0:0:
256,192,125666,1,0,0:0:0:0:
256,192,125836,1,8,0:0:0:0:
256,192,126092,1,8,0:0:0:0:
256,192,126177,1,0,0:0:0:0:
256,192,126348,1,8,0:0:0:0:
256,192,126518,1,8,0:0:0:0:
256,192,126689,1,8,0:0:0:0:
256,192,126774,1,8,0:0:0:0:
256,192,126859,1,0,0:0:0:0:
256,192,127030,1,0,0:0:0:0:
256,192,127200,1,8,0:0:0:0:
256,192,127370,1,0,0:0:0:0:
256,192,127541,1,0,0:0:0:0:
256,192,127626,1,8,0:0:0:0:
256,192,127711,1,0,0:0:0:0:
256,192,127797,1,0,0:0:0:0:
256,192,127882,1,8,0:0:0:0:
256,192,128052,1,8,0:0:0:0:
256,192,128137,1,8,0:0:0:0:
256,192,128223,1,0,0:0:0:0:
256,192,128393,1,0,0:0:0:0:
256,192,128564,1,8,0:0:0:0:
256,192,128819,1,8,0:0:0:0:
256,192,128905,1,0,0:0:0:0:
256,192,129075,1,8,0:0:0:0:
256,192,129245,1,8,0:0:0:0:
256,192,129416,1,0,0:0:0:0:
256,192,129586,1,0,0:0:0:0:
256,192,129672,1,8,0:0:0:0:
256,192,129757,1,8,0:0:0:0:
256,192,129842,1,8,0:0:0:0:
256,192,129927,1,0,0:0:0:0:
256,192,130098,1,8,0:0:0:0:
256,192,130183,1,8,0:0:0:0:
256,192,130268,1,0,0:0:0:0:
256,192,130439,1,0,0:0:0:0:
256,192,130609,1,8,0:0:0:0:
256,192,130780,1,8,0:0:0:0:
256,192,130950,1,4,0:0:0:0:
256,192,131291,1,8,0:0:0:0:
256,192,131546,1,8,0:0:0:0:
256,192,131632,1,0,0:0:0:0:
256,192,131802,1,8,0:0:0:0:
256,192,131973,1,8,0:0:0:0:
256,192,132143,1,0,0:0:0:0:
256,192,132228,1,0,0:0:0:0:
256,192,132314,1,8,0:0:0:0:
256,192,132484,1,0,0:0:0:0:
256,192,132654,1,8,0:0:0:0:
256,192,132825,1,8,0:0:0:0:
256,192,132910,1,8,0:0:0:0:
256,192,132995,1,0,0:0:0:0:
256,192,133166,1,0,0:0:0:0:
256,192,133336,1,8,0:0:0:0:
256,192,133507,1,8,0:0:0:0:
256,192,133677,1,0,0:0:0:0:
256,192,133848,1,0,0:0:0:0:
256,192,134018,1,8,0:0:0:0:
256,192,134274,1,8,0:0:0:0:
256,192,134359,1,0,0:0:0:0:
256,192,134529,1,8,0:0:0:0:
256,192,134700,1,8,0:0:0:0:
256,192,134870,1,0,0:0:0:0:
256,192,135041,1,8,0:0:0:0:
256,192,135126,1,8,0:0:0:0:
256,192,135211,1,0,0:0:0:0:
256,192,135296,1,8,0:0:0:0:
256,192,135382,1,0,0:0:0:0:
256,192,135467,1,0,0:0:0:0:
256,192,135552,1,8,0:0:0:0:
256,192,135637,1,8,0:0:0:0:
256,192,135723,1,0,0:0:0:0:
256,192,135893,1,0,0:0:0:0:
256,192,136064,1,8,0:0:0:0:
256,192,136234,1,8,0:0:0:0:
256,192,136404,1,0,0:0:0:0:
256,192,136575,1,0,0:0:0:0:
256,192,136745,1,8,0:0:0:0:
256,192,137001,1,8,0:0:0:0:
256,192,137086,1,0,0:0:0:0:
256,192,137257,1,8,0:0:0:0:
256,192,137427,1,8,0:0:0:0:
256,192,137598,1,8,0:0:0:0:
256,192,137683,1,8,0:0:0:0:
256,192,137768,1,0,0:0:0:0:
256,192,137939,1,0,0:0:0:0:
256,192,138109,1,8,0:0:0:0:
256,192,138279,1,0,0:0:0:0:
256,192,138450,1,0,0:0:0:0:
256,192,138535,1,8,0:0:0:0:
256,192,138620,1,0,0:0:0:0:
256,192,138706,1,0,0:0:0:0:
256,192,138791,1,8,0:0:0:0:
256,192,138961,1,8,0:0:0:0:
256,192,139046,1,8,0:0:0:0:
256,192,139132,1,0,0:0:0:0:
256,192,139302,1,0,0:0:0:0:
256,192,139473,1,8,0:0:0:0:
256,192,139728,1,8,0:0:0:0:
256,192,139814,1,0,0:0:0:0:
256,192,139984,1,8,0:0:0:0:
256,192,140154,1,8,0:0:0:0:
256,192,140325,1,0,0:0:0:0:
256,192,140495,1,0,0:0:0:0:
256,192,140581,1,8,0:0:0:0:
256,192,140666,1,8,0:0:0:0:
256,192,140751,1,8,0:0:0:0:
256,192,140836,1,0,0:0:0:0:
256,192,141007,1,8,0:0:0:0:
256,192,141092,1,8,0:0:0:0:
256,192,141177,1,0,0:0:0:0:
256,192,141348,1,0,0:0:0:0:
256,192,141518,1,8,0:0:0:0:
256,192,141689,1,8,0:0:0:0:
256,192,141859,1,0,0:0:0:0:
256,192,141916,1,0,0:0:0:0:
256,192,141973,1,0,0:0:0:0:
256,192,142030,1,0,0:0:0:0:
256,192,142200,1,4,0:0:0:0:
256,192,142370,1,8,0:0:0:0:
256,192,142456,1,8,0:0:0:0:
256,192,142541,1,0,0:0:0:0:
256,192,142711,1,8,0:0:0:0:
256,192,142882,1,0,0:0:0:0:
256,192,142967,1,8,0:0:0:0:
256,192,143052,1,8,0:0:0:0:
256,192,143137,1,8,0:0:0:0:
256,192,143223,1,0,0:0:0:0:
256,192,143308,1,8,0:0:0:0:
256,192,143393,1,0,0:0:0:0:
256,192,143478,1,0,0:0:0:0:
256,192,143564,1,8,0:0:0:0:
256,192,143734,1,0,0:0:0:0:
256,192,143905,1,8,0:0:0:0:
256,192,143990,1,8,0:0:0:0:
256,192,144075,1,0,0:0:0:0:
256,192,144160,1,8,0:0:0:0:
256,192,144245,1,0,0:0:0:0:
256,192,144331,1,8,0:0:0:0:
256,192,144416,1,8,0:0:0:0:
256,192,144501,1,8,0:0:0:0:
256,192,144586,1,0,0:0:0:0:
256,192,144757,1,0,0:0:0:0:
256,192,144927,1,8,0:0:0:0:
256,192,145098,1,8,0:0:0:0:
256,192,145183,1,8,0:0:0:0:
256,192,145268,1,0,0:0:0:0:
256,192,145439,1,0,0:0:0:0:
256,192,145609,1,8,0:0:0:0:
256,192,145780,1,0,0:0:0:0:
256,192,145950,1,8,0:0:0:0:
256,192,146035,1,0,0:0:0:0:
256,192,146120,1,8,0:0:0:0:
256,192,146206,1,8,0:0:0:0:
256,192,146291,1,0,0:0:0:0:
256,192,146376,1,8,0:0:0:0:
256,192,146461,1,0,0:0:0:0:
256,192,146547,1,0,0:0:0:0:
256,192,146632,1,8,0:0:0:0:
256,192,146717,1,8,0:0:0:0:
256,192,146802,1,8,0:0:0:0:
256,192,146887,1,8,0:0:0:0:
256,192,146973,1,0,0:0:0:0:
256,192,147058,1,8,0:0:0:0:
256,192,147143,1,0,0:0:0:0:
256,192,147228,1,0,0:0:0:0:
256,192,147314,1,8,0:0:0:0:
256,192,147484,1,0,0:0:0:0:
256,192,147655,1,8,0:0:0:0:
256,192,147825,1,8,0:0:0:0:
256,192,147910,1,8,0:0:0:0:
256,192,147995,1,0,0:0:0:0:
256,192,148166,1,0,0:0:0:0:
256,192,148336,1,8,0:0:0:0:
256,192,148422,1,8,0:0:0:0:
256,192,148507,1,8,0:0:0:0:
256,192,148592,1,8,0:0:0:0:
256,192,148677,1,0,0:0:0:0:
256,192,148762,1,8,0:0:0:0:
256,192,148848,1,0,0:0:0:0:
256,192,148933,1,0,0:0:0:0:
256,192,149018,1,8,0:0:0:0:
256,192,149189,1,8,0:0:0:0:
256,192,149359,1,0,0:0:0:0:
256,192,149444,1,0,0:0:0:0:
256,192,149530,1,0,0:0:0:0:
256,192,149615,1,8,0:0:0:0:
256,192,149700,1,0,0:0:0:0:
256,192,149785,1,0,0:0:0:0:
256,192,149870,1,8,0:0:0:0:
256,192,149956,1,8,0:0:0:0:
256,192,150041,1,0,0:0:0:0:
256,192,150211,1,0,0:0:0:0:
256,192,150382,1,8,0:0:0:0:
256,192,150552,1,0,0:0:0:0:
256,192,150637,1,0,0:0:0:0:
256,192,150723,1,8,0:0:0:0:
256,192,150893,1,8,0:0:0:0:
256,192,151064,1,0,0:0:0:0:
256,192,151234,1,8,0:0:0:0:
256,192,151405,1,0,0:0:0:0:
256,192,151490,1,8,0:0:0:0:
256,192,151575,1,8,0:0:0:0:
256,192,151660,1,8,0:0:0:0:
256,192,151745,1,0,0:0:0:0:
256,192,151831,1,8,0:0:0:0:
256,192,151916,1,0,0:0:0:0:
256,192,152001,1,0,0:0:0:0:
256,192,152086,1,0,0:0:0:0:
256,192,152172,1,8,0:0:0:0:
256,192,152257,1,0,0:0:0:0:
256,192,152342,1,0,0:0:0:0:
256,192,152427,1,8,0:0:0:0:
256,192,152512,1,8,0:0:0:0:
256,192,152598,1,0,0:0:0:0:
256,192,152768,1,4,0:0:0:0:
256,192,152939,1,0,0:0:0:0:
256,192,153109,1,8,0:0:0:0:
256,192,153279,1,8,0:0:0:0:
256,192,153365,1,8,0:0:0:0:
256,192,153450,1,0,0:0:0:0:
256,192,153620,1,8,0:0:0:0:
256,192,153791,1,0,0:0:0:0:
256,192,153876,1,8,0:0:0:0:
256,192,153961,1,8,0:0:0:0:
256,192,154046,1,8,0:0:0:0:
256,192,154132,1,0,0:0:0:0:
256,192,154217,1,8,0:0:0:0:
256,192,154302,1,0,0:0:0:0:
256,192,154387,1,0,0:0:0:0:
256,192,154473,1,8,0:0:0:0:
256,192,154643,1,0,0:0:0:0:
256,192,154814,1,8,0:0:0:0:
256,192,154899,1,8,0:0:0:0:
256,192,154984,1,0,0:0:0:0:
256,192,155069,1,8,0:0:0:0:
256,192,155154,1,0,0:0:0:0:
256,192,155240,1,8,0:0:0:0:
256,192,155325,1,8,0:0:0:0:
256,192,155410,1,8,0:0:0:0:
256,192,155495,1,0,0:0:0:0:
256,192,155666,1,0,0:0:0:0:
256,192,155836,1,8,0:0:0:0:
256,192,156007,1,8,0:0:0:0:
256,192,156092,1,8,0:0:0:0:
256,192,156177,1,0,0:0:0:0:
256,192,156348,1,0,0:0:0:0:
256,192,156518,1,8,0:0:0:0:
256,192,156689,1,0,0:0:0:0:
256,192,156859,1,8,0:0:0:0:
256,192,156944,1,0,0:0:0:0:
256,192,157029,1,8,0:0:0:0:
256,192,157115,1,8,0:0:0:0:
256,192,157200,1,0,0:0:0:0:
256,192,157285,1,8,0:0:0:0:
256,192,157370,1,0,0:0:0:0:
256,192,157456,1,0,0:0:0:0:
256,192,157541,1,8,0:0:0:0:
256,192,157626,1,8,0:0:0:0:
256,192,157711,1,8,0:0:0:0:
256,192,157796,1,8,0:0:0:0:
256,192,157882,1,0,0:0:0:0:
256,192,157967,1,8,0:0:0:0:
256,192,158052,1,0,0:0:0:0:
256,192,158137,1,0,0:0:0:0:
256,192,158223,1,8,0:0:0:0:
256,192,158393,1,0,0:0:0:0:
256,192,158564,1,8,0:0:0:0:
256,192,158734,1,8,0:0:0:0:
256,192,158819,1,8,0:0:0:0:
256,192,158904,1,0,0:0:0:0:
256,192,159075,1,0,0:0:0:0:
256,192,159245,1,8,0:0:0:0:
256,192,159331,1,8,0:0:0:0:
256,192,159416,1,8,0:0:0:0:
256,192,159501,1,8,0:0:0:0:
256,192,159586,1,0,0:0:0:0:
256,192,159671,1,8,0:0:0:0:
256,192,159757,1,0,0:0:0:0:
256,192,159842,1,0,0:0:0:0:
256,192,159927,1,8,0:0:0:0:
256,192,160098,1,8,0:0:0:0:
256,192,160268,1,0,0:0:0:0:
256,192,160353,1,0,0:0:0:0:
256,192,160439,1,0,0:0:0:0:
256,192,160524,1,8,0:0:0:0:
256,192,160609,1,0,0:0:0:0:
256,192,160694,1,0,0:0:0:0:
256,192,160779,1,8,0:0:0:0:
256,192,160865,1,8,0:0:0:0:
256,192,160950,1,0,0:0:0:0:
256,192,161035,1,0,0:0:0:0:
256,192,161120,1,0,0:0:0:0:
256,192,161206,1,0,0:0:0:0:
256,192,161291,1,8,0:0:0:0:
256,192,161376,1,8,0:0:0:0:
256,192,161461,1,8,0:0:0:0:
256,192,161547,1,8,0:0:0:0:
256,192,161632,1,0,0:0:0:0:
256,192,161717,1,8,0:0:0:0:
256,192,161802,1,0,0:0:0:0:
256,192,161887,1,0,0:0:0:0:
256,192,161973,1,8,0:0:0:0:
256,192,162058,1,8,0:0:0:0:
256,192,162143,1,8,0:0:0:0:
256,192,162228,1,8,0:0:0:0:
256,192,162314,1,0,0:0:0:0:
256,192,162399,1,8,0:0:0:0:
256,192,162484,1,8,0:0:0:0:
256,192,162569,1,0,0:0:0:0:
256,192,162654,1,8,0:0:0:0:
256,192,162740,1,8,0:0:0:0:
256,192,162825,1,0,0:0:0:0:
256,192,162910,1,8,0:0:0:0:
256,192,162995,1,8,0:0:0:0:
256,192,163081,1,0,0:0:0:0:
256,192,163166,1,8,0:0:0:0:
256,192,163251,1,8,0:0:0:0:
256,192,163336,1,0,0:0:0:0:
256,192,163421,1,8,0:0:0:0:
256,192,163507,1,0,0:0:0:0:
256,192,163592,1,8,0:0:0:0:
256,192,163677,1,0,0:0:0:0:
256,192,163762,1,8,0:0:0:0:
256,192,163848,1,8,0:0:0:0:
256,192,163933,1,0,0:0:0:0:
256,192,164018,1,8,0:0:0:0:
256,192,164103,1,8,0:0:0:0:
256,192,164189,1,0,0:0:0:0:
256,192,164274,1,8,0:0:0:0:
256,192,164359,1,8,0:0:0:0:
256,192,164444,1,0,0:0:0:0:
256,192,164529,1,8,0:0:0:0:
256,192,164615,1,8,0:0:0:0:
256,192,164700,1,0,0:0:0:0:
256,192,164785,1,8,0:0:0:0:
256,192,164870,1,0,0:0:0:0:
256,192,164956,1,0,0:0:0:0:
256,192,165041,1,8,0:0:0:0:
256,192,165382,1,8,0:0:0:0:
256,192,165552,1,8,0:0:0:0:
256,192,165723,1,8,0:0:0:0:
256,192,165893,1,8,0:0:0:0:
256,192,165978,1,8,0:0:0:0:
256,192,166149,1,8,0:0:0:0:
256,192,166234,1,8,0:0:0:0:
256,192,166405,1,8,0:0:0:0:
256,192,166575,1,8,0:0:0:0:
256,192,166660,1,8,0:0:0:0:
256,192,166831,1,8,0:0:0:0:
256,192,166916,1,8,0:0:0:0:
256,192,167086,1,8,0:0:0:0:
256,192,167257,1,8,0:0:0:0:
256,192,167314,1,8,0:0:0:0:
256,192,167370,1,8,0:0:0:0:
256,192,167427,1,0,0:0:0:0:
256,192,167598,1,0,0:0:0:0:
256,192,167683,1,0,0:0:0:0:
256,192,167768,1,0,0:0:0:0:
256,192,167939,1,0,0:0:0:0:
256,192,168109,1,8,0:0:0:0:
256,192,168280,1,8,0:0:0:0:
256,192,168365,1,8,0:0:0:0:
256,192,168450,1,0,0:0:0:0:
256,192,168677,1,0,0:0:0:0:
256,192,168905,1,0,0:0:0:0:
256,192,169132,1,8,0:0:0:0:
256,192,169245,1,8,0:0:0:0:
256,192,169359,1,0,0:0:0:0:
256,192,169473,1,8,0:0:0:0:
256,192,169586,1,0,0:0:0:0:
256,192,169700,1,0,0:0:0:0:
256,192,169814,1,8,0:0:0:0:
256,192,169984,1,0,0:0:0:0:
256,192,170155,1,8,0:0:0:0:
256,192,170325,1,8,0:0:0:0:
256,192,170410,1,8,0:0:0:0:
256,192,170495,1,0,0:0:0:0:
256,192,170751,1,8,0:0:0:0:
256,192,170836,1,0,0:0:0:0:
256,192,171007,1,8,0:0:0:0:
256,192,171177,1,0,0:0:0:0:
256,192,171262,1,8,0:0:0:0:
256,192,171348,1,0,0:0:0:0:
256,192,171433,1,0,0:0:0:0:
256,192,171518,1,8,0:0:0:0:
256,192,171603,1,8,0:0:0:0:
256,192,171689,1,0,0:0:0:0:
256,192,171774,1,0,0:0:0:0:
256,192,171859,1,8,0:0:0:0:
256,192,172030,1,0,0:0:0:0:
256,192,172200,1,8,0:0:0:0:
256,192,172370,1,8,0:0:0:0:
256,192,172456,1,8,0:0:0:0:
256,192,172541,1,0,0:0:0:0:
256,192,172711,1,0,0:0:0:0:
256,192,172882,1,8,0:0:0:0:
256,192,172967,1,8,0:0:0:0:
256,192,173052,1,8,0:0:0:0:
256,192,173137,1,8,0:0:0:0:
256,192,173223,1,4,0:0:0:0:
256,192,173478,1,4,0:0:0:0:
256,192,173734,1,4,0:0:0:0:
256,192,173905,1,8,0:0:0:0:
256,192,174075,1,0,0:0:0:0:
256,192,174160,1,8,0:0:0:0:
256,192,174331,1,8,0:0:0:0:
256,192,174416,1,8,0:0:0:0:
256,192,174501,1,0,0:0:0:0:
256,192,174586,1,8,0:0:0:0:
256,192,174757,1,0,0:0:0:0:
256,192,174927,1,8,0:0:0:0:
256,192,175098,1,0,0:0:0:0:
256,192,175183,1,0,0:0:0:0:
256,192,175268,1,8,0:0:0:0:
256,192,175353,1,8,0:0:0:0:
256,192,175439,1,0,0:0:0:0:
256,192,175495,1,0,0:0:0:0:
256,192,175552,1,0,0:0:0:0:
256,192,175609,1,8,0:0:0:0:
256,192,175780,1,0,0:0:0:0:
256,192,175950,1,8,0:0:0:0:
256,192,176206,1,0,0:0:0:0:
256,192,176291,1,8,0:0:0:0:
256,192,176376,1,0,0:0:0:0:
256,192,176461,1,8,0:0:0:0:
256,192,176632,1,0,0:0:0:0:
256,192,176717,1,8,0:0:0:0:
256,192,176802,1,8,0:0:0:0:
256,192,176887,1,8,0:0:0:0:
256,192,176973,1,0,0:0:0:0:
256,192,177058,1,0,0:0:0:0:
256,192,177143,1,8,0:0:0:0:
256,192,177314,1,8,0:0:0:0:
256,192,177655,1,0,0:0:0:0:
256,192,177910,1,8,0:0:0:0:
256,192,177996,1,0,0:0:0:0:
256,192,178166,1,0,0:0:0:0:
256,192,178336,1,8,0:0:0:0:
256,192,178507,1,8,0:0:0:0:
256,192,178677,1,0,0:0:0:0:
256,192,178848,1,8,0:0:0:0:
256,192,179018,1,4,0:0:0:0:
256,192,179359,1,0,0:0:0:0:
256,192,179444,1,8,0:0:0:0:
256,192,179530,1,8,0:0:0:0:
256,192,179615,1,0,0:0:0:0:
256,192,179700,1,0,0:0:0:0:
256,192,179785,1,8,0:0:0:0:
256,192,179871,1,8,0:0:0:0:
256,192,179956,1,0,0:0:0:0:
256,192,180041,1,0,0:0:0:0:
256,192,180126,1,8,0:0:0:0:
256,192,180212,1,8,0:0:0:0:
256,192,180297,1,0,0:0:0:0:
256,192,180382,1,0,0:0:0:0:
256,192,180467,1,8,0:0:0:0:
256,192,180553,1,8,0:0:0:0:
256,192,180637,1,0,0:0:0:0:
256,192,180723,1,0,0:0:0:0:
256,192,180808,1,8,0:0:0:0:
256,192,180894,1,8,0:0:0:0:
256,192,180978,1,0,0:0:0:0:
256,192,181064,1,8,0:0:0:0:
256,192,181234,1,0,0:0:0:0:
256,192,181405,1,4,0:0:0:0:
256,192,181660,1,0,0:0:0:0:
256,192,181745,1,8,0:0:0:0:
256,192,181916,1,0,0:0:0:0:
256,192,182086,1,8,0:0:0:0:
256,192,182172,1,8,0:0:0:0:
256,192,182257,1,8,0:0:0:0:
256,192,182342,1,0,0:0:0:0:
256,192,182427,1,8,0:0:0:0:
256,192,182512,1,0,0:0:0:0:
256,192,182598,1,0,0:0:0:0:
256,192,182683,1,8,0:0:0:0:
256,192,182768,1,0,0:0:0:0:
256,192,182939,1,8,0:0:0:0:
256,192,183024,1,8,0:0:0:0:
256,192,183109,1,8,0:0:0:0:
256,192,183194,1,8,0:0:0:0:
256,192,183280,1,0,0:0:0:0:
256,192,183450,1,8,0:0:0:0:
256,192,183620,1,8,0:0:0:0:
256,192,183706,1,8,0:0:0:0:
256,192,183791,1,0,0:0:0:0:
256,192,183961,1,8,0:0:0:0:
256,192,184132,1,4,0:0:0:0:
256,192,184387,1,0,0:0:0:0:
256,192,184473,1,8,0:0:0:0:
256,192,184643,1,0,0:0:0:0:
256,192,184814,1,8,0:0:0:0:
256,192,184899,1,0,0:0:0:0:
256,192,184984,1,0,0:0:0:0:
256,192,185069,1,8,0:0:0:0:
256,192,185155,1,0,0:0:0:0:
256,192,185240,1,0,0:0:0:0:
256,192,185325,1,8,0:0:0:0:
256,192,185410,1,0,0:0:0:0:
256,192,185495,1,8,0:0:0:0:
256,192,185666,1,0,0:0:0:0:
256,192,185836,1,8,0:0:0:0:
256,192,186007,1,0,0:0:0:0:
256,192,186092,1,0,0:0:0:0:
256,192,186177,1,8,0:0:0:0:
256,192,186262,1,8,0:0:0:0:
256,192,186348,1,8,0:0:0:0:
256,192,186433,1,8,0:0:0:0:
256,192,186518,1,0,0:0:0:0:
256,192,186603,1,8,0:0:0:0:
256,192,186689,1,0,0:0:0:0:
256,192,186774,1,0,0:0:0:0:
256,192,186859,1,8,0:0:0:0:
256,192,186916,1,8,0:0:0:0:
256,192,186973,1,8,0:0:0:0:
256,192,187030,1,0,0:0:0:0:
256,192,187115,1,0,0:0:0:0:
256,192,187200,1,8,0:0:0:0:
256,192,187370,1,0,0:0:0:0:
256,192,187456,1,0,0:0:0:0:
256,192,187541,1,8,0:0:0:0:
256,192,187626,1,8,0:0:0:0:
256,192,187711,1,0,0:0:0:0:
256,192,187797,1,8,0:0:0:0:
256,192,187967,1,8,0:0:0:0:
256,192,188052,1,0,0:0:0:0:
256,192,188223,1,0,0:0:0:0:
256,192,188308,1,8,0:0:0:0:
256,192,188393,1,8,0:0:0:0:
256,192,188478,1,0,0:0:0:0:
256,192,188564,1,8,0:0:0:0:
256,192,188649,1,8,0:0:0:0:
256,192,188734,1,0,0:0:0:0:
256,192,188819,1,8,0:0:0:0:
256,192,188905,1,8,0:0:0:0:
256,192,188990,1,0,0:0:0:0:
256,192,189075,1,8,0:0:0:0:
256,192,189160,1,8,0:0:0:0:
256,192,189245,1,0,0:0:0:0:
256,192,189331,1,8,0:0:0:0:
256,192,189416,1,0,0:0:0:0:
256,192,189501,1,8,0:0:0:0:
256,192,189586,1,0,0:0:0:0:
256,192,189927,1,8,0:0:0:0:
256,192,190268,1,8,0:0:0:0:
256,192,190524,1,8,0:0:0:0:
256,192,190609,1,0,0:0:0:0:
256,192,190780,1,8,0:0:0:0:
256,192,190950,1,0,0:0:0:0:
256,192,191120,1,8,0:0:0:0:
256,192,191291,1,8,0:0:0:0:
256,192,191632,1,8,0:0:0:0:
256,192,191887,1,8,0:0:0:0:
256,192,191973,1,0,0:0:0:0:
256,192,192143,1,8,0:0:0:0:
256,192,192314,1,8,0:0:0:0:
256,192,192655,1,8,0:0:0:0:
256,192,192996,1,8,0:0:0:0:
256,192,193252,1,8,0:0:0:0:
256,192,193336,1,0,0:0:0:0:
256,192,193508,1,8,0:0:0:0:
256,192,193677,1,0,0:0:0:0:
256,192,193848,1,8,0:0:0:0:
256,192,194019,1,8,0:0:0:0:
256,192,194360,1,8,0:0:0:0:
256,192,194615,1,8,0:0:0:0:
256,192,194700,1,0,0:0:0:0:
256,192,194871,1,8,0:0:0:0:
256,192,195042,1,8,0:0:0:0:
256,192,195382,1,8,0:0:0:0:
256,192,195723,1,8,0:0:0:0:
256,192,195979,1,8,0:0:0:0:
256,192,196064,1,0,0:0:0:0:
256,192,196235,1,8,0:0:0:0:
256,192,196405,1,0,0:0:0:0:
256,192,196575,1,8,0:0:0:0:
256,192,196746,1,8,0:0:0:0:
256,192,197087,1,8,0:0:0:0:
256,192,197342,1,8,0:0:0:0:
256,192,197427,1,0,0:0:0:0:
256,192,197598,1,8,0:0:0:0:
256,192,197769,1,8,0:0:0:0:
256,192,198109,1,8,0:0:0:0:
256,192,198450,1,8,0:0:0:0:
256,192,198706,1,8,0:0:0:0:
256,192,198791,1,0,0:0:0:0:
256,192,198962,1,8,0:0:0:0:
256,192,199132,1,0,0:0:0:0:
256,192,199302,1,8,0:0:0:0:
256,192,199473,1,8,0:0:0:0:
256,192,199814,1,8,0:0:0:0:
256,192,200069,1,8,0:0:0:0:
256,192,200155,1,0,0:0:0:0:
256,192,200325,1,8,0:0:0:0:
256,192,200496,1,4,0:0:0:0:
256,192,200666,1,0,0:0:0:0:
256,192,200836,1,8,0:0:0:0:
256,192,201007,1,8,0:0:0:0:
256,192,201092,1,8,0:0:0:0:
256,192,201177,1,0,0:0:0:0:
256,192,201348,1,0,0:0:0:0:
256,192,201518,1,8,0:0:0:0:
256,192,201603,1,8,0:0:0:0:
256,192,201689,1,8,0:0:0:0:
256,192,201774,1,8,0:0:0:0:
256,192,201859,1,0,0:0:0:0:
256,192,202030,1,8,0:0:0:0:
256,192,202115,1,0,0:0:0:0:
256,192,202200,1,8,0:0:0:0:
256,192,202370,1,0,0:0:0:0:
256,192,202541,1,8,0:0:0:0:
256,192,202711,1,0,0:0:0:0:
256,192,202797,1,8,0:0:0:0:
256,192,202967,1,8,0:0:0:0:
256,192,203052,1,0,0:0:0:0:
256,192,203223,1,8,0:0:0:0:
256,192,203393,1,0,0:0:0:0:
256,192,203564,1,8,0:0:0:0:
256,192,203734,1,8,0:0:0:0:
256,192,203819,1,8,0:0:0:0:
256,192,203905,1,0,0:0:0:0:
256,192,204075,1,0,0:0:0:0:
256,192,204245,1,8,0:0:0:0:
256,192,204416,1,0,0:0:0:0:
256,192,204501,1,0,0:0:0:0:
256,192,204586,1,0,0:0:0:0:
256,192,204757,1,8,0:0:0:0:
256,192,204927,1,8,0:0:0:0:
256,192,205098,1,0,0:0:0:0:
256,192,205268,1,8,0:0:0:0:
256,192,205439,1,0,0:0:0:0:
256,192,205524,1,8,0:0:0:0:
256,192,205694,1,8,0:0:0:0:
256,192,205780,1,0,0:0:0:0:
256,192,205950,1,8,0:0:0:0:
256,192,206120,1,0,0:0:0:0:
256,192,206291,1,8,0:0:0:0:
256,192,206461,1,8,0:0:0:0:
256,192,206547,1,8,0:0:0:0:
256,192,206632,1,0,0:0:0:0:
256,192,206802,1,8,0:0:0:0:
256,192,206973,1,0,0:0:0:0:
256,192,207058,1,0,0:0:0:0:
256,192,207143,1,0,0:0:0:0:
256,192,207228,1,0,0:0:0:0:
256,192,207314,1,8,0:0:0:0:
256,192,207399,1,8,0:0:0:0:
256,192,207484,1,0,0:0:0:0:
256,192,207569,1,0,0:0:0:0:
256,192,207655,1,8,0:0:0:0:
256,192,207825,1,0,0:0:0:0:
256,192,207995,1,8,0:0:0:0:
256,192,208166,1,8,0:0:0:0:
256,192,208251,1,8,0:0:0:0:
256,192,208336,1,0,0:0:0:0:
256,192,208507,1,8,0:0:0:0:
256,192,208677,1,0,0:0:0:0:
256,192,208762,1,0,0:0:0:0:
256,192,208848,1,0,0:0:0:0:
256,192,208933,1,0,0:0:0:0:
256,192,209018,1,8,0:0:0:0:
256,192,209103,1,8,0:0:0:0:
256,192,209189,1,8,0:0:0:0:
256,192,209274,1,8,0:0:0:0:
256,192,209359,1,0,0:0:0:0:
256,192,209444,1,8,0:0:0:0:
256,192,209530,1,0,0:0:0:0:
256,192,209615,1,0,0:0:0:0:
256,192,209700,1,8,0:0:0:0:
256,192,209785,1,8,0:0:0:0:
256,192,209870,1,8,0:0:0:0:
256,192,209956,1,8,0:0:0:0:
256,192,210041,1,0,0:0:0:0:
256,192,210126,1,0,0:0:0:0:
256,192,210211,1,8,0:0:0:0:
256,192,210297,1,8,0:0:0:0:
256,192,210382,1,8,0:0:0:0:
256,192,210552,1,0,0:0:0:0:
256,192,210637,1,8,0:0:0:0:
256,192,210723,1,8,0:0:0:0:
256,192,210893,1,0,0:0:0:0:
256,192,211064,1,8,0:0:0:0:
256,192,211234,1,8,0:0:0:0:
256,192,211319,1,8,0:0:0:0:
256,192,211405,1,0,0:0:0:0:
256,192,213961,1,0,0:0:0:0:
256,192,214018,1,0,0:0:0:0:
256,192,214075,1,0,0:0:0:0:
256,192,214132,1,0,0:0:0:0:
256,192,214302,1,0,0:0:0:0:
256,192,214473,1,8,0:0:0:0:
256,192,214643,1,0,0:0:0:0:
256,192,214728,1,8,0:0:0:0:
256,192,214814,1,0,0:0:0:0:
256,192,214899,1,8,0:0:0:0:
256,192,214984,1,0,0:0:0:0:
256,192,215155,1,8,0:0:0:0:
256,192,215325,1,8,0:0:0:0:
256,192,215410,1,8,0:0:0:0:
256,192,215495,1,0,0:0:0:0:
256,192,215666,1,8,0:0:0:0:
256,192,215836,1,8,0:0:0:0:
256,192,215922,1,8,0:0:0:0:
256,192,216007,1,0,0:0:0:0:
256,192,216177,1,8,0:0:0:0:
256,192,216348,1,0,0:0:0:0:
256,192,216433,1,8,0:0:0:0:
256,192,216518,1,8,0:0:0:0:
256,192,216689,1,8,0:0:0:0:
256,192,216859,1,4,0:0:0:0:
256,192,217200,5,8,0:0:0:0:
256,192,217541,1,0,0:0:0:0:
256,192,217626,1,8,0:0:0:0:
256,192,217711,1,8,0:0:0:0:
256,192,217796,1,0,0:0:0:0:
256,192,217882,1,8,0:0:0:0:
256,192,217967,1,8,0:0:0:0:
256,192,218052,1,0,0:0:0:0:
256,192,218137,1,0,0:0:0:0:
256,192,218223,1,8,0:0:0:0:
256,192,218393,1,8,0:0:0:0:
256,192,218478,1,8,0:0:0:0:
256,192,218563,1,0,0:0:0:0:
256,192,218734,1,8,0:0:0:0:
256,192,218904,1,0,0:0:0:0:
256,192,218961,1,0,0:0:0:0:
256,192,219018,1,0,0:0:0:0:
256,192,219075,1,0,0:0:0:0:
256,192,219131,1,0,0:0:0:0:
256,192,219188,1,0,0:0:0:0:
256,192,219245,1,8,0:0:0:0:
256,192,219416,1,0,0:0:0:0:
256,192,219586,1,8,0:0:0:0:
256,192,219672,1,8,0:0:0:0:
256,192,219757,1,8,0:0:0:0:
256,192,219842,1,8,0:0:0:0:
256,192,219927,1,0,0:0:0:0:
256,192,220012,1,0,0:0:0:0:
256,192,220098,1,0,0:0:0:0:
256,192,220183,1,0,0:0:0:0:
256,192,220268,1,8,0:0:0:0:
256,192,220439,1,0,0:0:0:0:
256,192,220609,1,8,0:0:0:0:
256,192,220694,1,8,0:0:0:0:
256,192,220780,1,8,0:0:0:0:
256,192,220865,1,8,0:0:0:0:
256,192,220950,1,0,0:0:0:0:
256,192,221035,1,0,0:0:0:0:
256,192,221120,1,8,0:0:0:0:
256,192,221206,1,8,0:0:0:0:
256,192,221291,1,0,0:0:0:0:
256,192,221376,1,8,0:0:0:0:
256,192,221461,1,0,0:0:0:0:
256,192,221546,1,0,0:0:0:0:
256,192,221631,1,8,0:0:0:0:
256,192,221688,1,8,0:0:0:0:
256,192,221745,1,8,0:0:0:0:
256,192,221802,1,0,0:0:0:0:
256,192,221887,1,0,0:0:0:0:
256,192,221972,1,8,0:0:0:0:
256,192,222029,1,8,0:0:0:0:
256,192,222086,1,8,0:0:0:0:
256,192,222143,1,0,0:0:0:0:
256,192,222228,1,0,0:0:0:0:
256,192,222313,1,8,0:0:0:0:
256,192,222484,1,0,0:0:0:0:
256,192,222655,1,8,0:0:0:0:
256,192,222740,1,8,0:0:0:0:
256,192,222825,1,8,0:0:0:0:
256,192,222910,1,8,0:0:0:0:
256,192,222995,1,0,0:0:0:0:
256,192,223081,1,0,0:0:0:0:
256,192,223166,1,8,0:0:0:0:
256,192,223251,1,8,0:0:0:0:
256,192,223336,1,0,0:0:0:0:
256,192,223422,1,8,0:0:0:0:
256,192,223507,1,8,0:0:0:0:
256,192,223592,1,8,0:0:0:0:
256,192,223677,1,0,0:0:0:0:
256,192,223848,1,8,0:0:0:0:
256,192,223933,1,8,0:0:0:0:
256,192,224018,1,0,0:0:0:0:
256,192,224189,1,8,0:0:0:0:
256,192,224359,1,0,0:0:0:0:
256,192,224444,1,8,0:0:0:0:
256,192,224530,1,8,0:0:0:0:
256,192,224615,1,8,0:0:0:0:
256,192,224700,1,0,0:0:0:0:
256,192,224785,1,0,0:0:0:0:
256,192,224870,1,8,0:0:0:0:
256,192,224956,1,8,0:0:0:0:
256,192,225041,1,0,0:0:0:0:
256,192,225211,1,8,0:0:0:0:
256,192,225382,1,0,0:0:0:0:
256,192,225467,1,8,0:0:0:0:
256,192,225552,1,0,0:0:0:0:
256,192,225637,1,0,0:0:0:0:
256,192,225723,1,8,0:0:0:0:
256,192,225893,1,0,0:0:0:0:
256,192,226064,1,8,0:0:0:0:
256,192,226234,1,8,0:0:0:0:
256,192,226404,1,0,0:0:0:0:
256,192,226461,1,0,0:0:0:0:
256,192,226518,1,0,0:0:0:0:
256,192,226575,1,8,0:0:0:0:
256,192,226660,1,0,0:0:0:0:
256,192,226745,1,8,0:0:0:0:
256,192,226802,1,0,0:0:0:0:
256,192,226859,1,0,0:0:0:0:
256,192,226916,1,8,0:0:0:0:
256,192,227001,1,0,0:0:0:0:
256,192,227086,1,8,0:0:0:0:
256,192,227143,1,8,0:0:0:0:
256,192,227200,1,8,0:0:0:0:
256,192,227256,1,0,0:0:0:0:
256,192,227342,1,0,0:0:0:0:
256,192,227427,1,8,0:0:0:0:
256,192,227598,1,0,0:0:0:0:
256,192,227683,1,0,0:0:0:0:
256,192,227768,1,8,0:0:0:0:
256,192,227939,1,8,0:0:0:0:
256,192,228024,1,0,0:0:0:0:
256,192,228194,1,0,0:0:0:0:
256,192,228280,1,8,0:0:0:0:
256,192,228365,1,8,0:0:0:0:
256,192,228450,1,0,0:0:0:0:
256,192,228535,1,8,0:0:0:0:
256,192,228620,1,8,0:0:0:0:
256,192,228706,1,8,0:0:0:0:
256,192,228791,1,0,0:0:0:0:
256,192,228961,1,12,0:0:0:0:
256,192,229132,1,4,0:0:0:0:
256,192,229302,1,8,0:0:0:0:
256,192,229387,1,8,0:0:0:0:
256,192,229473,1,0,0:0:0:0:
256,192,229643,1,8,0:0:0:0:
256,192,229814,1,0,0:0:0:0:
256,192,229899,1,0,0:0:0:0:
256,192,229985,1,8,0:0:0:0:
256,192,230069,1,8,0:0:0:0:
256,192,230155,1,0,0:0:0:0:
256,192,230240,1,8,0:0:0:0:
256,192,230326,1,8,0:0:0:0:
256,192,230411,1,8,0:0:0:0:
256,192,230496,1,0,0:0:0:0:
256,192,230667,1,8,0:0:0:0:
256,192,230752,1,8,0:0:0:0:
256,192,230836,1,0,0:0:0:0:
256,192,231007,1,8,0:0:0:0:
256,192,231178,1,8,0:0:0:0:
256,192,231263,1,0,0:0:0:0:
256,192,231348,1,8,0:0:0:0:
256,192,231434,1,8,0:0:0:0:
256,192,231519,1,0,0:0:0:0:
256,192,231604,1,0,0:0:0:0:
256,192,231689,1,8,0:0:0:0:
256,192,231774,1,8,0:0:0:0:
256,192,231860,1,0,0:0:0:0:
256,192,232030,1,0,0:0:0:0:
256,192,232201,1,8,0:0:0:0:
256,192,232371,1,0,0:0:0:0:
256,192,232456,1,0,0:0:0:0:
256,192,232542,1,8,0:0:0:0:
256,192,232598,1,8,0:0:0:0:
256,192,232655,1,8,0:0:0:0:
256,192,232712,1,0,0:0:0:0:
256,192,232797,1,0,0:0:0:0:
256,192,232882,1,8,0:0:0:0:
256,192,232939,1,8,0:0:0:0:
256,192,232996,1,8,0:0:0:0:
256,192,233053,1,0,0:0:0:0:
256,192,233138,1,0,0:0:0:0:
256,192,233223,1,8,0:0:0:0:
256,192,233394,1,0,0:0:0:0:
256,192,233479,1,0,0:0:0:0:
256,192,233564,1,0,0:0:0:0:
256,192,233649,1,8,0:0:0:0:
256,192,233735,1,0,0:0:0:0:
256,192,233820,1,0,0:0:0:0:
256,192,233905,1,8,0:0:0:0:
256,192,233990,1,8,0:0:0:0:
256,192,234076,1,0,0:0:0:0:
256,192,234161,1,8,0:0:0:0:
256,192,234331,1,8,0:0:0:0:
256,192,234417,1,0,0:0:0:0:
256,192,234587,1,8,0:0:0:0:
256,192,234672,1,8,0:0:0:0:
256,192,234757,1,0,0:0:0:0:
256,192,234842,1,0,0:0:0:0:
256,192,234927,1,8,0:0:0:0:
256,192,235098,1,0,0:0:0:0:
256,192,235184,1,8,0:0:0:0:
256,192,235269,1,0,0:0:0:0:
256,192,235353,1,0,0:0:0:0:
256,192,235439,1,8,0:0:0:0:
256,192,235524,1,8,0:0:0:0:
256,192,235610,1,0,0:0:0:0:
256,192,235694,1,0,0:0:0:0:
256,192,235780,1,0,0:0:0:0:
256,192,235865,1,0,0:0:0:0:
256,192,235951,1,8,0:0:0:0:
256,192,236007,1,8,0:0:0:0:
256,192,236064,1,8,0:0:0:0:
256,192,236121,1,0,0:0:0:0:
256,192,236206,1,0,0:0:0:0:
256,192,236292,1,8,0:0:0:0:
256,192,236377,1,8,0:0:0:0:
256,192,236462,1,0,0:0:0:0:
256,192,236547,1,8,0:0:0:0:
256,192,236632,1,8,0:0:0:0:
256,192,236718,1,8,0:0:0:0:
256,192,236803,1,0,0:0:0:0:
256,192,236888,1,8,0:0:0:0:
256,192,236973,1,0,0:0:0:0:
256,192,237059,1,0,0:0:0:0:
256,192,237144,1,8,0:0:0:0:
256,192,237228,1,8,0:0:0:0:
256,192,237314,1,0,0:0:0:0:
256,192,237370,1,0,0:0:0:0:
256,192,237427,1,0,0:0:0:0:
256,192,237484,1,0,0:0:0:0:
256,192,237569,1,0,0:0:0:0:
256,192,237655,1,8,0:0:0:0:
256,192,237711,1,0,0:0:0:0:
256,192,237768,1,0,0:0:0:0:
256,192,237825,1,8,0:0:0:0:
256,192,237910,1,0,0:0:0:0:
256,192,237995,1,8,0:0:0:0:
256,192,238052,1,8,0:0:0:0:
256,192,238109,1,8,0:0:0:0:
256,192,238166,1,0,0:0:0:0:
256,192,238251,1,0,0:0:0:0:
256,192,238336,1,8,0:0:0:0:
256,192,238422,1,8,0:0:0:0:
256,192,238507,1,0,0:0:0:0:
256,192,238677,1,4,0:0:0:0:
256,192,240041,1,8,0:0:0:0:
256,192,241405,1,8,0:0:0:0:
256,192,242768,1,8,0:0:0:0:
256,192,243450,1,8,0:0:0:0:
256,192,244132,1,8,0:0:0:0:
256,192,245495,1,8,0:0:0:0:
256,192,246859,1,8,0:0:0:0:
256,192,247541,1,8,0:0:0:0:
256,192,248223,1,8,0:0:0:0:
256,192,248905,1,8,0:0:0:0:
