osu file format v14

[General]
AudioFilename: voice.mp3
AudioLeadIn: 0
PreviewTime: 163983
Countdown: 0
SampleSet: Normal
StackLeniency: 0.7
Mode: 1
LetterboxInBreaks: 0
WidescreenStoryboard: 1

[Editor]
Bookmarks: 121962,216227
DistanceSpacing: 0.1
BeatDivisor: 4
GridSize: 32
TimelineZoom: 3.7

[Metadata]
Title:Your voice so...
TitleUnicode:Your voice so...
Artist:PSYQUI feat. Such
ArtistUnicode:PSYQUI feat. Such
Creator:Capu
Version:My voice so...
Source:
Tags:cychloryn vulkin future bass electronic trap english japanese
BeatmapID:2428013
BeatmapSetID:1163892

[Difficulty]
HPDrainRate:5
CircleSize:2
OverallDifficulty:6.5
ApproachRate:10
SliderMultiplier:1.4
SliderTickRate:1

[Events]
//Background and Video events
0,0,"87658754.jpg",0,20
//Break Periods
2,66113,76372
2,226682,227736
//Storyboard Layer 0 (Background)
//Storyboard Layer 1 (Fail)
//Storyboard Layer 2 (Pass)
//Storyboard Layer 3 (Foreground)
//Storyboard Layer 4 (Overlay)
//Storyboard Sound Samples

[TimingPoints]
459,340.909090909091,4,1,0,60,1,0
459,-133.333333333333,4,1,0,60,0,0
11364,-120.481927710843,4,1,0,70,0,0
16818,-114.942528735632,4,1,0,70,0,0
16989,-113.811866708094,4,1,0,70,0,0
17159,-112.703359123619,4,1,0,70,0,0
17330,-110.803324099723,4,1,0,70,0,0
17500,-110.549641763886,4,1,0,70,0,0
17670,-109.503478377991,4,1,0,70,0,0
17841,-108.476811996668,4,1,0,70,0,0
18011,-107.469218129197,4,1,0,70,0,0
18097,-106.972465287435,4,1,0,70,0,0
18182,-106.480283578291,4,1,0,70,0,0
18352,-105.509272154837,4,1,0,70,0,0
18523,-104.555810323213,4,1,0,70,0,0
18693,-103.61953394006,4,1,0,70,0,0
18864,-102.699771595708,4,1,0,70,0,0
19034,-101.796193840312,4,1,0,70,0,0
19205,-100.908479036768,4,1,0,70,0,0
19375,-100,4,1,0,70,0,0
19545,-95.2380952380952,4,1,0,80,0,0
19631,-94.3445178759275,4,1,0,80,0,0
19716,-93.4675527390666,4,1,0,80,0,0
19801,-92.60682660483,4,1,0,80,0,0
19886,-91.7617241660924,4,1,0,80,0,0
19972,-90.9319065510983,4,1,0,80,0,0
20057,-90.1169628060259,4,1,0,80,0,0
20142,-89.3165763527219,4,1,0,80,0,0
20227,-88.5302038496474,4,1,0,80,0,0
20312,-87.7575574614547,4,1,0,80,0,0
20398,-86.9982809139691,4,1,0,80,0,0
20483,-86.2521045513511,4,1,0,80,0,0
20568,-85.5185459794738,4,1,0,80,0,0
20653,-84.7973597494069,4,1,0,80,0,0
20739,-84.0882354672405,4,1,0,80,0,0
20824,-83.390942576163,4,1,0,80,0,0
20909,-79.3650793650794,4,1,0,80,0,0
20966,-79.9250622616235,4,1,0,80,0,0
21023,-80.4929387569475,4,1,0,80,0,0
21080,-81.0690083719965,4,1,0,80,0,0
21250,-82.847707686776,4,1,0,80,0,0
21420,-84.7061374678964,4,1,0,80,0,0
21477,-85.3443302347652,4,1,0,80,0,0
21534,-85.9921385986893,4,1,0,80,0,0
21591,-86.6499316765289,4,1,0,80,0,0
21847,-89.7388151784232,4,1,0,80,0,0
21932,-90.8180251983693,4,1,0,80,0,0
22273,-68.9655172413793,4,1,0,80,0,0
22614,-100,4,1,0,80,0,0
22957,-83.3333333333333,4,1,0,80,0,0
22959,-83.3333333333333,4,1,0,80,0,1
23210,-80,4,1,0,80,0,1
23214,-80,4,1,0,80,0,0
23468,-76.9230769230769,4,1,0,80,0,0
23470,-76.9230769230769,4,1,0,80,0,1
23638,-74.0740740740741,4,1,0,80,0,1
23640,-74.0740740740741,4,1,0,80,0,0
23894,-71.4285714285714,4,1,0,80,0,0
23896,-71.4285714285714,4,1,0,80,0,1
24150,-68.9655172413793,4,1,0,80,0,1
24152,-68.9655172413793,4,1,0,80,0,0
24659,-78.7401574803149,4,1,0,80,0,0
24744,-80.6451612903226,4,1,0,80,0,0
24830,-82.6446280991736,4,1,0,80,0,0
25002,-86.9565217391304,4,1,0,90,0,0
25004,-86.9565217391304,4,1,0,90,0,1
27045,-86.9565217391304,4,1,0,90,0,1
27133,-86.3373701809718,4,1,0,90,0,1
27216,-85.1250742716273,4,1,0,90,0,1
27301,-84.2379790297975,4,1,0,90,0,1
27386,-83.3691125774812,4,1,0,90,0,1
27474,-82.7998264515638,4,1,0,90,0,1
27557,-81.6841974568442,4,1,0,90,0,1
27727,-78.7401574803149,4,1,0,90,0,1
27898,-86.9565217391304,4,1,0,90,0,1
31307,-86.9565217391304,4,1,0,90,0,1
31392,-86.2068965517241,4,1,0,90,0,1
31562,-84.7457627118644,4,1,0,90,0,1
31648,-84.0336134453781,4,1,0,90,0,1
31818,-75.7575757575758,4,1,0,90,0,1
31989,-80.6451612903226,4,1,0,90,0,1
32159,-75.7575757575758,4,1,0,90,0,1
32330,-80.6451612903226,4,1,0,90,0,1
32500,-75.7575757575758,4,1,0,90,0,1
32670,-80.6451612903226,4,1,0,90,0,1
32841,-75.7575757575758,4,1,0,90,0,1
33013,-80.6451612903226,4,1,0,90,0,1
33015,-80.6451612903226,4,1,0,90,0,1
33097,-82.6446280991736,4,1,0,90,0,1
33182,-84.7457627118644,4,1,0,90,0,1
33267,-86.9565217391304,4,1,0,90,0,1
33352,-88.4955752212389,4,1,0,90,0,1
33437,-90.0900900900901,4,1,0,90,0,1
33864,-74.0740740740741,4,1,0,90,0,1
33868,-74.0740740740741,4,1,0,90,0,0
34119,-76.9230769230769,4,1,0,90,0,0
34123,-76.9230769230769,4,1,0,90,0,1
34375,-80,4,1,0,90,0,1
34379,-80,4,1,0,90,0,0
34547,-86.9565217391304,4,1,0,90,0,0
34549,-86.9565217391304,4,1,0,90,0,1
37955,-86.9565217391304,4,1,0,90,0,1
38011,-86.3309600952403,4,1,0,90,0,1
38068,-85.7142612244968,4,1,0,90,0,1
38125,-85.1063829787234,4,1,0,90,0,1
38210,-84.2105263157895,4,1,0,90,0,1
38295,-83.3333333333333,4,1,0,90,0,1
38383,-82.7586435196258,4,1,0,90,0,1
38466,-81.6326530612245,4,1,0,90,0,1
38636,-78.7401574803149,4,1,0,90,0,1
38807,-86.9565217391304,4,1,0,90,0,1
40682,-86.9565217391304,4,1,0,90,0,1
40852,-86.3039140551102,4,1,0,90,0,1
40937,-85.9813437680292,4,1,0,90,0,1
41023,-85.6611024069913,4,1,0,90,0,1
41080,-85.4489058267609,4,1,0,90,0,1
41136,-85.237830594926,4,1,0,90,0,1
41193,-85.0277232891784,4,1,0,90,0,1
41364,-84.4036418483385,4,1,0,90,0,1
41534,-83.7887250540018,4,1,0,90,0,1
41619,-83.4845795633089,4,1,0,90,0,1
41705,-83.1826341278384,4,1,0,90,0,1
41875,-82.585248622891,4,1,0,90,0,1
42045,-81.9964495537343,4,1,0,90,0,1
42131,-81.7051538794016,4,1,0,90,0,1
42216,-81.4159205576014,4,1,0,90,0,1
42301,-81.1287277636298,4,1,0,90,0,1
42386,-80.8435539796452,4,1,0,90,0,1
42557,-80.2792433199642,4,1,0,90,0,1
42727,-74.0740740740741,4,1,0,90,0,1
42812,-76.3358778625954,4,1,0,90,0,1
42898,-78.7401574803149,4,1,0,90,0,1
42985,-80,4,1,0,90,0,1
43068,-72.463768115942,4,1,0,90,0,1
43153,-74.6268656716418,4,1,0,90,0,1
43239,-76.9230769230769,4,1,0,90,0,1
43326,-78.125,4,1,0,90,0,1
43409,-70.9219858156028,4,1,0,90,0,1
43494,-72.992700729927,4,1,0,90,0,1
43580,-75.187969924812,4,1,0,90,0,1
43667,-76.3358778625954,4,1,0,90,0,1
43750,-69.4444444444444,4,1,0,90,0,1
43835,-68.4931506849315,4,1,0,90,0,1
43920,-67.5675675675676,4,1,0,90,0,1
44006,-66.6666666666667,4,1,0,90,0,1
44010,-66.6666666666667,4,1,0,90,0,0
45455,-133.333333333333,4,1,0,60,0,0
46477,-166.666666666667,4,1,0,60,0,0
46818,-100,4,1,0,70,0,0
55256,-89.2857142857143,4,1,0,75,0,0
55426,-95.2380952380952,4,1,0,75,0,0
60455,-100,4,1,0,75,0,0
60795,-90.9090909090909,4,1,0,75,0,0
61477,-86.9565217391304,4,1,0,75,0,0
61818,-100,4,1,0,75,0,0
62074,-86.9565217391304,4,1,0,75,0,0
62330,-83.3333333333333,4,1,0,75,0,0
62670,-85.4700854700855,4,1,0,75,0,0
62756,-86.9565217391304,4,1,0,75,0,0
62798,-87.6424189307625,4,1,0,75,0,0
62841,-88.4955752212389,4,1,0,75,0,0
62926,-90.0900900900901,4,1,0,75,0,0
63011,-91.743119266055,4,1,0,75,0,0
63097,-93.4579439252336,4,1,0,75,0,0
63182,-95.2380952380952,4,1,0,75,0,0
64290,-95.2380952380952,4,1,0,75,0,0
64375,-93.4579439252336,4,1,0,75,0,0
64460,-91.743119266055,4,1,0,75,0,0
64545,-81.3008130081301,4,1,0,75,0,0
64631,-84.7457627118644,4,1,0,75,0,0
64716,-88.4955752212389,4,1,0,75,0,0
64773,-90.9090909090909,4,1,0,75,0,0
64830,-93.4579439252336,4,1,0,75,0,0
64886,-81.3008130081301,4,1,0,75,0,0
64972,-84.7457627118644,4,1,0,75,0,0
65057,-88.4955752212389,4,1,0,75,0,0
65144,-90.9090909090909,4,1,0,75,0,0
65227,-81.3008130081301,4,1,0,75,0,0
65312,-84.7457627118644,4,1,0,75,0,0
65398,-88.4955752212389,4,1,0,75,0,0
65485,-90.9090909090909,4,1,0,75,0,0
65568,-81.3008130081301,4,1,0,75,0,0
65653,-84.7457627118644,4,1,0,75,0,0
65739,-88.4955752212389,4,1,0,75,0,0
65795,-90.9090909090909,4,1,0,75,0,0
65852,-93.4579439252336,4,1,0,75,0,0
65909,-81.3008130081301,4,1,0,75,0,0
65998,-100,4,1,0,75,0,0
76820,-105.263157894737,4,1,0,70,0,0
82273,-105.263157894737,4,1,0,70,0,0
82443,-104.169704949728,4,1,0,70,0,0
82614,-103.098629303723,4,1,0,70,0,0
82784,-102.04945929094,4,1,0,70,0,0
82955,-101.02142765502,4,1,0,70,0,0
83125,-100.013901932369,4,1,0,70,0,0
83295,-99.026176579517,4,1,0,70,0,0
83466,-98.0578659078295,4,1,0,70,0,0
83636,-97.1083087811159,4,1,0,70,0,0
83807,-96.1768731167366,4,1,0,70,0,0
83977,-95.2632265845371,4,1,0,70,0,0
84148,-94.3667753457363,4,1,0,70,0,0
84318,-93.4869510913667,4,1,0,70,0,0
84489,-92.6234670816198,4,1,0,70,0,0
84659,-91.7757880786922,4,1,0,70,0,0
84830,-90.9434840812525,4,1,0,70,0,0
85000,-88.495575221239,4,1,0,80,0,0
85085,-87.4371217798001,4,1,0,80,0,0
85170,-86.4036884006504,4,1,0,80,0,0
85256,-85.3944712203553,4,1,0,80,0,0
85341,-84.4084864292256,4,1,0,80,0,0
85426,-83.4450105724828,4,1,0,80,0,0
85511,-82.5032815680244,4,1,0,80,0,0
85597,-81.5826379093307,4,1,0,80,0,0
85682,-80.6822490983759,4,1,0,80,0,0
85767,-79.8015176652629,4,1,0,80,0,0
85852,-78.9398068185047,4,1,0,80,0,0
85937,-78.0965679682241,4,1,0,80,0,0
86023,-77.271094042785,4,1,0,80,0,0
86108,-76.4628879726936,4,1,0,80,0,0
86193,-75.6714135344377,4,1,0,80,0,0
86278,-74.8962125734264,4,1,0,80,0,0
86364,-74.1366783802619,4,1,0,80,0,0
86534,-80,4,1,0,80,0,0
86705,-81.6211927794628,4,1,0,80,0,0
86790,-82.4566133914488,4,1,0,80,0,0
86875,-83.3093818860411,4,1,0,80,0,0
87045,-85.068952639562,4,1,0,80,0,0
87386,-88.8208323933129,4,1,0,80,0,0
87557,-90.8237166154724,4,1,0,80,0,0
87814,-72.992700729927,4,1,0,80,0,0
87857,-74.6268656716418,4,1,0,80,0,0
88068,-71.4285714285714,4,1,0,80,0,0
88409,-86.9565217391304,4,1,0,80,0,0
91818,-89.2857142857143,4,1,0,80,0,0
91989,-84.7457627118644,4,1,0,80,0,0
92078,-86.9565217391304,4,1,0,80,0,0
92159,-89.2857142857143,4,1,0,80,0,0
92330,-84.7457627118644,4,1,0,80,0,0
92500,-89.2857142857143,4,1,0,80,0,0
92585,-86.9565217391304,4,1,0,80,0,0
92670,-84.7457627118644,4,1,0,80,0,0
92841,-89.2857142857143,4,1,0,80,0,0
93011,-84.7457627118644,4,1,0,80,0,0
93182,-83.3333333333333,4,1,0,80,0,0
93437,-80,4,1,0,80,0,0
93693,-76.9230769230769,4,1,0,80,0,0
93864,-74.0740740740741,4,1,0,80,0,0
94034,-80.6451612903226,4,1,0,80,0,0
94119,-81.9672131147541,4,1,0,80,0,0
94205,-83.3333333333333,4,1,0,80,0,0
94292,-84.7457627118644,4,1,0,80,0,0
94375,-86.2068965517241,4,1,0,80,0,0
94545,-86.9565217391304,4,1,0,80,0,0
95568,-86.9565217391304,4,1,0,80,0,0
95653,-85.4700854700855,4,1,0,80,0,0
95739,-84.0336134453781,4,1,0,80,0,0
95909,-80,4,1,0,80,0,0
96165,-83.3333333333333,4,1,0,80,0,0
96250,-84.7457627118644,4,1,0,80,0,0
96335,-86.2068965517241,4,1,0,80,0,0
96420,-80,4,1,0,80,0,0
96676,-83.3333333333333,4,1,0,80,0,0
96761,-84.7457627118644,4,1,0,80,0,0
96847,-86.2068965517241,4,1,0,80,0,0
96932,-80,4,1,0,80,0,0
97102,-83.3333333333333,4,1,0,80,0,0
97273,-80,4,1,0,80,0,0
97614,-85.1188429284968,4,1,0,80,0,0
97955,-81.6671199191822,4,1,0,80,0,0
98295,-78.4844341821687,4,1,0,80,0,0
98636,-72.463768115942,4,1,0,80,0,0
98679,-74.6268656716418,4,1,0,80,0,0
98807,-76.9230769230769,4,1,0,80,0,0
98977,-74.0740740740741,4,1,0,80,0,0
99318,-95.2380952380952,4,1,0,80,0,0
99659,-88.4955752212389,4,1,0,80,0,0
100000,-82.6446280991736,4,1,0,80,0,0
100341,-77.5193798449612,4,1,0,80,0,0
100682,-72.992700729927,4,1,0,80,0,0
101023,-68.9655172413793,4,1,0,80,0,0
101080,-71.4285714285714,4,1,0,80,0,0
101364,-72.992700729927,4,1,0,85,0,0
101534,-83.3333333333333,4,1,0,85,0,0
103750,-82.6446280991736,4,1,0,85,0,0
104091,-76.9230769230769,4,1,0,85,0,0
105455,-80.6451612903226,4,1,0,85,0,0
105710,-80,4,1,0,85,0,0
105966,-79.3650793650794,4,1,0,85,0,0
106222,-78.7401574803149,4,1,0,85,0,0
106477,-78.125,4,1,0,85,0,0
106648,-77.5193798449612,4,1,0,85,0,0
106818,-76.9230769230769,4,1,0,85,0,0
107074,-76.3358778625954,4,1,0,85,0,0
107330,-75.7575757575758,4,1,0,85,0,0
107585,-75.187969924812,4,1,0,85,0,0
107841,-74.6268656716418,4,1,0,85,0,0
108011,-74.0740740740741,4,1,0,85,0,0
108182,-71.4285714285714,4,1,0,85,0,0
108523,-76.9230769230769,4,1,0,85,0,0
108864,-75.187969924812,4,1,0,85,0,0
109205,-81.3008130081301,4,1,0,85,0,0
109545,-79.3650793650794,4,1,0,85,0,0
109886,-86.2068965517241,4,1,0,85,0,0
110227,-84.0336134453781,4,1,0,85,0,0
110568,-91.743119266055,4,1,0,85,0,0
110909,-89.2857142857143,4,1,0,85,0,0
111250,-98.0392156862745,4,1,0,85,0,0
111591,-95.2380952380952,4,1,0,85,0,0
111932,-105.263157894737,4,1,0,85,0,0
112273,-102.040816326531,4,1,0,85,0,0
112614,-113.636363636364,4,1,0,85,0,0
112955,-109.89010989011,4,1,0,85,0,0
113295,-123.456790123457,4,1,0,85,0,0
113636,-120.481927710843,4,1,0,85,0,0
113807,-117.709514106897,4,1,0,85,0,0
113977,-115.061690325268,4,1,0,85,0,0
114148,-112.530495764352,4,1,0,85,0,0
114318,-110.108148223185,4,1,0,85,0,0
114489,-107.788006859629,4,1,0,85,0,0
114659,-105.563625308246,4,1,0,85,0,0
114830,-103.429087982988,4,1,0,85,0,0
115000,-101.37926489895,4,1,0,85,0,0
115170,-99.4090134152463,4,1,0,85,0,0
115341,-97.5139786288365,4,1,0,85,0,0
115511,-95.6898424275365,4,1,0,85,0,0
115682,-93.9326108663123,4,1,0,85,0,0
115852,-92.2388395616073,4,1,0,85,0,0
116023,-90.6049876233587,4,1,0,85,0,0
116193,-89.02808925244,4,1,0,85,0,0
116364,-87.5051409270295,4,1,0,85,0,0
116449,-86.7630025204652,4,1,0,85,0,0
116534,-86.0333465251131,4,1,0,85,0,0
116619,-85.3159334330961,4,1,0,85,0,0
116705,-84.610314505,4,1,0,85,0,0
116790,-83.9162717007479,4,1,0,85,0,0
116875,-83.2335917458912,4,1,0,85,0,0
116960,-82.5618615388045,4,1,0,85,0,0
117045,-81.9008868228025,4,1,0,85,0,0
117131,-81.2504113302074,4,1,0,85,0,0
117216,-80.6102518506099,4,1,0,85,0,0
117301,-79.9800369827691,4,1,0,85,0,0
117386,-79.3595997736664,4,1,0,85,0,0
117472,-78.7487764408861,4,1,0,85,0,0
117557,-78.1472231165738,4,1,0,85,0,0
117642,-77.5547905206331,4,1,0,85,0,0
117727,-76.9713320273864,4,1,0,85,0,0
117898,-80,4,1,0,85,0,0
117983,-81.3008130081301,4,1,0,85,0,0
118153,-84.0336134453781,4,1,0,85,0,0
118239,-85.4700854700855,4,1,0,85,0,0
118409,-88.4955752212389,4,1,0,85,0,0
118750,-103.092783505155,4,1,0,85,0,0
118835,-99.009900990099,4,1,0,85,0,0
118920,-96.1538461538461,4,1,0,85,0,0
119006,-93.4579439252336,4,1,0,85,0,0
119093,-90.9090909090909,4,1,0,90,0,0
119095,-90.9090909090909,4,1,0,90,0,1
139545,-90.9090909090909,4,1,0,90,0,1
139631,-90.0372844394864,4,1,0,90,0,1
139716,-89.1820401640236,4,1,0,90,0,1
139886,-87.519385543898,4,1,0,90,0,1
139971,-86.7111668374877,4,1,0,90,0,1
140057,-85.9176651015332,4,1,0,90,0,1
140227,-84.3734470012411,4,1,0,90,0,1
140312,-83.6219684945872,4,1,0,90,0,1
140398,-82.8837580158954,4,1,0,90,0,1
140568,-81.4457599744586,4,1,0,90,0,1
140653,-80.7453115234864,4,1,0,90,0,1
140739,-80.0568724021545,4,1,0,90,0,1
140911,-73.5294117647059,4,1,0,90,0,1
140913,-73.5294117647059,4,1,0,90,0,0
140966,-75.7575757575758,4,1,0,90,0,0
141252,-73.5294117647059,4,1,0,95,0,0
141254,-73.5294117647059,4,1,0,95,0,1
141420,-81.3008130081301,4,1,0,95,0,1
141506,-81.9672131147541,4,1,0,95,0,1
141591,-82.6446280991736,4,1,0,95,0,1
141676,-83.3333333333333,4,1,0,95,0,1
141761,-84.0336134453781,4,1,0,95,0,1
141847,-84.7457627118644,4,1,0,95,0,1
141932,-85.4700854700855,4,1,0,95,0,1
142017,-86.2068965517241,4,1,0,95,0,1
142102,-86.9565217391304,4,1,0,95,0,1
151477,-86.2068965517241,4,1,0,95,0,1
151562,-85.4700854700855,4,1,0,95,0,1
151648,-84.7457627118644,4,1,0,95,0,1
151733,-84.0336134453781,4,1,0,95,0,1
151818,-83.3333333333333,4,1,0,100,0,1
160000,-83.3333333333333,4,1,0,100,0,1
160170,-82.4176050597816,4,1,0,100,0,1
160341,-81.5217169777943,4,1,0,100,0,1
160426,-81.0811029948927,4,1,0,100,0,1
160511,-80.6451612903226,4,1,0,100,0,1
160597,-80.2138822957534,4,1,0,100,0,1
160682,-79.7872552625679,4,1,0,100,0,1
160767,-79.3650793650794,4,1,0,100,0,1
160852,-78.9473476454348,4,1,0,100,0,1
160937,-78.5340519722649,4,1,0,100,0,1
161023,-78.125,4,1,0,100,0,1
161108,-77.7201871191225,4,1,0,100,0,1
161193,-77.3196075565999,4,1,0,100,0,1
161278,-76.9230769230769,4,1,0,100,0,1
161364,-74.6268656716418,4,1,0,100,0,1
161534,-76.9230769230769,4,1,0,100,0,1
161619,-74.0740740740741,4,1,0,100,0,1
161790,-76.3358778625954,4,1,0,100,0,1
161875,-73.5294117647059,4,1,0,100,0,1
162045,-75.7575757575758,4,1,0,100,0,1
162131,-72.992700729927,4,1,0,100,0,1
162301,-75.187969924812,4,1,0,100,0,1
162386,-72.463768115942,4,1,0,100,0,1
162557,-71.9424460431655,4,1,0,100,0,1
162727,-71.4285714285714,4,1,0,100,0,1
162898,-73.5294117647059,4,1,0,100,0,1
162983,-70.9219858156028,4,1,0,100,0,1
163153,-72.992700729927,4,1,0,100,0,1
163239,-70.4225352112676,4,1,0,100,0,1
163409,-72.463768115942,4,1,0,100,0,1
163494,-69.9300699300699,4,1,0,100,0,1
163665,-72.463768115942,4,1,0,100,0,1
163750,-70.4225352112676,4,1,0,100,0,1
163920,-69.9300699300699,4,1,0,100,0,1
164093,-66.6666666666667,4,1,0,80,0,1
164095,-66.6666666666667,4,1,0,80,0,0
164432,-76.9230769230769,4,1,0,80,0,0
164602,-78.740157480315,4,1,0,80,0,0
164773,-80.6451612903226,4,1,0,80,0,0
164943,-82.6446280991736,4,1,0,80,0,0
165028,-83.6820083682008,4,1,0,80,0,0
165199,-85.8369098712446,4,1,0,80,0,0
165284,-86.9565217391304,4,1,0,80,0,0
165455,-89.2857142857143,4,1,0,80,0,0
165625,-91.743119266055,4,1,0,80,0,0
165710,-93.0232558139535,4,1,0,80,0,0
165881,-95.6937799043062,4,1,0,80,0,0
165966,-97.0873786407767,4,1,0,80,0,0
166136,-100,4,1,0,80,0,0
166477,-83.3333333333333,4,1,0,80,0,0
166561,-84.7457627118644,4,1,0,80,0,0
166648,-87.719298245614,4,1,0,80,0,0
166733,-90.0900900900901,4,1,0,80,0,0
166818,-92.5925925925926,4,1,0,80,0,0
166989,-95.2380952380952,4,1,0,80,0,0
167159,-100,4,1,0,80,0,0
167246,-98.0392156862745,4,1,0,80,0,0
167330,-94.3396226415094,4,1,0,80,0,0
167417,-92.5925925925926,4,1,0,80,0,0
167500,-89.2857142857143,4,1,0,80,0,0
167727,-95.2380952380952,4,1,0,80,0,0
167841,-96.1538461538461,4,1,0,80,0,0
167955,-97.0873786407767,4,1,0,80,0,0
168068,-98.0392156862745,4,1,0,80,0,0
168182,-90.9090909090909,4,1,0,80,0,0
168295,-90.0900900900901,4,1,0,80,0,0
168409,-89.2857142857143,4,1,0,80,0,0
168523,-88.4955752212389,4,1,0,80,0,0
168636,-87.719298245614,4,1,0,80,0,0
168750,-86.9565217391304,4,1,0,80,0,0
168864,-86.2068965517241,4,1,0,80,0,0
169034,-84.7457627118644,4,1,0,80,0,0
169205,-81.9672131147541,4,1,0,80,0,0
169249,-83.3333333333333,4,1,0,80,0,0
169375,-86.2068965517241,4,1,0,80,0,0
169460,-88.4955752212389,4,1,0,80,0,0
169545,-83.3333333333333,4,1,0,80,0,0
169716,-86.9565217391304,4,1,0,80,0,0
172273,-83.3333333333333,4,1,0,80,0,0
172528,-80,4,1,0,80,0,0
172784,-76.9230769230769,4,1,0,80,0,0
172955,-83.3333333333333,4,1,0,80,0,0
173125,-86.2068965517241,4,1,0,80,0,0
173210,-87.719298245614,4,1,0,80,0,0
173295,-90.9090909090909,4,1,0,80,0,0
175000,-80,4,1,0,80,0,0
175256,-90.9090909090909,4,1,0,80,0,0
175341,-88.4955752212389,4,1,0,80,0,0
175426,-86.2068965517241,4,1,0,80,0,0
175511,-80,4,1,0,80,0,0
175937,-86.2068965517241,4,1,0,80,0,0
176023,-80,4,1,0,80,0,0
176193,-86.9565217391304,4,1,0,80,0,0
176364,-85.6486299216915,4,1,0,80,0,0
176449,-85.0093637814205,4,1,0,80,0,0
176534,-84.3794984820128,4,1,0,80,0,0
176705,-83.1474295387895,4,1,0,80,0,0
176790,-82.5448239029999,4,1,0,80,0,0
176875,-81.9508229501641,4,1,0,80,0,0
177045,-80.7881693804759,4,1,0,80,0,0
177216,-79.658043948936,4,1,0,80,0,0
177301,-79.1047869470773,4,1,0,80,0,0
177386,-78.5591004040295,4,1,0,80,0,0
177472,-78.020951746382,4,1,0,80,0,0
177557,-77.4900657735678,4,1,0,80,0,0
177727,-75.187969924812,4,1,0,80,0,0
177898,-81.3008130081301,4,1,0,80,0,0
178068,-72.992700729927,4,1,0,80,0,0
178407,-100,4,1,0,80,0,0
180284,-76.9230769230769,4,1,0,80,0,0
180454,-71.4285714285714,4,1,0,80,0,0
180795,-86.9565217391304,4,1,0,80,0,0
181477,-86.2068965517241,4,1,0,80,0,0
181562,-85.4700854700855,4,1,0,80,0,0
181648,-84.7457627118644,4,1,0,80,0,0
181733,-84.0336134453781,4,1,0,80,0,0
181818,-80,4,1,0,80,0,0
182159,-84.7457627118644,4,1,0,80,0,0
182244,-86.2068965517241,4,1,0,80,0,0
182330,-80,4,1,0,80,0,0
182670,-84.7457627118644,4,1,0,80,0,0
182756,-86.2068965517241,4,1,0,80,0,0
182841,-80,4,1,0,80,0,0
183011,-81.3008130081301,4,1,0,80,0,0
183182,-76.9230769230769,4,1,0,80,0,0
183437,-83.3333333333333,4,1,0,80,0,0
183523,-84.7457627118644,4,1,0,80,0,0
183693,-87.719298245614,4,1,0,80,0,0
183778,-89.2857142857143,4,1,0,80,0,0
183864,-90.9090909090909,4,1,0,80,0,0
185909,-90.9090909090909,4,1,0,80,0,0
186165,-88.0281690140845,4,1,0,80,0,0
186250,-87.1080139372822,4,1,0,80,0,0
186420,-85.3242320819113,4,1,0,80,0,0
186591,-83.6120401337793,4,1,0,80,0,0
186761,-81.9672131147541,4,1,0,80,0,0
186847,-81.1688311688312,4,1,0,80,0,0
186932,-80.3858520900322,4,1,0,80,0,0
187017,-79.6178343949045,4,1,0,80,0,0
187102,-78.8643533123028,4,1,0,80,0,0
187273,-75.7575757575758,4,1,0,80,0,0
187358,-76.9230769230769,4,1,0,80,0,0
187443,-78.125,4,1,0,80,0,0
187528,-74.6268656716418,4,1,0,80,0,0
187614,-75.7575757575758,4,1,0,80,0,0
187699,-76.9230769230769,4,1,0,80,0,0
187784,-73.5294117647059,4,1,0,80,0,0
187869,-74.6268656716418,4,1,0,80,0,0
187955,-75.7575757575758,4,1,0,80,0,0
188040,-72.463768115942,4,1,0,80,0,0
188125,-73.5294117647059,4,1,0,80,0,0
188210,-74.6268656716418,4,1,0,80,0,0
188295,-71.4285714285714,4,1,0,80,0,0
188466,-70.4225352112676,4,1,0,80,0,0
188636,-67.5675675675676,4,1,0,80,0,0
188977,-83.3333333333333,4,1,0,55,0,0
189318,-88.0355311403683,4,1,0,55,0,0
189574,-91.9257901481292,4,1,0,55,0,0
189830,-96.1757631306365,4,1,0,55,0,0
190170,-102.493881115297,4,1,0,55,0,0
190341,-105.974862762553,4,1,0,55,0,0
190682,-113.697734572639,4,1,0,55,0,0
190937,-120.27123569073,4,1,0,55,0,0
191193,-127.651480821003,4,1,0,55,0,0
191364,-133.096421702703,4,1,0,55,0,0
194091,-133.333333333333,4,1,0,60,0,0
194432,-131.687242798354,4,1,0,60,0,0
194773,-130.081300813008,4,1,0,60,0,0
195028,-128.902357753026,4,1,0,60,0,0
195284,-127.744592571396,4,1,0,60,0,0
195625,-126.232661943882,4,1,0,60,0,0
195795,-125.490196078431,4,1,0,60,0,0
196136,-124.031007751938,4,1,0,60,0,0
196392,-122.958731360993,4,1,0,60,0,0
196648,-121.904836208662,4,1,0,60,0,0
196818,-121.212121212121,4,1,0,60,0,0
197159,-119.850187265918,4,1,0,60,0,0
197500,-118.518518518519,4,1,0,60,0,0
197756,-117.539061168503,4,1,0,60,0,0
198011,-116.575524036124,4,1,0,60,0,0
198352,-115.315248827244,4,1,0,60,0,0
198523,-114.695340501792,4,1,0,60,0,0
198864,-113.475177304965,4,1,0,60,0,0
199119,-112.576988588071,4,1,0,60,0,0
199375,-111.692782300715,4,1,0,60,0,0
199545,-111.111111111111,4,1,0,70,0,0
205000,-111.111111111111,4,1,0,70,0,0
205170,-109.342436455643,4,1,0,70,0,0
205341,-107.629187313532,4,1,0,70,0,0
205511,-105.968798546956,4,1,0,70,0,0
205597,-105.15766814974,4,1,0,70,0,0
205682,-104.358860902161,4,1,0,70,0,0
205852,-102.797109345285,4,1,0,70,0,0
206023,-101.281412430065,4,1,0,70,0,0
206193,-99.8097625924987,4,1,0,70,0,0
206364,-98.3802672795101,4,1,0,70,0,0
206534,-96.9910467564739,4,1,0,70,0,0
206705,-95.6406055580581,4,1,0,70,0,0
206875,-94.327253313009,4,1,0,70,0,0
207045,-93.0494827844499,4,1,0,70,0,0
207216,-91.80586731298,4,1,0,70,0,0
207301,-91.1964426091667,4,1,0,70,0,0
207386,-90.5950555030608,4,1,0,70,0,0
207557,-89.4157663244129,4,1,0,70,0,0
207727,-88.2667845910909,4,1,0,80,0,0
207812,-87.7032962406859,4,1,0,80,0,0
207898,-87.1469567846956,4,1,0,80,0,0
207983,-86.5976310352054,4,1,0,80,0,0
208068,-86.0551871915459,4,1,0,80,0,0
208153,-85.5194967348656,4,1,0,80,0,0
208239,-84.9904343266165,4,1,0,80,0,0
208324,-84.4678777107854,4,1,0,80,0,0
208409,-83.9517076197088,4,1,0,80,0,0
208494,-83.4418076833217,4,1,0,80,0,0
208580,-82.9380643416916,4,1,0,80,0,0
208665,-82.4403667607036,4,1,0,80,0,0
208750,-81.9486067507623,4,1,0,80,0,0
208920,-80.982479440573,4,1,0,80,0,0
209091,-80.0388668737539,4,1,0,80,0,0
209261,-78.7401574803149,4,1,0,80,0,0
209347,-80.6451612903226,4,1,0,80,0,0
209432,-82.6446280991736,4,1,0,80,0,0
209602,-81.3008130081301,4,1,0,80,0,0
209687,-83.3333333333333,4,1,0,80,0,0
209773,-85.4700854700855,4,1,0,80,0,0
209943,-84.0336134453781,4,1,0,80,0,0
210114,-86.2068965517241,4,1,0,80,0,0
210284,-87.719298245614,4,1,0,80,0,0
210369,-90.0900900900901,4,1,0,80,0,0
210454,-92.5925925925926,4,1,0,80,0,0
210540,-111.111111111111,4,1,0,40,0,0
213182,-117.647058823529,4,1,0,70,0,0
213352,-114.512252238428,4,1,0,70,0,0
213523,-111.54029337328,4,1,0,70,0,0
213693,-108.718577613105,4,1,0,70,0,0
213778,-107.360645881646,4,1,0,70,0,0
213864,-106.036105293853,4,1,0,70,0,0
213949,-104.743958630326,4,1,0,70,0,0
214034,-103.482924799993,4,1,0,70,0,0
214205,-101.049704328565,4,1,0,70,0,0
214375,-98.7282810122808,4,1,0,70,0,0
214460,-97.6071604612914,4,1,0,70,0,0
214545,-96.511122906915,4,1,0,70,0,0
214716,-94.3914488898622,4,1,0,70,0,0
214972,-91.3808653950715,4,1,0,70,0,0
215057,-90.4195103602675,4,1,0,70,0,0
215227,-88.5563891663656,4,1,0,70,0,0
215483,-85.9012805303889,4,1,0,70,0,0
215568,-85.0512263536328,4,1,0,70,0,0
215739,-83.4007489387255,4,1,0,70,0,0
215909,-68.9655172413793,4,1,0,70,0,0
215966,-71.4285714285714,4,1,0,70,0,0
216023,-74.0740740740741,4,1,0,70,0,0
216080,-76.9230769230769,4,1,0,70,0,0
216250,-66.6666666666667,4,1,0,70,0,0
216593,-83.3333333333333,4,1,0,80,0,0
216595,-83.3333333333333,4,1,0,80,0,1
216849,-80,4,1,0,80,0,1
216851,-80,4,1,0,80,0,0
217104,-76.9230769230769,4,1,0,80,0,0
217106,-76.9230769230769,4,1,0,80,0,1
217275,-74.0740740740741,4,1,0,80,0,1
217277,-74.0740740740741,4,1,0,80,0,0
217530,-71.4285714285714,4,1,0,80,0,0
217532,-71.4285714285714,4,1,0,80,0,1
217786,-68.9655172413793,4,1,0,80,0,1
217788,-68.9655172413793,4,1,0,80,0,0
217955,-74.0740740740741,4,1,0,80,0,0
218295,-78.125,4,1,0,80,0,0
218381,-80.6451612903226,4,1,0,80,0,0
218466,-83.3333333333333,4,1,0,80,0,0
218638,-86.9565217391304,4,1,0,90,0,0
218640,-86.9565217391304,4,1,0,90,0,1
220682,-86.9565217391304,4,1,0,90,0,1
220769,-86.3373701809718,4,1,0,90,0,1
220852,-85.1250742716273,4,1,0,90,0,1
221023,-83.3691125774812,4,1,0,90,0,1
221110,-82.7998264515638,4,1,0,90,0,1
221193,-81.6841974568442,4,1,0,90,0,1
221364,-78.7401574803149,4,1,0,90,0,1
221534,-86.9565217391304,4,1,0,90,0,1
225284,-83.3333333333333,4,1,0,90,0,1
225454,-76.9230769230769,4,1,0,90,0,1
225625,-83.3333333333333,4,1,0,90,0,1
225710,-81.3008130081301,4,1,0,90,0,1
225795,-76.9230769230769,4,1,0,90,0,1
225966,-83.3333333333333,4,1,0,90,0,1
226136,-76.9230769230769,4,1,0,90,0,1
226307,-83.3333333333333,4,1,0,90,0,1
226477,-76.9230769230769,4,1,0,90,0,1
226481,-76.9230769230769,4,1,0,90,0,0
226652,-83.3333333333333,4,1,0,90,0,0
228186,-83.3333333333333,4,1,0,90,0,1
228352,-86.9565217391304,4,1,0,90,0,1
231591,-86.9565217391304,4,1,0,90,0,1
231648,-86.3373701809718,4,1,0,90,0,1
231705,-85.7268998152585,4,1,0,90,0,1
231761,-85.1250742716273,4,1,0,90,0,1
231847,-84.2379790297975,4,1,0,90,0,1
231932,-83.3691125774812,4,1,0,90,0,1
232019,-82.7998264515638,4,1,0,90,0,1
232102,-81.6841974568442,4,1,0,90,0,1
232273,-78.7401574803149,4,1,0,90,0,1
232443,-86.9565217391304,4,1,0,90,0,1
234659,-86.9565217391304,4,1,0,90,0,1
234746,-86.4290788907346,4,1,0,90,0,1
234830,-85.39323156168,4,1,0,90,0,1
234915,-84.6325129339638,4,1,0,90,0,1
235000,-83.8852282307347,4,1,0,90,0,1
235170,-82.4294939323649,4,1,0,90,0,1
235256,-81.7204441669581,4,1,0,90,0,1
235341,-81.0234230613728,4,1,0,90,0,1
235511,-79.6645802513099,4,1,0,90,0,1
235682,-78.3505025401233,4,1,0,90,0,1
235767,-77.7096178085577,4,1,0,90,0,1
235852,-77.079132520611,4,1,0,90,0,1
235937,-76.4587371310388,4,1,0,90,0,1
236023,-75.8483064210901,4,1,0,90,0,1
236108,-75.247545613181,4,1,0,90,0,1
236193,-74.6561710044391,4,1,0,90,0,1
236364,-71.4285714285714,4,1,0,100,0,1
236449,-73.5294117647059,4,1,0,100,0,1
236534,-75.7575757575758,4,1,0,100,0,1
236619,-78.125,4,1,0,100,0,1
236705,-70.4225352112676,4,1,0,100,0,1
236790,-72.463768115942,4,1,0,100,0,1
236875,-74.6268656716418,4,1,0,100,0,1
236960,-76.9230769230769,4,1,0,100,0,1
237045,-69.4444444444444,4,1,0,100,0,1
237131,-71.4285714285714,4,1,0,100,0,1
237216,-73.5294117647059,4,1,0,100,0,1
237301,-75.7575757575758,4,1,0,100,0,1
237386,-67.5675675675676,4,1,0,100,0,1
237443,-66.2251655629139,4,1,0,100,0,1
237500,-64.9350649350649,4,1,0,100,0,1
237557,-63.6942675159236,4,1,0,100,0,1
237644,-62.5,4,1,0,100,0,1
237729,-55.5555555555556,4,1,0,100,0,1
237731,-55.5555555555556,4,1,0,100,0,0
237760,340.909090909091,4,1,0,100,1,8
237812,-133.333333333333,4,1,0,50,0,0

[HitObjects]
256,192,459,5,0,0:0:0:0:
256,192,799,1,8,0:0:0:0:
256,192,970,1,0,0:0:0:0:
256,192,1140,1,8,0:0:0:0:
256,192,1311,1,8,0:0:0:0:
256,192,1481,1,0,0:0:0:0:
256,192,1652,1,0,0:0:0:0:
256,192,1822,1,8,0:0:0:0:
256,192,1993,1,8,0:0:0:0:
256,192,2163,1,0,0:0:0:0:
256,192,2334,1,0,0:0:0:0:
256,192,2504,1,8,0:0:0:0:
256,192,2674,1,0,0:0:0:0:
256,192,2845,1,8,0:0:0:0:
256,192,3015,1,0,0:0:0:0:
256,192,3186,1,0,0:0:0:0:
256,192,3527,1,0,0:0:0:0:
256,192,3697,1,8,0:0:0:0:
256,192,3868,1,0,0:0:0:0:
256,192,4038,1,8,0:0:0:0:
256,192,4209,1,8,0:0:0:0:
256,192,4379,1,0,0:0:0:0:
256,192,4549,1,8,0:0:0:0:
256,192,4720,1,0,0:0:0:0:
256,192,4890,1,0,0:0:0:0:
256,192,5061,1,8,0:0:0:0:
256,192,5231,1,8,0:0:0:0:
256,192,5402,1,0,0:0:0:0:
256,192,5572,1,8,0:0:0:0:
256,192,5743,1,0,0:0:0:0:
256,192,5913,1,0,0:0:0:0:
256,192,6254,1,8,0:0:0:0:
256,192,6424,1,8,0:0:0:0:
256,192,6595,1,0,0:0:0:0:
256,192,6765,1,0,0:0:0:0:
256,192,6936,1,8,0:0:0:0:
256,192,7106,1,0,0:0:0:0:
256,192,7277,1,8,0:0:0:0:
256,192,7447,1,8,0:0:0:0:
256,192,7618,1,0,0:0:0:0:
256,192,7788,1,0,0:0:0:0:
256,192,7959,1,8,0:0:0:0:
256,192,8129,1,0,0:0:0:0:
256,192,8299,1,0,0:0:0:0:
256,192,8470,1,8,0:0:0:0:
256,192,8640,1,0,0:0:0:0:
256,192,8981,1,8,0:0:0:0:
256,192,9152,1,8,0:0:0:0:
256,192,9322,1,0,0:0:0:0:
256,192,9493,1,0,0:0:0:0:
256,192,9663,1,8,0:0:0:0:
256,192,9834,1,0,0:0:0:0:
256,192,10004,1,8,0:0:0:0:
256,192,10174,1,8,0:0:0:0:
256,192,10345,1,0,0:0:0:0:
256,192,10515,1,0,0:0:0:0:
256,192,10686,1,8,0:0:0:0:
256,192,10856,1,0,0:0:0:0:
256,192,11027,1,8,0:0:0:0:
256,192,11197,1,8,0:0:0:0:
256,192,11368,1,4,0:0:0:0:
256,192,11538,1,0,0:0:0:0:
256,192,11709,1,8,0:0:0:0:
256,192,11879,1,8,0:0:0:0:
256,192,12049,1,8,0:0:0:0:
256,192,12220,1,0,0:0:0:0:
256,192,12390,1,0,0:0:0:0:
256,192,12731,1,8,0:0:0:0:
256,192,12902,1,0,0:0:0:0:
256,192,13072,1,8,0:0:0:0:
256,192,13243,1,8,0:0:0:0:
256,192,13413,1,8,0:0:0:0:
256,192,13584,1,0,0:0:0:0:
256,192,13754,1,8,0:0:0:0:
256,192,14095,1,8,0:0:0:0:
256,192,14265,1,0,0:0:0:0:
256,192,14436,1,8,0:0:0:0:
256,192,14606,1,8,0:0:0:0:
256,192,14777,1,8,0:0:0:0:
256,192,14947,1,0,0:0:0:0:
256,192,15118,1,8,0:0:0:0:
256,192,15288,1,0,0:0:0:0:
256,192,15459,1,0,0:0:0:0:
256,192,15799,1,8,0:0:0:0:
256,192,15970,1,0,0:0:0:0:
256,192,16140,1,8,0:0:0:0:
256,192,16311,1,8,0:0:0:0:
256,192,16481,1,0,0:0:0:0:
256,192,16822,5,8,0:0:0:0:
256,192,16993,1,0,0:0:0:0:
256,192,17163,1,8,0:0:0:0:
256,192,17334,1,8,0:0:0:0:
256,192,17504,1,0,0:0:0:0:
256,192,17674,1,0,0:0:0:0:
256,192,17845,1,8,0:0:0:0:
256,192,18015,1,0,0:0:0:0:
256,192,18101,1,0,0:0:0:0:
256,192,18186,1,8,0:0:0:0:
256,192,18356,1,0,0:0:0:0:
256,192,18527,1,8,0:0:0:0:
256,192,18697,1,0,0:0:0:0:
256,192,18868,1,8,0:0:0:0:
256,192,19038,1,0,0:0:0:0:
256,192,19209,1,8,0:0:0:0:
256,192,19379,1,0,0:0:0:0:
256,192,19549,1,8,0:0:0:0:
256,192,19635,1,0,0:0:0:0:
256,192,19720,1,8,0:0:0:0:
256,192,19805,1,0,0:0:0:0:
256,192,19890,1,8,0:0:0:0:
256,192,19976,1,8,0:0:0:0:
256,192,20061,1,0,0:0:0:0:
256,192,20146,1,0,0:0:0:0:
256,192,20231,1,8,0:0:0:0:
256,192,20316,1,0,0:0:0:0:
256,192,20402,1,8,0:0:0:0:
256,192,20487,1,0,0:0:0:0:
256,192,20572,1,8,0:0:0:0:
256,192,20657,1,8,0:0:0:0:
256,192,20743,1,0,0:0:0:0:
256,192,20828,1,0,0:0:0:0:
256,192,20913,5,8,0:0:0:0:
256,192,20970,1,8,0:0:0:0:
256,192,21027,1,8,0:0:0:0:
256,192,21084,1,0,0:0:0:0:
256,192,21254,1,8,0:0:0:0:
256,192,21424,1,8,0:0:0:0:
256,192,21481,1,0,0:0:0:0:
256,192,21538,1,0,0:0:0:0:
256,192,21595,1,0,0:0:0:0:
256,192,21851,1,8,0:0:0:0:
256,192,21936,1,0,0:0:0:0:
256,192,22618,1,0,0:0:0:0:
256,192,22959,1,12,0:0:0:0:
256,192,23214,1,12,0:0:0:0:
256,192,23470,1,12,0:0:0:0:
256,192,23640,1,4,0:0:0:0:
256,192,23896,1,4,0:0:0:0:
256,192,24152,1,4,0:0:0:0:
256,192,24663,1,0,0:0:0:0:
256,192,24748,1,0,0:0:0:0:
256,192,24834,1,8,0:0:0:0:
256,192,25004,1,12,0:0:0:0:
256,192,25174,1,0,0:0:0:0:
256,192,25260,1,0,0:0:0:0:
256,192,25345,1,8,0:0:0:0:
256,192,25515,1,0,0:0:0:0:
256,192,25686,1,8,0:0:0:0:
256,192,25771,1,0,0:0:0:0:
256,192,25856,1,0,0:0:0:0:
256,192,25941,1,8,0:0:0:0:
256,192,26027,1,0,0:0:0:0:
256,192,26112,1,8,0:0:0:0:
256,192,26197,1,8,0:0:0:0:
256,192,26282,1,0,0:0:0:0:
256,192,26368,1,8,0:0:0:0:
256,192,26538,1,0,0:0:0:0:
256,192,26709,1,8,0:0:0:0:
256,192,26879,1,0,0:0:0:0:
256,192,26964,1,0,0:0:0:0:
256,192,27049,1,8,0:0:0:0:
256,192,27135,1,8,0:0:0:0:
256,192,27220,1,0,0:0:0:0:
256,192,27305,1,8,0:0:0:0:
256,192,27390,1,0,0:0:0:0:
256,192,27476,1,0,0:0:0:0:
256,192,27561,1,8,0:0:0:0:
256,192,27731,1,12,0:0:0:0:
256,192,27902,1,0,0:0:0:0:
256,192,28072,1,8,0:0:0:0:
256,192,28157,1,8,0:0:0:0:
256,192,28243,1,0,0:0:0:0:
256,192,28413,1,8,0:0:0:0:
256,192,28584,1,0,0:0:0:0:
256,192,28669,1,8,0:0:0:0:
256,192,28839,1,8,0:0:0:0:
256,192,28924,1,0,0:0:0:0:
256,192,29095,1,8,0:0:0:0:
256,192,29180,1,8,0:0:0:0:
256,192,29265,1,0,0:0:0:0:
256,192,29351,1,0,0:0:0:0:
256,192,29436,1,8,0:0:0:0:
256,192,29606,1,0,0:0:0:0:
256,192,29691,1,8,0:0:0:0:
256,192,29777,1,8,0:0:0:0:
256,192,29862,1,0,0:0:0:0:
256,192,29947,1,0,0:0:0:0:
256,192,30032,1,8,0:0:0:0:
256,192,30118,1,0,0:0:0:0:
256,192,30203,1,0,0:0:0:0:
256,192,30288,1,8,0:0:0:0:
256,192,30459,1,8,0:0:0:0:
256,192,30629,1,0,0:0:0:0:
256,192,30799,1,8,0:0:0:0:
256,192,30970,1,0,0:0:0:0:
256,192,31055,1,0,0:0:0:0:
256,192,31140,1,8,0:0:0:0:
256,192,31311,1,0,0:0:0:0:
256,192,31396,1,8,0:0:0:0:
256,192,31566,1,8,0:0:0:0:
256,192,31652,1,0,0:0:0:0:
256,192,31822,5,12,0:0:0:0:
256,192,31993,1,0,0:0:0:0:
256,192,32163,1,12,0:0:0:0:
256,192,32334,1,0,0:0:0:0:
256,192,32504,1,12,0:0:0:0:
256,192,32674,1,0,0:0:0:0:
256,192,32845,1,12,0:0:0:0:
256,192,33015,1,0,0:0:0:0:
256,192,33101,1,0,0:0:0:0:
256,192,33186,1,8,0:0:0:0:
256,192,33271,1,0,0:0:0:0:
256,192,33356,1,0,0:0:0:0:
256,192,33441,1,8,0:0:0:0:
256,192,33868,1,12,0:0:0:0:
256,192,34123,1,12,0:0:0:0:
256,192,34379,1,12,0:0:0:0:
256,192,34549,1,4,0:0:0:0:
256,192,34720,1,8,0:0:0:0:
256,192,34805,1,8,0:0:0:0:
256,192,34890,1,0,0:0:0:0:
256,192,35061,1,0,0:0:0:0:
256,192,35231,1,8,0:0:0:0:
256,192,35316,1,0,0:0:0:0:
256,192,35402,1,0,0:0:0:0:
256,192,35487,1,8,0:0:0:0:
256,192,35572,1,8,0:0:0:0:
256,192,35657,1,0,0:0:0:0:
256,192,35743,1,8,0:0:0:0:
256,192,35828,1,0,0:0:0:0:
256,192,35913,1,8,0:0:0:0:
256,192,36084,1,0,0:0:0:0:
256,192,36254,1,8,0:0:0:0:
256,192,36424,1,0,0:0:0:0:
256,192,36510,1,0,0:0:0:0:
256,192,36595,1,8,0:0:0:0:
256,192,36765,1,0,0:0:0:0:
256,192,36851,1,8,0:0:0:0:
256,192,37021,1,8,0:0:0:0:
256,192,37106,1,0,0:0:0:0:
256,192,37191,1,0,0:0:0:0:
256,192,37277,5,8,0:0:0:0:
256,192,37447,1,8,0:0:0:0:
256,192,37618,1,0,0:0:0:0:
256,192,37703,1,0,0:0:0:0:
256,192,37788,1,8,0:0:0:0:
256,192,37873,1,0,0:0:0:0:
256,192,37959,1,8,0:0:0:0:
256,192,38015,1,8,0:0:0:0:
256,192,38072,1,8,0:0:0:0:
256,192,38129,1,0,0:0:0:0:
256,192,38214,1,8,0:0:0:0:
256,192,38299,1,8,0:0:0:0:
256,192,38385,1,0,0:0:0:0:
256,192,38470,1,8,0:0:0:0:
256,192,38640,1,12,0:0:0:0:
256,192,38811,1,0,0:0:0:0:
256,192,38896,1,8,0:0:0:0:
256,192,38981,1,0,0:0:0:0:
256,192,39152,1,8,0:0:0:0:
256,192,39237,1,0,0:0:0:0:
256,192,39322,1,8,0:0:0:0:
256,192,39493,1,0,0:0:0:0:
256,192,39578,1,8,0:0:0:0:
256,192,39748,1,8,0:0:0:0:
256,192,39834,1,0,0:0:0:0:
256,192,40004,1,0,0:0:0:0:
256,192,40089,1,8,0:0:0:0:
256,192,40174,1,8,0:0:0:0:
256,192,40260,1,0,0:0:0:0:
256,192,40345,1,8,0:0:0:0:
256,192,40430,1,8,0:0:0:0:
256,192,40515,1,0,0:0:0:0:
256,192,40601,1,0,0:0:0:0:
256,192,40686,1,8,0:0:0:0:
256,192,40856,1,0,0:0:0:0:
256,192,40941,1,8,0:0:0:0:
256,192,41027,1,0,0:0:0:0:
256,192,41112,1,0,0:0:0:0:
256,192,41197,1,8,0:0:0:0:
256,192,41368,1,8,0:0:0:0:
256,192,41538,1,0,0:0:0:0:
256,192,41623,1,0,0:0:0:0:
256,192,41709,1,8,0:0:0:0:
256,192,41879,1,0,0:0:0:0:
256,192,42049,1,8,0:0:0:0:
256,192,42135,1,8,0:0:0:0:
256,192,42220,1,0,0:0:0:0:
256,192,42305,1,0,0:0:0:0:
256,192,42390,1,8,0:0:0:0:
256,192,42561,1,0,0:0:0:0:
256,192,42731,5,8,0:0:0:0:
256,192,42816,1,0,0:0:0:0:
256,192,42902,1,8,0:0:0:0:
256,192,42987,1,8,0:0:0:0:
256,192,43072,1,0,0:0:0:0:
256,192,43157,1,8,0:0:0:0:
256,192,43243,1,0,0:0:0:0:
256,192,43328,1,0,0:0:0:0:
256,192,43413,1,8,0:0:0:0:
256,192,43498,1,0,0:0:0:0:
256,192,43584,1,8,0:0:0:0:
256,192,43669,1,8,0:0:0:0:
256,192,43754,1,0,0:0:0:0:
256,192,43839,1,8,0:0:0:0:
256,192,43924,1,0,0:0:0:0:
256,192,44010,1,0,0:0:0:0:
256,192,46481,1,8,0:0:0:0:
256,192,46822,1,12,0:0:0:0:
256,192,46993,1,0,0:0:0:0:
256,192,47078,1,8,0:0:0:0:
256,192,47248,1,8,0:0:0:0:
256,192,47334,1,0,0:0:0:0:
256,192,47504,1,8,0:0:0:0:
256,192,47674,1,0,0:0:0:0:
256,192,47760,1,8,0:0:0:0:
256,192,47930,1,8,0:0:0:0:
256,192,48015,1,0,0:0:0:0:
256,192,48186,1,8,0:0:0:0:
256,192,48527,1,8,0:0:0:0:
256,192,48868,1,0,0:0:0:0:
256,192,49209,1,0,0:0:0:0:
256,192,49549,1,8,0:0:0:0:
256,192,49805,1,8,0:0:0:0:
256,192,49976,1,0,0:0:0:0:
256,192,50061,1,8,0:0:0:0:
256,192,50231,1,8,0:0:0:0:
256,192,50402,1,8,0:0:0:0:
256,192,50487,1,0,0:0:0:0:
256,192,50657,1,0,0:0:0:0:
256,192,50743,1,8,0:0:0:0:
256,192,50913,1,0,0:0:0:0:
256,192,51084,1,0,0:0:0:0:
256,192,51169,1,0,0:0:0:0:
256,192,51339,1,0,0:0:0:0:
256,192,51424,1,0,0:0:0:0:
256,192,51595,1,8,0:0:0:0:
256,192,51765,1,0,0:0:0:0:
256,192,51851,1,8,0:0:0:0:
256,192,52021,1,8,0:0:0:0:
256,192,52106,1,0,0:0:0:0:
256,192,52277,1,8,0:0:0:0:
256,192,52447,1,0,0:0:0:0:
256,192,52532,1,8,0:0:0:0:
256,192,52703,1,0,0:0:0:0:
256,192,52788,1,8,0:0:0:0:
256,192,52959,1,8,0:0:0:0:
256,192,53129,1,8,0:0:0:0:
256,192,53214,1,0,0:0:0:0:
256,192,53385,1,8,0:0:0:0:
256,192,53470,1,0,0:0:0:0:
256,192,53640,1,8,0:0:0:0:
256,192,53811,1,0,0:0:0:0:
256,192,53868,1,0,0:0:0:0:
256,192,53924,1,0,0:0:0:0:
256,192,53981,1,8,0:0:0:0:
256,192,54152,1,0,0:0:0:0:
256,192,54237,1,8,0:0:0:0:
256,192,54322,1,0,0:0:0:0:
256,192,54493,1,8,0:0:0:0:
256,192,54549,1,8,0:0:0:0:
256,192,54606,1,8,0:0:0:0:
256,192,54663,1,0,0:0:0:0:
256,192,54834,1,8,0:0:0:0:
256,192,54919,1,0,0:0:0:0:
256,192,55260,1,4,0:0:0:0:
256,192,55430,1,8,0:0:0:0:
256,192,55515,1,0,0:0:0:0:
256,192,55686,1,8,0:0:0:0:
256,192,55771,1,0,0:0:0:0:
256,192,55856,1,0,0:0:0:0:
256,192,55941,1,8,0:0:0:0:
256,192,56112,1,0,0:0:0:0:
256,192,56197,1,8,0:0:0:0:
256,192,56282,1,8,0:0:0:0:
256,192,56368,1,0,0:0:0:0:
256,192,56538,1,0,0:0:0:0:
256,192,56623,1,8,0:0:0:0:
256,192,56794,1,0,0:0:0:0:
256,192,56879,1,8,0:0:0:0:
256,192,56964,1,0,0:0:0:0:
256,192,57049,1,8,0:0:0:0:
256,192,57135,1,8,0:0:0:0:
256,192,57220,1,0,0:0:0:0:
256,192,57305,1,8,0:0:0:0:
256,192,57476,1,0,0:0:0:0:
256,192,57561,1,8,0:0:0:0:
256,192,57646,1,0,0:0:0:0:
256,192,57731,1,8,0:0:0:0:
256,192,57902,1,0,0:0:0:0:
256,192,57987,1,8,0:0:0:0:
256,192,58157,1,8,0:0:0:0:
256,192,58243,1,0,0:0:0:0:
256,192,58413,1,0,0:0:0:0:
256,192,58498,1,0,0:0:0:0:
256,192,58584,1,8,0:0:0:0:
256,192,58669,1,8,0:0:0:0:
256,192,58839,1,0,0:0:0:0:
256,192,58924,1,8,0:0:0:0:
256,192,59095,1,8,0:0:0:0:
256,192,59265,1,0,0:0:0:0:
256,192,59436,1,8,0:0:0:0:
256,192,59521,1,8,0:0:0:0:
256,192,59606,1,0,0:0:0:0:
256,192,59777,1,8,0:0:0:0:
256,192,59947,1,0,0:0:0:0:
256,192,60118,1,0,0:0:0:0:
256,192,60203,1,8,0:0:0:0:
256,192,60288,1,8,0:0:0:0:
256,192,60373,1,0,0:0:0:0:
256,192,60799,1,12,0:0:0:0:
256,192,61481,1,12,0:0:0:0:
256,192,62078,1,4,0:0:0:0:
256,192,62334,1,4,0:0:0:0:
256,192,62674,1,0,0:0:0:0:
256,192,62760,1,8,0:0:0:0:
256,192,62802,1,8,0:0:0:0:
256,192,62845,1,8,0:0:0:0:
256,192,62930,1,0,0:0:0:0:
256,192,63015,1,8,0:0:0:0:
256,192,63101,1,8,0:0:0:0:
256,192,63186,1,4,0:0:0:0:
256,192,63356,1,8,0:0:0:0:
256,192,63441,1,0,0:0:0:0:
256,192,63612,1,8,0:0:0:0:
256,192,63697,1,0,0:0:0:0:
256,192,63868,1,0,0:0:0:0:
256,192,64038,1,0,0:0:0:0:
256,192,64123,1,8,0:0:0:0:
256,192,64294,1,0,0:0:0:0:
256,192,64379,1,8,0:0:0:0:
256,192,64464,1,8,0:0:0:0:
256,192,64549,1,0,0:0:0:0:
256,192,64635,1,0,0:0:0:0:
256,192,64720,1,8,0:0:0:0:
256,192,64777,1,8,0:0:0:0:
256,192,64834,1,8,0:0:0:0:
256,192,64890,1,0,0:0:0:0:
256,192,64976,1,0,0:0:0:0:
256,192,65061,1,8,0:0:0:0:
256,192,65146,1,0,0:0:0:0:
256,192,65231,1,8,0:0:0:0:
256,192,65316,1,8,0:0:0:0:
256,192,65402,1,0,0:0:0:0:
256,192,65487,1,8,0:0:0:0:
256,192,65572,1,0,0:0:0:0:
256,192,65657,1,0,0:0:0:0:
256,192,65743,1,8,0:0:0:0:
256,192,65799,1,0,0:0:0:0:
256,192,65856,1,0,0:0:0:0:
256,192,65913,1,8,0:0:0:0:
256,192,76822,5,0,0:0:0:0:
256,192,76992,1,0,0:0:0:0:
256,192,77163,1,8,0:0:0:0:
256,192,77334,1,8,0:0:0:0:
256,192,77503,1,8,0:0:0:0:
256,192,77674,1,0,0:0:0:0:
256,192,77844,1,0,0:0:0:0:
256,192,78185,1,8,0:0:0:0:
256,192,78356,1,0,0:0:0:0:
256,192,78526,1,8,0:0:0:0:
256,192,78697,1,8,0:0:0:0:
256,192,78867,1,8,0:0:0:0:
256,192,79038,1,0,0:0:0:0:
256,192,79208,1,8,0:0:0:0:
256,192,79549,1,8,0:0:0:0:
256,192,79719,1,0,0:0:0:0:
256,192,79890,1,8,0:0:0:0:
256,192,80060,1,8,0:0:0:0:
256,192,80231,1,8,0:0:0:0:
256,192,80401,1,0,0:0:0:0:
256,192,80572,1,8,0:0:0:0:
256,192,80742,1,0,0:0:0:0:
256,192,80913,1,0,0:0:0:0:
256,192,81253,1,8,0:0:0:0:
256,192,81424,1,0,0:0:0:0:
256,192,81594,1,8,0:0:0:0:
256,192,81765,1,8,0:0:0:0:
256,192,81935,1,0,0:0:0:0:
256,192,82276,1,8,0:0:0:0:
256,192,82447,1,0,0:0:0:0:
256,192,82617,1,8,0:0:0:0:
256,192,82788,1,8,0:0:0:0:
256,192,82958,1,0,0:0:0:0:
256,192,83128,1,0,0:0:0:0:
256,192,83299,1,8,0:0:0:0:
256,192,83469,1,0,0:0:0:0:
256,192,83640,1,8,0:0:0:0:
256,192,83810,1,0,0:0:0:0:
256,192,83981,1,8,0:0:0:0:
256,192,84151,1,8,0:0:0:0:
256,192,84322,1,0,0:0:0:0:
256,192,84492,1,0,0:0:0:0:
256,192,84663,1,8,0:0:0:0:
256,192,84833,1,0,0:0:0:0:
256,192,85003,5,8,0:0:0:0:
256,192,85089,1,0,0:0:0:0:
256,192,85174,1,8,0:0:0:0:
256,192,85259,1,0,0:0:0:0:
256,192,85344,1,8,0:0:0:0:
256,192,85430,1,8,0:0:0:0:
256,192,85515,1,0,0:0:0:0:
256,192,85600,1,0,0:0:0:0:
256,192,85685,1,8,0:0:0:0:
256,192,85770,1,0,0:0:0:0:
256,192,85856,1,8,0:0:0:0:
256,192,85941,1,0,0:0:0:0:
256,192,86026,1,8,0:0:0:0:
256,192,86111,1,8,0:0:0:0:
256,192,86197,1,0,0:0:0:0:
256,192,86282,1,0,0:0:0:0:
256,192,86367,5,8,0:0:0:0:
256,192,86538,1,0,0:0:0:0:
256,192,86708,1,8,0:0:0:0:
256,192,86794,1,0,0:0:0:0:
256,192,86878,1,0,0:0:0:0:
256,192,87049,1,8,0:0:0:0:
256,192,87390,1,8,0:0:0:0:
256,192,87561,1,0,0:0:0:0:
256,192,87816,1,0,0:0:0:0:
256,192,87859,1,0,0:0:0:0:
256,192,88072,1,4,0:0:0:0:
256,192,88413,1,0,0:0:0:0:
256,192,88584,1,8,0:0:0:0:
256,192,88754,1,8,0:0:0:0:
256,192,88839,1,8,0:0:0:0:
256,192,88924,1,0,0:0:0:0:
256,192,89095,1,8,0:0:0:0:
256,192,89265,1,0,0:0:0:0:
256,192,89351,1,0,0:0:0:0:
256,192,89436,1,8,0:0:0:0:
256,192,89606,1,0,0:0:0:0:
256,192,89777,1,0,0:0:0:0:
256,192,89862,1,8,0:0:0:0:
256,192,89947,1,0,0:0:0:0:
256,192,90032,1,0,0:0:0:0:
256,192,90118,1,8,0:0:0:0:
256,192,90203,1,0,0:0:0:0:
256,192,90288,1,8,0:0:0:0:
256,192,90373,1,8,0:0:0:0:
256,192,90459,1,0,0:0:0:0:
256,192,90629,1,0,0:0:0:0:
256,192,90799,1,8,0:0:0:0:
256,192,90885,1,0,0:0:0:0:
256,192,90970,1,0,0:0:0:0:
256,192,91140,1,0,0:0:0:0:
256,192,91226,1,8,0:0:0:0:
256,192,91311,1,0,0:0:0:0:
256,192,91396,1,0,0:0:0:0:
256,192,91481,1,8,0:0:0:0:
256,192,91652,1,8,0:0:0:0:
256,192,91822,5,0,0:0:0:0:
256,192,91993,1,0,0:0:0:0:
256,192,92078,1,0,0:0:0:0:
256,192,92163,1,8,0:0:0:0:
256,192,92334,1,0,0:0:0:0:
256,192,92504,1,8,0:0:0:0:
256,192,92589,1,8,0:0:0:0:
256,192,92674,1,0,0:0:0:0:
256,192,92845,1,8,0:0:0:0:
256,192,93015,1,0,0:0:0:0:
256,192,93186,1,12,0:0:0:0:
256,192,93441,1,12,0:0:0:0:
256,192,93697,1,12,0:0:0:0:
256,192,93868,1,4,0:0:0:0:
256,192,94038,1,0,0:0:0:0:
256,192,94123,1,0,0:0:0:0:
256,192,94209,1,8,0:0:0:0:
256,192,94294,1,8,0:0:0:0:
256,192,94379,1,0,0:0:0:0:
256,192,94549,1,8,0:0:0:0:
256,192,94635,1,0,0:0:0:0:
256,192,94720,1,8,0:0:0:0:
256,192,94890,1,0,0:0:0:0:
256,192,94976,1,8,0:0:0:0:
256,192,95061,1,0,0:0:0:0:
256,192,95146,1,8,0:0:0:0:
256,192,95231,1,8,0:0:0:0:
256,192,95316,1,0,0:0:0:0:
256,192,95402,1,8,0:0:0:0:
256,192,95572,5,0,0:0:0:0:
256,192,95657,1,8,0:0:0:0:
256,192,95743,1,0,0:0:0:0:
256,192,95913,1,12,0:0:0:0:
256,192,96169,5,0,0:0:0:0:
256,192,96254,1,0,0:0:0:0:
256,192,96339,1,8,0:0:0:0:
256,192,96424,1,4,0:0:0:0:
256,192,96680,5,8,0:0:0:0:
256,192,96765,1,8,0:0:0:0:
256,192,96851,1,0,0:0:0:0:
256,192,96936,1,12,0:0:0:0:
256,192,97106,1,0,0:0:0:0:
256,192,97277,1,8,0:0:0:0:
256,192,97618,1,8,0:0:0:0:
256,192,97959,1,8,0:0:0:0:
256,192,98299,1,8,0:0:0:0:
256,192,98640,1,8,0:0:0:0:
256,192,98683,1,8,0:0:0:0:
256,192,98811,1,0,0:0:0:0:
256,192,98981,5,8,0:0:0:0:
256,192,99322,1,8,0:0:0:0:
256,192,99663,1,8,0:0:0:0:
256,192,100004,1,8,0:0:0:0:
256,192,100345,1,8,0:0:0:0:
256,192,100686,1,8,0:0:0:0:
256,192,101027,5,8,0:0:0:0:
256,192,101069,1,0,0:0:0:0:
256,192,101368,1,12,0:0:0:0:
256,192,101538,5,0,0:0:0:0:
256,192,101623,1,8,0:0:0:0:
256,192,101709,1,8,0:0:0:0:
256,192,101794,1,0,0:0:0:0:
256,192,101879,1,8,0:0:0:0:
256,192,101964,1,0,0:0:0:0:
256,192,102049,1,8,0:0:0:0:
256,192,102135,1,0,0:0:0:0:
256,192,102220,1,0,0:0:0:0:
256,192,102305,1,8,0:0:0:0:
256,192,102390,1,8,0:0:0:0:
256,192,102476,1,0,0:0:0:0:
256,192,102561,1,8,0:0:0:0:
256,192,102646,1,0,0:0:0:0:
256,192,102731,5,8,0:0:0:0:
256,192,102816,1,0,0:0:0:0:
256,192,102902,1,0,0:0:0:0:
256,192,102987,1,8,0:0:0:0:
256,192,103072,1,8,0:0:0:0:
256,192,103157,1,0,0:0:0:0:
256,192,103243,1,8,0:0:0:0:
256,192,103328,1,0,0:0:0:0:
256,192,103413,1,8,0:0:0:0:
256,192,103498,1,8,0:0:0:0:
256,192,103584,1,0,0:0:0:0:
256,192,103669,1,0,0:0:0:0:
256,192,103754,1,8,0:0:0:0:
256,192,104095,1,12,0:0:0:0:
256,192,104436,1,8,0:0:0:0:
256,192,104606,5,0,0:0:0:0:
256,192,104691,1,0,0:0:0:0:
256,192,104777,1,8,0:0:0:0:
256,192,104862,1,0,0:0:0:0:
256,192,104947,1,8,0:0:0:0:
256,192,105032,1,8,0:0:0:0:
256,192,105118,1,8,0:0:0:0:
256,192,105203,1,0,0:0:0:0:
256,192,105288,1,8,0:0:0:0:
256,192,105373,1,0,0:0:0:0:
256,192,105459,5,12,0:0:0:0:
256,192,105714,1,12,0:0:0:0:
256,192,105970,1,12,0:0:0:0:
256,192,106226,1,12,0:0:0:0:
256,192,106481,1,12,0:0:0:0:
256,192,106652,1,0,0:0:0:0:
256,192,106822,1,12,0:0:0:0:
256,192,107078,1,12,0:0:0:0:
256,192,107334,1,12,0:0:0:0:
256,192,107589,1,12,0:0:0:0:
256,192,107845,1,12,0:0:0:0:
256,192,108015,1,8,0:0:0:0:
256,192,108186,5,4,0:0:0:0:
256,192,108527,1,8,0:0:0:0:
256,192,108868,1,4,0:0:0:0:
256,192,109209,1,8,0:0:0:0:
256,192,109549,1,4,0:0:0:0:
256,192,109890,1,8,0:0:0:0:
256,192,110231,1,4,0:0:0:0:
256,192,110572,1,8,0:0:0:0:
256,192,110913,1,4,0:0:0:0:
256,192,111254,1,8,0:0:0:0:
256,192,111595,1,4,0:0:0:0:
256,192,111936,1,8,0:0:0:0:
256,192,112021,1,0,0:0:0:0:
256,192,112277,1,4,0:0:0:0:
256,192,112618,1,8,0:0:0:0:
256,192,112959,1,4,0:0:0:0:
256,192,113299,1,8,0:0:0:0:
256,192,113385,1,8,0:0:0:0:
256,192,113640,5,4,0:0:0:0:
256,192,113811,1,0,0:0:0:0:
256,192,113981,1,8,0:0:0:0:
256,192,114152,1,8,0:0:0:0:
256,192,114322,1,0,0:0:0:0:
256,192,114493,1,0,0:0:0:0:
256,192,114663,1,8,0:0:0:0:
256,192,114834,1,8,0:0:0:0:
256,192,115004,1,0,0:0:0:0:
256,192,115174,1,0,0:0:0:0:
256,192,115345,1,8,0:0:0:0:
256,192,115515,1,8,0:0:0:0:
256,192,115686,1,0,0:0:0:0:
256,192,115856,1,0,0:0:0:0:
256,192,116027,1,8,0:0:0:0:
256,192,116197,1,0,0:0:0:0:
256,192,116368,1,8,0:0:0:0:
256,192,116453,1,8,0:0:0:0:
256,192,116538,1,0,0:0:0:0:
256,192,116623,1,0,0:0:0:0:
256,192,116709,1,8,0:0:0:0:
256,192,116794,1,8,0:0:0:0:
256,192,116879,1,0,0:0:0:0:
256,192,116964,1,0,0:0:0:0:
256,192,117049,1,8,0:0:0:0:
256,192,117135,1,8,0:0:0:0:
256,192,117220,1,0,0:0:0:0:
256,192,117305,1,0,0:0:0:0:
256,192,117390,1,8,0:0:0:0:
256,192,117476,1,8,0:0:0:0:
256,192,117561,1,0,0:0:0:0:
256,192,117646,1,0,0:0:0:0:
256,192,117731,1,8,0:0:0:0:
256,192,117902,1,8,0:0:0:0:
256,192,117987,1,8,0:0:0:0:
256,192,118157,1,8,0:0:0:0:
256,192,118243,1,8,0:0:0:0:
256,192,118413,1,8,0:0:0:0:
256,192,118754,1,8,0:0:0:0:
256,192,118839,1,8,0:0:0:0:
256,192,118924,1,0,0:0:0:0:
256,192,119010,1,0,0:0:0:0:
256,192,119095,1,12,0:0:0:0:
256,192,119265,1,0,0:0:0:0:
256,192,119351,1,0,0:0:0:0:
256,192,119436,1,8,0:0:0:0:
256,192,119606,1,0,0:0:0:0:
256,192,119691,1,8,0:0:0:0:
256,192,119777,1,8,0:0:0:0:
256,192,119862,1,0,0:0:0:0:
256,192,119947,1,8,0:0:0:0:
256,192,120118,1,8,0:0:0:0:
256,192,120203,1,0,0:0:0:0:
256,192,120288,1,0,0:0:0:0:
256,192,120459,1,8,0:0:0:0:
256,192,120544,1,0,0:0:0:0:
256,192,120629,1,8,0:0:0:0:
256,192,120714,1,0,0:0:0:0:
256,192,120799,1,8,0:0:0:0:
256,192,120885,1,8,0:0:0:0:
256,192,120970,1,0,0:0:0:0:
256,192,121140,1,8,0:0:0:0:
256,192,121226,1,8,0:0:0:0:
256,192,121311,1,0,0:0:0:0:
256,192,121481,1,8,0:0:0:0:
256,192,121566,1,0,0:0:0:0:
256,192,121652,1,0,0:0:0:0:
256,192,121822,1,8,0:0:0:0:
256,192,121993,1,0,0:0:0:0:
256,192,122163,1,8,0:0:0:0:
256,192,122334,1,0,0:0:0:0:
256,192,122419,1,8,0:0:0:0:
256,192,122504,1,8,0:0:0:0:
256,192,122589,1,0,0:0:0:0:
256,192,122674,1,8,0:0:0:0:
256,192,122845,1,8,0:0:0:0:
256,192,122930,1,0,0:0:0:0:
256,192,123015,1,0,0:0:0:0:
256,192,123186,1,8,0:0:0:0:
256,192,123271,1,8,0:0:0:0:
256,192,123356,1,0,0:0:0:0:
256,192,123441,1,0,0:0:0:0:
256,192,123527,1,8,0:0:0:0:
256,192,123697,1,0,0:0:0:0:
256,192,123868,1,8,0:0:0:0:
256,192,123953,1,0,0:0:0:0:
256,192,124038,1,8,0:0:0:0:
256,192,124123,1,8,0:0:0:0:
256,192,124209,1,0,0:0:0:0:
256,192,124294,1,0,0:0:0:0:
256,192,124379,1,8,0:0:0:0:
256,192,124549,1,8,0:0:0:0:
256,192,124719,1,0,0:0:0:0:
256,192,124805,1,0,0:0:0:0:
256,192,124890,1,8,0:0:0:0:
256,192,125060,1,0,0:0:0:0:
256,192,125145,1,8,0:0:0:0:
256,192,125231,1,8,0:0:0:0:
256,192,125316,1,0,0:0:0:0:
256,192,125401,1,8,0:0:0:0:
256,192,125572,1,8,0:0:0:0:
256,192,125657,1,0,0:0:0:0:
256,192,125742,1,0,0:0:0:0:
256,192,125913,1,8,0:0:0:0:
256,192,125998,1,0,0:0:0:0:
256,192,126083,1,8,0:0:0:0:
256,192,126168,1,0,0:0:0:0:
256,192,126253,1,8,0:0:0:0:
256,192,126339,1,8,0:0:0:0:
256,192,126424,1,0,0:0:0:0:
256,192,126594,1,8,0:0:0:0:
256,192,126680,1,8,0:0:0:0:
256,192,126765,1,0,0:0:0:0:
256,192,126935,1,8,0:0:0:0:
256,192,127020,1,0,0:0:0:0:
256,192,127106,1,0,0:0:0:0:
256,192,127276,1,8,0:0:0:0:
256,192,127447,1,0,0:0:0:0:
256,192,127617,1,8,0:0:0:0:
256,192,127788,1,0,0:0:0:0:
256,192,127873,1,8,0:0:0:0:
256,192,127958,1,8,0:0:0:0:
256,192,128043,1,0,0:0:0:0:
256,192,128128,1,8,0:0:0:0:
256,192,128299,1,8,0:0:0:0:
256,192,128384,1,0,0:0:0:0:
256,192,128469,1,0,0:0:0:0:
256,192,128640,1,8,0:0:0:0:
256,192,128725,1,8,0:0:0:0:
256,192,128810,1,0,0:0:0:0:
256,192,128981,1,8,0:0:0:0:
256,192,129066,1,0,0:0:0:0:
256,192,129152,1,0,0:0:0:0:
256,192,129322,1,8,0:0:0:0:
256,192,129407,1,0,0:0:0:0:
256,192,129493,1,0,0:0:0:0:
256,192,129663,1,8,0:0:0:0:
256,192,129748,1,8,0:0:0:0:
256,192,129834,1,0,0:0:0:0:
256,192,130004,1,8,0:0:0:0:
256,192,130174,1,0,0:0:0:0:
256,192,130260,1,0,0:0:0:0:
256,192,130345,1,8,0:0:0:0:
256,192,130515,1,0,0:0:0:0:
256,192,130600,1,8,0:0:0:0:
256,192,130686,1,8,0:0:0:0:
256,192,130771,1,0,0:0:0:0:
256,192,130856,1,8,0:0:0:0:
256,192,131027,1,8,0:0:0:0:
256,192,131112,1,0,0:0:0:0:
256,192,131197,1,0,0:0:0:0:
256,192,131368,1,8,0:0:0:0:
256,192,131453,1,0,0:0:0:0:
256,192,131538,1,8,0:0:0:0:
256,192,131623,1,0,0:0:0:0:
256,192,131708,1,8,0:0:0:0:
256,192,131794,1,8,0:0:0:0:
256,192,131879,1,0,0:0:0:0:
256,192,132049,1,8,0:0:0:0:
256,192,132135,1,8,0:0:0:0:
256,192,132220,1,0,0:0:0:0:
256,192,132390,1,8,0:0:0:0:
256,192,132475,1,0,0:0:0:0:
256,192,132561,1,0,0:0:0:0:
256,192,132731,1,8,0:0:0:0:
256,192,132902,1,0,0:0:0:0:
256,192,133072,1,8,0:0:0:0:
256,192,133243,1,0,0:0:0:0:
256,192,133328,1,8,0:0:0:0:
256,192,133413,1,8,0:0:0:0:
256,192,133498,1,0,0:0:0:0:
256,192,133583,1,8,0:0:0:0:
256,192,133754,1,8,0:0:0:0:
256,192,133839,1,0,0:0:0:0:
256,192,133924,1,0,0:0:0:0:
256,192,134095,1,8,0:0:0:0:
256,192,134180,1,8,0:0:0:0:
256,192,134265,1,0,0:0:0:0:
256,192,134350,1,0,0:0:0:0:
256,192,134436,1,8,0:0:0:0:
256,192,134606,1,0,0:0:0:0:
256,192,134777,1,8,0:0:0:0:
256,192,134862,1,0,0:0:0:0:
256,192,134947,1,8,0:0:0:0:
256,192,135032,1,8,0:0:0:0:
256,192,135118,1,0,0:0:0:0:
256,192,135203,1,0,0:0:0:0:
256,192,135288,1,8,0:0:0:0:
256,192,135458,1,8,0:0:0:0:
256,192,135628,1,0,0:0:0:0:
256,192,135714,1,0,0:0:0:0:
256,192,135799,1,8,0:0:0:0:
256,192,135969,1,0,0:0:0:0:
256,192,136054,1,8,0:0:0:0:
256,192,136140,1,8,0:0:0:0:
256,192,136225,1,0,0:0:0:0:
256,192,136310,1,8,0:0:0:0:
256,192,136481,1,8,0:0:0:0:
256,192,136566,1,0,0:0:0:0:
256,192,136651,1,0,0:0:0:0:
256,192,136822,1,8,0:0:0:0:
256,192,136907,1,0,0:0:0:0:
256,192,136992,1,8,0:0:0:0:
256,192,137077,1,0,0:0:0:0:
256,192,137162,1,8,0:0:0:0:
256,192,137248,1,8,0:0:0:0:
256,192,137333,1,0,0:0:0:0:
256,192,137503,1,8,0:0:0:0:
256,192,137589,1,8,0:0:0:0:
256,192,137674,1,0,0:0:0:0:
256,192,137844,1,8,0:0:0:0:
256,192,137929,1,0,0:0:0:0:
256,192,138015,1,0,0:0:0:0:
256,192,138185,1,8,0:0:0:0:
256,192,138356,1,0,0:0:0:0:
256,192,138526,1,8,0:0:0:0:
256,192,138697,1,0,0:0:0:0:
256,192,138782,1,8,0:0:0:0:
256,192,138867,1,8,0:0:0:0:
256,192,138952,1,0,0:0:0:0:
256,192,139037,1,8,0:0:0:0:
256,192,139208,1,8,0:0:0:0:
256,192,139293,1,0,0:0:0:0:
256,192,139378,1,0,0:0:0:0:
256,192,139549,1,8,0:0:0:0:
256,192,139634,1,8,0:0:0:0:
256,192,139719,1,0,0:0:0:0:
256,192,139890,1,8,0:0:0:0:
256,192,139975,1,0,0:0:0:0:
256,192,140061,1,0,0:0:0:0:
256,192,140231,1,8,0:0:0:0:
256,192,140316,1,0,0:0:0:0:
256,192,140402,1,0,0:0:0:0:
256,192,140572,1,8,0:0:0:0:
256,192,140657,1,8,0:0:0:0:
256,192,140743,1,0,0:0:0:0:
256,192,140913,1,0,0:0:0:0:
256,192,140998,1,8,0:0:0:0:
256,192,141254,1,12,0:0:0:0:
256,192,141424,1,0,0:0:0:0:
256,192,141510,1,8,0:0:0:0:
256,192,141595,1,8,0:0:0:0:
256,192,141680,1,0,0:0:0:0:
256,192,141765,1,8,0:0:0:0:
256,192,141851,1,0,0:0:0:0:
256,192,141936,1,8,0:0:0:0:
256,192,142021,1,8,0:0:0:0:
256,192,142106,1,0,0:0:0:0:
256,192,142277,1,8,0:0:0:0:
256,192,142362,1,8,0:0:0:0:
256,192,142447,1,0,0:0:0:0:
256,192,142532,1,0,0:0:0:0:
256,192,142618,1,8,0:0:0:0:
256,192,142788,1,0,0:0:0:0:
256,192,142959,1,8,0:0:0:0:
256,192,143044,1,8,0:0:0:0:
256,192,143129,1,0,0:0:0:0:
256,192,143214,1,0,0:0:0:0:
256,192,143299,1,8,0:0:0:0:
256,192,143385,1,0,0:0:0:0:
256,192,143470,1,0,0:0:0:0:
256,192,143555,1,0,0:0:0:0:
256,192,143640,1,8,0:0:0:0:
256,192,143811,1,0,0:0:0:0:
256,192,143981,1,8,0:0:0:0:
256,192,144066,1,8,0:0:0:0:
256,192,144152,1,0,0:0:0:0:
256,192,144237,1,8,0:0:0:0:
256,192,144322,1,0,0:0:0:0:
256,192,144407,1,8,0:0:0:0:
256,192,144493,1,8,0:0:0:0:
256,192,144578,1,0,0:0:0:0:
256,192,144663,1,8,0:0:0:0:
256,192,144834,1,8,0:0:0:0:
256,192,145004,1,0,0:0:0:0:
256,192,145089,1,8,0:0:0:0:
256,192,145174,1,0,0:0:0:0:
256,192,145260,1,0,0:0:0:0:
256,192,145345,1,8,0:0:0:0:
256,192,145515,1,0,0:0:0:0:
256,192,145686,1,8,0:0:0:0:
256,192,145771,1,0,0:0:0:0:
256,192,145856,1,8,0:0:0:0:
256,192,145941,1,8,0:0:0:0:
256,192,146027,1,0,0:0:0:0:
256,192,146112,1,8,0:0:0:0:
256,192,146197,1,0,0:0:0:0:
256,192,146282,1,0,0:0:0:0:
256,192,146368,1,8,0:0:0:0:
256,192,146538,1,0,0:0:0:0:
256,192,146709,1,8,0:0:0:0:
256,192,146879,1,0,0:0:0:0:
256,192,146965,1,8,0:0:0:0:
256,192,147050,1,8,0:0:0:0:
256,192,147135,1,0,0:0:0:0:
256,192,147220,1,8,0:0:0:0:
256,192,147306,1,0,0:0:0:0:
256,192,147391,1,8,0:0:0:0:
256,192,147476,1,8,0:0:0:0:
256,192,147561,1,0,0:0:0:0:
256,192,147732,1,8,0:0:0:0:
256,192,147817,1,8,0:0:0:0:
256,192,147902,1,0,0:0:0:0:
256,192,147987,1,0,0:0:0:0:
256,192,148073,1,8,0:0:0:0:
256,192,148243,1,0,0:0:0:0:
256,192,148414,1,8,0:0:0:0:
256,192,148499,1,8,0:0:0:0:
256,192,148584,1,0,0:0:0:0:
256,192,148669,1,0,0:0:0:0:
256,192,148754,1,8,0:0:0:0:
256,192,148840,1,0,0:0:0:0:
256,192,148925,1,0,0:0:0:0:
256,192,149010,1,0,0:0:0:0:
256,192,149095,1,8,0:0:0:0:
256,192,149266,1,0,0:0:0:0:
256,192,149436,1,8,0:0:0:0:
256,192,149521,1,8,0:0:0:0:
256,192,149607,1,0,0:0:0:0:
256,192,149692,1,8,0:0:0:0:
256,192,149777,1,0,0:0:0:0:
256,192,149862,1,8,0:0:0:0:
256,192,149948,1,8,0:0:0:0:
256,192,150033,1,0,0:0:0:0:
256,192,150118,1,8,0:0:0:0:
256,192,150289,1,8,0:0:0:0:
256,192,150459,1,0,0:0:0:0:
256,192,150544,1,8,0:0:0:0:
256,192,150629,1,0,0:0:0:0:
256,192,150715,1,0,0:0:0:0:
256,192,150800,1,8,0:0:0:0:
256,192,150970,1,0,0:0:0:0:
256,192,151141,1,8,0:0:0:0:
256,192,151226,1,0,0:0:0:0:
256,192,151311,1,8,0:0:0:0:
256,192,151396,1,8,0:0:0:0:
256,192,151482,1,0,0:0:0:0:
256,192,151567,1,8,0:0:0:0:
256,192,151652,1,0,0:0:0:0:
256,192,151737,1,0,0:0:0:0:
256,192,151822,1,12,0:0:0:0:
256,192,151993,1,0,0:0:0:0:
256,192,152163,1,8,0:0:0:0:
256,192,152248,1,8,0:0:0:0:
256,192,152334,1,0,0:0:0:0:
256,192,152419,1,8,0:0:0:0:
256,192,152504,1,0,0:0:0:0:
256,192,152589,1,0,0:0:0:0:
256,192,152674,1,8,0:0:0:0:
256,192,152760,1,0,0:0:0:0:
256,192,152845,1,8,0:0:0:0:
256,192,153015,1,0,0:0:0:0:
256,192,153186,1,8,0:0:0:0:
256,192,153271,1,0,0:0:0:0:
256,192,153356,1,8,0:0:0:0:
256,192,153441,1,0,0:0:0:0:
256,192,153527,1,8,0:0:0:0:
256,192,153612,1,8,0:0:0:0:
256,192,153697,1,0,0:0:0:0:
256,192,153782,1,0,0:0:0:0:
256,192,153868,1,8,0:0:0:0:
256,192,153953,1,8,0:0:0:0:
256,192,154038,1,8,0:0:0:0:
256,192,154123,1,0,0:0:0:0:
256,192,154209,1,8,0:0:0:0:
256,192,154294,1,0,0:0:0:0:
256,192,154379,1,0,0:0:0:0:
256,192,154464,1,0,0:0:0:0:
256,192,154549,1,8,0:0:0:0:
256,192,154720,1,0,0:0:0:0:
256,192,154890,1,8,0:0:0:0:
256,192,154976,1,0,0:0:0:0:
256,192,155061,1,0,0:0:0:0:
256,192,155146,1,8,0:0:0:0:
256,192,155231,1,8,0:0:0:0:
256,192,155316,1,0,0:0:0:0:
256,192,155402,1,8,0:0:0:0:
256,192,155487,1,0,0:0:0:0:
256,192,155572,1,8,0:0:0:0:
256,192,155657,1,8,0:0:0:0:
256,192,155743,1,0,0:0:0:0:
256,192,155828,1,0,0:0:0:0:
256,192,155913,1,8,0:0:0:0:
256,192,156084,1,0,0:0:0:0:
256,192,156254,1,8,0:0:0:0:
256,192,156339,1,8,0:0:0:0:
256,192,156424,1,0,0:0:0:0:
256,192,156510,1,0,0:0:0:0:
256,192,156595,1,8,0:0:0:0:
256,192,156680,1,0,0:0:0:0:
256,192,156765,1,8,0:0:0:0:
256,192,156851,1,0,0:0:0:0:
256,192,156936,1,8,0:0:0:0:
256,192,157021,1,8,0:0:0:0:
256,192,157106,1,0,0:0:0:0:
256,192,157191,1,0,0:0:0:0:
256,192,157277,1,8,0:0:0:0:
256,192,157447,1,0,0:0:0:0:
256,192,157618,1,8,0:0:0:0:
256,192,157703,1,8,0:0:0:0:
256,192,157788,1,0,0:0:0:0:
256,192,157873,1,0,0:0:0:0:
256,192,157959,1,8,0:0:0:0:
256,192,158044,1,0,0:0:0:0:
256,192,158129,1,8,0:0:0:0:
256,192,158214,1,0,0:0:0:0:
256,192,158299,1,8,0:0:0:0:
256,192,158385,1,8,0:0:0:0:
256,192,158470,1,0,0:0:0:0:
256,192,158555,1,0,0:0:0:0:
256,192,158640,1,8,0:0:0:0:
256,192,158811,1,0,0:0:0:0:
256,192,158981,1,8,0:0:0:0:
256,192,159066,1,0,0:0:0:0:
256,192,159152,1,0,0:0:0:0:
256,192,159237,1,0,0:0:0:0:
256,192,159322,1,8,0:0:0:0:
256,192,159407,1,8,0:0:0:0:
256,192,159493,1,8,0:0:0:0:
256,192,159578,1,0,0:0:0:0:
256,192,159663,1,8,0:0:0:0:
256,192,159748,1,8,0:0:0:0:
256,192,159834,1,0,0:0:0:0:
256,192,159919,1,0,0:0:0:0:
256,192,160004,1,8,0:0:0:0:
256,192,160174,1,0,0:0:0:0:
256,192,160345,1,8,0:0:0:0:
256,192,160430,1,8,0:0:0:0:
256,192,160515,1,0,0:0:0:0:
256,192,160601,1,8,0:0:0:0:
256,192,160686,1,8,0:0:0:0:
256,192,160771,1,0,0:0:0:0:
256,192,160856,1,8,0:0:0:0:
256,192,160941,1,0,0:0:0:0:
256,192,161027,1,8,0:0:0:0:
256,192,161112,1,8,0:0:0:0:
256,192,161197,1,0,0:0:0:0:
256,192,161282,1,0,0:0:0:0:
256,192,161368,1,8,0:0:0:0:
256,192,161538,1,0,0:0:0:0:
256,192,161623,1,8,0:0:0:0:
256,192,161794,1,8,0:0:0:0:
256,192,161879,1,0,0:0:0:0:
256,192,162049,1,0,0:0:0:0:
256,192,162135,1,8,0:0:0:0:
256,192,162305,1,0,0:0:0:0:
256,192,162390,1,8,0:0:0:0:
256,192,162561,1,8,0:0:0:0:
256,192,162731,1,8,0:0:0:0:
256,192,162902,1,0,0:0:0:0:
256,192,162987,1,8,0:0:0:0:
256,192,163157,1,8,0:0:0:0:
256,192,163243,1,0,0:0:0:0:
256,192,163413,1,0,0:0:0:0:
256,192,163498,1,8,0:0:0:0:
256,192,163669,1,0,0:0:0:0:
256,192,163754,1,8,0:0:0:0:
256,192,163924,1,8,0:0:0:0:
256,192,164095,1,4,0:0:0:0:
256,192,164436,1,0,0:0:0:0:
256,192,164606,1,0,0:0:0:0:
256,192,164777,1,8,0:0:0:0:
256,192,164947,1,0,0:0:0:0:
256,192,165032,1,8,0:0:0:0:
256,192,165203,1,0,0:0:0:0:
256,192,165288,1,8,0:0:0:0:
256,192,165459,1,8,0:0:0:0:
256,192,165629,1,0,0:0:0:0:
256,192,165714,1,8,0:0:0:0:
256,192,165885,1,0,0:0:0:0:
256,192,165970,1,8,0:0:0:0:
256,192,166140,1,8,0:0:0:0:
256,192,166481,1,0,0:0:0:0:
256,192,166566,1,8,0:0:0:0:
256,192,166652,1,8,0:0:0:0:
256,192,166737,1,8,0:0:0:0:
256,192,166822,1,0,0:0:0:0:
256,192,166993,1,0,0:0:0:0:
256,192,167163,1,0,0:0:0:0:
256,192,167248,1,8,0:0:0:0:
256,192,167334,1,0,0:0:0:0:
256,192,167419,1,0,0:0:0:0:
256,192,167504,1,8,0:0:0:0:
256,192,167731,1,8,0:0:0:0:
256,192,167845,1,0,0:0:0:0:
256,192,167959,1,8,0:0:0:0:
256,192,168072,1,0,0:0:0:0:
256,192,168186,1,8,0:0:0:0:
256,192,168299,1,8,0:0:0:0:
256,192,168413,1,0,0:0:0:0:
256,192,168527,1,8,0:0:0:0:
256,192,168640,1,8,0:0:0:0:
256,192,168754,1,0,0:0:0:0:
256,192,168868,1,8,0:0:0:0:
256,192,169038,1,8,0:0:0:0:
256,192,169209,1,8,0:0:0:0:
256,192,169251,1,8,0:0:0:0:
256,192,169379,1,0,0:0:0:0:
256,192,169464,1,0,0:0:0:0:
256,192,169549,1,12,0:0:0:0:
256,192,169890,1,8,0:0:0:0:
256,192,169976,1,8,0:0:0:0:
256,192,170061,1,0,0:0:0:0:
256,192,170231,1,8,0:0:0:0:
256,192,170402,1,0,0:0:0:0:
256,192,170487,1,8,0:0:0:0:
256,192,170572,1,0,0:0:0:0:
256,192,170657,1,0,0:0:0:0:
256,192,170743,1,8,0:0:0:0:
256,192,170828,1,8,0:0:0:0:
256,192,170913,1,0,0:0:0:0:
256,192,171084,1,0,0:0:0:0:
256,192,171254,1,8,0:0:0:0:
256,192,171339,1,0,0:0:0:0:
256,192,171424,1,0,0:0:0:0:
256,192,171510,1,0,0:0:0:0:
256,192,171595,1,8,0:0:0:0:
256,192,171765,1,0,0:0:0:0:
256,192,171851,1,0,0:0:0:0:
256,192,171936,1,8,0:0:0:0:
256,192,172106,1,0,0:0:0:0:
256,192,172277,1,12,0:0:0:0:
256,192,172532,1,12,0:0:0:0:
256,192,172788,1,12,0:0:0:0:
256,192,172959,1,4,0:0:0:0:
256,192,173129,1,8,0:0:0:0:
256,192,173214,1,0,0:0:0:0:
256,192,173385,1,8,0:0:0:0:
256,192,173470,1,0,0:0:0:0:
256,192,173555,1,0,0:0:0:0:
256,192,173640,1,8,0:0:0:0:
256,192,173726,1,8,0:0:0:0:
256,192,173811,1,0,0:0:0:0:
256,192,173981,1,8,0:0:0:0:
256,192,174066,1,0,0:0:0:0:
256,192,174152,1,8,0:0:0:0:
256,192,174237,1,8,0:0:0:0:
256,192,174322,1,8,0:0:0:0:
256,192,174493,1,0,0:0:0:0:
256,192,174578,1,0,0:0:0:0:
256,192,174663,1,8,0:0:0:0:
256,192,174748,1,8,0:0:0:0:
256,192,174834,1,0,0:0:0:0:
256,192,175004,1,12,0:0:0:0:
256,192,175260,1,0,0:0:0:0:
256,192,175345,1,0,0:0:0:0:
256,192,175430,1,8,0:0:0:0:
256,192,175515,1,4,0:0:0:0:
256,192,175941,1,0,0:0:0:0:
256,192,176027,1,12,0:0:0:0:
256,192,176197,1,8,0:0:0:0:
256,192,176368,1,0,0:0:0:0:
256,192,176453,1,8,0:0:0:0:
256,192,176538,1,0,0:0:0:0:
256,192,176709,1,8,0:0:0:0:
256,192,176794,1,8,0:0:0:0:
256,192,176879,1,0,0:0:0:0:
256,192,177049,1,8,0:0:0:0:
256,192,177220,1,0,0:0:0:0:
256,192,177305,1,0,0:0:0:0:
256,192,177390,1,8,0:0:0:0:
256,192,177476,1,8,0:0:0:0:
256,192,177561,1,0,0:0:0:0:
256,192,177731,1,8,0:0:0:0:
256,192,177902,1,0,0:0:0:0:
256,192,178072,1,4,0:0:0:0:
256,192,178413,1,8,0:0:0:0:
256,192,178669,1,8,0:0:0:0:
256,192,178754,1,0,0:0:0:0:
256,192,178924,1,8,0:0:0:0:
256,192,179010,1,0,0:0:0:0:
256,192,179095,1,0,0:0:0:0:
256,192,179180,1,8,0:0:0:0:
256,192,179351,1,0,0:0:0:0:
256,192,179436,1,8,0:0:0:0:
256,192,179606,1,0,0:0:0:0:
256,192,179691,1,8,0:0:0:0:
256,192,179777,1,0,0:0:0:0:
256,192,179947,1,8,0:0:0:0:
256,192,180032,1,0,0:0:0:0:
256,192,180118,1,8,0:0:0:0:
256,192,180288,1,0,0:0:0:0:
256,192,180459,1,12,0:0:0:0:
256,192,180799,1,0,0:0:0:0:
256,192,180885,1,0,0:0:0:0:
256,192,180970,1,8,0:0:0:0:
256,192,181055,1,0,0:0:0:0:
256,192,181140,1,8,0:0:0:0:
256,192,181311,1,0,0:0:0:0:
256,192,181396,1,8,0:0:0:0:
256,192,181481,1,0,0:0:0:0:
256,192,181566,1,0,0:0:0:0:
256,192,181652,1,8,0:0:0:0:
256,192,181737,1,0,0:0:0:0:
256,192,181822,1,12,0:0:0:0:
256,192,182163,1,0,0:0:0:0:
256,192,182248,1,0,0:0:0:0:
256,192,182334,1,12,0:0:0:0:
256,192,182674,1,0,0:0:0:0:
256,192,182760,1,0,0:0:0:0:
256,192,182845,1,12,0:0:0:0:
256,192,183015,1,8,0:0:0:0:
256,192,183186,1,4,0:0:0:0:
256,192,183441,1,0,0:0:0:0:
256,192,183527,1,8,0:0:0:0:
256,192,183697,1,0,0:0:0:0:
256,192,183782,1,0,0:0:0:0:
256,192,183868,1,8,0:0:0:0:
256,192,184038,1,0,0:0:0:0:
256,192,184123,1,8,0:0:0:0:
256,192,184294,1,8,0:0:0:0:
256,192,184379,1,0,0:0:0:0:
256,192,184549,1,8,0:0:0:0:
256,192,184635,1,8,0:0:0:0:
256,192,184720,1,0,0:0:0:0:
256,192,184805,1,0,0:0:0:0:
256,192,184890,1,8,0:0:0:0:
256,192,185061,1,0,0:0:0:0:
256,192,185146,1,0,0:0:0:0:
256,192,185231,1,8,0:0:0:0:
256,192,185402,1,8,0:0:0:0:
256,192,185487,1,0,0:0:0:0:
256,192,185572,1,8,0:0:0:0:
256,192,185743,1,0,0:0:0:0:
256,192,185913,1,4,0:0:0:0:
256,192,186169,1,0,0:0:0:0:
256,192,186254,1,8,0:0:0:0:
256,192,186424,1,8,0:0:0:0:
256,192,186595,1,0,0:0:0:0:
256,192,186765,1,0,0:0:0:0:
256,192,186851,1,8,0:0:0:0:
256,192,186936,1,0,0:0:0:0:
256,192,187021,1,0,0:0:0:0:
256,192,187106,1,8,0:0:0:0:
256,192,187277,1,8,0:0:0:0:
256,192,187362,1,0,0:0:0:0:
256,192,187447,1,0,0:0:0:0:
256,192,187532,1,8,0:0:0:0:
256,192,187618,1,0,0:0:0:0:
256,192,187703,1,0,0:0:0:0:
256,192,187788,1,8,0:0:0:0:
256,192,187873,1,0,0:0:0:0:
256,192,187959,1,0,0:0:0:0:
256,192,188044,1,8,0:0:0:0:
256,192,188129,1,0,0:0:0:0:
256,192,188214,1,0,0:0:0:0:
256,192,188299,1,8,0:0:0:0:
256,192,188470,1,8,0:0:0:0:
256,192,188640,1,4,0:0:0:0:
256,192,188981,1,0,0:0:0:0:
256,192,189322,1,0,0:0:0:0:
256,192,189578,1,0,0:0:0:0:
256,192,189834,1,0,0:0:0:0:
256,192,190174,1,0,0:0:0:0:
256,192,190345,1,0,0:0:0:0:
256,192,190686,1,0,0:0:0:0:
256,192,190941,1,0,0:0:0:0:
256,192,191197,1,0,0:0:0:0:
256,192,191368,1,0,0:0:0:0:
256,192,191709,1,0,0:0:0:0:
256,192,192049,1,0,0:0:0:0:
256,192,192305,1,0,0:0:0:0:
256,192,192561,1,0,0:0:0:0:
256,192,192902,1,0,0:0:0:0:
256,192,193072,1,0,0:0:0:0:
256,192,193413,1,0,0:0:0:0:
256,192,193669,1,0,0:0:0:0:
256,192,193924,1,0,0:0:0:0:
256,192,194095,1,8,0:0:0:0:
256,192,194436,1,0,0:0:0:0:
256,192,194777,1,0,0:0:0:0:
256,192,195032,1,8,0:0:0:0:
256,192,195118,1,0,0:0:0:0:
256,192,195288,1,8,0:0:0:0:
256,192,195629,1,0,0:0:0:0:
256,192,195799,1,0,0:0:0:0:
256,192,196140,1,0,0:0:0:0:
256,192,196396,1,8,0:0:0:0:
256,192,196481,1,0,0:0:0:0:
256,192,196652,1,8,0:0:0:0:
256,192,196822,1,8,0:0:0:0:
256,192,197163,1,0,0:0:0:0:
256,192,197504,1,0,0:0:0:0:
256,192,197760,1,8,0:0:0:0:
256,192,197845,1,0,0:0:0:0:
256,192,198015,1,8,0:0:0:0:
256,192,198356,1,8,0:0:0:0:
256,192,198527,1,8,0:0:0:0:
256,192,198868,1,8,0:0:0:0:
256,192,199123,1,8,0:0:0:0:
256,192,199209,1,0,0:0:0:0:
256,192,199379,1,8,0:0:0:0:
256,192,199549,1,8,0:0:0:0:
256,192,199890,1,8,0:0:0:0:
256,192,199976,1,0,0:0:0:0:
256,192,200146,1,0,0:0:0:0:
256,192,200231,1,8,0:0:0:0:
256,192,200402,1,8,0:0:0:0:
256,192,200572,1,8,0:0:0:0:
256,192,200913,1,0,0:0:0:0:
256,192,201084,1,8,0:0:0:0:
256,192,201254,1,0,0:0:0:0:
256,192,201595,1,0,0:0:0:0:
256,192,201936,1,8,0:0:0:0:
256,192,202277,1,8,0:0:0:0:
256,192,202618,1,8,0:0:0:0:
256,192,202703,1,0,0:0:0:0:
256,192,202873,1,0,0:0:0:0:
256,192,202959,1,8,0:0:0:0:
256,192,203129,1,8,0:0:0:0:
256,192,203299,1,0,0:0:0:0:
256,192,203385,1,0,0:0:0:0:
256,192,203470,1,8,0:0:0:0:
256,192,203555,1,8,0:0:0:0:
256,192,203640,1,0,0:0:0:0:
256,192,203811,1,0,0:0:0:0:
256,192,203981,1,8,0:0:0:0:
256,192,204152,1,8,0:0:0:0:
256,192,204322,1,0,0:0:0:0:
256,192,204493,1,8,0:0:0:0:
256,192,204578,1,8,0:0:0:0:
256,192,204663,1,0,0:0:0:0:
256,192,204834,1,0,0:0:0:0:
256,192,205004,1,8,0:0:0:0:
256,192,205174,1,0,0:0:0:0:
256,192,205345,1,8,0:0:0:0:
256,192,205515,1,0,0:0:0:0:
256,192,205601,1,8,0:0:0:0:
256,192,205686,1,8,0:0:0:0:
256,192,205856,1,8,0:0:0:0:
256,192,206027,1,0,0:0:0:0:
256,192,206197,1,0,0:0:0:0:
256,192,206368,1,8,0:0:0:0:
256,192,206538,1,8,0:0:0:0:
256,192,206709,1,8,0:0:0:0:
256,192,206879,1,0,0:0:0:0:
256,192,207049,1,8,0:0:0:0:
256,192,207220,1,0,0:0:0:0:
256,192,207305,1,0,0:0:0:0:
256,192,207390,1,8,0:0:0:0:
256,192,207561,1,0,0:0:0:0:
256,192,207731,1,8,0:0:0:0:
256,192,207816,1,8,0:0:0:0:
256,192,207902,1,0,0:0:0:0:
256,192,207987,1,0,0:0:0:0:
256,192,208072,1,8,0:0:0:0:
256,192,208157,1,8,0:0:0:0:
256,192,208243,1,0,0:0:0:0:
256,192,208328,1,8,0:0:0:0:
256,192,208413,1,8,0:0:0:0:
256,192,208498,1,0,0:0:0:0:
256,192,208584,1,8,0:0:0:0:
256,192,208669,1,0,0:0:0:0:
256,192,208754,1,8,0:0:0:0:
256,192,208924,1,0,0:0:0:0:
256,192,209095,1,8,0:0:0:0:
256,192,209265,1,8,0:0:0:0:
256,192,209351,1,8,0:0:0:0:
256,192,209436,1,8,0:0:0:0:
256,192,209606,1,8,0:0:0:0:
256,192,209691,1,8,0:0:0:0:
256,192,209777,1,8,0:0:0:0:
256,192,209947,1,0,0:0:0:0:
256,192,210118,1,0,0:0:0:0:
256,192,210288,1,8,0:0:0:0:
256,192,210373,1,8,0:0:0:0:
256,192,210459,1,4,0:0:0:0:
256,192,213186,1,0,0:0:0:0:
256,192,213356,1,0,0:0:0:0:
256,192,213527,1,8,0:0:0:0:
256,192,213697,1,0,0:0:0:0:
256,192,213782,1,8,0:0:0:0:
256,192,213868,1,0,0:0:0:0:
256,192,213953,1,8,0:0:0:0:
256,192,214038,1,0,0:0:0:0:
256,192,214209,1,8,0:0:0:0:
256,192,214379,1,0,0:0:0:0:
256,192,214464,1,8,0:0:0:0:
256,192,214549,1,0,0:0:0:0:
256,192,214720,1,8,0:0:0:0:
256,192,214976,1,8,0:0:0:0:
256,192,215061,1,0,0:0:0:0:
256,192,215231,1,8,0:0:0:0:
256,192,215487,1,8,0:0:0:0:
256,192,215572,1,0,0:0:0:0:
256,192,215743,1,8,0:0:0:0:
256,192,215913,1,0,0:0:0:0:
256,192,215970,1,0,0:0:0:0:
256,192,216027,1,8,0:0:0:0:
256,192,216084,1,8,0:0:0:0:
256,192,216254,1,0,0:0:0:0:
256,192,216595,1,12,0:0:0:0:
256,192,216851,1,12,0:0:0:0:
256,192,217106,1,12,0:0:0:0:
256,192,217277,1,4,0:0:0:0:
256,192,217532,1,4,0:0:0:0:
256,192,217788,1,4,0:0:0:0:
256,192,218299,1,0,0:0:0:0:
256,192,218385,1,0,0:0:0:0:
256,192,218470,1,8,0:0:0:0:
256,192,218640,1,12,0:0:0:0:
256,192,218811,1,0,0:0:0:0:
256,192,218896,1,0,0:0:0:0:
256,192,218981,1,8,0:0:0:0:
256,192,219151,1,0,0:0:0:0:
256,192,219237,1,8,0:0:0:0:
256,192,219322,1,8,0:0:0:0:
256,192,219407,1,0,0:0:0:0:
256,192,219493,1,8,0:0:0:0:
256,192,219577,1,8,0:0:0:0:
256,192,219663,1,0,0:0:0:0:
256,192,219833,1,8,0:0:0:0:
256,192,219918,1,0,0:0:0:0:
256,192,220004,1,8,0:0:0:0:
256,192,220089,1,8,0:0:0:0:
256,192,220174,1,0,0:0:0:0:
256,192,220345,1,8,0:0:0:0:
256,192,220515,1,0,0:0:0:0:
256,192,220600,1,0,0:0:0:0:
256,192,220685,1,8,0:0:0:0:
256,192,220771,1,8,0:0:0:0:
256,192,220856,1,0,0:0:0:0:
256,192,221026,1,0,0:0:0:0:
256,192,221112,1,8,0:0:0:0:
256,192,221197,1,0,0:0:0:0:
256,192,221367,1,12,0:0:0:0:
256,192,221538,1,0,0:0:0:0:
256,192,221708,1,8,0:0:0:0:
256,192,221793,1,0,0:0:0:0:
256,192,221879,1,0,0:0:0:0:
224,192,221964,1,8,0:0:0:0:
256,192,222049,1,8,0:0:0:0:
256,192,222220,1,0,0:0:0:0:
256,192,222305,1,8,0:0:0:0:
256,192,222390,1,8,0:0:0:0:
256,192,222476,1,0,0:0:0:0:
256,192,222560,1,8,0:0:0:0:
256,192,222731,1,8,0:0:0:0:
256,192,222816,1,8,0:0:0:0:
256,192,222901,1,0,0:0:0:0:
256,192,222987,1,0,0:0:0:0:
256,192,223072,1,8,0:0:0:0:
256,192,223242,1,0,0:0:0:0:
256,192,223413,1,8,0:0:0:0:
256,192,223498,1,8,0:0:0:0:
256,192,223584,1,8,0:0:0:0:
256,192,223669,1,8,0:0:0:0:
256,192,223754,1,0,0:0:0:0:
256,192,223839,1,0,0:0:0:0:
256,192,223924,1,0,0:0:0:0:
256,192,224010,1,0,0:0:0:0:
256,192,224095,1,8,0:0:0:0:
256,192,224266,1,0,0:0:0:0:
256,192,224436,1,8,0:0:0:0:
256,192,224521,1,0,0:0:0:0:
256,192,224607,1,0,0:0:0:0:
224,192,224692,1,8,0:0:0:0:
256,192,224777,1,8,0:0:0:0:
256,192,224948,1,0,0:0:0:0:
256,192,225033,1,8,0:0:0:0:
256,192,225118,1,8,0:0:0:0:
256,192,225204,1,0,0:0:0:0:
256,192,225288,1,8,0:0:0:0:
256,192,225459,1,12,0:0:0:0:
256,192,225629,1,0,0:0:0:0:
256,192,225715,1,0,0:0:0:0:
256,192,225800,1,8,0:0:0:0:
256,192,225970,1,8,0:0:0:0:
256,192,226141,1,4,0:0:0:0:
256,192,226312,1,0,0:0:0:0:
256,192,226482,1,12,0:0:0:0:
256,192,228186,5,4,0:0:0:0:
256,192,228356,1,8,0:0:0:0:
256,192,228441,1,8,0:0:0:0:
256,192,228527,1,0,0:0:0:0:
256,192,228612,1,0,0:0:0:0:
256,192,228697,1,8,0:0:0:0:
256,192,228868,1,8,0:0:0:0:
256,192,228953,1,0,0:0:0:0:
256,192,229038,1,0,0:0:0:0:
256,192,229123,1,8,0:0:0:0:
256,192,229209,1,0,0:0:0:0:
256,192,229294,1,0,0:0:0:0:
256,192,229379,1,8,0:0:0:0:
256,192,229549,1,8,0:0:0:0:
256,192,229720,1,0,0:0:0:0:
256,192,229890,1,8,0:0:0:0:
256,192,229976,1,8,0:0:0:0:
256,192,230061,1,0,0:0:0:0:
256,192,230231,1,8,0:0:0:0:
256,192,230402,1,0,0:0:0:0:
256,192,230487,1,8,0:0:0:0:
256,192,230572,1,8,0:0:0:0:
256,192,230657,1,0,0:0:0:0:
256,192,230743,1,8,0:0:0:0:
256,192,230828,1,8,0:0:0:0:
256,192,230913,1,0,0:0:0:0:
256,192,231084,1,8,0:0:0:0:
256,192,231169,1,0,0:0:0:0:
256,192,231254,1,8,0:0:0:0:
256,192,231424,1,0,0:0:0:0:
256,192,231510,1,0,0:0:0:0:
256,192,231595,1,8,0:0:0:0:
256,192,231652,1,8,0:0:0:0:
256,192,231709,1,8,0:0:0:0:
256,192,231765,1,0,0:0:0:0:
256,192,231851,1,0,0:0:0:0:
256,192,231936,1,8,0:0:0:0:
256,192,232021,1,0,0:0:0:0:
256,192,232106,1,8,0:0:0:0:
256,192,232277,1,12,0:0:0:0:
256,192,232447,1,0,0:0:0:0:
256,192,232532,1,8,0:0:0:0:
256,192,232618,1,0,0:0:0:0:
256,192,232788,1,0,0:0:0:0:
256,192,232873,1,0,0:0:0:0:
256,192,232959,1,8,0:0:0:0:
256,192,233129,1,0,0:0:0:0:
256,192,233214,1,8,0:0:0:0:
256,192,233385,1,0,0:0:0:0:
256,192,233470,1,8,0:0:0:0:
256,192,233555,1,0,0:0:0:0:
256,192,233640,1,8,0:0:0:0:
256,192,233726,1,0,0:0:0:0:
256,192,233811,1,8,0:0:0:0:
256,192,233896,1,8,0:0:0:0:
256,192,233981,1,0,0:0:0:0:
256,192,234066,1,8,0:0:0:0:
256,192,234152,1,8,0:0:0:0:
256,192,234237,1,0,0:0:0:0:
256,192,234322,1,8,0:0:0:0:
256,192,234493,1,0,0:0:0:0:
256,192,234663,1,8,0:0:0:0:
256,192,234748,1,8,0:0:0:0:
256,192,234834,1,0,0:0:0:0:
256,192,234919,1,0,0:0:0:0:
256,192,235004,1,8,0:0:0:0:
256,192,235174,1,0,0:0:0:0:
256,192,235260,1,8,0:0:0:0:
256,192,235345,1,0,0:0:0:0:
256,192,235515,1,8,0:0:0:0:
256,192,235686,1,8,0:0:0:0:
256,192,235771,1,8,0:0:0:0:
256,192,235856,1,0,0:0:0:0:
256,192,235941,1,8,0:0:0:0:
256,192,236027,1,0,0:0:0:0:
256,192,236112,1,0,0:0:0:0:
256,192,236197,1,8,0:0:0:0:
256,192,236368,1,8,0:0:0:0:
256,192,236453,1,0,0:0:0:0:
256,192,236539,1,8,0:0:0:0:
256,192,236624,1,8,0:0:0:0:
256,192,236709,1,0,0:0:0:0:
256,192,236794,1,0,0:0:0:0:
256,192,236879,1,8,0:0:0:0:
256,192,236965,1,0,0:0:0:0:
256,192,237050,1,8,0:0:0:0:
256,192,237135,1,8,0:0:0:0:
256,192,237221,1,0,0:0:0:0:
256,192,237306,1,0,0:0:0:0:
256,192,237391,1,8,0:0:0:0:
256,192,237447,1,8,0:0:0:0:
256,192,237504,1,8,0:0:0:0:
256,192,237561,1,0,0:0:0:0:
256,192,237647,1,0,0:0:0:0:
256,192,237731,1,12,0:0:0:0:
256,192,239123,1,0,0:0:0:0:
256,192,240487,1,8,0:0:0:0:
256,192,241851,1,0,0:0:0:0:
256,192,242532,1,8,0:0:0:0:
256,192,243214,1,8,0:0:0:0:
256,192,244578,1,0,0:0:0:0:
256,192,245941,1,8,0:0:0:0:
256,192,246623,1,0,0:0:0:0:
256,192,247305,1,8,0:0:0:0:
256,192,247987,1,8,0:0:0:0:
