osu file format v14

[General]
AudioFilename: audio.mp3
AudioLeadIn: 0
PreviewTime: -1
Countdown: 0
SampleSet: Soft
StackLeniency: 0.7
Mode: 3
LetterboxInBreaks: 0
SpecialStyle: 0
WidescreenStoryboard: 0

[Editor]
DistanceSpacing: 1.3
BeatDivisor: 4
GridSize: 8
TimelineZoom: 3.55

[Metadata]
Title:Your voice is so...
TitleUnicode:Your voice is so...
Artist:PSYQUI feat. Such
ArtistUnicode:PSYQUI feat. Such
Creator:Shinuki
Version:Pew...
Source:
Tags:
BeatmapID:2096268
BeatmapSetID:1001394

[Difficulty]
HPDrainRate:8
CircleSize:4
OverallDifficulty:8
ApproachRate:5
SliderMultiplier:1.4
SliderTickRate:1

[Events]
//Background and Video events
0,0,"miku.jpg",0,0
//Break Periods
//Storyboard Layer 0 (Background)
//Storyboard Layer 1 (Fail)
//Storyboard Layer 2 (Pass)
//Storyboard Layer 3 (Foreground)
//Storyboard Sound Samples

[TimingPoints]
1426,340.909090909091,4,2,0,0,1,0

[Colours]
Combo1 : 64,0,128
Combo2 : 128,128,255
Combo3 : 128,0,255
Combo4 : 0,0,128

[HitObjects]
448,192,1426,5,0,0:0:0:0:
64,192,1426,1,0,0:0:0:0:
320,192,1596,1,0,0:0:0:0:
192,192,1766,1,0,0:0:0:0:
64,192,1937,1,0,0:0:0:0:
192,192,2107,1,0,0:0:0:0:
448,192,2107,128,0,2789:0:0:0:0:
320,192,2278,1,0,0:0:0:0:
64,192,2448,1,0,0:0:0:0:
192,192,2619,1,0,0:0:0:0:
192,192,2789,128,0,3471:0:0:0:0:
320,192,2789,1,0,0:0:0:0:
448,192,2960,1,0,0:0:0:0:
320,192,3130,1,0,0:0:0:0:
448,192,3301,1,0,0:0:0:0:
64,192,3471,1,0,0:0:0:0:
320,192,3471,128,0,3982:0:0:0:0:
192,192,3641,1,0,0:0:0:0:
64,192,3812,1,0,0:0:0:0:
192,192,3982,1,0,0:0:0:0:
448,192,4153,128,0,4494:0:0:0:0:
320,192,4153,1,0,0:0:0:0:
64,192,4323,1,0,0:0:0:0:
64,192,4494,128,0,5516:0:0:0:0:
192,192,4494,1,0,0:0:0:0:
320,192,4664,1,0,0:0:0:0:
192,192,4835,128,0,5516:0:0:0:0:
448,192,4835,1,0,0:0:0:0:
320,192,5005,1,0,0:0:0:0:
448,192,5176,1,0,0:0:0:0:
320,192,5346,1,0,0:0:0:0:
448,192,5516,1,0,0:0:0:0:
192,192,5687,1,0,0:0:0:0:
192,192,5857,128,0,6198:0:0:0:0:
64,192,5857,1,0,0:0:0:0:
448,192,6028,1,0,0:0:0:0:
320,192,6198,128,0,6539:0:0:0:0:
64,192,6198,1,0,0:0:0:0:
192,192,6369,1,0,0:0:0:0:
448,192,6539,128,0,6880:0:0:0:0:
64,192,6539,1,0,0:0:0:0:
320,192,6710,1,0,0:0:0:0:
192,192,6880,1,0,0:0:0:0:
64,192,6880,128,0,7562:0:0:0:0:
320,192,7051,1,0,0:0:0:0:
448,192,7221,1,0,0:0:0:0:
320,192,7391,1,0,0:0:0:0:
192,192,7562,1,0,0:0:0:0:
320,192,7732,1,0,0:0:0:0:
64,192,7903,1,0,0:0:0:0:
448,192,7988,128,0,8585:0:0:0:0:
192,192,8073,1,0,0:0:0:0:
320,192,8244,128,0,8926:0:0:0:0:
64,192,8244,1,0,0:0:0:0:
192,192,8414,1,0,0:0:0:0:
64,192,8585,128,0,8926:0:0:0:0:
192,192,8755,1,0,0:0:0:0:
448,192,8926,1,0,0:0:0:0:
192,192,8926,128,0,9607:0:0:0:0:
320,192,9096,1,0,0:0:0:0:
64,192,9266,1,0,0:0:0:0:
320,192,9352,128,0,9607:0:0:0:0:
448,192,9437,1,0,0:0:0:0:
64,192,9607,128,0,10630:0:0:0:0:
192,192,9778,1,0,0:0:0:0:
320,192,9948,1,0,0:0:0:0:
448,192,10119,1,0,0:0:0:0:
192,192,10204,128,0,10630:0:0:0:0:
320,192,10289,1,0,0:0:0:0:
448,192,10460,1,0,0:0:0:0:
320,192,10630,1,0,0:0:0:0:
448,192,10630,128,0,10971:0:0:0:0:
192,192,10801,1,0,0:0:0:0:
192,192,10971,128,0,11994:0:0:0:0:
64,192,10971,1,0,0:0:0:0:
320,192,11141,1,0,0:0:0:0:
448,192,11312,128,0,11994:0:0:0:0:
64,192,11312,1,0,0:0:0:0:
320,192,11482,1,0,0:0:0:0:
64,192,11653,128,0,11994:0:0:0:0:
320,192,11738,1,0,0:0:0:0:
320,192,11994,128,0,12335:0:0:0:0:
192,192,12164,1,0,0:0:0:0:
192,192,12335,1,0,0:0:0:0:
64,192,12335,1,0,0:0:0:0:
448,192,12335,1,0,0:0:0:0:
192,192,12505,1,0,0:0:0:0:
192,192,12676,1,0,0:0:0:0:
64,192,12676,1,0,0:0:0:0:
320,192,12846,1,0,0:0:0:0:
448,192,12846,1,0,0:0:0:0:
192,192,13016,1,0,0:0:0:0:
64,192,13016,1,0,0:0:0:0:
320,192,13187,1,0,0:0:0:0:
192,192,13357,1,0,0:0:0:0:
448,192,13357,1,0,0:0:0:0:
320,192,13528,1,0,0:0:0:0:
192,192,13698,1,0,0:0:0:0:
448,192,13698,1,0,0:0:0:0:
192,192,13869,1,0,0:0:0:0:
192,192,14039,1,0,0:0:0:0:
64,192,14039,1,0,0:0:0:0:
64,192,14210,1,0,0:0:0:0:
192,192,14380,1,0,0:0:0:0:
320,192,14380,1,0,0:0:0:0:
320,192,14551,1,0,0:0:0:0:
320,192,14721,1,0,0:0:0:0:
448,192,14721,1,0,0:0:0:0:
448,192,14891,1,0,0:0:0:0:
192,192,15062,1,0,0:0:0:0:
64,192,15062,1,0,0:0:0:0:
192,192,15232,1,0,0:0:0:0:
64,192,15403,1,0,0:0:0:0:
448,192,15403,1,0,0:0:0:0:
448,192,15573,1,0,0:0:0:0:
64,192,15573,1,0,0:0:0:0:
64,192,15744,1,0,0:0:0:0:
448,192,15744,1,0,0:0:0:0:
320,192,15914,1,0,0:0:0:0:
64,192,16085,1,0,0:0:0:0:
192,192,16085,1,0,0:0:0:0:
320,192,16255,1,0,0:0:0:0:
192,192,16426,1,0,0:0:0:0:
320,192,16426,1,0,0:0:0:0:
448,192,16596,1,0,0:0:0:0:
320,192,16766,1,0,0:0:0:0:
64,192,16766,1,0,0:0:0:0:
320,192,16937,1,0,0:0:0:0:
192,192,17107,1,0,0:0:0:0:
448,192,17107,1,0,0:0:0:0:
192,192,17278,1,0,0:0:0:0:
64,192,17448,1,0,0:0:0:0:
320,192,17448,1,0,0:0:0:0:
192,192,17619,1,0,0:0:0:0:
192,192,17789,1,0,0:0:0:0:
64,192,17789,1,0,0:0:0:0:
192,192,17960,1,0,0:0:0:0:
448,192,17960,1,0,0:0:0:0:
192,192,18130,1,0,0:0:0:0:
64,192,18130,1,0,0:0:0:0:
320,192,18301,1,0,0:0:0:0:
192,192,18301,1,0,0:0:0:0:
320,192,18471,1,0,0:0:0:0:
448,192,18471,1,0,0:0:0:0:
64,192,18641,1,0,0:0:0:0:
320,192,18641,1,0,0:0:0:0:
320,192,18812,1,0,0:0:0:0:
448,192,18812,1,0,0:0:0:0:
192,192,18982,1,0,0:0:0:0:
320,192,18982,1,0,0:0:0:0:
320,192,19068,1,0,0:0:0:0:
64,192,19153,1,0,0:0:0:0:
192,192,19153,1,0,0:0:0:0:
192,192,19323,1,0,0:0:0:0:
448,192,19323,1,0,0:0:0:0:
192,192,19494,1,0,0:0:0:0:
320,192,19494,1,0,0:0:0:0:
192,192,19664,1,0,0:0:0:0:
64,192,19664,1,0,0:0:0:0:
64,192,19835,1,0,0:0:0:0:
448,192,19835,1,0,0:0:0:0:
320,192,20005,1,0,0:0:0:0:
448,192,20005,1,0,0:0:0:0:
64,192,20176,1,0,0:0:0:0:
320,192,20176,1,0,0:0:0:0:
320,192,20346,1,0,0:0:0:0:
192,192,20346,1,0,0:0:0:0:
320,192,20516,1,0,0:0:0:0:
448,192,20516,1,0,0:0:0:0:
192,192,20602,1,0,0:0:0:0:
64,192,20602,1,0,0:0:0:0:
320,192,20687,1,0,0:0:0:0:
448,192,20687,1,0,0:0:0:0:
192,192,20772,1,0,0:0:0:0:
64,192,20772,1,0,0:0:0:0:
320,192,20857,1,0,0:0:0:0:
448,192,20857,1,0,0:0:0:0:
192,192,20943,1,0,0:0:0:0:
64,192,20943,1,0,0:0:0:0:
320,192,21028,1,0,0:0:0:0:
448,192,21028,1,0,0:0:0:0:
192,192,21113,1,0,0:0:0:0:
64,192,21198,1,0,0:0:0:0:
448,192,21198,1,0,0:0:0:0:
192,192,21283,1,0,0:0:0:0:
320,192,21283,1,0,0:0:0:0:
64,192,21369,1,0,0:0:0:0:
448,192,21369,1,0,0:0:0:0:
320,192,21454,1,0,0:0:0:0:
192,192,21454,1,0,0:0:0:0:
64,192,21539,1,0,0:0:0:0:
448,192,21539,1,0,0:0:0:0:
192,192,21624,1,0,0:0:0:0:
320,192,21624,1,0,0:0:0:0:
448,192,21710,1,0,0:0:0:0:
64,192,21752,1,0,0:0:0:0:
192,192,21795,1,0,0:0:0:0:
320,192,21837,1,0,0:0:0:0:
448,192,21880,1,0,0:0:0:0:
64,192,21923,1,0,0:0:0:0:
192,192,21965,1,0,0:0:0:0:
448,192,22008,1,0,0:0:0:0:
320,192,22051,1,0,0:0:0:0:
192,192,22093,1,0,0:0:0:0:
64,192,22136,1,0,0:0:0:0:
448,192,22178,1,0,0:0:0:0:
320,192,22221,1,0,0:0:0:0:
192,192,22221,1,0,0:0:0:0:
64,192,22391,1,0,0:0:0:0:
192,192,22434,1,0,0:0:0:0:
320,192,22477,1,0,0:0:0:0:
448,192,22519,1,0,0:0:0:0:
64,192,22562,1,0,0:0:0:0:
192,192,22604,1,0,0:0:0:0:
320,192,22604,1,0,0:0:0:0:
448,192,22732,1,0,0:0:0:0:
64,192,22818,1,0,0:0:0:0:
192,192,22903,1,0,0:0:0:0:
320,192,22903,128,0,23244:0:0:0:0:
64,192,23073,128,0,23244:0:0:0:0:
192,192,23244,128,0,23585:0:0:0:0:
448,192,23244,128,0,23585:0:0:0:0:
320,192,23585,128,0,23926:0:0:0:0:
64,192,23926,1,0,0:0:0:0:
448,192,23926,1,0,0:0:0:0:
64,192,24181,1,0,0:0:0:0:
448,192,24181,1,0,0:0:0:0:
64,192,24437,1,0,0:0:0:0:
448,192,24437,1,0,0:0:0:0:
192,192,24607,1,0,0:0:0:0:
320,192,24607,1,0,0:0:0:0:
448,192,24693,1,0,0:0:0:0:
320,192,24778,1,0,0:0:0:0:
192,192,24863,1,0,0:0:0:0:
64,192,24863,1,0,0:0:0:0:
320,192,24948,1,0,0:0:0:0:
192,192,25033,1,0,0:0:0:0:
320,192,25119,1,0,0:0:0:0:
448,192,25119,1,0,0:0:0:0:
64,192,25289,128,0,25630:0:0:0:0:
448,192,25630,128,0,25971:0:0:0:0:
64,192,25971,1,0,0:0:0:0:
192,192,25971,1,0,0:0:0:0:
320,192,26056,1,0,0:0:0:0:
192,192,26141,1,0,0:0:0:0:
64,192,26227,1,0,0:0:0:0:
448,192,26312,1,0,0:0:0:0:
192,192,26312,1,0,0:0:0:0:
320,192,26397,1,0,0:0:0:0:
192,192,26482,1,0,0:0:0:0:
320,192,26568,1,0,0:0:0:0:
192,192,26653,1,0,0:0:0:0:
64,192,26653,1,0,0:0:0:0:
320,192,26738,1,0,0:0:0:0:
448,192,26823,1,0,0:0:0:0:
192,192,26908,1,0,0:0:0:0:
320,192,26908,1,0,0:0:0:0:
64,192,26994,1,0,0:0:0:0:
192,192,27079,1,0,0:0:0:0:
448,192,27164,1,0,0:0:0:0:
320,192,27164,1,0,0:0:0:0:
192,192,27249,1,0,0:0:0:0:
448,192,27335,1,0,0:0:0:0:
64,192,27335,1,0,0:0:0:0:
320,192,27420,1,0,0:0:0:0:
192,192,27505,1,0,0:0:0:0:
64,192,27590,1,0,0:0:0:0:
320,192,27676,1,0,0:0:0:0:
448,192,27676,1,0,0:0:0:0:
192,192,27761,1,0,0:0:0:0:
448,192,27846,1,0,0:0:0:0:
448,192,27931,1,0,0:0:0:0:
192,192,28016,1,0,0:0:0:0:
64,192,28016,1,0,0:0:0:0:
320,192,28102,1,0,0:0:0:0:
192,192,28187,1,0,0:0:0:0:
320,192,28272,1,0,0:0:0:0:
448,192,28272,1,0,0:0:0:0:
192,192,28357,1,0,0:0:0:0:
320,192,28443,1,0,0:0:0:0:
192,192,28528,1,0,0:0:0:0:
64,192,28528,1,0,0:0:0:0:
448,192,28613,1,0,0:0:0:0:
192,192,28698,1,0,0:0:0:0:
64,192,28698,1,0,0:0:0:0:
448,192,28783,1,0,0:0:0:0:
320,192,28869,1,0,0:0:0:0:
192,192,28954,1,0,0:0:0:0:
64,192,29039,1,0,0:0:0:0:
448,192,29039,1,0,0:0:0:0:
320,192,29124,1,0,0:0:0:0:
192,192,29210,1,0,0:0:0:0:
64,192,29295,1,0,0:0:0:0:
192,192,29380,1,0,0:0:0:0:
448,192,29380,1,0,0:0:0:0:
64,192,29465,1,0,0:0:0:0:
320,192,29551,1,0,0:0:0:0:
192,192,29636,1,0,0:0:0:0:
448,192,29636,1,0,0:0:0:0:
64,192,29721,1,0,0:0:0:0:
192,192,29806,1,0,0:0:0:0:
320,192,29891,1,0,0:0:0:0:
448,192,29891,1,0,0:0:0:0:
192,192,29977,1,0,0:0:0:0:
64,192,30062,1,0,0:0:0:0:
448,192,30062,1,0,0:0:0:0:
192,192,30147,1,0,0:0:0:0:
320,192,30232,1,0,0:0:0:0:
192,192,30318,1,0,0:0:0:0:
320,192,30403,1,0,0:0:0:0:
448,192,30403,1,0,0:0:0:0:
192,192,30488,1,0,0:0:0:0:
64,192,30573,1,0,0:0:0:0:
64,192,30658,1,0,0:0:0:0:
320,192,30744,1,0,0:0:0:0:
448,192,30744,1,0,0:0:0:0:
192,192,30829,1,0,0:0:0:0:
320,192,30914,1,0,0:0:0:0:
192,192,30999,1,0,0:0:0:0:
448,192,30999,1,0,0:0:0:0:
64,192,31085,1,0,0:0:0:0:
192,192,31170,1,0,0:0:0:0:
64,192,31255,1,0,0:0:0:0:
320,192,31255,1,0,0:0:0:0:
192,192,31340,1,0,0:0:0:0:
448,192,31426,1,0,0:0:0:0:
320,192,31426,1,0,0:0:0:0:
192,192,31511,1,0,0:0:0:0:
64,192,31596,1,0,0:0:0:0:
192,192,31681,1,0,0:0:0:0:
64,192,31766,1,0,0:0:0:0:
448,192,31766,1,0,0:0:0:0:
192,192,31852,1,0,0:0:0:0:
320,192,31937,1,0,0:0:0:0:
192,192,32022,1,0,0:0:0:0:
448,192,32107,1,0,0:0:0:0:
320,192,32107,1,0,0:0:0:0:
64,192,32193,1,0,0:0:0:0:
192,192,32278,1,0,0:0:0:0:
320,192,32363,1,0,0:0:0:0:
64,192,32363,1,0,0:0:0:0:
448,192,32448,1,0,0:0:0:0:
320,192,32533,1,0,0:0:0:0:
192,192,32619,1,0,0:0:0:0:
64,192,32619,1,0,0:0:0:0:
320,192,32704,1,0,0:0:0:0:
192,192,32789,1,0,0:0:0:0:
64,192,32789,128,0,33130:0:0:0:0:
448,192,32789,128,0,33130:0:0:0:0:
192,192,33130,128,0,33471:0:0:0:0:
320,192,33130,128,0,33471:0:0:0:0:
64,192,33471,128,0,33812:0:0:0:0:
448,192,33471,1,0,0:0:0:0:
320,192,33812,1,0,0:0:0:0:
448,192,33812,1,0,0:0:0:0:
192,192,33982,1,0,0:0:0:0:
192,192,34068,1,0,0:0:0:0:
192,192,34153,128,0,34494:0:0:0:0:
448,192,34494,128,0,34835:0:0:0:0:
320,192,34835,1,0,0:0:0:0:
64,192,34835,1,0,0:0:0:0:
64,192,35090,1,0,0:0:0:0:
320,192,35090,1,0,0:0:0:0:
320,192,35346,1,0,0:0:0:0:
64,192,35346,1,0,0:0:0:0:
192,192,35516,1,0,0:0:0:0:
448,192,35516,1,0,0:0:0:0:
64,192,35602,1,0,0:0:0:0:
320,192,35687,1,0,0:0:0:0:
320,192,35772,1,0,0:0:0:0:
192,192,35857,1,0,0:0:0:0:
448,192,35857,1,0,0:0:0:0:
64,192,35943,1,0,0:0:0:0:
192,192,36028,1,0,0:0:0:0:
320,192,36113,1,0,0:0:0:0:
64,192,36198,1,0,0:0:0:0:
448,192,36198,1,0,0:0:0:0:
320,192,36283,1,0,0:0:0:0:
448,192,36369,1,0,0:0:0:0:
192,192,36454,1,0,0:0:0:0:
320,192,36454,1,0,0:0:0:0:
64,192,36539,1,0,0:0:0:0:
192,192,36624,1,0,0:0:0:0:
64,192,36710,1,0,0:0:0:0:
448,192,36710,1,0,0:0:0:0:
320,192,36795,1,0,0:0:0:0:
192,192,36880,1,0,0:0:0:0:
64,192,36880,1,0,0:0:0:0:
320,192,36965,1,0,0:0:0:0:
448,192,37051,1,0,0:0:0:0:
320,192,37136,1,0,0:0:0:0:
192,192,37221,1,0,0:0:0:0:
448,192,37221,1,0,0:0:0:0:
64,192,37306,1,0,0:0:0:0:
192,192,37391,1,0,0:0:0:0:
320,192,37477,1,0,0:0:0:0:
192,192,37562,1,0,0:0:0:0:
64,192,37562,1,0,0:0:0:0:
448,192,37647,1,0,0:0:0:0:
320,192,37732,1,0,0:0:0:0:
448,192,37818,1,0,0:0:0:0:
192,192,37818,1,0,0:0:0:0:
64,192,37903,1,0,0:0:0:0:
448,192,37988,1,0,0:0:0:0:
448,192,38073,1,0,0:0:0:0:
192,192,38073,1,0,0:0:0:0:
64,192,38244,1,0,0:0:0:0:
320,192,38244,1,0,0:0:0:0:
448,192,38414,1,0,0:0:0:0:
448,192,38499,1,0,0:0:0:0:
320,192,38585,1,0,0:0:0:0:
64,192,38585,1,0,0:0:0:0:
320,192,38670,1,0,0:0:0:0:
192,192,38755,1,0,0:0:0:0:
192,192,38840,1,0,0:0:0:0:
64,192,38926,1,0,0:0:0:0:
448,192,38926,1,0,0:0:0:0:
64,192,39011,1,0,0:0:0:0:
192,192,39096,1,0,0:0:0:0:
192,192,39181,1,0,0:0:0:0:
448,192,39181,1,0,0:0:0:0:
320,192,39266,1,0,0:0:0:0:
320,192,39352,1,0,0:0:0:0:
448,192,39437,1,0,0:0:0:0:
64,192,39437,1,0,0:0:0:0:
448,192,39522,1,0,0:0:0:0:
320,192,39607,1,0,0:0:0:0:
192,192,39607,1,0,0:0:0:0:
64,192,39693,1,0,0:0:0:0:
192,192,39778,1,0,0:0:0:0:
320,192,39863,1,0,0:0:0:0:
448,192,39863,1,0,0:0:0:0:
192,192,39948,1,0,0:0:0:0:
320,192,40033,1,0,0:0:0:0:
192,192,40119,1,0,0:0:0:0:
64,192,40119,1,0,0:0:0:0:
320,192,40204,1,0,0:0:0:0:
192,192,40289,1,0,0:0:0:0:
64,192,40289,1,0,0:0:0:0:
448,192,40289,1,0,0:0:0:0:
320,192,40374,1,0,0:0:0:0:
192,192,40460,1,0,0:0:0:0:
320,192,40545,1,0,0:0:0:0:
448,192,40545,1,0,0:0:0:0:
192,192,40630,1,0,0:0:0:0:
320,192,40715,1,0,0:0:0:0:
192,192,40801,1,0,0:0:0:0:
64,192,40801,1,0,0:0:0:0:
448,192,40886,1,0,0:0:0:0:
320,192,40971,1,0,0:0:0:0:
192,192,41056,1,0,0:0:0:0:
320,192,41141,1,0,0:0:0:0:
448,192,41141,1,0,0:0:0:0:
192,192,41227,1,0,0:0:0:0:
64,192,41227,1,0,0:0:0:0:
320,192,41312,1,0,0:0:0:0:
192,192,41397,1,0,0:0:0:0:
320,192,41482,1,0,0:0:0:0:
448,192,41482,1,0,0:0:0:0:
192,192,41568,1,0,0:0:0:0:
64,192,41568,1,0,0:0:0:0:
64,192,41653,1,0,0:0:0:0:
320,192,41653,1,0,0:0:0:0:
448,192,41653,1,0,0:0:0:0:
192,192,41738,1,0,0:0:0:0:
64,192,41823,1,0,0:0:0:0:
320,192,41908,1,0,0:0:0:0:
448,192,41908,1,0,0:0:0:0:
192,192,41994,1,0,0:0:0:0:
64,192,41994,1,0,0:0:0:0:
320,192,42079,1,0,0:0:0:0:
192,192,42164,1,0,0:0:0:0:
448,192,42164,1,0,0:0:0:0:
320,192,42249,1,0,0:0:0:0:
64,192,42335,1,0,0:0:0:0:
448,192,42335,1,0,0:0:0:0:
192,192,42420,1,0,0:0:0:0:
64,192,42505,1,0,0:0:0:0:
320,192,42590,1,0,0:0:0:0:
448,192,42590,1,0,0:0:0:0:
192,192,42676,1,0,0:0:0:0:
320,192,42761,1,0,0:0:0:0:
192,192,42846,1,0,0:0:0:0:
448,192,42846,1,0,0:0:0:0:
64,192,42931,1,0,0:0:0:0:
192,192,43016,1,0,0:0:0:0:
320,192,43016,1,0,0:0:0:0:
448,192,43016,1,0,0:0:0:0:
64,192,43102,1,0,0:0:0:0:
192,192,43187,1,0,0:0:0:0:
64,192,43272,1,0,0:0:0:0:
448,192,43272,1,0,0:0:0:0:
320,192,43357,1,0,0:0:0:0:
448,192,43443,1,0,0:0:0:0:
192,192,43528,1,0,0:0:0:0:
64,192,43528,1,0,0:0:0:0:
448,192,43613,1,0,0:0:0:0:
192,192,43698,1,0,0:0:0:0:
320,192,43698,1,0,0:0:0:0:
64,192,43698,128,0,44039:0:0:0:0:
448,192,44039,128,0,44380:0:0:0:0:
192,192,44039,1,0,0:0:0:0:
320,192,44039,1,0,0:0:0:0:
192,192,44380,128,0,44721:0:0:0:0:
320,192,44380,1,0,0:0:0:0:
64,192,44380,1,0,0:0:0:0:
320,192,44721,128,0,45062:0:0:0:0:
448,192,45744,128,0,46426:0:0:0:0:
320,192,46426,128,0,47107:0:0:0:0:
192,192,47107,128,0,47448:0:0:0:0:
64,192,47448,128,0,47533:0:0:0:0:
448,192,47448,128,0,47533:0:0:0:0:
448,192,47789,1,0,0:0:0:0:
64,192,47789,1,0,0:0:0:0:
320,192,47874,1,0,0:0:0:0:
448,192,47960,1,0,0:0:0:0:
192,192,48045,1,0,0:0:0:0:
320,192,48045,1,0,0:0:0:0:
448,192,48130,1,0,0:0:0:0:
320,192,48215,1,0,0:0:0:0:
192,192,48301,1,0,0:0:0:0:
64,192,48301,1,0,0:0:0:0:
448,192,48386,1,0,0:0:0:0:
64,192,48471,1,0,0:0:0:0:
320,192,48471,1,0,0:0:0:0:
192,192,48556,1,0,0:0:0:0:
320,192,48641,1,0,0:0:0:0:
192,192,48727,1,0,0:0:0:0:
448,192,48727,1,0,0:0:0:0:
320,192,48812,1,0,0:0:0:0:
448,192,48897,1,0,0:0:0:0:
192,192,48982,1,0,0:0:0:0:
320,192,48982,1,0,0:0:0:0:
64,192,49068,1,0,0:0:0:0:
192,192,49153,1,0,0:0:0:0:
448,192,49153,1,0,0:0:0:0:
320,192,49238,1,0,0:0:0:0:
192,192,49323,1,0,0:0:0:0:
320,192,49408,1,0,0:0:0:0:
64,192,49494,1,0,0:0:0:0:
448,192,49494,1,0,0:0:0:0:
192,192,49579,1,0,0:0:0:0:
320,192,49664,1,0,0:0:0:0:
448,192,49749,1,0,0:0:0:0:
192,192,49835,1,0,0:0:0:0:
320,192,49835,1,0,0:0:0:0:
64,192,49920,1,0,0:0:0:0:
192,192,50005,1,0,0:0:0:0:
320,192,50090,1,0,0:0:0:0:
192,192,50176,1,0,0:0:0:0:
64,192,50176,1,0,0:0:0:0:
320,192,50261,1,0,0:0:0:0:
192,192,50346,1,0,0:0:0:0:
64,192,50431,1,0,0:0:0:0:
320,192,50516,1,0,0:0:0:0:
448,192,50516,1,0,0:0:0:0:
192,192,50602,1,0,0:0:0:0:
64,192,50687,1,0,0:0:0:0:
320,192,50772,1,0,0:0:0:0:
192,192,50772,1,0,0:0:0:0:
448,192,50857,1,0,0:0:0:0:
320,192,50943,1,0,0:0:0:0:
192,192,51028,1,0,0:0:0:0:
64,192,51028,1,0,0:0:0:0:
320,192,51113,1,0,0:0:0:0:
448,192,51198,1,0,0:0:0:0:
192,192,51198,1,0,0:0:0:0:
320,192,51283,1,0,0:0:0:0:
448,192,51369,1,0,0:0:0:0:
64,192,51454,1,0,0:0:0:0:
320,192,51454,1,0,0:0:0:0:
192,192,51539,1,0,0:0:0:0:
64,192,51624,1,0,0:0:0:0:
192,192,51710,1,0,0:0:0:0:
448,192,51710,1,0,0:0:0:0:
320,192,51795,1,0,0:0:0:0:
64,192,51880,1,0,0:0:0:0:
448,192,51880,1,0,0:0:0:0:
320,192,51965,1,0,0:0:0:0:
192,192,52051,1,0,0:0:0:0:
320,192,52136,1,0,0:0:0:0:
448,192,52136,1,0,0:0:0:0:
192,192,52221,1,0,0:0:0:0:
64,192,52306,1,0,0:0:0:0:
320,192,52391,1,0,0:0:0:0:
192,192,52391,1,0,0:0:0:0:
64,192,52477,1,0,0:0:0:0:
448,192,52562,1,0,0:0:0:0:
320,192,52562,1,0,0:0:0:0:
192,192,52647,1,0,0:0:0:0:
320,192,52732,1,0,0:0:0:0:
64,192,52818,1,0,0:0:0:0:
192,192,52818,1,0,0:0:0:0:
320,192,52903,1,0,0:0:0:0:
192,192,52988,1,0,0:0:0:0:
320,192,53073,1,0,0:0:0:0:
448,192,53073,1,0,0:0:0:0:
192,192,53158,1,0,0:0:0:0:
64,192,53244,1,0,0:0:0:0:
320,192,53244,1,0,0:0:0:0:
192,192,53329,1,0,0:0:0:0:
320,192,53414,1,0,0:0:0:0:
192,192,53499,1,0,0:0:0:0:
64,192,53499,1,0,0:0:0:0:
448,192,53585,1,0,0:0:0:0:
320,192,53670,1,0,0:0:0:0:
192,192,53755,1,0,0:0:0:0:
64,192,53755,1,0,0:0:0:0:
448,192,53840,1,0,0:0:0:0:
320,192,53926,1,0,0:0:0:0:
192,192,53926,1,0,0:0:0:0:
64,192,54011,1,0,0:0:0:0:
192,192,54096,1,0,0:0:0:0:
320,192,54181,1,0,0:0:0:0:
448,192,54181,1,0,0:0:0:0:
192,192,54266,1,0,0:0:0:0:
320,192,54352,1,0,0:0:0:0:
448,192,54437,1,0,0:0:0:0:
64,192,54437,1,0,0:0:0:0:
192,192,54522,1,0,0:0:0:0:
320,192,54607,1,0,0:0:0:0:
448,192,54607,1,0,0:0:0:0:
192,192,54693,1,0,0:0:0:0:
448,192,54778,1,0,0:0:0:0:
320,192,54835,1,0,0:0:0:0:
192,192,54891,1,0,0:0:0:0:
64,192,54948,1,0,0:0:0:0:
320,192,54948,1,0,0:0:0:0:
448,192,54948,1,0,0:0:0:0:
192,192,55062,1,0,0:0:0:0:
64,192,55176,1,0,0:0:0:0:
192,192,55232,1,0,0:0:0:0:
320,192,55289,1,0,0:0:0:0:
448,192,55289,1,0,0:0:0:0:
64,192,55403,1,0,0:0:0:0:
448,192,55460,1,0,0:0:0:0:
320,192,55516,1,0,0:0:0:0:
192,192,55573,1,0,0:0:0:0:
64,192,55630,1,0,0:0:0:0:
320,192,55630,1,0,0:0:0:0:
448,192,55630,1,0,0:0:0:0:
320,192,55744,1,0,0:0:0:0:
64,192,55801,1,0,0:0:0:0:
192,192,55857,1,0,0:0:0:0:
320,192,55914,1,0,0:0:0:0:
448,192,55971,1,0,0:0:0:0:
64,192,56227,1,0,0:0:0:0:
192,192,56227,1,0,0:0:0:0:
448,192,56227,1,0,0:0:0:0:
320,192,56397,1,0,0:0:0:0:
192,192,56482,1,0,0:0:0:0:
448,192,56482,1,0,0:0:0:0:
320,192,56568,1,0,0:0:0:0:
192,192,56653,1,0,0:0:0:0:
64,192,56653,1,0,0:0:0:0:
320,192,56738,1,0,0:0:0:0:
192,192,56823,1,0,0:0:0:0:
320,192,56908,1,0,0:0:0:0:
448,192,56908,1,0,0:0:0:0:
192,192,56994,1,0,0:0:0:0:
64,192,57079,1,0,0:0:0:0:
320,192,57164,1,0,0:0:0:0:
192,192,57164,1,0,0:0:0:0:
64,192,57249,1,0,0:0:0:0:
448,192,57335,1,0,0:0:0:0:
192,192,57335,1,0,0:0:0:0:
320,192,57420,1,0,0:0:0:0:
192,192,57505,1,0,0:0:0:0:
64,192,57590,1,0,0:0:0:0:
448,192,57590,1,0,0:0:0:0:
192,192,57676,1,0,0:0:0:0:
320,192,57761,1,0,0:0:0:0:
64,192,57846,1,0,0:0:0:0:
192,192,57846,1,0,0:0:0:0:
320,192,57931,1,0,0:0:0:0:
192,192,58016,1,0,0:0:0:0:
448,192,58016,1,0,0:0:0:0:
64,192,58102,1,0,0:0:0:0:
192,192,58187,1,0,0:0:0:0:
448,192,58272,1,0,0:0:0:0:
320,192,58272,1,0,0:0:0:0:
192,192,58357,1,0,0:0:0:0:
64,192,58443,1,0,0:0:0:0:
192,192,58528,1,0,0:0:0:0:
448,192,58528,1,0,0:0:0:0:
320,192,58613,1,0,0:0:0:0:
192,192,58698,1,0,0:0:0:0:
64,192,58698,1,0,0:0:0:0:
320,192,58783,1,0,0:0:0:0:
448,192,58869,1,0,0:0:0:0:
320,192,58954,1,0,0:0:0:0:
192,192,58954,1,0,0:0:0:0:
64,192,59039,1,0,0:0:0:0:
192,192,59124,1,0,0:0:0:0:
64,192,59210,1,0,0:0:0:0:
448,192,59210,1,0,0:0:0:0:
192,192,59295,1,0,0:0:0:0:
320,192,59380,1,0,0:0:0:0:
448,192,59380,1,0,0:0:0:0:
192,192,59465,1,0,0:0:0:0:
320,192,59551,1,0,0:0:0:0:
192,192,59636,1,0,0:0:0:0:
64,192,59636,1,0,0:0:0:0:
448,192,59721,1,0,0:0:0:0:
320,192,59806,1,0,0:0:0:0:
192,192,59891,1,0,0:0:0:0:
64,192,59891,1,0,0:0:0:0:
448,192,59977,1,0,0:0:0:0:
192,192,60062,1,0,0:0:0:0:
320,192,60062,1,0,0:0:0:0:
64,192,60147,1,0,0:0:0:0:
192,192,60232,1,0,0:0:0:0:
320,192,60318,1,0,0:0:0:0:
64,192,60403,1,0,0:0:0:0:
448,192,60403,1,0,0:0:0:0:
320,192,60488,1,0,0:0:0:0:
192,192,60573,1,0,0:0:0:0:
64,192,60658,1,0,0:0:0:0:
192,192,60744,1,0,0:0:0:0:
320,192,60744,1,0,0:0:0:0:
64,192,60829,1,0,0:0:0:0:
192,192,60914,1,0,0:0:0:0:
64,192,60999,1,0,0:0:0:0:
192,192,61085,1,0,0:0:0:0:
448,192,61085,1,0,0:0:0:0:
320,192,61170,1,0,0:0:0:0:
192,192,61255,1,0,0:0:0:0:
64,192,61340,1,0,0:0:0:0:
192,192,61426,1,0,0:0:0:0:
320,192,61511,1,0,0:0:0:0:
448,192,61596,1,0,0:0:0:0:
64,192,61681,1,0,0:0:0:0:
192,192,61766,1,0,0:0:0:0:
320,192,61766,1,0,0:0:0:0:
448,192,61766,1,0,0:0:0:0:
64,192,61852,1,0,0:0:0:0:
192,192,61937,1,0,0:0:0:0:
320,192,62022,1,0,0:0:0:0:
448,192,62107,1,0,0:0:0:0:
320,192,62193,1,0,0:0:0:0:
448,192,62278,1,0,0:0:0:0:
448,192,62363,1,0,0:0:0:0:
192,192,62448,1,0,0:0:0:0:
64,192,62448,1,0,0:0:0:0:
320,192,62533,1,0,0:0:0:0:
320,192,62619,1,0,0:0:0:0:
192,192,62704,1,0,0:0:0:0:
64,192,62789,1,0,0:0:0:0:
192,192,62874,1,0,0:0:0:0:
320,192,62960,1,0,0:0:0:0:
192,192,63045,1,0,0:0:0:0:
448,192,63045,1,0,0:0:0:0:
64,192,63045,1,0,0:0:0:0:
320,192,63130,1,0,0:0:0:0:
192,192,63215,1,0,0:0:0:0:
64,192,63301,1,0,0:0:0:0:
320,192,63301,1,0,0:0:0:0:
448,192,63301,1,0,0:0:0:0:
192,192,63386,1,0,0:0:0:0:
320,192,63471,1,0,0:0:0:0:
192,192,63556,1,0,0:0:0:0:
448,192,63641,1,0,0:0:0:0:
320,192,63727,1,0,0:0:0:0:
192,192,63812,1,0,0:0:0:0:
64,192,63897,1,0,0:0:0:0:
192,192,63982,1,0,0:0:0:0:
320,192,64068,1,0,0:0:0:0:
192,192,64153,1,0,0:0:0:0:
64,192,64153,1,0,0:0:0:0:
448,192,64153,1,0,0:0:0:0:
320,192,64238,1,0,0:0:0:0:
192,192,64323,1,0,0:0:0:0:
320,192,64408,1,0,0:0:0:0:
448,192,64408,1,0,0:0:0:0:
192,192,64494,1,0,0:0:0:0:
320,192,64579,1,0,0:0:0:0:
192,192,64664,1,0,0:0:0:0:
64,192,64664,1,0,0:0:0:0:
320,192,64749,1,0,0:0:0:0:
448,192,64835,1,0,0:0:0:0:
64,192,64835,1,0,0:0:0:0:
192,192,64920,1,0,0:0:0:0:
64,192,65005,1,0,0:0:0:0:
192,192,65090,1,0,0:0:0:0:
320,192,65090,1,0,0:0:0:0:
448,192,65176,1,0,0:0:0:0:
320,192,65261,1,0,0:0:0:0:
64,192,65346,1,0,0:0:0:0:
448,192,65346,1,0,0:0:0:0:
320,192,65431,1,0,0:0:0:0:
192,192,65516,1,0,0:0:0:0:
448,192,65516,1,0,0:0:0:0:
320,192,65573,1,0,0:0:0:0:
192,192,65630,1,0,0:0:0:0:
64,192,65687,1,0,0:0:0:0:
192,192,65772,1,0,0:0:0:0:
448,192,65857,1,0,0:0:0:0:
320,192,65857,1,0,0:0:0:0:
64,192,65914,1,0,0:0:0:0:
192,192,65971,1,0,0:0:0:0:
320,192,66028,1,0,0:0:0:0:
448,192,66085,1,0,0:0:0:0:
64,192,66113,1,0,0:0:0:0:
448,192,66198,1,0,0:0:0:0:
320,192,66198,1,0,0:0:0:0:
64,192,66255,1,0,0:0:0:0:
192,192,66312,1,0,0:0:0:0:
64,192,66369,1,0,0:0:0:0:
320,192,66369,1,0,0:0:0:0:
448,192,66426,1,0,0:0:0:0:
192,192,66454,1,0,0:0:0:0:
320,192,66539,1,0,0:0:0:0:
64,192,66539,1,0,0:0:0:0:
448,192,66596,1,0,0:0:0:0:
320,192,66653,1,0,0:0:0:0:
192,192,66710,1,0,0:0:0:0:
64,192,66766,1,0,0:0:0:0:
448,192,66795,1,0,0:0:0:0:
320,192,66880,1,0,0:0:0:0:
192,192,66880,1,0,0:0:0:0:
320,192,67221,1,0,0:0:0:0:
192,192,67221,1,0,0:0:0:0:
192,192,67562,1,0,0:0:0:0:
320,192,67562,1,0,0:0:0:0:
192,192,67903,1,0,0:0:0:0:
320,192,67903,1,0,0:0:0:0:
192,192,68244,1,0,0:0:0:0:
320,192,68244,1,0,0:0:0:0:
192,192,68585,1,0,0:0:0:0:
320,192,68585,1,0,0:0:0:0:
192,192,68926,1,0,0:0:0:0:
320,192,68926,1,0,0:0:0:0:
320,192,69266,1,0,0:0:0:0:
192,192,69266,1,0,0:0:0:0:
448,192,69607,1,0,0:0:0:0:
64,192,69607,1,0,0:0:0:0:
448,192,69948,1,0,0:0:0:0:
64,192,69948,1,0,0:0:0:0:
448,192,70289,1,0,0:0:0:0:
64,192,70289,1,0,0:0:0:0:
64,192,70630,1,0,0:0:0:0:
448,192,70630,1,0,0:0:0:0:
64,192,70971,1,0,0:0:0:0:
320,192,70971,1,0,0:0:0:0:
192,192,71312,1,0,0:0:0:0:
64,192,71312,1,0,0:0:0:0:
192,192,71653,1,0,0:0:0:0:
64,192,71653,1,0,0:0:0:0:
320,192,71994,1,0,0:0:0:0:
448,192,71994,1,0,0:0:0:0:
192,192,72335,1,0,0:0:0:0:
320,192,72335,1,0,0:0:0:0:
192,192,72676,1,0,0:0:0:0:
320,192,72676,1,0,0:0:0:0:
192,192,73016,1,0,0:0:0:0:
320,192,73016,1,0,0:0:0:0:
192,192,73357,1,0,0:0:0:0:
320,192,73357,1,0,0:0:0:0:
64,192,73698,1,0,0:0:0:0:
448,192,73698,1,0,0:0:0:0:
64,192,74039,1,0,0:0:0:0:
448,192,74039,1,0,0:0:0:0:
448,192,74380,1,0,0:0:0:0:
64,192,74380,1,0,0:0:0:0:
64,192,74721,1,0,0:0:0:0:
448,192,74721,1,0,0:0:0:0:
64,192,75062,1,0,0:0:0:0:
320,192,75062,1,0,0:0:0:0:
320,192,75403,1,0,0:0:0:0:
64,192,75403,1,0,0:0:0:0:
320,192,75744,1,0,0:0:0:0:
64,192,75744,1,0,0:0:0:0:
64,192,76085,1,0,0:0:0:0:
320,192,76085,1,0,0:0:0:0:
192,192,76426,1,0,0:0:0:0:
448,192,76426,1,0,0:0:0:0:
192,192,76766,1,0,0:0:0:0:
448,192,76766,1,0,0:0:0:0:
192,192,77107,1,0,0:0:0:0:
448,192,77107,1,0,0:0:0:0:
320,192,77448,1,0,0:0:0:0:
192,192,77448,1,0,0:0:0:0:
192,192,77789,1,0,0:0:0:0:
64,192,77789,1,0,0:0:0:0:
192,192,77960,1,0,0:0:0:0:
448,192,78130,1,0,0:0:0:0:
64,192,78130,1,0,0:0:0:0:
64,192,78301,1,0,0:0:0:0:
448,192,78301,1,0,0:0:0:0:
64,192,78471,1,0,0:0:0:0:
448,192,78471,1,0,0:0:0:0:
320,192,78641,1,0,0:0:0:0:
192,192,78812,1,0,0:0:0:0:
448,192,78812,1,0,0:0:0:0:
64,192,78982,1,0,0:0:0:0:
320,192,79153,1,0,0:0:0:0:
448,192,79153,1,0,0:0:0:0:
448,192,79323,1,0,0:0:0:0:
320,192,79494,1,0,0:0:0:0:
192,192,79494,1,0,0:0:0:0:
64,192,79664,1,0,0:0:0:0:
64,192,79749,1,0,0:0:0:0:
192,192,79835,1,0,0:0:0:0:
320,192,79835,1,0,0:0:0:0:
320,192,80005,1,0,0:0:0:0:
192,192,80176,1,0,0:0:0:0:
64,192,80176,1,0,0:0:0:0:
448,192,80346,1,0,0:0:0:0:
64,192,80516,1,0,0:0:0:0:
320,192,80516,1,0,0:0:0:0:
320,192,80687,1,0,0:0:0:0:
64,192,80857,1,0,0:0:0:0:
448,192,80857,1,0,0:0:0:0:
320,192,81028,1,0,0:0:0:0:
192,192,81028,1,0,0:0:0:0:
64,192,81198,1,0,0:0:0:0:
448,192,81198,1,0,0:0:0:0:
448,192,81369,1,0,0:0:0:0:
320,192,81539,1,0,0:0:0:0:
192,192,81539,1,0,0:0:0:0:
192,192,81710,1,0,0:0:0:0:
192,192,81795,1,0,0:0:0:0:
64,192,81880,1,0,0:0:0:0:
320,192,81880,1,0,0:0:0:0:
192,192,82051,1,0,0:0:0:0:
320,192,82221,1,0,0:0:0:0:
448,192,82221,1,0,0:0:0:0:
448,192,82391,1,0,0:0:0:0:
64,192,82562,1,0,0:0:0:0:
320,192,82562,1,0,0:0:0:0:
192,192,82732,1,0,0:0:0:0:
320,192,82903,1,0,0:0:0:0:
448,192,82903,1,0,0:0:0:0:
192,192,83073,1,0,0:0:0:0:
320,192,83244,1,0,0:0:0:0:
448,192,83244,1,0,0:0:0:0:
320,192,83414,1,0,0:0:0:0:
192,192,83414,1,0,0:0:0:0:
64,192,83585,1,0,0:0:0:0:
448,192,83585,1,0,0:0:0:0:
192,192,83755,1,0,0:0:0:0:
320,192,83755,1,0,0:0:0:0:
320,192,83926,1,0,0:0:0:0:
448,192,83926,1,0,0:0:0:0:
192,192,84096,1,0,0:0:0:0:
64,192,84096,1,0,0:0:0:0:
192,192,84266,1,0,0:0:0:0:
320,192,84266,1,0,0:0:0:0:
320,192,84437,1,0,0:0:0:0:
448,192,84437,1,0,0:0:0:0:
192,192,84607,1,0,0:0:0:0:
64,192,84607,1,0,0:0:0:0:
192,192,84778,1,0,0:0:0:0:
448,192,84778,1,0,0:0:0:0:
320,192,84948,1,0,0:0:0:0:
64,192,84948,1,0,0:0:0:0:
320,192,85119,1,0,0:0:0:0:
192,192,85119,1,0,0:0:0:0:
320,192,85204,1,0,0:0:0:0:
192,192,85289,1,0,0:0:0:0:
64,192,85289,1,0,0:0:0:0:
192,192,85460,1,0,0:0:0:0:
320,192,85460,1,0,0:0:0:0:
320,192,85630,1,0,0:0:0:0:
448,192,85630,1,0,0:0:0:0:
64,192,85801,1,0,0:0:0:0:
320,192,85801,1,0,0:0:0:0:
320,192,85971,1,0,0:0:0:0:
64,192,85971,1,0,0:0:0:0:
192,192,86056,1,0,0:0:0:0:
320,192,86141,1,0,0:0:0:0:
448,192,86141,1,0,0:0:0:0:
64,192,86227,1,0,0:0:0:0:
192,192,86312,1,0,0:0:0:0:
320,192,86312,1,0,0:0:0:0:
448,192,86397,1,0,0:0:0:0:
192,192,86482,1,0,0:0:0:0:
64,192,86482,1,0,0:0:0:0:
320,192,86568,1,0,0:0:0:0:
192,192,86653,1,0,0:0:0:0:
448,192,86653,1,0,0:0:0:0:
64,192,86738,1,0,0:0:0:0:
192,192,86823,1,0,0:0:0:0:
320,192,86823,1,0,0:0:0:0:
64,192,86908,1,0,0:0:0:0:
320,192,86994,1,0,0:0:0:0:
448,192,86994,1,0,0:0:0:0:
192,192,87079,1,0,0:0:0:0:
64,192,87164,1,0,0:0:0:0:
320,192,87164,1,0,0:0:0:0:
192,192,87249,1,0,0:0:0:0:
64,192,87335,1,0,0:0:0:0:
448,192,87335,1,0,0:0:0:0:
320,192,87377,1,0,0:0:0:0:
192,192,87420,1,0,0:0:0:0:
64,192,87462,1,0,0:0:0:0:
320,192,87548,1,0,0:0:0:0:
448,192,87548,1,0,0:0:0:0:
64,192,87718,1,0,0:0:0:0:
192,192,87761,1,0,0:0:0:0:
320,192,87803,1,0,0:0:0:0:
192,192,87846,1,0,0:0:0:0:
64,192,87846,1,0,0:0:0:0:
448,192,87846,1,0,0:0:0:0:
448,192,87960,128,0,88073:0:0:0:0:
64,192,87974,1,0,0:0:0:0:
192,192,88016,1,0,0:0:0:0:
320,192,88059,1,0,0:0:0:0:
64,192,88187,1,0,0:0:0:0:
192,192,88244,1,0,0:0:0:0:
320,192,88301,1,0,0:0:0:0:
448,192,88357,128,0,88613:0:0:0:0:
192,192,88528,128,0,88698:0:0:0:0:
320,192,88613,128,0,88698:0:0:0:0:
64,192,88698,128,0,88869:0:0:0:0:
192,192,89039,1,0,0:0:0:0:
320,192,89039,1,0,0:0:0:0:
448,192,89039,1,0,0:0:0:0:
320,192,89210,1,0,0:0:0:0:
64,192,89380,128,0,89551:0:0:0:0:
192,192,89380,1,0,0:0:0:0:
448,192,89380,1,0,0:0:0:0:
320,192,89551,1,0,0:0:0:0:
448,192,89721,128,0,89891:0:0:0:0:
192,192,89721,1,0,0:0:0:0:
64,192,89721,1,0,0:0:0:0:
192,192,89891,1,0,0:0:0:0:
64,192,90062,1,0,0:0:0:0:
192,192,90119,1,0,0:0:0:0:
320,192,90176,1,0,0:0:0:0:
448,192,90232,1,0,0:0:0:0:
192,192,90403,1,0,0:0:0:0:
64,192,90403,1,0,0:0:0:0:
320,192,90573,1,0,0:0:0:0:
64,192,90744,1,0,0:0:0:0:
192,192,90744,1,0,0:0:0:0:
320,192,90801,1,0,0:0:0:0:
448,192,90801,1,0,0:0:0:0:
192,192,90857,1,0,0:0:0:0:
64,192,90857,1,0,0:0:0:0:
320,192,90914,1,0,0:0:0:0:
448,192,90914,1,0,0:0:0:0:
192,192,90971,1,0,0:0:0:0:
64,192,90971,1,0,0:0:0:0:
320,192,91028,1,0,0:0:0:0:
448,192,91028,1,0,0:0:0:0:
192,192,91085,1,0,0:0:0:0:
64,192,91085,1,0,0:0:0:0:
64,192,91255,1,0,0:0:0:0:
192,192,91426,1,0,0:0:0:0:
448,192,91426,1,0,0:0:0:0:
320,192,91596,1,0,0:0:0:0:
192,192,91766,1,0,0:0:0:0:
64,192,91766,1,0,0:0:0:0:
192,192,91937,1,0,0:0:0:0:
64,192,92107,128,0,92278:0:0:0:0:
320,192,92107,1,0,0:0:0:0:
448,192,92107,1,0,0:0:0:0:
192,192,92278,1,0,0:0:0:0:
320,192,92278,128,0,92448:0:0:0:0:
192,192,92448,128,0,92619:0:0:0:0:
448,192,92448,1,0,0:0:0:0:
448,192,92619,128,0,92789:0:0:0:0:
320,192,92619,1,0,0:0:0:0:
64,192,92789,1,0,0:0:0:0:
64,192,92874,128,0,93045:0:0:0:0:
192,192,93130,1,0,0:0:0:0:
192,192,93215,128,0,93386:0:0:0:0:
320,192,93471,1,0,0:0:0:0:
320,192,93556,128,0,93727:0:0:0:0:
448,192,93812,1,0,0:0:0:0:
448,192,93897,128,0,94068:0:0:0:0:
320,192,94153,1,0,0:0:0:0:
192,192,94153,1,0,0:0:0:0:
64,192,94153,1,0,0:0:0:0:
320,192,94408,1,0,0:0:0:0:
192,192,94408,1,0,0:0:0:0:
64,192,94408,1,0,0:0:0:0:
64,192,94664,1,0,0:0:0:0:
192,192,94664,1,0,0:0:0:0:
320,192,94664,1,0,0:0:0:0:
64,192,94835,1,0,0:0:0:0:
192,192,94835,1,0,0:0:0:0:
448,192,94835,1,0,0:0:0:0:
320,192,94891,1,0,0:0:0:0:
192,192,94948,1,0,0:0:0:0:
64,192,95005,1,0,0:0:0:0:
192,192,95062,1,0,0:0:0:0:
320,192,95119,1,0,0:0:0:0:
448,192,95176,1,0,0:0:0:0:
64,192,95176,128,0,95346:0:0:0:0:
192,192,95176,1,0,0:0:0:0:
320,192,95346,1,0,0:0:0:0:
320,192,95516,128,0,95687:0:0:0:0:
448,192,95516,1,0,0:0:0:0:
192,192,95516,1,0,0:0:0:0:
64,192,95602,1,0,0:0:0:0:
64,192,95687,1,0,0:0:0:0:
448,192,95857,128,0,96028:0:0:0:0:
64,192,95857,1,0,0:0:0:0:
320,192,95857,1,0,0:0:0:0:
192,192,96028,1,0,0:0:0:0:
64,192,96113,1,0,0:0:0:0:
320,192,96198,128,0,96369:0:0:0:0:
64,192,96198,1,0,0:0:0:0:
192,192,96198,1,0,0:0:0:0:
448,192,96198,1,0,0:0:0:0:
64,192,96369,1,0,0:0:0:0:
320,192,96539,1,0,0:0:0:0:
448,192,96539,1,0,0:0:0:0:
192,192,96539,128,0,96710:0:0:0:0:
320,192,96880,128,0,97136:0:0:0:0:
192,192,96880,1,0,0:0:0:0:
64,192,96880,1,0,0:0:0:0:
448,192,96880,1,0,0:0:0:0:
64,192,97136,1,0,0:0:0:0:
64,192,97221,1,0,0:0:0:0:
192,192,97306,1,0,0:0:0:0:
320,192,97391,1,0,0:0:0:0:
448,192,97391,128,0,97647:0:0:0:0:
192,192,97647,1,0,0:0:0:0:
192,192,97732,1,0,0:0:0:0:
