osu file format v14

[General]
AudioFilename: audio.mp3
AudioLeadIn: 0
PreviewTime: 45189
Countdown: 1
SampleSet: Soft
StackLeniency: 0.7
Mode: 3
LetterboxInBreaks: 0
SpecialStyle: 0
WidescreenStoryboard: 0

[Editor]
DistanceSpacing: 1
BeatDivisor: 4
GridSize: 32
TimelineZoom: 2

[Metadata]
Title:Your voice so... feat. Such (YUKIYANAGI Remix)
TitleUnicode:Your voice so... feat. Such (YUKIYANAGI Remix)
Artist:PSYQUI
ArtistUnicode:PSYQUI
Creator:ExVeemon
Version:Hard
Source:
Tags:cut
BeatmapID:1698885
BeatmapSetID:809630

[Difficulty]
HPDrainRate:8
CircleSize:4
OverallDifficulty:7.5
ApproachRate:5
SliderMultiplier:1.4
SliderTickRate:1

[Events]
//Background and Video events
0,0,"jacket.jpg",0,0
//Break Periods
//Storyboard Layer 0 (Background)
//Storyboard Layer 1 (Fail)
//Storyboard Layer 2 (Pass)
//Storyboard Layer 3 (Foreground)
//Storyboard Sound Samples

[TimingPoints]
13.1798726448596,352.941176470588,4,2,0,30,1,0
22601,-100,4,2,0,30,0,1
45189,-100,4,2,0,30,0,0
90370,352.941176470588,4,2,0,30,1,1
112958,-100,4,2,0,30,0,0

[HitObjects]
64,192,15,5,0,0:0:0:0:
448,192,15,1,0,0:0:0:0:
320,192,15,1,0,0:0:0:0:
192,192,189,128,0,366:0:0:0:0:
64,192,366,1,0,0:0:0:0:
320,192,366,1,0,0:0:0:0:
320,192,630,1,0,0:0:0:0:
64,192,719,1,0,0:0:0:0:
448,192,719,1,0,0:0:0:0:
192,192,807,1,0,0:0:0:0:
448,192,1072,1,0,0:0:0:0:
64,192,1072,128,0,1248:0:0:0:0:
192,192,1072,1,0,0:0:0:0:
320,192,1248,1,0,0:0:0:0:
192,192,1336,1,0,0:0:0:0:
64,192,1424,1,0,0:0:0:0:
448,192,1424,1,0,0:0:0:0:
192,192,1601,128,0,1777:0:0:0:0:
448,192,1777,1,0,0:0:0:0:
64,192,1777,1,0,0:0:0:0:
320,192,1954,128,0,2130:0:0:0:0:
192,192,2130,1,0,0:0:0:0:
64,192,2130,1,0,0:0:0:0:
448,192,2307,1,0,0:0:0:0:
192,192,2483,1,0,0:0:0:0:
320,192,2483,1,0,0:0:0:0:
64,192,2660,1,0,0:0:0:0:
448,192,2748,1,0,0:0:0:0:
192,192,2836,1,0,0:0:0:0:
320,192,2836,1,0,0:0:0:0:
64,192,3013,128,0,3189:0:0:0:0:
192,192,3189,1,0,0:0:0:0:
448,192,3189,1,0,0:0:0:0:
192,192,3454,1,0,0:0:0:0:
64,192,3542,1,0,0:0:0:0:
448,192,3542,1,0,0:0:0:0:
320,192,3630,1,0,0:0:0:0:
64,192,3895,128,0,4072:0:0:0:0:
448,192,3895,1,0,0:0:0:0:
192,192,3895,1,0,0:0:0:0:
320,192,4072,1,0,0:0:0:0:
192,192,4160,1,0,0:0:0:0:
64,192,4248,1,0,0:0:0:0:
448,192,4248,1,0,0:0:0:0:
192,192,4424,128,0,4601:0:0:0:0:
320,192,4601,1,0,0:0:0:0:
448,192,4601,1,0,0:0:0:0:
64,192,4777,128,0,4954:0:0:0:0:
192,192,4954,1,0,0:0:0:0:
448,192,4954,1,0,0:0:0:0:
320,192,5130,1,0,0:0:0:0:
192,192,5307,1,0,0:0:0:0:
64,192,5307,1,0,0:0:0:0:
448,192,5483,1,0,0:0:0:0:
64,192,5572,1,0,0:0:0:0:
320,192,5660,1,0,0:0:0:0:
192,192,5660,1,0,0:0:0:0:
448,192,5836,128,0,6013:0:0:0:0:
64,192,6013,1,0,0:0:0:0:
320,192,6013,1,0,0:0:0:0:
64,192,6277,1,0,0:0:0:0:
192,192,6366,1,0,0:0:0:0:
448,192,6366,1,0,0:0:0:0:
320,192,6454,1,0,0:0:0:0:
64,192,6719,1,0,0:0:0:0:
192,192,6719,128,0,6895:0:0:0:0:
448,192,6719,1,0,0:0:0:0:
320,192,6895,1,0,0:0:0:0:
448,192,6983,1,0,0:0:0:0:
192,192,7072,1,0,0:0:0:0:
64,192,7072,1,0,0:0:0:0:
320,192,7248,128,0,7424:0:0:0:0:
64,192,7424,1,0,0:0:0:0:
448,192,7424,1,0,0:0:0:0:
192,192,7601,128,0,7777:0:0:0:0:
320,192,7777,1,0,0:0:0:0:
448,192,7777,1,0,0:0:0:0:
64,192,7954,1,0,0:0:0:0:
192,192,8130,1,0,0:0:0:0:
448,192,8130,1,0,0:0:0:0:
320,192,8307,1,0,0:0:0:0:
192,192,8395,1,0,0:0:0:0:
64,192,8483,1,0,0:0:0:0:
448,192,8483,1,0,0:0:0:0:
320,192,8660,128,0,8836:0:0:0:0:
64,192,8836,1,0,0:0:0:0:
192,192,8836,1,0,0:0:0:0:
448,192,9101,1,0,0:0:0:0:
64,192,9189,1,0,0:0:0:0:
192,192,9189,1,0,0:0:0:0:
320,192,9277,1,0,0:0:0:0:
448,192,9542,128,0,9719:0:0:0:0:
64,192,9542,1,0,0:0:0:0:
192,192,9542,1,0,0:0:0:0:
320,192,9719,1,0,0:0:0:0:
192,192,9807,1,0,0:0:0:0:
64,192,9895,1,0,0:0:0:0:
448,192,9895,128,0,10072:0:0:0:0:
192,192,10072,128,0,10248:0:0:0:0:
320,192,10248,128,0,10424:0:0:0:0:
192,192,10424,1,0,0:0:0:0:
64,192,10513,1,0,0:0:0:0:
320,192,10601,128,0,10954:0:0:0:0:
448,192,10954,128,0,11307:0:0:0:0:
64,192,11307,1,0,0:0:0:0:
320,192,11307,1,0,0:0:0:0:
192,192,11483,1,0,0:0:0:0:
448,192,11660,128,0,12013:0:0:0:0:
320,192,11660,1,0,0:0:0:0:
64,192,11660,1,0,0:0:0:0:
192,192,11836,1,0,0:0:0:0:
64,192,12013,1,0,0:0:0:0:
192,192,12013,1,0,0:0:0:0:
448,192,12189,1,0,0:0:0:0:
192,192,12277,1,0,0:0:0:0:
320,192,12277,1,0,0:0:0:0:
64,192,12366,1,0,0:0:0:0:
448,192,12366,1,0,0:0:0:0:
64,192,12542,1,0,0:0:0:0:
320,192,12542,1,0,0:0:0:0:
192,192,12719,1,0,0:0:0:0:
448,192,12719,1,0,0:0:0:0:
64,192,12895,1,0,0:0:0:0:
448,192,13072,1,0,0:0:0:0:
320,192,13072,1,0,0:0:0:0:
192,192,13072,1,0,0:0:0:0:
192,192,13248,1,0,0:0:0:0:
320,192,13424,1,0,0:0:0:0:
64,192,13424,1,0,0:0:0:0:
448,192,13601,1,0,0:0:0:0:
64,192,13777,1,0,0:0:0:0:
192,192,13777,1,0,0:0:0:0:
448,192,13777,1,0,0:0:0:0:
320,192,13954,1,0,0:0:0:0:
448,192,14130,1,0,0:0:0:0:
64,192,14130,128,0,14483:0:0:0:0:
320,192,14307,1,0,0:0:0:0:
448,192,14483,1,0,0:0:0:0:
320,192,14483,128,0,14836:0:0:0:0:
192,192,14483,1,0,0:0:0:0:
192,192,14660,1,0,0:0:0:0:
192,192,14836,128,0,15101:0:0:0:0:
64,192,14836,1,0,0:0:0:0:
320,192,15013,1,0,0:0:0:0:
64,192,15101,128,0,15366:0:0:0:0:
448,192,15189,1,0,0:0:0:0:
320,192,15189,1,0,0:0:0:0:
192,192,15366,1,0,0:0:0:0:
320,192,15454,1,0,0:0:0:0:
64,192,15542,1,0,0:0:0:0:
448,192,15542,1,0,0:0:0:0:
192,192,15719,1,0,0:0:0:0:
320,192,15895,1,0,0:0:0:0:
448,192,15895,1,0,0:0:0:0:
64,192,15895,1,0,0:0:0:0:
192,192,16072,1,0,0:0:0:0:
320,192,16248,1,0,0:0:0:0:
448,192,16248,1,0,0:0:0:0:
192,192,16424,1,0,0:0:0:0:
64,192,16601,1,0,0:0:0:0:
320,192,16601,1,0,0:0:0:0:
448,192,16601,1,0,0:0:0:0:
448,192,16777,1,0,0:0:0:0:
64,192,16954,1,0,0:0:0:0:
192,192,16954,1,0,0:0:0:0:
320,192,16954,1,0,0:0:0:0:
192,192,17130,1,0,0:0:0:0:
320,192,17307,128,0,17660:0:0:0:0:
448,192,17307,1,0,0:0:0:0:
64,192,17307,1,0,0:0:0:0:
192,192,17483,1,0,0:0:0:0:
448,192,17660,1,0,0:0:0:0:
64,192,17660,1,0,0:0:0:0:
192,192,17836,1,0,0:0:0:0:
320,192,17924,1,0,0:0:0:0:
64,192,17924,1,0,0:0:0:0:
192,192,18013,1,0,0:0:0:0:
448,192,18013,1,0,0:0:0:0:
448,192,18189,1,0,0:0:0:0:
64,192,18189,1,0,0:0:0:0:
320,192,18366,1,0,0:0:0:0:
192,192,18366,1,0,0:0:0:0:
64,192,18366,1,0,0:0:0:0:
320,192,18542,1,0,0:0:0:0:
320,192,18719,1,0,0:0:0:0:
64,192,18719,1,0,0:0:0:0:
448,192,18719,1,0,0:0:0:0:
64,192,18895,1,0,0:0:0:0:
320,192,19072,1,0,0:0:0:0:
192,192,19072,1,0,0:0:0:0:
448,192,19072,1,0,0:0:0:0:
320,192,19248,1,0,0:0:0:0:
448,192,19424,1,0,0:0:0:0:
64,192,19424,1,0,0:0:0:0:
192,192,19424,1,0,0:0:0:0:
320,192,19601,1,0,0:0:0:0:
192,192,19777,128,0,20130:0:0:0:0:
448,192,19777,1,0,0:0:0:0:
64,192,19777,1,0,0:0:0:0:
320,192,19954,1,0,0:0:0:0:
448,192,20130,128,0,20483:0:0:0:0:
64,192,20130,1,0,0:0:0:0:
320,192,20130,1,0,0:0:0:0:
192,192,20307,1,0,0:0:0:0:
320,192,20483,128,0,20748:0:0:0:0:
64,192,20483,1,0,0:0:0:0:
192,192,20483,1,0,0:0:0:0:
448,192,20660,1,0,0:0:0:0:
192,192,20748,128,0,21013:0:0:0:0:
64,192,20836,1,0,0:0:0:0:
448,192,20836,1,0,0:0:0:0:
320,192,21013,1,0,0:0:0:0:
448,192,21101,1,0,0:0:0:0:
64,192,21189,1,0,0:0:0:0:
192,192,21189,1,0,0:0:0:0:
448,192,21277,1,0,0:0:0:0:
320,192,21366,1,0,0:0:0:0:
448,192,21454,1,0,0:0:0:0:
64,192,21542,1,0,0:0:0:0:
192,192,21542,1,0,0:0:0:0:
448,192,21630,1,0,0:0:0:0:
320,192,21719,1,0,0:0:0:0:
448,192,21807,1,0,0:0:0:0:
64,192,21895,1,0,0:0:0:0:
192,192,21895,1,0,0:0:0:0:
448,192,21983,1,0,0:0:0:0:
320,192,22072,1,0,0:0:0:0:
448,192,22160,1,0,0:0:0:0:
192,192,22248,128,0,22424:0:0:0:0:
64,192,22248,1,0,0:0:0:0:
448,192,22424,1,0,0:0:0:0:
320,192,22424,128,0,22601:0:0:0:0:
192,192,22601,1,0,0:0:0:0:
64,192,22601,1,0,0:0:0:0:
320,192,22777,1,0,0:0:0:0:
448,192,22954,128,0,23307:0:0:0:0:
320,192,22954,1,0,0:0:0:0:
192,192,22954,1,0,0:0:0:0:
64,192,23130,1,0,0:0:0:0:
192,192,23307,1,0,0:0:0:0:
320,192,23307,1,0,0:0:0:0:
320,192,23483,1,0,0:0:0:0:
192,192,23572,1,0,0:0:0:0:
64,192,23572,1,0,0:0:0:0:
448,192,23660,1,0,0:0:0:0:
320,192,23660,1,0,0:0:0:0:
64,192,23748,1,0,0:0:0:0:
320,192,23836,1,0,0:0:0:0:
192,192,23836,1,0,0:0:0:0:
64,192,24013,1,0,0:0:0:0:
448,192,24013,1,0,0:0:0:0:
192,192,24189,1,0,0:0:0:0:
192,192,24277,1,0,0:0:0:0:
64,192,24366,1,0,0:0:0:0:
448,192,24366,1,0,0:0:0:0:
320,192,24542,1,0,0:0:0:0:
64,192,24719,128,0,25072:0:0:0:0:
448,192,24719,1,0,0:0:0:0:
192,192,24719,1,0,0:0:0:0:
320,192,24895,1,0,0:0:0:0:
192,192,25072,128,0,25424:0:0:0:0:
448,192,25072,1,0,0:0:0:0:
64,192,25248,1,0,0:0:0:0:
320,192,25424,128,0,25777:0:0:0:0:
448,192,25424,1,0,0:0:0:0:
192,192,25601,1,0,0:0:0:0:
448,192,25777,128,0,26130:0:0:0:0:
64,192,25777,1,0,0:0:0:0:
192,192,25954,1,0,0:0:0:0:
64,192,26130,1,0,0:0:0:0:
320,192,26130,1,0,0:0:0:0:
448,192,26307,1,0,0:0:0:0:
192,192,26395,1,0,0:0:0:0:
320,192,26395,1,0,0:0:0:0:
64,192,26483,1,0,0:0:0:0:
448,192,26483,1,0,0:0:0:0:
320,192,26660,1,0,0:0:0:0:
320,192,26748,1,0,0:0:0:0:
448,192,26836,1,0,0:0:0:0:
192,192,26836,1,0,0:0:0:0:
64,192,27013,1,0,0:0:0:0:
320,192,27013,1,0,0:0:0:0:
448,192,27189,1,0,0:0:0:0:
320,192,27189,1,0,0:0:0:0:
192,192,27366,1,0,0:0:0:0:
192,192,27454,1,0,0:0:0:0:
448,192,27542,128,0,28248:0:0:0:0:
64,192,27542,1,0,0:0:0:0:
320,192,27542,1,0,0:0:0:0:
192,192,27719,1,0,0:0:0:0:
64,192,27895,128,0,28248:0:0:0:0:
320,192,27895,1,0,0:0:0:0:
192,192,28072,1,0,0:0:0:0:
320,192,28248,128,0,28601:0:0:0:0:
192,192,28248,1,0,0:0:0:0:
64,192,28424,1,0,0:0:0:0:
448,192,28601,1,0,0:0:0:0:
192,192,28601,1,0,0:0:0:0:
64,192,28777,1,0,0:0:0:0:
320,192,28777,1,0,0:0:0:0:
192,192,28954,1,0,0:0:0:0:
448,192,28954,1,0,0:0:0:0:
64,192,29130,1,0,0:0:0:0:
320,192,29219,1,0,0:0:0:0:
192,192,29219,1,0,0:0:0:0:
64,192,29307,1,0,0:0:0:0:
448,192,29307,1,0,0:0:0:0:
192,192,29395,1,0,0:0:0:0:
64,192,29483,1,0,0:0:0:0:
320,192,29483,1,0,0:0:0:0:
192,192,29660,1,0,0:0:0:0:
448,192,29660,1,0,0:0:0:0:
192,192,29836,1,0,0:0:0:0:
320,192,29836,1,0,0:0:0:0:
64,192,30013,1,0,0:0:0:0:
448,192,30013,1,0,0:0:0:0:
192,192,30189,1,0,0:0:0:0:
64,192,30277,1,0,0:0:0:0:
448,192,30366,1,0,0:0:0:0:
192,192,30366,1,0,0:0:0:0:
320,192,30542,1,0,0:0:0:0:
320,192,30630,1,0,0:0:0:0:
64,192,30719,128,0,31072:0:0:0:0:
192,192,30719,1,0,0:0:0:0:
448,192,30719,1,0,0:0:0:0:
320,192,30895,1,0,0:0:0:0:
320,192,31072,128,0,31424:0:0:0:0:
448,192,31072,1,0,0:0:0:0:
64,192,31248,1,0,0:0:0:0:
448,192,31424,128,0,31777:0:0:0:0:
192,192,31424,1,0,0:0:0:0:
192,192,31601,1,0,0:0:0:0:
64,192,31777,1,0,0:0:0:0:
192,192,31777,128,0,32042:0:0:0:0:
320,192,31954,1,0,0:0:0:0:
64,192,32042,128,0,32307:0:0:0:0:
448,192,32130,1,0,0:0:0:0:
320,192,32219,1,0,0:0:0:0:
192,192,32307,128,0,32483:0:0:0:0:
448,192,32307,1,0,0:0:0:0:
64,192,32483,1,0,0:0:0:0:
448,192,32483,128,0,32836:0:0:0:0:
320,192,32660,1,0,0:0:0:0:
320,192,32836,128,0,33189:0:0:0:0:
192,192,32836,1,0,0:0:0:0:
64,192,33013,1,0,0:0:0:0:
448,192,33189,1,0,0:0:0:0:
192,192,33189,128,0,33542:0:0:0:0:
320,192,33366,1,0,0:0:0:0:
64,192,33542,128,0,33719:0:0:0:0:
448,192,33542,1,0,0:0:0:0:
320,192,33719,1,0,0:0:0:0:
192,192,33807,1,0,0:0:0:0:
64,192,33895,1,0,0:0:0:0:
448,192,33895,1,0,0:0:0:0:
320,192,33895,128,0,34248:0:0:0:0:
192,192,34072,1,0,0:0:0:0:
64,192,34248,128,0,34601:0:0:0:0:
448,192,34248,1,0,0:0:0:0:
320,192,34424,1,0,0:0:0:0:
448,192,34601,1,0,0:0:0:0:
192,192,34601,1,0,0:0:0:0:
320,192,34777,1,0,0:0:0:0:
192,192,34866,1,0,0:0:0:0:
448,192,34866,1,0,0:0:0:0:
64,192,34954,1,0,0:0:0:0:
320,192,34954,1,0,0:0:0:0:
320,192,35130,1,0,0:0:0:0:
192,192,35130,1,0,0:0:0:0:
448,192,35307,1,0,0:0:0:0:
64,192,35307,1,0,0:0:0:0:
192,192,35483,1,0,0:0:0:0:
192,192,35572,1,0,0:0:0:0:
64,192,35660,1,0,0:0:0:0:
448,192,35660,1,0,0:0:0:0:
320,192,35660,128,0,35836:0:0:0:0:
64,192,35836,128,0,36013:0:0:0:0:
192,192,36013,128,0,36719:0:0:0:0:
448,192,36013,1,0,0:0:0:0:
320,192,36189,1,0,0:0:0:0:
64,192,36366,128,0,36719:0:0:0:0:
320,192,36366,1,0,0:0:0:0:
448,192,36542,1,0,0:0:0:0:
320,192,36719,128,0,37072:0:0:0:0:
448,192,36719,1,0,0:0:0:0:
192,192,36895,1,0,0:0:0:0:
448,192,37072,128,0,37424:0:0:0:0:
64,192,37072,1,0,0:0:0:0:
320,192,37248,1,0,0:0:0:0:
320,192,37424,128,0,37689:0:0:0:0:
64,192,37424,1,0,0:0:0:0:
448,192,37601,1,0,0:0:0:0:
192,192,37689,128,0,37954:0:0:0:0:
64,192,37777,1,0,0:0:0:0:
448,192,37777,1,0,0:0:0:0:
320,192,37954,1,0,0:0:0:0:
320,192,38042,1,0,0:0:0:0:
64,192,38130,128,0,38307:0:0:0:0:
192,192,38130,1,0,0:0:0:0:
448,192,38130,1,0,0:0:0:0:
320,192,38307,1,0,0:0:0:0:
192,192,38483,128,0,38660:0:0:0:0:
64,192,38483,1,0,0:0:0:0:
320,192,38483,1,0,0:0:0:0:
448,192,38660,1,0,0:0:0:0:
448,192,38836,128,0,39013:0:0:0:0:
64,192,38836,1,0,0:0:0:0:
320,192,38836,1,0,0:0:0:0:
192,192,39013,1,0,0:0:0:0:
320,192,39189,128,0,39366:0:0:0:0:
448,192,39189,1,0,0:0:0:0:
64,192,39189,1,0,0:0:0:0:
192,192,39366,1,0,0:0:0:0:
320,192,39542,128,0,39895:0:0:0:0:
448,192,39542,1,0,0:0:0:0:
64,192,39542,1,0,0:0:0:0:
192,192,39719,1,0,0:0:0:0:
192,192,39895,128,0,40072:0:0:0:0:
64,192,39895,1,0,0:0:0:0:
448,192,40072,1,0,0:0:0:0:
320,192,40160,1,0,0:0:0:0:
64,192,40248,1,0,0:0:0:0:
192,192,40248,1,0,0:0:0:0:
448,192,40248,1,0,0:0:0:0:
192,192,40424,1,0,0:0:0:0:
448,192,40424,1,0,0:0:0:0:
320,192,40513,1,0,0:0:0:0:
64,192,40513,1,0,0:0:0:0:
192,192,40601,1,0,0:0:0:0:
320,192,40689,1,0,0:0:0:0:
64,192,40777,128,0,40954:0:0:0:0:
448,192,40777,1,0,0:0:0:0:
448,192,40954,128,0,41130:0:0:0:0:
320,192,40954,1,0,0:0:0:0:
192,192,41130,128,0,41307:0:0:0:0:
320,192,41307,128,0,41483:0:0:0:0:
64,192,41307,1,0,0:0:0:0:
192,192,41483,1,0,0:0:0:0:
192,192,41572,1,0,0:0:0:0:
64,192,41660,1,0,0:0:0:0:
448,192,41660,1,0,0:0:0:0:
320,192,41836,1,0,0:0:0:0:
320,192,41924,1,0,0:0:0:0:
64,192,42013,128,0,42366:0:0:0:0:
448,192,42013,1,0,0:0:0:0:
192,192,42013,1,0,0:0:0:0:
320,192,42189,1,0,0:0:0:0:
192,192,42366,128,0,43072:0:0:0:0:
320,192,42366,1,0,0:0:0:0:
448,192,42366,1,0,0:0:0:0:
448,192,42719,128,0,43072:0:0:0:0:
320,192,43072,128,0,43336:0:0:0:0:
64,192,43072,1,0,0:0:0:0:
192,192,43336,128,0,43513:0:0:0:0:
320,192,43513,1,0,0:0:0:0:
192,192,43601,128,0,43777:0:0:0:0:
448,192,43777,128,0,44130:0:0:0:0:
64,192,43777,1,0,0:0:0:0:
320,192,43777,1,0,0:0:0:0:
320,192,44130,128,0,44483:0:0:0:0:
192,192,44483,128,0,44836:0:0:0:0:
64,192,44483,1,0,0:0:0:0:
448,192,44483,1,0,0:0:0:0:
320,192,44660,1,0,0:0:0:0:
64,192,44836,128,0,45189:0:0:0:0:
448,192,44836,1,0,0:0:0:0:
192,192,45189,128,0,46601:0:0:0:0:
448,192,45189,1,0,0:0:0:0:
448,192,45895,128,0,46601:0:0:0:0:
64,192,46601,128,0,48013:0:0:0:0:
320,192,46601,128,0,47307:0:0:0:0:
192,192,47307,128,0,47660:0:0:0:0:
320,192,48013,128,0,49424:0:0:0:0:
192,192,48013,128,0,48366:0:0:0:0:
64,192,48366,128,0,48719:0:0:0:0:
448,192,48719,128,0,49424:0:0:0:0:
192,192,49424,128,0,50130:0:0:0:0:
64,192,49777,128,0,50130:0:0:0:0:
448,192,50130,128,0,50836:0:0:0:0:
320,192,50130,128,0,50483:0:0:0:0:
64,192,50483,128,0,50836:0:0:0:0:
192,192,50836,128,0,52248:0:0:0:0:
320,192,50836,128,0,51542:0:0:0:0:
320,192,51895,128,0,52248:0:0:0:0:
64,192,52248,128,0,52954:0:0:0:0:
448,192,52248,128,0,52601:0:0:0:0:
320,192,52601,128,0,52954:0:0:0:0:
192,192,52954,128,0,53660:0:0:0:0:
448,192,52954,128,0,53307:0:0:0:0:
64,192,53307,128,0,53660:0:0:0:0:
448,192,53660,128,0,54366:0:0:0:0:
320,192,53660,128,0,54189:0:0:0:0:
64,192,54189,1,0,0:0:0:0:
320,192,54366,128,0,55072:0:0:0:0:
64,192,54719,128,0,55072:0:0:0:0:
192,192,55072,128,0,55777:0:0:0:0:
448,192,55072,128,0,55424:0:0:0:0:
320,192,55424,128,0,55777:0:0:0:0:
448,192,55777,128,0,56483:0:0:0:0:
64,192,55777,128,0,56130:0:0:0:0:
320,192,56130,128,0,56483:0:0:0:0:
64,192,56660,1,0,0:0:0:0:
320,192,56660,1,0,0:0:0:0:
448,192,56660,1,0,0:0:0:0:
64,192,56836,1,0,0:0:0:0:
320,192,56836,1,0,0:0:0:0:
192,192,56836,128,0,57895:0:0:0:0:
448,192,56836,1,0,0:0:0:0:
448,192,57189,128,0,57895:0:0:0:0:
64,192,57895,128,0,59307:0:0:0:0:
320,192,57895,128,0,58601:0:0:0:0:
192,192,58601,128,0,58954:0:0:0:0:
320,192,59307,128,0,60719:0:0:0:0:
448,192,59307,128,0,59836:0:0:0:0:
192,192,59836,128,0,60366:0:0:0:0:
64,192,60366,128,0,61072:0:0:0:0:
192,192,60719,128,0,61424:0:0:0:0:
448,192,60719,128,0,61072:0:0:0:0:
448,192,61424,128,0,62130:0:0:0:0:
320,192,61424,128,0,62130:0:0:0:0:
192,192,62130,128,0,63542:0:0:0:0:
64,192,62130,128,0,62660:0:0:0:0:
448,192,62660,1,0,0:0:0:0:
320,192,62836,128,0,63189:0:0:0:0:
64,192,63542,128,0,64248:0:0:0:0:
320,192,63542,128,0,63895:0:0:0:0:
448,192,63895,128,0,64248:0:0:0:0:
320,192,64248,128,0,64954:0:0:0:0:
192,192,64248,128,0,64601:0:0:0:0:
64,192,64601,128,0,64954:0:0:0:0:
448,192,64954,128,0,65660:0:0:0:0:
192,192,64954,128,0,65660:0:0:0:0:
320,192,65660,128,0,66366:0:0:0:0:
64,192,66013,128,0,66366:0:0:0:0:
192,192,66366,128,0,67072:0:0:0:0:
448,192,66366,128,0,66719:0:0:0:0:
320,192,66719,128,0,67072:0:0:0:0:
64,192,67072,128,0,67777:0:0:0:0:
448,192,67072,128,0,67777:0:0:0:0:
320,192,67777,128,0,68130:0:0:0:0:
192,192,67777,1,0,0:0:0:0:
192,192,67954,1,0,0:0:0:0:
448,192,68130,1,0,0:0:0:0:
64,192,68130,1,0,0:0:0:0:
320,192,68307,1,0,0:0:0:0:
448,192,68395,1,0,0:0:0:0:
192,192,68395,1,0,0:0:0:0:
320,192,68572,1,0,0:0:0:0:
448,192,68660,1,0,0:0:0:0:
64,192,68660,1,0,0:0:0:0:
320,192,68836,1,0,0:0:0:0:
192,192,68836,1,0,0:0:0:0:
448,192,68924,1,0,0:0:0:0:
192,192,69101,1,0,0:0:0:0:
64,192,69189,1,0,0:0:0:0:
320,192,69189,1,0,0:0:0:0:
448,192,69366,1,0,0:0:0:0:
192,192,69366,1,0,0:0:0:0:
64,192,69542,1,0,0:0:0:0:
320,192,69542,1,0,0:0:0:0:
192,192,69719,1,0,0:0:0:0:
64,192,69807,1,0,0:0:0:0:
448,192,69895,1,0,0:0:0:0:
192,192,69895,1,0,0:0:0:0:
320,192,69983,1,0,0:0:0:0:
192,192,70072,1,0,0:0:0:0:
320,192,70248,1,0,0:0:0:0:
64,192,70248,1,0,0:0:0:0:
192,192,70336,1,0,0:0:0:0:
320,192,70513,1,0,0:0:0:0:
448,192,70601,128,0,70954:0:0:0:0:
192,192,70601,1,0,0:0:0:0:
192,192,70777,1,0,0:0:0:0:
64,192,70954,1,0,0:0:0:0:
320,192,70954,1,0,0:0:0:0:
192,192,71130,1,0,0:0:0:0:
448,192,71219,1,0,0:0:0:0:
64,192,71219,1,0,0:0:0:0:
192,192,71395,1,0,0:0:0:0:
448,192,71483,1,0,0:0:0:0:
320,192,71483,1,0,0:0:0:0:
64,192,71660,1,0,0:0:0:0:
192,192,71660,1,0,0:0:0:0:
448,192,71748,1,0,0:0:0:0:
64,192,71924,1,0,0:0:0:0:
448,192,72013,1,0,0:0:0:0:
192,192,72013,1,0,0:0:0:0:
448,192,72189,1,0,0:0:0:0:
64,192,72189,1,0,0:0:0:0:
320,192,72366,1,0,0:0:0:0:
192,192,72366,1,0,0:0:0:0:
448,192,72542,1,0,0:0:0:0:
320,192,72542,1,0,0:0:0:0:
64,192,72630,1,0,0:0:0:0:
448,192,72719,1,0,0:0:0:0:
192,192,72719,1,0,0:0:0:0:
320,192,72807,1,0,0:0:0:0:
64,192,72895,1,0,0:0:0:0:
192,192,72895,1,0,0:0:0:0:
448,192,73072,1,0,0:0:0:0:
192,192,73072,1,0,0:0:0:0:
320,192,73160,1,0,0:0:0:0:
64,192,73248,1,0,0:0:0:0:
192,192,73248,1,0,0:0:0:0:
320,192,73336,1,0,0:0:0:0:
192,192,73424,1,0,0:0:0:0:
448,192,73424,128,0,73777:0:0:0:0:
192,192,73601,1,0,0:0:0:0:
64,192,73777,1,0,0:0:0:0:
320,192,73777,1,0,0:0:0:0:
448,192,73954,1,0,0:0:0:0:
192,192,74042,1,0,0:0:0:0:
64,192,74042,1,0,0:0:0:0:
448,192,74219,1,0,0:0:0:0:
192,192,74307,1,0,0:0:0:0:
320,192,74307,1,0,0:0:0:0:
64,192,74483,1,0,0:0:0:0:
192,192,74483,1,0,0:0:0:0:
448,192,74572,1,0,0:0:0:0:
64,192,74748,1,0,0:0:0:0:
320,192,74836,1,0,0:0:0:0:
192,192,74836,1,0,0:0:0:0:
320,192,75013,1,0,0:0:0:0:
64,192,75013,1,0,0:0:0:0:
448,192,75189,1,0,0:0:0:0:
192,192,75189,1,0,0:0:0:0:
320,192,75366,1,0,0:0:0:0:
64,192,75454,1,0,0:0:0:0:
448,192,75542,1,0,0:0:0:0:
320,192,75630,1,0,0:0:0:0:
192,192,75719,1,0,0:0:0:0:
320,192,75895,1,0,0:0:0:0:
64,192,75895,1,0,0:0:0:0:
192,192,75983,1,0,0:0:0:0:
448,192,76160,1,0,0:0:0:0:
320,192,76248,1,0,0:0:0:0:
192,192,76248,128,0,76601:0:0:0:0:
448,192,76424,1,0,0:0:0:0:
320,192,76513,1,0,0:0:0:0:
448,192,76601,1,0,0:0:0:0:
64,192,76601,1,0,0:0:0:0:
320,192,76689,1,0,0:0:0:0:
192,192,76777,1,0,0:0:0:0:
320,192,76866,1,0,0:0:0:0:
448,192,76866,1,0,0:0:0:0:
192,192,76954,1,0,0:0:0:0:
64,192,77130,1,0,0:0:0:0:
448,192,77130,1,0,0:0:0:0:
192,192,77219,1,0,0:0:0:0:
320,192,77307,1,0,0:0:0:0:
448,192,77307,1,0,0:0:0:0:
64,192,77395,1,0,0:0:0:0:
192,192,77483,1,0,0:0:0:0:
192,192,77660,1,0,0:0:0:0:
448,192,77660,1,0,0:0:0:0:
64,192,77836,1,0,0:0:0:0:
192,192,77924,1,0,0:0:0:0:
320,192,78013,1,0,0:0:0:0:
448,192,78013,1,0,0:0:0:0:
64,192,78101,1,0,0:0:0:0:
192,192,78189,1,0,0:0:0:0:
448,192,78366,128,0,79072:0:0:0:0:
192,192,78366,1,0,0:0:0:0:
64,192,78366,1,0,0:0:0:0:
320,192,78542,1,0,0:0:0:0:
64,192,78630,1,0,0:0:0:0:
192,192,78719,1,0,0:0:0:0:
320,192,78719,1,0,0:0:0:0:
64,192,78807,1,0,0:0:0:0:
320,192,78895,1,0,0:0:0:0:
64,192,79072,1,0,0:0:0:0:
320,192,79072,128,0,79424:0:0:0:0:
448,192,79424,1,0,0:0:0:0:
192,192,79424,1,0,0:0:0:0:
64,192,79601,1,0,0:0:0:0:
320,192,79601,1,0,0:0:0:0:
448,192,79777,1,0,0:0:0:0:
192,192,79777,1,0,0:0:0:0:
64,192,79954,1,0,0:0:0:0:
320,192,79954,1,0,0:0:0:0:
192,192,80042,1,0,0:0:0:0:
448,192,80042,1,0,0:0:0:0:
320,192,80130,1,0,0:0:0:0:
64,192,80219,1,0,0:0:0:0:
320,192,80307,1,0,0:0:0:0:
192,192,80307,1,0,0:0:0:0:
64,192,80483,1,0,0:0:0:0:
448,192,80483,1,0,0:0:0:0:
192,192,80660,1,0,0:0:0:0:
320,192,80660,1,0,0:0:0:0:
64,192,80836,1,0,0:0:0:0:
320,192,80836,1,0,0:0:0:0:
192,192,81013,1,0,0:0:0:0:
320,192,81101,1,0,0:0:0:0:
192,192,81189,128,0,81542:0:0:0:0:
448,192,81189,1,0,0:0:0:0:
64,192,81189,1,0,0:0:0:0:
320,192,81542,128,0,81895:0:0:0:0:
448,192,81542,1,0,0:0:0:0:
64,192,81895,128,0,82248:0:0:0:0:
192,192,81895,1,0,0:0:0:0:
448,192,82248,128,0,82601:0:0:0:0:
320,192,82248,1,0,0:0:0:0:
320,192,82601,128,0,82866:0:0:0:0:
64,192,82601,1,0,0:0:0:0:
192,192,82866,128,0,83130:0:0:0:0:
448,192,82954,1,0,0:0:0:0:
64,192,82954,1,0,0:0:0:0:
320,192,83130,1,0,0:0:0:0:
192,192,83219,1,0,0:0:0:0:
448,192,83307,1,0,0:0:0:0:
64,192,83307,1,0,0:0:0:0:
192,192,83483,1,0,0:0:0:0:
320,192,83483,1,0,0:0:0:0:
320,192,83660,1,0,0:0:0:0:
64,192,83660,1,0,0:0:0:0:
448,192,83836,1,0,0:0:0:0:
320,192,83924,1,0,0:0:0:0:
448,192,84013,128,0,84719:0:0:0:0:
64,192,84013,1,0,0:0:0:0:
192,192,84013,1,0,0:0:0:0:
320,192,84366,128,0,84719:0:0:0:0:
64,192,84366,1,0,0:0:0:0:
64,192,84719,1,0,0:0:0:0:
192,192,84719,1,0,0:0:0:0:
320,192,84895,1,0,0:0:0:0:
448,192,84895,1,0,0:0:0:0:
64,192,85072,1,0,0:0:0:0:
192,192,85072,1,0,0:0:0:0:
320,192,85248,1,0,0:0:0:0:
448,192,85248,1,0,0:0:0:0:
64,192,85424,1,0,0:0:0:0:
192,192,85424,1,0,0:0:0:0:
320,192,85601,1,0,0:0:0:0:
448,192,85601,1,0,0:0:0:0:
64,192,85777,1,0,0:0:0:0:
192,192,85777,1,0,0:0:0:0:
320,192,85954,1,0,0:0:0:0:
448,192,85954,1,0,0:0:0:0:
64,192,86130,1,0,0:0:0:0:
320,192,86130,1,0,0:0:0:0:
192,192,86307,1,0,0:0:0:0:
448,192,86307,1,0,0:0:0:0:
64,192,86483,1,0,0:0:0:0:
320,192,86483,1,0,0:0:0:0:
192,192,86660,1,0,0:0:0:0:
448,192,86660,1,0,0:0:0:0:
64,192,86836,1,0,0:0:0:0:
320,192,86836,1,0,0:0:0:0:
192,192,87013,1,0,0:0:0:0:
448,192,87013,1,0,0:0:0:0:
64,192,87189,1,0,0:0:0:0:
320,192,87189,1,0,0:0:0:0:
192,192,87366,1,0,0:0:0:0:
448,192,87366,1,0,0:0:0:0:
320,192,87542,1,0,0:0:0:0:
448,192,87542,1,0,0:0:0:0:
64,192,87630,1,0,0:0:0:0:
192,192,87630,1,0,0:0:0:0:
448,192,87719,1,0,0:0:0:0:
320,192,87719,1,0,0:0:0:0:
192,192,87807,1,0,0:0:0:0:
64,192,87807,1,0,0:0:0:0:
320,192,87895,1,0,0:0:0:0:
448,192,87895,1,0,0:0:0:0:
64,192,87983,1,0,0:0:0:0:
192,192,87983,1,0,0:0:0:0:
448,192,88072,1,0,0:0:0:0:
320,192,88072,1,0,0:0:0:0:
192,192,88160,1,0,0:0:0:0:
64,192,88160,1,0,0:0:0:0:
320,192,88248,1,0,0:0:0:0:
448,192,88248,1,0,0:0:0:0:
64,192,88336,1,0,0:0:0:0:
192,192,88336,1,0,0:0:0:0:
448,192,88424,1,0,0:0:0:0:
320,192,88424,1,0,0:0:0:0:
192,192,88513,1,0,0:0:0:0:
64,192,88513,1,0,0:0:0:0:
320,192,88601,1,0,0:0:0:0:
448,192,88601,1,0,0:0:0:0:
64,192,88689,1,0,0:0:0:0:
192,192,88689,1,0,0:0:0:0:
448,192,88777,1,0,0:0:0:0:
320,192,88777,1,0,0:0:0:0:
192,192,88866,1,0,0:0:0:0:
64,192,88866,1,0,0:0:0:0:
320,192,88954,1,0,0:0:0:0:
448,192,88954,1,0,0:0:0:0:
192,192,89042,1,0,0:0:0:0:
320,192,89130,1,0,0:0:0:0:
192,192,89219,1,0,0:0:0:0:
448,192,89307,1,0,0:0:0:0:
320,192,89307,1,0,0:0:0:0:
64,192,89395,1,0,0:0:0:0:
448,192,89483,1,0,0:0:0:0:
320,192,89483,1,0,0:0:0:0:
64,192,89572,1,0,0:0:0:0:
320,192,89660,1,0,0:0:0:0:
448,192,89660,1,0,0:0:0:0:
192,192,89748,1,0,0:0:0:0:
320,192,89836,1,0,0:0:0:0:
448,192,89836,1,0,0:0:0:0:
192,192,89924,1,0,0:0:0:0:
448,192,90013,128,0,90366:0:0:0:0:
320,192,90013,1,0,0:0:0:0:
64,192,90189,128,0,90370:0:0:0:0:
320,192,90370,128,0,90722:0:0:0:0:
192,192,90370,1,0,0:0:0:0:
192,192,90546,1,0,0:0:0:0:
64,192,90722,1,0,0:0:0:0:
448,192,90722,1,0,0:0:0:0:
192,192,90899,1,0,0:0:0:0:
448,192,90899,1,0,0:0:0:0:
320,192,90987,1,0,0:0:0:0:
64,192,90987,1,0,0:0:0:0:
192,192,91075,1,0,0:0:0:0:
320,192,91164,1,0,0:0:0:0:
64,192,91164,1,0,0:0:0:0:
448,192,91252,1,0,0:0:0:0:
192,192,91252,1,0,0:0:0:0:
448,192,91428,1,0,0:0:0:0:
64,192,91428,1,0,0:0:0:0:
320,192,91517,1,0,0:0:0:0:
192,192,91517,1,0,0:0:0:0:
64,192,91605,1,0,0:0:0:0:
448,192,91693,1,0,0:0:0:0:
192,192,91781,1,0,0:0:0:0:
64,192,91781,1,0,0:0:0:0:
320,192,91781,1,0,0:0:0:0:
448,192,91958,1,0,0:0:0:0:
320,192,91958,1,0,0:0:0:0:
64,192,92134,1,0,0:0:0:0:
448,192,92134,1,0,0:0:0:0:
192,192,92134,1,0,0:0:0:0:
64,192,92311,1,0,0:0:0:0:
192,192,92399,1,0,0:0:0:0:
320,192,92487,1,0,0:0:0:0:
64,192,92487,1,0,0:0:0:0:
448,192,92487,1,0,0:0:0:0:
192,192,92575,1,0,0:0:0:0:
320,192,92664,1,0,0:0:0:0:
192,192,92840,1,0,0:0:0:0:
320,192,92840,1,0,0:0:0:0:
64,192,92840,1,0,0:0:0:0:
448,192,92928,1,0,0:0:0:0:
320,192,93017,1,0,0:0:0:0:
192,192,93105,1,0,0:0:0:0:
320,192,93193,128,0,93546:0:0:0:0:
64,192,93193,1,0,0:0:0:0:
448,192,93193,1,0,0:0:0:0:
192,192,93370,1,0,0:0:0:0:
64,192,93546,1,0,0:0:0:0:
448,192,93546,1,0,0:0:0:0:
320,192,93722,1,0,0:0:0:0:
192,192,93722,1,0,0:0:0:0:
64,192,93811,1,0,0:0:0:0:
448,192,93811,1,0,0:0:0:0:
320,192,93899,1,0,0:0:0:0:
64,192,93987,1,0,0:0:0:0:
448,192,93987,1,0,0:0:0:0:
320,192,94075,1,0,0:0:0:0:
192,192,94075,1,0,0:0:0:0:
448,192,94252,1,0,0:0:0:0:
64,192,94252,1,0,0:0:0:0:
192,192,94252,1,0,0:0:0:0:
320,192,94340,1,0,0:0:0:0:
64,192,94428,1,0,0:0:0:0:
192,192,94517,1,0,0:0:0:0:
64,192,94605,1,0,0:0:0:0:
448,192,94605,1,0,0:0:0:0:
320,192,94605,1,0,0:0:0:0:
320,192,94781,1,0,0:0:0:0:
64,192,94781,1,0,0:0:0:0:
448,192,94958,1,0,0:0:0:0:
320,192,94958,1,0,0:0:0:0:
192,192,94958,1,0,0:0:0:0:
64,192,95134,1,0,0:0:0:0:
320,192,95134,1,0,0:0:0:0:
192,192,95311,1,0,0:0:0:0:
64,192,95311,1,0,0:0:0:0:
448,192,95311,1,0,0:0:0:0:
192,192,95487,1,0,0:0:0:0:
320,192,95487,1,0,0:0:0:0:
64,192,95664,1,0,0:0:0:0:
448,192,95664,1,0,0:0:0:0:
192,192,95664,1,0,0:0:0:0:
320,192,95840,1,0,0:0:0:0:
64,192,95840,1,0,0:0:0:0:
192,192,96017,1,0,0:0:0:0:
320,192,96017,1,0,0:0:0:0:
448,192,96017,128,0,96370:0:0:0:0:
192,192,96193,1,0,0:0:0:0:
64,192,96370,1,0,0:0:0:0:
192,192,96370,1,0,0:0:0:0:
192,192,96546,1,0,0:0:0:0:
320,192,96546,1,0,0:0:0:0:
64,192,96634,1,0,0:0:0:0:
448,192,96634,1,0,0:0:0:0:
192,192,96722,1,0,0:0:0:0:
64,192,96811,1,0,0:0:0:0:
448,192,96811,1,0,0:0:0:0:
192,192,96899,1,0,0:0:0:0:
320,192,96899,1,0,0:0:0:0:
64,192,97075,1,0,0:0:0:0:
192,192,97075,1,0,0:0:0:0:
320,192,97075,1,0,0:0:0:0:
448,192,97164,1,0,0:0:0:0:
320,192,97252,1,0,0:0:0:0:
64,192,97340,1,0,0:0:0:0:
192,192,97428,1,0,0:0:0:0:
448,192,97428,1,0,0:0:0:0:
320,192,97428,1,0,0:0:0:0:
192,192,97605,1,0,0:0:0:0:
64,192,97605,1,0,0:0:0:0:
448,192,97781,1,0,0:0:0:0:
192,192,97781,1,0,0:0:0:0:
320,192,97781,1,0,0:0:0:0:
320,192,97958,1,0,0:0:0:0:
64,192,98046,1,0,0:0:0:0:
320,192,98134,1,0,0:0:0:0:
192,192,98134,1,0,0:0:0:0:
448,192,98134,1,0,0:0:0:0:
64,192,98222,1,0,0:0:0:0:
320,192,98311,1,0,0:0:0:0:
320,192,98487,1,0,0:0:0:0:
448,192,98487,1,0,0:0:0:0:
64,192,98487,1,0,0:0:0:0:
192,192,98575,1,0,0:0:0:0:
320,192,98664,1,0,0:0:0:0:
192,192,98752,1,0,0:0:0:0:
448,192,98840,128,0,99193:0:0:0:0:
320,192,98840,1,0,0:0:0:0:
64,192,98840,1,0,0:0:0:0:
192,192,99017,1,0,0:0:0:0:
192,192,99193,1,0,0:0:0:0:
64,192,99193,1,0,0:0:0:0:
320,192,99281,1,0,0:0:0:0:
192,192,99370,1,0,0:0:0:0:
448,192,99458,1,0,0:0:0:0:
320,192,99546,1,0,0:0:0:0:
192,192,99546,1,0,0:0:0:0:
64,192,99546,1,0,0:0:0:0:
448,192,99722,1,0,0:0:0:0:
192,192,99722,1,0,0:0:0:0:
448,192,99899,1,0,0:0:0:0:
64,192,99899,1,0,0:0:0:0:
192,192,99899,1,0,0:0:0:0:
320,192,99987,1,0,0:0:0:0:
448,192,100075,1,0,0:0:0:0:
448,192,100252,128,0,100428:0:0:0:0:
64,192,100252,1,0,0:0:0:0:
192,192,100252,1,0,0:0:0:0:
320,192,100428,1,0,0:0:0:0:
320,192,100605,128,0,100781:0:0:0:0:
64,192,100605,1,0,0:0:0:0:
192,192,100605,1,0,0:0:0:0:
448,192,100781,1,0,0:0:0:0:
64,192,100958,128,0,101134:0:0:0:0:
192,192,100958,1,0,0:0:0:0:
448,192,100958,1,0,0:0:0:0:
320,192,101134,1,0,0:0:0:0:
192,192,101311,128,0,101487:0:0:0:0:
320,192,101311,1,0,0:0:0:0:
448,192,101311,1,0,0:0:0:0:
64,192,101487,1,0,0:0:0:0:
320,192,101664,128,0,102017:0:0:0:0:
64,192,102017,128,0,102370:0:0:0:0:
192,192,102017,1,0,0:0:0:0:
448,192,102017,1,0,0:0:0:0:
192,192,102370,1,0,0:0:0:0:
320,192,102370,1,0,0:0:0:0:
192,192,102546,1,0,0:0:0:0:
448,192,102634,1,0,0:0:0:0:
320,192,102634,1,0,0:0:0:0:
64,192,102634,1,0,0:0:0:0:
192,192,102811,1,0,0:0:0:0:
320,192,102899,1,0,0:0:0:0:
64,192,102899,1,0,0:0:0:0:
448,192,102899,1,0,0:0:0:0:
64,192,103075,1,0,0:0:0:0:
320,192,103075,1,0,0:0:0:0:
192,192,103075,1,0,0:0:0:0:
320,192,103252,1,0,0:0:0:0:
320,192,103340,1,0,0:0:0:0:
64,192,103428,1,0,0:0:0:0:
448,192,103428,1,0,0:0:0:0:
192,192,103428,1,0,0:0:0:0:
448,192,103605,1,0,0:0:0:0:
64,192,103605,1,0,0:0:0:0:
320,192,103693,1,0,0:0:0:0:
192,192,103781,1,0,0:0:0:0:
448,192,103781,128,0,104134:0:0:0:0:
64,192,103869,1,0,0:0:0:0:
192,192,103958,1,0,0:0:0:0:
192,192,104134,128,0,104487:0:0:0:0:
64,192,104134,1,0,0:0:0:0:
320,192,104134,1,0,0:0:0:0:
448,192,104222,1,0,0:0:0:0:
320,192,104311,1,0,0:0:0:0:
448,192,104399,1,0,0:0:0:0:
320,192,104487,128,0,104840:0:0:0:0:
64,192,104487,1,0,0:0:0:0:
192,192,104664,1,0,0:0:0:0:
448,192,104840,128,0,105193:0:0:0:0:
64,192,104840,1,0,0:0:0:0:
192,192,104840,1,0,0:0:0:0:
192,192,105017,1,0,0:0:0:0:
64,192,105105,1,0,0:0:0:0:
320,192,105193,128,0,105458:0:0:0:0:
192,192,105193,1,0,0:0:0:0:
64,192,105281,1,0,0:0:0:0:
448,192,105369,1,0,0:0:0:0:
192,192,105458,128,0,105722:0:0:0:0:
64,192,105458,1,0,0:0:0:0:
448,192,105546,1,0,0:0:0:0:
320,192,105546,1,0,0:0:0:0:
320,192,105722,1,0,0:0:0:0:
320,192,105811,1,0,0:0:0:0:
448,192,105899,1,0,0:0:0:0:
64,192,105899,1,0,0:0:0:0:
192,192,105899,1,0,0:0:0:0:
320,192,106075,1,0,0:0:0:0:
64,192,106075,1,0,0:0:0:0:
448,192,106252,1,0,0:0:0:0:
320,192,106252,1,0,0:0:0:0:
192,192,106252,1,0,0:0:0:0:
64,192,106428,1,0,0:0:0:0:
320,192,106428,1,0,0:0:0:0:
64,192,106605,1,0,0:0:0:0:
192,192,106605,1,0,0:0:0:0:
448,192,106605,1,0,0:0:0:0:
192,192,106781,1,0,0:0:0:0:
320,192,106781,1,0,0:0:0:0:
64,192,106958,1,0,0:0:0:0:
448,192,106958,1,0,0:0:0:0:
192,192,106958,1,0,0:0:0:0:
320,192,107134,1,0,0:0:0:0:
64,192,107134,1,0,0:0:0:0:
320,192,107311,128,0,107664:0:0:0:0:
448,192,107311,1,0,0:0:0:0:
192,192,107311,1,0,0:0:0:0:
192,192,107487,1,0,0:0:0:0:
64,192,107664,1,0,0:0:0:0:
192,192,107664,128,0,107840:0:0:0:0:
320,192,107840,1,0,0:0:0:0:
64,192,107928,1,0,0:0:0:0:
192,192,108017,1,0,0:0:0:0:
320,192,108017,1,0,0:0:0:0:
448,192,108017,1,0,0:0:0:0:
64,192,108105,1,0,0:0:0:0:
448,192,108193,1,0,0:0:0:0:
320,192,108193,1,0,0:0:0:0:
64,192,108281,1,0,0:0:0:0:
192,192,108281,1,0,0:0:0:0:
448,192,108369,1,0,0:0:0:0:
320,192,108369,1,0,0:0:0:0:
192,192,108458,1,0,0:0:0:0:
448,192,108546,1,0,0:0:0:0:
64,192,108546,1,0,0:0:0:0:
192,192,108634,1,0,0:0:0:0:
320,192,108722,1,0,0:0:0:0:
64,192,108722,1,0,0:0:0:0:
448,192,108722,1,0,0:0:0:0:
320,192,108899,1,0,0:0:0:0:
192,192,108899,1,0,0:0:0:0:
64,192,109075,1,0,0:0:0:0:
448,192,109075,1,0,0:0:0:0:
192,192,109075,1,0,0:0:0:0:
448,192,109252,1,0,0:0:0:0:
320,192,109252,1,0,0:0:0:0:
192,192,109340,1,0,0:0:0:0:
64,192,109340,1,0,0:0:0:0:
448,192,109428,1,0,0:0:0:0:
320,192,109428,1,0,0:0:0:0:
448,192,109605,1,0,0:0:0:0:
64,192,109605,1,0,0:0:0:0:
320,192,109693,1,0,0:0:0:0:
192,192,109693,1,0,0:0:0:0:
64,192,109781,128,0,110134:0:0:0:0:
448,192,109781,1,0,0:0:0:0:
320,192,109869,1,0,0:0:0:0:
192,192,109958,1,0,0:0:0:0:
320,192,110046,1,0,0:0:0:0:
192,192,110134,128,0,110487:0:0:0:0:
448,192,110134,1,0,0:0:0:0:
320,192,110311,1,0,0:0:0:0:
448,192,110487,128,0,110840:0:0:0:0:
320,192,110487,1,0,0:0:0:0:
64,192,110575,1,0,0:0:0:0:
192,192,110664,1,0,0:0:0:0:
192,192,110840,1,0,0:0:0:0:
64,192,110840,1,0,0:0:0:0:
448,192,111017,1,0,0:0:0:0:
192,192,111105,1,0,0:0:0:0:
64,192,111105,1,0,0:0:0:0:
448,192,111193,1,0,0:0:0:0:
320,192,111193,1,0,0:0:0:0:
192,192,111281,1,0,0:0:0:0:
448,192,111369,1,0,0:0:0:0:
320,192,111369,1,0,0:0:0:0:
64,192,111458,1,0,0:0:0:0:
192,192,111458,1,0,0:0:0:0:
320,192,111546,1,0,0:0:0:0:
448,192,111546,128,0,111899:0:0:0:0:
192,192,111634,1,0,0:0:0:0:
64,192,111722,1,0,0:0:0:0:
192,192,111811,1,0,0:0:0:0:
320,192,111899,128,0,112252:0:0:0:0:
64,192,111899,1,0,0:0:0:0:
192,192,111987,1,0,0:0:0:0:
448,192,112075,1,0,0:0:0:0:
64,192,112164,1,0,0:0:0:0:
192,192,112252,128,0,112605:0:0:0:0:
448,192,112252,1,0,0:0:0:0:
64,192,112340,1,0,0:0:0:0:
320,192,112428,1,0,0:0:0:0:
448,192,112517,1,0,0:0:0:0:
64,192,112605,128,0,112958:0:0:0:0:
320,192,112605,1,0,0:0:0:0:
448,192,112693,1,0,0:0:0:0:
192,192,112781,1,0,0:0:0:0:
320,192,112781,1,0,0:0:0:0:
192,192,112958,1,0,0:0:0:0:
448,192,112958,1,0,0:0:0:0:
192,192,113134,1,0,0:0:0:0:
448,192,113311,1,0,0:0:0:0:
192,192,113311,1,0,0:0:0:0:
320,192,113487,1,0,0:0:0:0:
192,192,113575,1,0,0:0:0:0:
320,192,113664,128,0,114369:0:0:0:0:
448,192,113664,1,0,0:0:0:0:
64,192,113664,1,0,0:0:0:0:
192,192,113752,1,0,0:0:0:0:
448,192,113840,1,0,0:0:0:0:
192,192,114017,1,0,0:0:0:0:
448,192,114017,1,0,0:0:0:0:
64,192,114105,1,0,0:0:0:0:
448,192,114281,1,0,0:0:0:0:
192,192,114369,128,0,115075:0:0:0:0:
64,192,114369,1,0,0:0:0:0:
64,192,114546,1,0,0:0:0:0:
64,192,114722,1,0,0:0:0:0:
448,192,114722,1,0,0:0:0:0:
320,192,114899,1,0,0:0:0:0:
448,192,114987,1,0,0:0:0:0:
64,192,115075,128,0,115428:0:0:0:0:
320,192,115075,1,0,0:0:0:0:
448,192,115164,1,0,0:0:0:0:
192,192,115252,1,0,0:0:0:0:
448,192,115428,1,0,0:0:0:0:
320,192,115428,1,0,0:0:0:0:
192,192,115517,1,0,0:0:0:0:
192,192,115693,1,0,0:0:0:0:
64,192,115781,128,0,116134:0:0:0:0:
320,192,115781,1,0,0:0:0:0:
448,192,115781,1,0,0:0:0:0:
320,192,115958,1,0,0:0:0:0:
192,192,116134,128,0,116487:0:0:0:0:
320,192,116134,1,0,0:0:0:0:
448,192,116134,1,0,0:0:0:0:
448,192,116311,1,0,0:0:0:0:
64,192,116399,1,0,0:0:0:0:
320,192,116487,128,0,117193:0:0:0:0:
448,192,116487,1,0,0:0:0:0:
64,192,116575,1,0,0:0:0:0:
192,192,116664,1,0,0:0:0:0:
64,192,116840,1,0,0:0:0:0:
448,192,116840,1,0,0:0:0:0:
192,192,116928,1,0,0:0:0:0:
64,192,117105,1,0,0:0:0:0:
192,192,117193,1,0,0:0:0:0:
448,192,117193,1,0,0:0:0:0:
320,192,117369,1,0,0:0:0:0:
64,192,117546,128,0,117899:0:0:0:0:
448,192,117546,1,0,0:0:0:0:
192,192,117546,1,0,0:0:0:0:
192,192,117722,1,0,0:0:0:0:
320,192,117811,1,0,0:0:0:0:
192,192,117899,128,0,118252:0:0:0:0:
448,192,117899,1,0,0:0:0:0:
320,192,117987,1,0,0:0:0:0:
448,192,118075,1,0,0:0:0:0:
320,192,118252,128,0,118605:0:0:0:0:
64,192,118252,1,0,0:0:0:0:
448,192,118252,1,0,0:0:0:0:
192,192,118340,1,0,0:0:0:0:
64,192,118517,1,0,0:0:0:0:
448,192,118605,128,0,119311:0:0:0:0:
192,192,118605,1,0,0:0:0:0:
192,192,118781,1,0,0:0:0:0:
64,192,118958,1,0,0:0:0:0:
192,192,118958,1,0,0:0:0:0:
320,192,119134,1,0,0:0:0:0:
192,192,119222,1,0,0:0:0:0:
64,192,119311,1,0,0:0:0:0:
320,192,119311,1,0,0:0:0:0:
192,192,119399,1,0,0:0:0:0:
320,192,119487,1,0,0:0:0:0:
320,192,119664,128,0,120017:0:0:0:0:
64,192,119664,1,0,0:0:0:0:
192,192,119664,1,0,0:0:0:0:
448,192,119752,1,0,0:0:0:0:
192,192,119928,1,0,0:0:0:0:
64,192,120017,128,0,120369:0:0:0:0:
448,192,120017,1,0,0:0:0:0:
320,192,120193,1,0,0:0:0:0:
192,192,120369,128,0,120722:0:0:0:0:
320,192,120369,1,0,0:0:0:0:
448,192,120369,1,0,0:0:0:0:
320,192,120546,1,0,0:0:0:0:
64,192,120634,1,0,0:0:0:0:
448,192,120722,128,0,121075:0:0:0:0:
320,192,120722,1,0,0:0:0:0:
64,192,120811,1,0,0:0:0:0:
192,192,120899,1,0,0:0:0:0:
320,192,121075,128,0,121428:0:0:0:0:
64,192,121075,1,0,0:0:0:0:
192,192,121075,1,0,0:0:0:0:
448,192,121164,1,0,0:0:0:0:
64,192,121340,1,0,0:0:0:0:
192,192,121428,128,0,121958:0:0:0:0:
448,192,121428,1,0,0:0:0:0:
64,192,121605,1,0,0:0:0:0:
320,192,121693,1,0,0:0:0:0:
448,192,121781,1,0,0:0:0:0:
64,192,121781,1,0,0:0:0:0:
320,192,121869,1,0,0:0:0:0:
64,192,121958,128,0,122311:0:0:0:0:
448,192,121958,1,0,0:0:0:0:
448,192,122134,1,0,0:0:0:0:
320,192,122134,1,0,0:0:0:0:
192,192,122311,1,0,0:0:0:0:
320,192,122399,1,0,0:0:0:0:
192,192,122487,128,0,122840:0:0:0:0:
448,192,122487,1,0,0:0:0:0:
64,192,122487,1,0,0:0:0:0:
320,192,122575,1,0,0:0:0:0:
64,192,122664,1,0,0:0:0:0:
448,192,122840,128,0,123193:0:0:0:0:
64,192,122840,1,0,0:0:0:0:
320,192,122840,1,0,0:0:0:0:
320,192,123017,1,0,0:0:0:0:
64,192,123105,1,0,0:0:0:0:
320,192,123193,128,0,123546:0:0:0:0:
192,192,123193,1,0,0:0:0:0:
64,192,123281,1,0,0:0:0:0:
448,192,123369,1,0,0:0:0:0:
192,192,123546,128,0,123899:0:0:0:0:
64,192,123546,1,0,0:0:0:0:
448,192,123546,1,0,0:0:0:0:
320,192,123722,1,0,0:0:0:0:
448,192,123811,1,0,0:0:0:0:
320,192,123899,128,0,124252:0:0:0:0:
64,192,123899,1,0,0:0:0:0:
448,192,123987,1,0,0:0:0:0:
192,192,124075,1,0,0:0:0:0:
64,192,124428,1,0,0:0:0:0:
448,192,124428,1,0,0:0:0:0:
192,192,124428,1,0,0:0:0:0:
448,192,124605,1,0,0:0:0:0:
64,192,124605,1,0,0:0:0:0:
320,192,124605,1,0,0:0:0:0:
320,192,124781,1,0,0:0:0:0:
192,192,124869,1,0,0:0:0:0:
320,192,124958,128,0,125664:0:0:0:0:
64,192,124958,1,0,0:0:0:0:
448,192,124958,1,0,0:0:0:0:
192,192,125046,1,0,0:0:0:0:
448,192,125134,1,0,0:0:0:0:
64,192,125311,1,0,0:0:0:0:
192,192,125311,1,0,0:0:0:0:
448,192,125399,1,0,0:0:0:0:
448,192,125575,1,0,0:0:0:0:
192,192,125664,128,0,126369:0:0:0:0:
64,192,125664,1,0,0:0:0:0:
320,192,125840,1,0,0:0:0:0:
320,192,126017,128,0,126369:0:0:0:0:
448,192,126017,1,0,0:0:0:0:
64,192,126193,1,0,0:0:0:0:
448,192,126281,1,0,0:0:0:0:
64,192,126369,128,0,126722:0:0:0:0:
448,192,126458,1,0,0:0:0:0:
320,192,126546,1,0,0:0:0:0:
192,192,126722,1,0,0:0:0:0:
448,192,126722,1,0,0:0:0:0:
320,192,126811,1,0,0:0:0:0:
64,192,126987,1,0,0:0:0:0:
192,192,127075,128,0,127605:0:0:0:0:
320,192,127075,1,0,0:0:0:0:
448,192,127075,1,0,0:0:0:0:
320,192,127252,1,0,0:0:0:0:
448,192,127428,1,0,0:0:0:0:
64,192,127428,1,0,0:0:0:0:
320,192,127605,128,0,128134:0:0:0:0:
64,192,127605,1,0,0:0:0:0:
448,192,127693,1,0,0:0:0:0:
64,192,127781,1,0,0:0:0:0:
192,192,127781,1,0,0:0:0:0:
448,192,127869,1,0,0:0:0:0:
192,192,127958,1,0,0:0:0:0:
448,192,128134,128,0,128840:0:0:0:0:
64,192,128134,1,0,0:0:0:0:
192,192,128134,1,0,0:0:0:0:
320,192,128222,1,0,0:0:0:0:
192,192,128399,1,0,0:0:0:0:
64,192,128487,128,0,128840:0:0:0:0:
320,192,128487,1,0,0:0:0:0:
320,192,128664,1,0,0:0:0:0:
192,192,128840,1,0,0:0:0:0:
320,192,128840,1,0,0:0:0:0:
192,192,129017,1,0,0:0:0:0:
448,192,129105,1,0,0:0:0:0:
320,192,129193,128,0,129899:0:0:0:0:
64,192,129193,1,0,0:0:0:0:
192,192,129193,1,0,0:0:0:0:
448,192,129281,1,0,0:0:0:0:
192,192,129369,1,0,0:0:0:0:
64,192,129546,1,0,0:0:0:0:
192,192,129546,1,0,0:0:0:0:
448,192,129634,1,0,0:0:0:0:
64,192,129811,1,0,0:0:0:0:
192,192,129899,128,0,130428:0:0:0:0:
448,192,129899,1,0,0:0:0:0:
448,192,130075,1,0,0:0:0:0:
448,192,130252,1,0,0:0:0:0:
320,192,130252,1,0,0:0:0:0:
64,192,130428,1,0,0:0:0:0:
320,192,130428,1,0,0:0:0:0:
448,192,130517,1,0,0:0:0:0:
64,192,130605,128,0,130958:0:0:0:0:
192,192,130605,1,0,0:0:0:0:
448,192,130693,1,0,0:0:0:0:
192,192,130781,1,0,0:0:0:0:
320,192,130958,1,0,0:0:0:0:
448,192,130958,1,0,0:0:0:0:
192,192,131046,1,0,0:0:0:0:
448,192,131222,1,0,0:0:0:0:
192,192,131311,128,0,131664:0:0:0:0:
320,192,131311,1,0,0:0:0:0:
64,192,131311,1,0,0:0:0:0:
320,192,131487,1,0,0:0:0:0:
448,192,131664,128,0,132017:0:0:0:0:
320,192,131664,1,0,0:0:0:0:
64,192,131664,1,0,0:0:0:0:
320,192,131840,1,0,0:0:0:0:
192,192,131928,1,0,0:0:0:0:
320,192,132017,128,0,132369:0:0:0:0:
64,192,132017,1,0,0:0:0:0:
192,192,132105,1,0,0:0:0:0:
448,192,132193,1,0,0:0:0:0:
64,192,132369,128,0,132722:0:0:0:0:
448,192,132369,1,0,0:0:0:0:
192,192,132369,1,0,0:0:0:0:
320,192,132458,1,0,0:0:0:0:
448,192,132634,1,0,0:0:0:0:
192,192,132722,128,0,133428:0:0:0:0:
320,192,132722,1,0,0:0:0:0:
448,192,132811,1,0,0:0:0:0:
320,192,132899,1,0,0:0:0:0:
64,192,132987,1,0,0:0:0:0:
320,192,133075,1,0,0:0:0:0:
448,192,133075,1,0,0:0:0:0:
64,192,133164,1,0,0:0:0:0:
320,192,133252,1,0,0:0:0:0:
448,192,133340,1,0,0:0:0:0:
320,192,133428,1,0,0:0:0:0:
64,192,133428,1,0,0:0:0:0:
448,192,133517,1,0,0:0:0:0:
320,192,133605,1,0,0:0:0:0:
192,192,133693,1,0,0:0:0:0:
64,192,133781,128,0,134134:0:0:0:0:
320,192,133781,1,0,0:0:0:0:
448,192,133781,1,0,0:0:0:0:
192,192,133869,1,0,0:0:0:0:
320,192,133958,1,0,0:0:0:0:
192,192,134046,1,0,0:0:0:0:
320,192,134134,1,0,0:0:0:0:
448,192,134134,1,0,0:0:0:0:
192,192,134222,1,0,0:0:0:0:
64,192,134222,1,0,0:0:0:0:
320,192,134311,1,0,0:0:0:0:
448,192,134311,1,0,0:0:0:0:
64,192,134399,1,0,0:0:0:0:
192,192,134399,1,0,0:0:0:0:
320,192,134487,1,0,0:0:0:0:
448,192,134487,1,0,0:0:0:0:
64,192,134575,1,0,0:0:0:0:
192,192,134575,1,0,0:0:0:0:
320,192,134664,1,0,0:0:0:0:
448,192,134664,1,0,0:0:0:0:
64,192,134752,1,0,0:0:0:0:
192,192,134752,1,0,0:0:0:0:
320,192,134840,1,0,0:0:0:0:
448,192,134840,1,0,0:0:0:0:
64,192,134928,1,0,0:0:0:0:
192,192,134928,1,0,0:0:0:0:
320,192,135017,1,0,0:0:0:0:
448,192,135017,1,0,0:0:0:0:
64,192,135105,1,0,0:0:0:0:
192,192,135105,1,0,0:0:0:0:
320,192,135193,1,0,0:0:0:0:
448,192,135193,1,0,0:0:0:0:
64,192,135281,1,0,0:0:0:0:
192,192,135281,1,0,0:0:0:0:
320,192,135369,1,0,0:0:0:0:
448,192,135369,1,0,0:0:0:0:
64,192,135458,1,0,0:0:0:0:
192,192,135458,1,0,0:0:0:0:
448,192,135546,1,0,0:0:0:0:
320,192,135546,128,0,136958:0:0:0:0:
192,192,136958,128,0,138369:0:0:0:0:
448,192,138369,128,0,139781:0:0:0:0:
192,192,139781,128,0,140487:0:0:0:0:
320,192,140487,128,0,141193:0:0:0:0:
192,192,141193,128,0,142605:0:0:0:0:
64,192,142605,128,0,143311:0:0:0:0:
192,192,143311,128,0,144017:0:0:0:0:
448,192,144017,128,0,144722:0:0:0:0:
320,192,144722,128,0,145428:0:0:0:0:
192,192,145428,128,0,146134:0:0:0:0:
448,192,146134,128,0,146840:0:0:0:0:
192,192,146840,128,0,148252:0:0:0:0:
64,192,148252,128,0,148958:0:0:0:0:
