osu file format v14

[General]
AudioFilename: audio.mp3
AudioLeadIn: 0
PreviewTime: 22494
Countdown: 0
SampleSet: Soft
StackLeniency: 0.2
Mode: 0
LetterboxInBreaks: 0
WidescreenStoryboard: 1

[Editor]
Bookmarks: 11287,20832,22196,32934,34468,38559,44014,55179,65832,76741,87991,97537,101287,108105,119014,141173,142366,151741,152082,161287,164014,169468,177991,180378,188559,199468,210378,216514,218559,226571,228105,232196,237650,247878
DistanceSpacing: 0.6
BeatDivisor: 8
GridSize: 16
TimelineZoom: 5.199997

[Metadata]
Title:Your voice so... feat. Such
TitleUnicode:Your voice so... feat. Such
Artist:PSYQUI
ArtistUnicode:PSYQUI
Creator:Megarymen
Version:owo
Source:
Tags:hardcore future bass fugene fÜgene complextro drumstep dubstep megarex
BeatmapID:1681087
BeatmapSetID:800758

[Difficulty]
HPDrainRate:4.6
CircleSize:4
OverallDifficulty:8.7
ApproachRate:9.6
SliderMultiplier:3
SliderTickRate:1

[Events]
//Background and Video events
0,0,"owo.jpg",0,0
//Break Periods
2,66032,76232
2,188759,198959
//Storyboard Layer 0 (Background)
//Storyboard Layer 1 (Fail)
//Storyboard Layer 2 (Pass)
//Storyboard Layer 3 (Foreground)
//Storyboard Sound Samples

[TimingPoints]
378,340.909090909091,4,2,1,100,1,0
378,-166.666666666667,4,2,1,100,0,0
463,-166.666666666667,4,2,1,5,0,0
1741,-138.888888888889,4,2,1,100,0,0
1826,-138.888888888889,4,2,1,5,0,0
3105,-149.253731343284,4,2,1,100,0,0
3190,-149.253731343284,4,2,1,5,0,0
4468,-166.666666666667,4,2,1,100,0,0
4554,-166.666666666667,4,2,1,5,0,0
5150,-166.666666666667,4,2,1,100,0,0
5235,-166.666666666667,4,2,1,5,0,0
5832,-156.25,4,2,1,100,0,0
5917,-156.25,4,2,1,5,0,0
7196,-166.666666666667,4,2,1,100,0,0
7281,-166.666666666667,4,2,1,5,0,0
8559,-250.000000000001,4,2,1,100,0,0
8645,-250.000000000001,4,2,1,5,0,0
9241,-250.000000000001,4,2,1,100,0,0
9326,-250.000000000001,4,2,1,5,0,0
9923,-250.000000000001,4,2,1,100,0,0
10008,-250.000000000001,4,2,1,5,0,0
10605,-250.000000000001,4,2,1,100,0,0
10690,-250.000000000001,4,2,1,5,0,0
11287,-142.857142857143,4,2,1,55,0,0
20832,-28.5714285714286,4,2,1,55,0,0
20853,-28.5714285714286,4,2,1,55,0,0
21173,-28.5714285714286,4,2,1,55,0,0
21194,-28.5714285714286,4,2,1,55,0,0
21514,-28.5714285714286,4,2,1,55,0,0
21535,-28.5714285714286,4,2,1,55,0,0
21855,-28.5714285714286,4,2,1,80,0,0
22196,-133.333333333333,4,2,1,70,0,0
22537,-399.999999999997,4,2,1,60,0,0
22878,-66.6666666666667,4,2,1,70,0,0
24241,-1000,4,2,1,70,0,0
24923,-74.0740740740741,4,2,1,85,0,0
26968,-90.9090909090909,4,2,1,85,0,0
27650,-66.6666666666667,4,2,1,85,0,0
28673,-76.9230769230769,4,2,1,85,0,0
28843,-66.6666666666667,4,2,1,85,0,0
29014,-66.6666666666667,4,2,1,85,0,0
30037,-83.3333333333333,4,2,1,85,0,0
30378,-66.6666666666667,4,2,1,85,0,0
32082,-83.3333333333333,4,2,1,85,0,0
32423,-111.111111111111,4,2,1,85,0,0
33446,-500,4,2,1,85,0,0
34468,-66.6666666666667,4,2,1,85,0,0
38559,-76.9230769230769,4,2,1,85,0,0
39241,-100,4,2,1,85,0,0
39753,-76.9230769230769,4,2,1,85,0,0
40605,-100,4,2,1,85,0,0
40946,-76.9230769230769,4,2,1,85,0,0
41287,-100,4,2,1,85,0,0
42650,-62.5,4,2,1,85,0,0
43929,-62.5,4,2,1,5,0,0
46400,-250,4,2,1,85,0,0
46741,-100,4,2,1,70,0,0
48360,-100,4,2,1,5,0,0
48446,-100,4,2,1,70,0,0
48701,-100,4,2,1,5,0,0
48787,-100,4,2,1,70,0,0
49042,-100,4,2,1,5,0,0
49128,-100,4,2,1,70,0,0
49383,-100,4,2,1,5,0,0
49468,-100,4,2,1,70,0,0
55179,-90.9090909090909,4,2,1,70,0,0
59014,-90.9090909090909,4,2,1,70,0,0
59270,-90.9090909090909,4,2,1,5,0,0
59355,-90.9090909090909,4,2,1,70,0,0
59610,-90.9090909090909,4,2,1,5,0,0
59696,-90.9090909090909,4,2,1,70,0,0
59951,-90.9090909090909,4,2,1,5,0,0
60037,-90.9090909090909,4,2,1,70,0,0
60292,-90.9090909090909,4,2,1,5,0,0
60718,-166.666666666667,4,2,1,70,0,0
60974,-166.666666666667,4,2,1,5,0,0
61400,-166.666666666667,4,2,1,70,0,0
61656,-166.666666666667,4,2,1,5,0,0
61997,-166.666666666667,4,2,1,70,0,0
62167,-166.666666666667,4,2,1,5,0,0
62253,-166.666666666667,4,2,1,70,0,0
62423,-166.666666666667,4,2,1,5,0,0
63105,-100,4,2,1,70,0,0
64468,-166.666666666667,4,2,1,70,0,0
76741,-133.333333333333,4,2,1,50,0,0
79468,-111.111111111111,4,2,1,70,0,0
84923,-111.111111111111,4,2,1,70,0,0
85008,-111.111111111111,4,2,1,45,0,0
85264,-111.111111111111,4,2,1,70,0,0
85349,-111.111111111111,4,2,1,45,0,0
85605,-111.111111111111,4,2,1,70,0,0
85690,-111.111111111111,4,2,1,45,0,0
85946,-111.111111111111,4,2,1,70,0,0
86031,-111.111111111111,4,2,1,45,0,0
86287,-142.857142857143,4,2,1,70,0,0
87650,-125,4,2,1,70,0,0
87991,-100,4,2,1,70,0,0
91997,-100,4,2,1,5,0,0
92082,-117.647058823529,4,2,1,70,0,0
92338,-117.647058823529,4,2,1,5,0,0
92423,-142.857142857143,4,2,1,70,0,0
92679,-142.857142857143,4,2,1,5,0,0
92764,-181.818181818182,4,2,1,70,0,0
93020,-181.818181818182,4,2,1,5,0,0
93105,-66.6666666666667,4,2,1,70,0,0
93787,-100,4,2,1,70,0,0
94468,-80,4,2,1,70,0,0
94809,-100,4,2,1,70,0,0
95150,-80,4,2,1,70,0,0
95491,-100,4,2,1,70,0,0
97196,-117.647058823529,4,2,1,70,0,0
97537,-105.263157894737,4,2,1,70,0,0
97878,-95.2380952380952,4,2,1,70,0,0
98218,-86.9565217391304,4,2,1,70,0,0
98559,-200,4,2,1,70,0,0
98900,-166.666666666667,4,2,1,70,0,0
99156,-166.666666666667,4,2,1,5,0,0
99241,-142.857142857143,4,2,1,70,0,0
99497,-142.857142857143,4,2,1,5,0,0
99582,-125,4,2,1,70,0,0
99838,-125,4,2,1,5,0,0
99923,-111.111111111111,4,2,1,70,0,0
100179,-111.111111111111,4,2,1,5,0,0
100264,-100,4,2,1,70,0,0
100520,-100,4,2,1,5,0,0
100605,-90.9090909090909,4,2,1,70,0,0
100860,-90.9090909090909,4,2,1,5,0,0
100946,-166.666666666667,4,2,1,70,0,0
101287,-100,4,2,1,70,0,0
102991,-86.9565217391304,4,2,1,70,0,0
105378,-125,4,2,1,70,0,0
105633,-111.111111111111,4,2,1,70,0,0
105889,-99.9999999999999,4,2,1,70,0,0
106145,-90.9090909090909,4,2,1,70,0,0
106400,-83.3333333333333,4,2,1,70,0,0
106741,-71.4285714285714,4,2,1,70,0,0
106997,-62.5,4,2,1,70,0,0
107253,-55.5555555555556,4,2,1,70,0,0
107508,-50,4,2,1,70,0,0
107764,-45.4545454545455,4,2,1,70,0,0
116287,-100,4,2,1,70,0,0
117650,-500,4,2,1,70,0,0
118673,-86.9565217391304,4,2,1,70,0,0
119014,-111.111111111111,4,2,1,70,0,0
123105,-86.9565217391304,4,2,1,70,0,0
123190,-86.9565217391304,4,2,1,5,0,0
123275,-86.9565217391304,4,2,1,70,0,0
123360,-86.9565217391304,4,2,1,5,0,0
123446,-86.9565217391304,4,2,1,70,0,0
123531,-86.9565217391304,4,2,1,5,0,0
123616,-86.9565217391304,4,2,1,70,0,0
123701,-86.9565217391304,4,2,1,5,0,0
123787,-86.9565217391304,4,2,1,70,0,0
123872,-86.9565217391304,4,2,1,5,0,0
123957,-86.9565217391304,4,2,1,70,0,0
124042,-86.9565217391304,4,2,1,5,0,0
124128,-86.9565217391304,4,2,1,70,0,0
124213,-86.9565217391304,4,2,1,5,0,0
124298,-86.9565217391304,4,2,1,70,0,0
124383,-86.9565217391304,4,2,1,5,0,0
124468,-86.9565217391304,4,2,1,70,0,0
128815,-86.9565217391304,4,2,1,5,0,0
128900,-86.9565217391304,4,2,1,70,0,0
129156,-86.9565217391304,4,2,1,5,0,0
129241,-86.9565217391304,4,2,1,70,0,0
129497,-86.9565217391304,4,2,1,5,0,0
129582,-86.9565217391304,4,2,1,70,0,0
129838,-86.9565217391304,4,2,1,5,0,0
129923,-86.9565217391304,4,2,1,70,0,0
134099,-86.9565217391304,4,2,1,5,0,0
134184,-86.9565217391304,4,2,1,70,0,0
134270,-86.9565217391304,4,2,1,5,0,0
134355,-86.9565217391304,4,2,1,70,0,0
134440,-86.9565217391304,4,2,1,5,0,0
134525,-86.9565217391304,4,2,1,70,0,0
134610,-86.9565217391304,4,2,1,5,0,0
134696,-86.9565217391304,4,2,1,70,0,0
134781,-86.9565217391304,4,2,1,5,0,0
134866,-86.9565217391304,4,2,1,70,0,0
134951,-86.9565217391304,4,2,1,5,0,0
135037,-86.9565217391304,4,2,1,70,0,0
135122,-86.9565217391304,4,2,1,5,0,0
135207,-86.9565217391304,4,2,1,70,0,0
135292,-86.9565217391304,4,2,1,5,0,0
135378,-86.9565217391304,4,2,1,70,0,0
140832,-125,4,2,1,70,0,0
141173,-90.9090909090909,4,2,1,70,0,1
143559,-76.9230769230769,4,2,1,70,0,1
143900,-90.9090909090909,4,2,1,70,0,1
146287,-76.9230769230769,4,2,1,70,0,1
146628,-90.9090909090909,4,2,1,70,0,1
149014,-76.9230769230769,4,2,1,70,0,1
149355,-90.9090909090909,4,2,1,70,0,1
150378,-66.6666666666667,4,2,1,70,0,1
150718,-66.6666666666667,4,2,1,70,0,1
150974,-66.6666666666667,4,2,1,5,0,1
151059,-66.6666666666667,4,2,1,70,0,1
151315,-66.6666666666667,4,2,1,5,0,1
151400,-66.6666666666667,4,2,1,70,0,1
151656,-100,4,2,1,5,0,0
151741,-105.263157894737,4,2,1,80,0,1
155917,-105.263157894737,4,2,1,5,0,1
156003,-105.263157894737,4,2,1,70,0,1
156088,-105.263157894737,4,2,1,5,0,1
156173,-105.263157894737,4,2,1,70,0,1
156258,-105.263157894737,4,2,1,5,0,1
156343,-105.263157894737,4,2,1,70,0,1
156429,-105.263157894737,4,2,1,5,0,1
156514,-105.263157894737,4,2,1,70,0,1
156599,-105.263157894737,4,2,1,5,0,1
156684,-105.263157894737,4,2,1,70,0,1
156770,-105.263157894737,4,2,1,5,0,1
156855,-105.263157894737,4,2,1,70,0,1
156940,-105.263157894737,4,2,1,5,0,1
157025,-105.263157894737,4,2,1,70,0,1
157110,-105.263157894737,4,2,1,5,0,1
157196,-133.333333333333,4,2,1,70,0,1
162650,-100,4,2,1,70,0,1
162906,-90.9090909090909,4,2,1,70,0,1
163162,-83.3333333333333,4,2,1,70,0,1
163417,-76.9230769230769,4,2,1,70,0,1
163673,-71.4285714285714,4,2,1,70,0,1
164014,-250,4,2,1,70,0,0
166400,-100,4,2,1,70,0,0
167423,-142.857142857143,4,2,0,70,0,0
169468,-83.3333333333333,4,2,1,70,0,0
171173,-55.5555555555556,4,2,1,70,0,0
171514,-83.3333333333333,4,2,1,70,0,0
171855,-125,4,2,1,70,0,0
172196,-66.6666666666667,4,2,1,70,0,0
172878,-83.3333333333333,4,2,1,70,0,0
174923,-66.6666666666667,4,2,1,70,0,0
176287,-66.6666666666667,4,2,1,70,0,0
176542,-66.6666666666667,4,2,1,5,0,0
176628,-66.6666666666667,4,2,1,70,0,0
176883,-66.6666666666667,4,2,1,5,0,0
176968,-66.6666666666667,4,2,1,70,0,0
177224,-66.6666666666667,4,2,1,5,0,0
177309,-66.6666666666667,4,2,1,70,0,0
177565,-66.6666666666667,4,2,1,5,0,0
177991,-83.3333333333333,4,2,1,70,0,0
180378,-83.3333333333333,4,2,1,70,0,0
181741,-66.6666666666667,4,2,1,70,0,0
182764,-70.4225352112676,4,2,1,70,0,0
185832,-47.6190476190476,4,2,1,70,0,0
186173,-66.6666666666667,4,2,1,70,0,0
187196,-66.6666666666667,4,2,1,85,0,0
199468,-133.333333333333,4,2,1,65,0,0
215832,-133.333333333333,4,2,1,65,0,0
216173,-333.333333333333,4,2,1,65,0,0
216514,-66.6666666666667,4,2,1,65,0,0
217878,-333.333333333333,4,2,1,65,0,0
218559,-76.9230769230769,4,2,1,65,0,0
220605,-66.6666666666667,4,2,1,65,0,0
223673,-133.333333333333,4,2,1,65,0,0
224014,-66.6666666666667,4,2,1,65,0,0
224696,-100,4,2,1,65,0,0
225037,-66.6666666666667,4,2,1,65,0,0
225378,-66.6666666666667,4,2,1,65,0,0
225889,-133.333333333333,4,2,1,65,0,0
226059,-66.6666666666667,4,2,1,65,0,0
226230,-133.333333333333,4,2,1,65,0,0
226741,-333.333333333333,4,2,1,65,0,0
227934,-166.666666666667,4,2,1,65,0,0
228105,-66.6666666666667,4,2,1,65,0,0
230832,-76.9230769230769,4,2,1,65,0,0
231514,-66.6666666666667,4,2,1,65,0,0
232196,-76.9230769230769,4,2,1,65,0,0
232878,-100,4,2,1,65,0,0
233389,-76.9230769230769,4,2,1,65,0,0
234241,-100,4,2,1,65,0,0
234582,-76.9230769230769,4,2,1,65,0,0
234923,-100,4,2,1,65,0,0
236287,-62.5,4,2,1,65,0,0
237650,-400,4,2,1,65,0,0
237735,-400,4,2,1,5,0,0
239014,-312.5,4,2,1,65,0,0
239099,-312.5,4,2,1,5,0,0
240378,-400,4,2,1,65,0,0
240463,-400,4,2,1,5,0,0
241741,-400,4,2,1,65,0,0
241826,-400,4,2,1,5,0,0
242423,-400,4,2,1,65,0,0
242508,-400,4,2,1,5,0,0
243105,-400,4,2,1,65,0,0
243190,-400,4,2,1,5,0,0
244468,-400,4,2,1,65,0,0
244554,-400,4,2,1,5,0,0
245832,-400,4,2,1,65,0,0
245917,-400,4,2,1,5,0,0
246514,-400,4,2,1,65,0,0
246599,-400,4,2,1,5,0,0
247196,-400,4,2,1,65,0,0
247281,-400,4,2,1,5,0,0
247878,-400,4,2,1,65,0,0
247963,-400,4,2,1,5,0,0

[Colours]
Combo1 : 255,255,0
Combo2 : 82,248,132
Combo3 : 233,95,157
Combo4 : 89,0,179
Combo5 : 198,140,140
Combo6 : 255,255,255

[HitObjects]
120,187,378,6,0,B|134:161|164:150|191:162|191:162|218:173|231:203|222:231|222:231|213:258|184:274|156:267|156:267|173:289|169:321|148:338|148:338|126:356|94:353|76:332|76:332|58:310|60:279|81:260|81:260|51:242|34:208|38:174|38:174|42:139|66:110|93:98,1,674.999979400635,2|0,1:0|0:0,0:0:0:0:
160,79,1741,6,0,B|191:70|224:75|251:93|251:93|279:111|296:139|301:172|301:172|309:204|340:225|374:220|374:220|407:215|431:185|428:151|428:151|426:118|398:92|365:91|365:91|331:91|303:115|299:148|299:148|299:190|319:228|353:251|353:251|386:274|430:279|467:265,1,810.000019775391,2|0,0:0|0:0,0:0:0:0:
488,355,3105,6,0,B|449:374|408:387|368:381|368:381|326:374|290:351|269:316|269:316|246:343|208:353|175:341|175:341|142:328|119:297|119:261|119:261|136:281|164:287|188:277|188:277|212:267|227:244|227:218|227:218|226:192|209:169|183:161|183:161|158:154|132:162|116:183,1,753.749964345934,2|0,0:0|0:0,0:0:0:0:
53,128,4468,6,0,B|97:68|246:37|301:84|301:84|274:90|259:103,1,314.999990386963,2|0,0:0|0:0,0:0:0:0:
356,18,5150,6,0,B|401:74|385:128|328:168|328:168|375:140|422:142|462:183,1,314.999990386963
388,228,5832,6,0,B|439:335|439:335|389:284|311:275|251:315|251:315|263:295|262:269|248:251|248:251|234:232|209:223|186:230|186:230|164:236|147:257|144:280|144:280|143:303|155:326|176:337|176:337|110:310|44:321,1,720,2|0,0:0|0:0,0:0:0:0:
63,193,7196,6,0,B|73:135|31:64|31:64|274:133|274:133|310:136|342:111|347:76|347:76|352:40|328:7|293:0|293:0|258:-7|224:15|213:51,1,674.999979400635,2|0,0:0|0:0,0:0:0:0:
359,196,8559,6,0,P|417:135|420:15,1,210,2|0,0:0|0:0,0:0:0:0:
419,14,9241,6,0,P|424:116|359:196,1,210,2|0,0:0|0:0,0:0:0:0:
276,226,9923,6,0,P|191:223|104:141,1,210,2|0,0:0|0:0,0:0:0:0:
103,140,10605,6,0,P|172:215|274:225,1,210,2|0,0:0|0:0,0:0:0:0:
287,108,11287,6,0,L|278:1,1,104.999996795654,0|0,1:0|0:0,0:0:0:0:
188,94,11628,1,8,0:0:0:0:
371,35,11798,1,8,0:0:0:0:
98,2,11968,6,0,L|89:106,1,104.999996795654,8|0,0:0|0:0,0:0:0:0:
5,35,12309,1,8,0:0:0:0:
188,94,12480,1,8,0:0:0:0:
106,269,12650,6,0,P|48:269|-1:233,1,104.999996795654,8|0,0:0|0:0,0:0:0:0:
202,287,12991,2,0,P|231:337|224:397,1,104.999996795654,8|0,0:0|0:0,0:0:0:0:
175,197,13332,6,0,P|204:146|259:122,1,104.999996795654,8|0,0:0|0:0,0:0:0:0:
405,180,13673,2,0,L|413:307,1,104.999996795654,8|0,0:0|0:0,0:0:0:0:
340,17,14014,6,0,L|332:144,1,104.999996795654,8|0,0:0|0:0,0:0:0:0:
236,35,14355,1,8,0:0:0:0:
438,108,14525,1,8,0:0:0:0:
251,249,14696,6,0,L|244:144,1,104.999996795654,8|0,0:0|0:0,0:0:0:0:
407,250,15037,2,0,L|400:354,1,104.999996795654,8|0,0:0|0:0,0:0:0:0:
358,169,15378,6,12,P|414:157|465:178,1,104.999996795654,8|0,0:0|0:0,0:0:0:0:
299,322,15718,2,0,P|243:334|192:313,1,104.999996795654,8|0,0:0|0:0,0:0:0:0:
126,167,16059,6,0,L|116:60,1,104.999996795654,8|0,0:0|0:0,0:0:0:0:
263,151,16400,2,0,L|253:255,1,104.999996795654,8|0,0:0|0:0,0:0:0:0:
451,244,16741,5,8,0:0:0:0:
413,83,16911,1,8,0:0:0:0:
320,248,17082,5,8,0:0:0:0:
311,83,17252,1,8,0:0:0:0:
61,244,17423,5,8,0:0:0:0:
99,83,17593,1,8,0:0:0:0:
192,247,17763,5,8,0:0:0:0:
201,83,17934,1,8,0:0:0:0:
464,339,18104,5,8,0:0:0:0:
413,83,18275,1,8,0:0:0:0:
315,322,18445,5,8,0:0:0:0:
311,83,18616,1,8,0:0:0:0:
47,340,18786,5,8,0:0:0:0:
99,83,18957,1,8,0:0:0:0:
197,323,19127,5,8,0:0:0:0:
201,83,19298,1,8,0:0:0:0:
360,45,19468,5,8,0:0:0:0:
364,65,19554,1,0,0:0:0:0:
370,90,19639,1,8,0:0:0:0:
374,121,19724,1,0,0:0:0:0:
373,157,19809,1,8,0:0:0:0:
365,198,19895,1,0,0:0:0:0:
347,241,19980,1,8,0:0:0:0:
316,283,20065,1,0,0:0:0:0:
263,305,20150,5,8,0:0:0:0:
200,296,20235,1,0,0:0:0:0:
144,255,20321,1,8,0:0:0:0:
117,186,20406,1,0,0:0:0:0:
127,108,20491,1,8,0:0:0:0:
174,39,20576,1,0,0:0:0:0:
258,29,20662,1,8,0:0:0:0:
341,60,20747,1,0,0:0:0:0:
382,144,20832,6,0,L|390:209,14,65.6250006258488,8|0|0|0|0|0|0|0|0|0|0|0|0|0|0,0:0|0:0|0:0|0:0|0:0|0:0|0:0|0:0|0:0|0:0|0:0|0:0|0:0|0:0|0:0,0:0:0:0:
305,201,21173,2,0,L|297:266,14,65.6250006258488
402,285,21514,2,0,L|410:350,12,65.6250006258488
312,340,21855,5,0,0:0:0:0:
127,152,22025,1,0,0:0:0:0:
345,147,22196,6,0,P|365:85|285:110,1,168.750006437302,2|0,1:0|0:0,0:0:0:0:
217,141,22537,6,0,L|219:198,1,56.25
296,253,22878,6,0,B|252:288|182:292|133:229|133:229|144:252|134:292,1,225.000008583069,0|0,1:0|0:0,0:0:0:0:
39,92,23133,2,0,P|103:45|60:141,1,225.000008583069,0|0,1:0|0:0,0:0:0:0:
43,281,23389,2,0,B|-11:257|-11:257|46:226,1,112.500004291535,0|0,1:0|0:0,0:0:0:0:
296,253,23559,6,0,B|379:271|461:247|461:247|402:280,1,225.000008583069,0|0,1:0|0:0,0:0:0:0:
224,368,23815,1,0,1:0:0:0:
210,354,23900,2,0,B|188:302|188:302|204:238,1,112.500004291535,0|0,1:0|0:0,0:0:0:0:
273,40,24071,2,0,B|295:92|295:92|279:156,1,112.500004291535
201,162,24241,6,0,L|174:159,1,22.5,2|0,0:0|0:0,0:0:0:0:
91,129,24582,1,2,1:0:0:0:
97,72,24667,1,2,1:0:0:0:
103,15,24753,1,2,1:0:0:0:
14,249,24923,6,0,B|98:283|174:254|174:254|164:274|165:296,1,202.500000772476,4|0,1:0|0:0,0:0:0:0:
313,275,25179,1,0,0:0:0:0:
327,263,25264,2,0,P|341:122|237:213,1,303.750001158714,0|0,1:0|0:0,0:0:0:0:
149,67,25605,2,0,P|103:57|51:68,1,101.250000386238,0|0,1:0|0:0,0:0:0:0:
25,292,25775,5,0,0:0:0:0:
95,297,25860,1,0,1:0:0:0:
166,290,25946,2,0,P|210:274|258:216,1,101.250000386238,0|0,0:0|0:0,0:0:0:0:
290,0,26116,5,0,1:0:0:0:
283,60,26201,1,0,0:0:0:0:
279,121,26287,2,0,B|233:147|233:147|285:166,1,101.250000386238,0|0,1:0|0:0,0:0:0:0:
418,147,26457,2,0,B|464:121|464:121|412:102,1,101.250000386238
139,104,26628,2,0,P|130:157|156:207,1,101.250000386238,0|0,1:0|0:0,0:0:0:0:
312,350,26798,5,0,0:0:0:0:
266,316,26883,1,0,0:0:0:0:
211,303,26968,2,0,P|149:327|210:371,1,165.000005035401,0|0,1:0|0:0,0:0:0:0:
313,167,27224,2,0,P|345:225|270:219,1,165.000005035401,0|0,1:0|0:0,0:0:0:0:
119,231,27480,2,0,P|74:227|34:210,1,82.5000025177003,0|0,1:0|0:0,0:0:0:0:
92,81,27650,6,0,B|101:30|154:11|213:58|202:94|175:160|29:217,1,337.500012874604,4|0,1:0|0:0,0:0:0:0:
3,111,27991,2,0,P|4:59|30:6,1,112.500004291535,0|0,1:0|0:0,0:0:0:0:
266,61,28162,2,0,P|264:113|238:166,1,112.500004291535,0|0,0:0|0:0,0:0:0:0:
105,320,28332,2,0,P|141:264|276:311,1,225.000008583069,0|0,1:0|0:0,0:0:0:0:
199,351,28588,1,0,1:0:0:0:
192,333,28673,2,0,P|184:283|198:225,1,97.4999955368044
394,144,28843,5,0,1:0:0:0:
317,166,28929,1,0,0:0:0:0:
238,166,29014,2,0,P|194:151|149:105,1,112.500004291535,0|0,1:0|0:0,0:0:0:0:
393,50,29184,2,0,P|437:65|482:111,1,112.500004291535,0|0,0:0|0:0,0:0:0:0:
392,300,29355,2,0,P|459:227|457:329,1,225.000008583069,0|0,1:0|0:0,0:0:0:0:
318,376,29610,5,0,0:0:0:0:
278,296,29696,2,0,P|280:227|308:181,1,112.500004291535,0|0,1:0|0:0,0:0:0:0:
470,93,29866,5,0,0:0:0:0:
434,65,29951,1,0,1:0:0:0:
393,50,30037,2,0,P|335:47|283:63,1,89.9999972534181,0|0,0:0|0:0,0:0:0:0:
220,119,30207,2,0,P|188:167|176:220,1,89.9999972534181,0|0,1:0|0:0,0:0:0:0:
360,262,30378,6,0,B|465:282|534:240|534:240|509:241|475:233,1,225.000008583069,0|0,1:0|0:0,1:0:0:0:
391,124,30633,1,0,0:0:0:0:
300,189,30718,2,0,B|247:278|321:346|321:346|213:320|149:359,1,337.500012874604,0|0,1:0|0:0,0:0:0:0:
58,259,31059,6,0,B|-9:226|-25:302|30:332|68:326|124:228,1,225.000008583069,0|0,1:0|0:0,0:0:0:0:
133,81,31315,2,0,P|93:33|90:131,1,225.000008583069,0|0,1:0|0:0,0:0:0:0:
300,189,31571,2,0,P|357:187|411:143,1,112.500004291535,0|0,1:0|0:0,0:0:0:0:
227,89,31741,6,0,B|170:230|297:331|297:331|263:325|219:327,1,337.500012874604,4|0,1:0|0:0,1:0:0:0:
54,340,32082,6,0,B|43:293|-10:259|-10:259|84:290|157:260,1,269.999991760254,4|0,1:0|0:0,0:0:0:0:
320,179,32423,6,0,P|388:243|322:247,1,202.499993820191,4|0,1:0|0:0,0:0:0:0:
130,135,32764,1,0,1:0:0:0:
321,49,32934,1,0,1:0:0:0:
388,60,33020,1,0,1:0:0:0:
454,70,33105,2,0,B|481:85|507:75|507:75|470:116|469:158,1,134.999995880127,2|0,1:0|0:0,0:0:0:0:
431,226,33360,1,2,0:0:0:0:
420,213,33446,6,2,L|416:267,1,45,2|0,0:0|0:0,0:0:0:0:
457,315,33787,5,0,1:0:0:0:
205,130,34042,5,0,1:0:0:0:
292,313,34298,5,0,1:0:0:0:
102,356,34468,6,0,P|151:341|187:291,1,112.500004291535,4|0,1:0|0:0,0:0:0:0:
128,70,34639,1,0,0:0:0:0:
114,147,34724,1,0,0:0:0:0:
166,207,34809,2,0,P|205:210|279:197,1,112.500004291535,0|0,1:0|0:0,0:0:0:0:
410,16,34980,2,0,P|371:13|297:26,1,112.500004291535
186,293,35150,6,0,P|315:288|394:225,1,225.000008583069,0|0,1:0|0:0,0:0:0:0:
453,118,35406,1,0,1:0:0:0:
435,103,35491,2,0,P|389:107|326:137,1,112.500004291535
426,324,35662,2,0,P|455:288|479:222,1,112.500004291535,0|0,1:0|0:0,0:0:0:0:
377,10,35832,6,0,B|282:39|197:2|197:2|224:23|224:54,1,225.000008583069,0|0,1:0|0:0,0:0:0:0:
89,59,36088,1,0,0:0:0:0:
36,128,36173,2,0,P|103:208|113:114,1,225.000008583069,0|0,1:0|0:0,0:0:0:0:
86,50,36429,1,0,0:0:0:0:
0,280,36514,6,0,P|126:300|201:245,1,225.000008583069,0|0,1:0|0:0,0:0:0:0:
308,45,36770,2,0,P|238:41|306:130,1,225.000008583069,0|0,1:0|0:0,0:0:0:0:
406,72,37025,1,0,1:0:0:0:
404,60,37110,1,0,0:0:0:0:
402,48,37196,6,0,P|390:99|414:174,1,112.500004291535,0|0,1:0|0:0,0:0:0:0:
279,247,37366,2,0,P|291:298|267:373,1,112.500004291535
403,270,37537,2,0,P|454:282|529:257,1,112.500004291535,0|0,1:0|0:0,1:0:0:0:
278,141,37707,2,0,P|227:129|152:153,1,112.500004291535
277,355,37878,6,0,P|291:301|279:247,1,112.500004291535,0|0,1:0|0:0,0:0:0:0:
169,142,38048,2,0,P|223:128|278:141,1,112.500004291535,0|0,0:0|1:0,0:0:0:0:
511,268,38218,2,0,P|457:282|403:270,1,112.500004291535
403,156,38389,2,0,P|389:102|401:48,1,112.500004291535,0|0,1:0|0:0,0:0:0:0:
238,26,38559,6,0,B|160:53|53:18|53:18|110:67|107:119,1,292.499986610413,4|0,1:0|1:0,0:0:0:0:
15,105,38900,2,0,P|9:154|28:210,1,97.4999955368044
203,207,39071,2,0,P|209:157|190:102,1,97.4999955368044,0|0,1:0|0:0,0:0:0:0:
40,284,39241,6,0,P|97:308|185:292,1,150,8|0,1:0|0:0,0:0:0:0:
283,276,39497,1,0,1:0:0:0:
314,100,39667,1,0,0:0:0:0:
304,94,39753,2,0,B|283:138|283:138|314:198,1,97.4999955368044,0|0,1:0|0:0,0:0:0:0:
454,280,39923,2,0,B|426:239|426:239|358:236,1,97.4999955368044
208,320,40093,2,0,B|256:316|256:316|293:259,1,97.4999955368044,0|0,1:0|0:0,0:0:0:0:
389,146,40264,5,0,0:0:0:0:
76,161,40434,1,0,1:0:0:0:
66,162,40520,1,0,0:0:0:0:
56,162,40605,6,0,B|18:198|18:198|74:185|116:200,1,150,8|0,1:0|0:0,0:0:0:0:
213,250,40860,1,0,1:0:0:0:
226,242,40946,2,0,P|242:195|230:139,1,97.4999955368044,0|0,1:0|0:0,0:0:0:0:
184,2,41116,2,0,P|168:49|180:105,1,97.4999955368044,0|0,1:0|0:0,0:0:0:0:
342,159,41287,6,0,B|382:137|414:159|414:159|451:181|505:159,1,150,0|0,1:0|0:0,0:0:0:0:
504,72,41542,1,0,1:0:0:0:
497,63,41628,2,0,P|450:28|465:88,1,150,0|0,0:0|1:0,0:0:0:0:
334,66,41883,1,0,0:0:0:0:
323,65,41968,6,0,B|266:67|266:67|230:90|230:90|172:93,1,150,8|0,1:0|0:0,0:0:0:0:
88,100,42224,1,0,1:0:0:0:
263,216,42395,1,0,0:0:0:0:
269,194,42480,1,0,1:0:0:0:
63,302,42650,6,0,B|133:261|205:301|205:301|264:329|340:310|373:267|364:210,1,360,4|0,1:0|0:0,0:0:0:0:
314,46,42991,6,0,B|171:75|49:21|49:21|94:38|112:84,1,360,4|0,1:0|0:0,0:0:0:0:
282,139,43332,6,0,B|395:172|552:138|528:32|449:1|402:74,1,360,4|0,1:0|0:0,0:0:0:0:
226,239,43673,6,0,B|60:286|37:138|37:138|63:182|141:186,1,360,4|0,1:0|0:0,0:0:0:0:
101,234,46400,6,0,P|73:228|100:255,1,90,2|0,0:0|0:0,0:0:0:0:
215,239,46741,6,0,L|191:78,1,150,0|0,1:0|0:0,0:0:0:0:
308,268,46997,2,0,L|284:107,1,150,0|0,1:0|0:0,0:0:0:0:
401,297,47253,2,0,L|389:216,1,75,0|0,1:0|0:0,0:0:0:0:
367,74,47423,6,0,L|391:235,1,150,0|0,1:0|0:0,0:0:0:0:
274,45,47679,2,0,L|298:206,1,150,0|0,1:0|0:0,0:0:0:0:
180,16,47934,2,0,L|191:96,1,75,0|0,1:0|0:0,0:0:0:0:
214,249,48105,6,0,P|133:233|132:94,1,225,0|0,1:0|0:0,0:0:0:0:
292,303,48446,2,0,P|226:339|79:298,1,225,0|0,1:0|0:0,0:0:0:0:
188,164,48787,6,0,L|418:174,1,225,0|0,1:0|0:0,0:0:0:0:
233,87,49128,2,0,L|463:97,1,225,0|0,1:0|0:0,0:0:0:0:
403,14,49468,6,0,L|253:7,1,150,0|0,1:0|0:0,0:0:0:0:
457,96,49724,2,0,L|307:89,1,150,0|0,1:0|0:0,0:0:0:0:
511,178,49980,2,0,L|413:173,1,75,0|0,1:0|0:0,0:0:0:0:
207,167,50150,6,0,L|356:173,1,150,0|0,1:0|0:0,0:0:0:0:
149,251,50406,2,0,L|298:257,1,150,0|0,1:0|0:0,0:0:0:0:
91,335,50662,2,0,L|184:339,1,75,0|0,1:0|0:0,0:0:0:0:
399,352,50832,6,0,P|394:265|429:206,1,150,0|0,1:0|0:0,0:0:0:0:
354,39,51088,2,0,P|359:126|324:185,1,150,0|0,1:0|0:0,0:0:0:0:
267,325,51343,2,0,P|264:282|275:249,1,75,0|0,1:0|0:0,0:0:0:0:
278,100,51514,6,0,P|202:109|128:83,1,150,0|0,1:0|0:0,0:0:0:0:
0,165,51770,2,0,P|76:156|150:182,1,150,0|0,1:0|0:0,0:0:0:0:
273,251,52025,2,0,P|230:253|197:243,1,75,0|0,1:0|0:0,0:0:0:0:
209,28,52196,6,0,L|234:181,1,150,0|0,1:0|0:0,0:0:0:0:
315,52,52451,2,0,L|340:205,1,150,0|0,1:0|0:0,0:0:0:0:
421,76,52707,2,0,L|433:152,1,75,0|0,1:0|0:0,0:0:0:0:
474,380,52878,6,0,L|449:227,1,150,0|0,1:0|0:0,0:0:0:0:
363,348,53133,2,0,L|338:195,1,150,0|0,1:0|0:0,0:0:0:0:
252,316,53389,2,0,L|239:239,1,75,0|0,1:0|0:0,0:0:0:0:
245,79,53559,6,0,P|242:111|220:147,1,75,0|0,1:0|0:0,0:0:0:0:
156,87,53730,2,0,L|116:70,2,37.5
146,210,53900,6,0,P|123:232|83:246,1,75,0|0,1:0|0:0,0:0:0:0:
72,158,54071,2,0,L|52:119,2,37.5
216,269,54241,6,0,P|248:265|284:244,1,75,0|0,1:0|0:0,0:0:0:0:
224,179,54412,2,0,L|207:139,2,37.5
347,169,54582,6,0,P|369:146|383:106,1,75,0|0,1:0|0:0,0:0:0:0:
295,95,54753,2,0,L|256:75,2,37.5
243,180,55179,6,0,P|244:273|278:353,1,165.000005035401,0|0,1:0|0:0,0:0:0:0:
351,170,55434,2,0,P|329:214|327:251,1,82.5000025177003,0|0,1:0|0:0,0:0:0:0:
389,383,55605,6,0,P|419:295|415:208,1,165.000005035401,0|0,1:0|0:0,0:0:0:0:
512,254,55860,2,0,P|479:166|419:103,1,165.000005035401,0|0,1:0|0:0,0:0:0:0:
512,63,56116,2,0,P|477:37|425:24,1,82.5000025177003,0|0,1:0|0:0,0:0:0:0:
288,22,56287,6,0,L|116:32,1,165.000005035401,0|0,1:0|0:0,0:0:0:0:
347,104,56542,2,0,L|175:114,1,165.000005035401,0|0,1:0|0:0,0:0:0:0:
406,186,56798,2,0,L|320:191,1,82.5000025177003,0|0,1:0|0:0,0:0:0:0:
69,205,56968,6,0,L|233:195,1,165.000005035401,0|0,1:0|0:0,0:0:0:0:
32,291,57224,2,0,L|196:281,1,165.000005035401,0|0,1:0|0:0,0:0:0:0:
0,379,57480,2,0,L|82:374,1,82.5000025177003,0|0,1:0|0:0,0:0:0:0:
256,364,57650,6,0,P|306:297|313:210,1,165.000005035401,0|0,1:0|0:0,0:0:0:0:
403,274,57906,2,0,P|398:190|347:119,1,165.000005035401,0|0,1:0|0:0,0:0:0:0:
457,110,58162,2,0,P|426:70|379:44,1,82.5000025177003,0|0,1:0|0:0,0:0:0:0:
283,36,58332,6,0,P|233:103|226:190,1,165.000005035401,0|0,1:0|0:0,0:0:0:0:
136,126,58588,2,0,P|140:209|191:280,1,165.000005035401,0|0,1:0|0:0,0:0:0:0:
82,290,58843,2,0,P|113:330|160:356,1,82.5000025177003,0|0,1:0|0:0,0:0:0:0:
352,382,59014,6,0,P|412:263|517:207,1,247.500007553101,0|0,1:0|0:0,0:0:0:0:
277,240,59355,2,0,P|399:187|515:212,1,247.500007553101,0|0,1:0|0:0,0:0:0:0:
310,83,59696,2,0,P|437:121|510:215,1,247.500007553101,0|0,1:0|0:0,0:0:0:0:
508,208,60037,2,0,P|403:271|351:382,1,247.500007553101,0|0,1:0|0:0,0:0:0:0:
193,127,60718,6,0,L|51:124,1,134.999995880127,12|0,1:0|0:0,0:0:0:0:
199,133,61400,6,0,L|57:130,1,134.999995880127,12|0,1:0|0:0,0:0:0:0:
357,248,61997,6,0,L|350:150,1,89.9999972534181,12|0,1:0|0:0,0:0:0:0:
270,8,62253,2,0,L|263:97,1,89.9999972534181,12|0,1:0|0:0,0:0:0:0:
240,351,63105,6,0,P|167:301|124:234,1,150,0|0,1:0|0:0,0:0:0:0:
244,256,63360,2,0,P|220:171|230:92,1,150,0|0,1:0|0:0,0:0:0:0:
308,187,63616,2,0,P|329:138|365:106,1,75,0|0,1:0|0:0,0:0:0:0:
492,263,63787,6,0,P|406:279|328:262,1,150,0|0,1:0|0:0,0:0:0:0:
355,382,64042,2,0,P|278:338|230:275,1,150,0|0,1:0|0:0,0:0:0:0:
170,381,64298,2,0,P|152:335|154:290,1,75,0|0,1:0|0:0,0:0:0:0:
205,142,64468,6,0,L|354:151,1,134.999995880127,12|0,1:0|0:0,0:0:0:0:
211,148,64809,2,0,L|360:157,1,134.999995880127,12|0,1:0|0:0,0:0:0:0:
244,240,65150,6,0,L|95:231,1,134.999995880127,12|0,1:0|0:0,0:0:0:0:
238,234,65491,2,0,L|89:225,1,134.999995880127,12|0,1:0|0:0,0:0:0:0:
82,72,65832,5,12,1:0:0:0:
180,339,76741,6,0,P|156:293|157:232,1,112.500004291535,8|0,0:0|0:0,0:0:0:0:
270,20,77082,6,0,P|294:66|297:86,1,56.2500021457673,8|0,0:0|0:0,0:0:0:0:
380,78,77253,2,0,P|368:128|358:145,1,56.2500021457673,8|0,0:0|0:0,0:0:0:0:
426,193,77423,2,0,P|384:224|307:229,1,112.500004291535,8|0,0:0|0:0,0:0:0:0:
250,149,77679,1,0,0:0:0:0:
250,149,77764,6,0,P|193:131|123:143,1,112.500004291535,8|0,0:0|0:0,0:0:0:0:
162,362,78105,6,0,P|179:327|179:303,1,56.2500021457673,8|0,0:0|0:0,0:0:0:0:
271,317,78275,2,0,P|261:279|246:260,1,56.2500021457673
325,212,78446,1,8,0:0:0:0:
61,176,78616,1,0,0:0:0:0:
61,176,78701,1,0,0:0:0:0:
61,176,78787,6,0,P|160:210|237:166,1,168.750006437302,8|0,0:0|0:0,0:0:0:0:
296,98,79128,2,8,P|395:64|472:108,1,168.750006437302,8|0,0:0|0:0,0:0:0:0:
512,162,79468,6,0,B|448:195|381:154|381:154|372:187|336:218,1,202.499993820191,8|0,0:0|0:0,0:0:0:0:
323,298,79809,2,0,P|289:284|264:257,1,67.4999979400635,8|0,0:0|0:0,0:0:0:0:
207,322,79980,2,0,P|189:289|188:252,1,67.4999979400635,8|0,0:0|0:0,0:0:0:0:
192,102,80150,6,0,P|224:53|212:138,1,202.499993820191,8|0,0:0|0:0,0:0:0:0:
198,185,80491,1,8,0:0:0:0:
401,53,80662,1,0,0:0:0:0:
401,53,80747,1,0,0:0:0:0:
401,53,80832,6,0,P|409:122|380:196,1,134.999995880127,8|0,0:0|0:0,0:0:0:0:
222,316,81173,2,0,P|287:302|340:261,1,134.999995880127,8|0,0:0|0:0,0:0:0:0:
307,188,81429,1,0,0:0:0:0:
307,188,81514,6,0,B|228:206|136:184|136:184|158:215,1,202.499993820191,8|0,0:0|0:0,0:0:0:0:
0,229,81855,2,0,B|79:211|171:233|171:233|149:202,1,202.499993820191,8|0,0:0|0:0,0:0:0:0:
61,140,82196,5,8,0:0:0:0:
99,301,82366,1,8,0:0:0:0:
192,136,82537,5,8,0:0:0:0:
201,301,82707,1,8,0:0:0:0:
451,140,82878,5,8,0:0:0:0:
413,301,83048,1,8,0:0:0:0:
320,136,83218,5,8,0:0:0:0:
311,301,83389,1,8,0:0:0:0:
47,44,83559,5,8,0:0:0:0:
99,301,83730,1,8,0:0:0:0:
197,61,83900,5,8,0:0:0:0:
201,301,84071,1,8,0:0:0:0:
465,44,84241,5,8,0:0:0:0:
413,301,84412,1,8,0:0:0:0:
315,61,84582,5,8,0:0:0:0:
311,301,84753,1,8,0:0:0:0:
170,50,84923,5,8,0:0:0:0:
135,28,85008,1,0,1:0:0:0:
95,21,85093,1,0,1:0:0:0:
55,31,85179,1,0,1:0:0:0:
12,113,85264,5,8,0:0:0:0:
37,160,85349,1,0,1:0:0:0:
81,190,85434,1,0,1:0:0:0:
135,188,85520,1,0,1:0:0:0:
186,104,85605,5,8,0:0:0:0:
248,78,85690,1,0,1:1:0:0:
314,87,85775,1,0,1:1:0:0:
371,122,85860,1,0,1:1:0:0:
422,221,85946,5,8,0:0:0:0:
472,166,86031,1,0,1:0:0:0:
476,92,86116,1,0,1:0:0:0:
442,25,86201,1,0,1:0:0:0:
370,6,86287,6,0,P|343:4|303:17,1,52.4999983978272,2|0,0:0|0:0,0:0:0:0:
238,70,86457,2,0,P|211:72|171:59,1,52.4999983978272,2|0,0:0|0:0,0:0:0:0:
364,12,86628,6,0,P|337:10|297:23,1,52.4999983978272,2|0,0:0|0:0,0:0:0:0:
232,76,86798,2,0,P|205:78|165:65,1,52.4999983978272,2|0,0:0|0:0,0:0:0:0:
358,18,86968,6,0,P|331:16|291:29,1,52.4999983978272,2|0,0:0|0:0,0:0:0:0:
226,82,87139,2,0,P|199:84|159:71,1,52.4999983978272,2|0,0:0|0:0,0:0:0:0:
77,5,87309,2,0,P|87:29|88:71,1,52.4999983978272,2|0,0:0|0:0,0:0:0:0:
13,64,87480,2,0,P|2:88|1:130,1,52.4999983978272
74,170,87650,6,0,B|82:136|82:136|123:178|183:160|183:160|163:194,1,180
117,291,87991,6,0,B|75:255|75:255|161:288|240:260,1,225,4|0,1:0|0:0,0:0:0:0:
351,223,88332,2,0,P|393:219|432:230,1,75,0|0,1:0|0:0,0:0:0:0:
360,338,88503,2,0,P|318:342|279:331,1,75
161,197,88673,6,0,P|157:154|168:116,1,75,0|0,1:0|0:0,0:0:0:0:
244,186,88843,2,0,P|248:228|237:267,1,75
101,375,89014,2,0,P|77:297|153:365,1,225,0|0,1:0|0:0,0:0:0:0:
251,367,89355,6,0,L|329:359,1,75,0|0,1:0|0:0,0:0:0:0:
432,347,89525,2,0,L|510:339,1,75
428,264,89696,6,0,L|353:271,1,75,0|0,1:0|0:0,0:0:0:0:
247,284,89866,1,0,0:0:0:0:
247,284,89951,1,0,0:0:0:0:
247,284,90037,6,0,L|172:291,1,75,0|0,1:0|0:0,0:0:0:0:
79,304,90207,1,0,0:0:0:0:
79,304,90292,1,0,0:0:0:0:
79,304,90378,6,0,B|21:311|21:311|54:146,1,225,0|0,1:0|0:0,0:0:0:0:
27,70,90718,2,0,P|67:65|109:91,1,75,0|0,1:0|0:0,0:0:0:0:
134,1,90889,2,0,P|167:22|183:69,1,75
395,144,91059,6,0,P|355:139|313:165,1,75,0|0,1:0|0:0,0:0:0:0:
288,75,91230,2,0,P|254:96|238:143,1,75
131,221,91400,6,0,P|171:226|213:200,1,75,0|0,1:0|0:0,0:0:0:0:
238,290,91571,2,0,P|271:268|287:221,1,75
149,137,91741,6,0,B|-17:151|-17:151|41:180,1,225,0|0,1:0|0:0,0:0:0:0:
131,221,92082,6,0,B|278:205|278:205|222:181,1,191.250003647804,0|0,1:0|0:0,0:0:0:0:
149,137,92423,6,0,B|34:148|34:148|72:175,1,157.499995193482,0|0,1:0|0:0,0:0:0:0:
131,221,92764,6,0,B|224:213|224:213|183:192,1,123.75000377655,0|0,1:0|0:0,0:0:0:0:
265,73,93105,6,0,P|161:46|155:144,1,225.000008583069,4|0,1:0|0:0,0:0:0:0:
265,73,93360,6,0,P|161:46|155:144,1,225.000008583069,0|0,1:0|0:0,0:0:0:0:
265,73,93616,6,0,P|235:40|171:38,1,112.500004291535,4|0,1:0|0:0,0:0:0:0:
67,155,93787,6,0,L|79:247,1,75,4|0,1:0|0:0,0:0:0:0:
179,234,93957,1,0,0:0:0:0:
179,234,94042,1,0,0:0:0:0:
179,234,94128,2,0,L|167:326,1,75,0|0,1:0|0:0,0:0:0:0:
84,319,94298,2,0,L|-8:331,1,75
250,351,94468,6,0,B|286:351|286:351|312:364|312:364|347:365,1,93.75,0|0,1:0|0:0,0:0:0:0:
415,266,94639,2,0,B|379:266|379:266|353:279|353:279|318:280,1,93.75
481,321,94809,6,0,P|497:289|497:244,1,75,0|0,1:0|0:0,0:0:0:0:
470,146,94980,1,0,0:0:0:0:
470,146,95065,1,0,0:0:0:0:
470,146,95150,6,0,P|439:104|391:91,1,93.75,0|0,1:0|0:0,0:0:0:0:
271,107,95321,2,0,P|302:148|350:161,1,93.75
327,14,95491,6,0,L|229:9,1,75,0|0,1:0|0:0,0:0:0:0:
98,83,95662,2,0,L|196:78,1,75
401,91,95832,6,0,B|437:90|485:69|485:69|441:151|450:174|450:174|455:198|455:198|434:232|441:307,1,300,4|0,1:0|0:0,0:0:0:0:
348,278,96258,5,0,1:0:0:0:
315,178,96343,2,0,B|279:176|231:155|231:155|275:237|266:260|266:260|261:284|261:284|282:318|275:393,1,300,4|0,1:0|0:0,0:0:0:0:
348,278,96770,5,0,1:0:0:0:
180,300,96855,2,0,L|99:311,1,75,4|0,1:0|0:0,0:0:0:0:
315,178,97025,2,0,L|396:167,1,75
398,352,97196,6,0,P|373:269|391:161,1,191.250003647804
405,160,97537,2,0,P|434:251|408:366,1,213.749994292259
399,374,97878,6,0,P|358:276|394:139,1,236.249992790222
405,148,98218,2,0,P|455:257|411:393,1,258.750004935265
417,384,98559,6,0,L|505:376,1,75,0|0,0:0|1:0,0:0:0:0:
378,268,98900,6,0,P|366:248|255:176,1,134.999995880127,6|0,1:0|0:0,0:0:0:0:
329,326,99241,6,0,P|323:260|269:171,1,157.499995193482,2|0,0:0|0:0,0:0:0:0:
227,342,99582,6,0,P|265:298|273:167,1,180,2|0,0:0|0:0,0:0:0:0:
129,294,99923,6,0,P|208:273|281:164,1,202.499993820191,2|0,0:0|0:0,0:0:0:0:
74,193,100264,6,0,P|172:225|290:168,1,225,2|0,0:0|0:0,0:0:0:0:
81,77,100605,6,0,P|157:168|287:177,1,247.500007553101,2|0,0:0|0:0,0:0:0:0:
395,155,100946,6,0,B|384:135|350:119|350:119|377:155|377:203,1,134.999995880127,8|0,0:0|0:0,0:0:0:0:
443,258,101287,6,0,P|365:280|298:244,1,150,4|0,1:0|0:0,0:0:0:0:
248,170,101542,1,0,0:0:0:0:
235,154,101628,6,0,P|241:118|268:86,1,75,8|0,3:0|0:0,0:0:0:0:
159,215,101798,2,0,P|140:183|140:141,1,75,0|0,1:0|0:0,0:0:0:0:
139,310,101968,2,0,P|103:297|76:265,1,75,0|0,1:0|0:0,0:0:0:0:
39,121,102139,1,0,0:0:0:0:
55,92,102224,1,0,1:0:0:0:
90,71,102309,6,0,P|133:61|169:73,1,75,8|0,3:0|0:0,0:0:0:0:
297,162,102480,2,0,P|253:171|218:160,1,75,0|0,1:0|0:0,0:0:0:0:
377,84,102650,6,0,B|411:149|411:149|397:233,1,150,0|0,1:0|0:0,0:0:0:0:
303,284,102906,1,0,1:0:0:0:
285,268,102991,2,0,P|248:253|191:262,1,86.2500016450882,8|0,3:0|0:0,0:0:0:0:
338,363,103162,2,0,P|374:378|432:369,1,86.2500016450882,0|0,1:0|0:0,0:0:0:0:
497,209,103332,6,0,P|440:168|479:270,1,258.750004935265,0|0,1:0|1:0,0:0:0:0:
498,97,103673,2,0,P|445:85|394:91,1,86.2500016450882,8|0,3:0|0:0,0:0:0:0:
384,358,103843,2,0,P|437:369|488:364,1,86.2500016450882,0|0,1:0|0:0,0:0:0:0:
297,123,104014,6,0,B|261:118|216:91|216:91|260:168|260:265,1,258.750004935265,4|0,1:0|0:0,0:0:0:0:
193,380,104355,2,0,P|181:331|194:278,1,86.2500016450882,8|0,1:0|0:0,0:0:0:0:
339,299,104525,2,0,P|351:348|337:401,1,86.2500016450882
107,384,104696,2,0,P|95:335|108:282,1,86.2500016450882,0|0,1:0|0:0,0:0:0:0:
160,129,104866,1,0,0:0:0:0:
187,111,104951,1,0,0:0:0:0:
217,106,105037,6,0,P|258:107|308:132,1,86.2500016450882,8|0,1:0|0:0,0:0:0:0:
339,299,105207,2,0,P|298:297|248:273,1,86.2500016450882,0|0,1:0|0:0,0:0:0:0:
80,88,105378,6,0,L|85:229,1,120,4|0,1:0|0:0,0:0:0:0:
90,220,105633,6,0,L|95:66,1,134.999995880127,4|0,1:0|0:0,0:0:0:0:
104,72,105889,6,0,L|111:274,1,150,4|0,1:0|0:0,0:0:0:0:
119,234,106145,6,0,L|126:31,1,165.000005035401,4|0,1:0|0:0,0:0:0:0:
137,56,106400,6,0,L|141:169,1,89.9999972534181,4|0,1:0|0:0,0:0:0:0:
145,236,106571,2,0,L|149:349,1,89.9999972534181,4|0,1:0|0:0,0:0:0:0:
364,300,106741,6,0,L|356:86,1,209.999993591309,4|0,1:0|0:0,0:0:0:0:
351,71,106997,6,0,L|341:322,1,240,4|0,1:0|0:0,0:0:0:0:
336,332,107253,6,0,L|325:55,1,269.999991760254,4|0,1:0|0:0,0:0:0:0:
319,50,107508,6,0,L|305:407,1,300,4|0,1:0|0:0,0:0:0:0:
293,369,107764,6,0,L|284:141,1,165.000005035401,4|0,1:0|0:0,0:0:0:0:
291,90,107934,6,0,P|255:32|158:27,1,165.000005035401,4|0,1:0|0:0,0:0:0:0:
70,117,108105,5,4,3:0:0:0:
256,192,108446,1,10,3:0:0:0:
57,220,108787,5,4,3:0:0:0:
256,192,109128,1,10,3:0:0:0:
98,315,109468,5,4,3:0:0:0:
256,192,109809,1,10,3:0:0:0:
181,378,110150,5,4,3:0:0:0:
256,192,110491,1,10,3:0:0:0:
442,117,110832,5,4,3:0:0:0:
256,192,111173,1,10,3:0:0:0:
454,220,111514,5,4,3:0:0:0:
256,192,111855,1,10,3:0:0:0:
413,315,112195,5,4,3:0:0:0:
256,192,112536,1,10,3:0:0:0:
331,378,112877,5,4,3:0:0:0:
256,192,113218,1,10,3:0:0:0:
70,117,113559,5,4,3:0:0:0:
256,192,113730,1,10,3:0:0:0:
57,220,113900,5,4,3:0:0:0:
256,192,114071,1,10,3:0:0:0:
98,315,114240,5,4,3:0:0:0:
256,192,114412,1,10,3:0:0:0:
181,378,114581,5,4,3:0:0:0:
256,192,114753,1,10,3:0:0:0:
442,117,114922,5,4,3:0:0:0:
256,192,115093,1,10,3:0:0:0:
454,220,115264,5,4,3:0:0:0:
256,192,115434,1,10,3:0:0:0:
413,315,115605,5,4,3:0:0:0:
256,192,115775,1,10,3:0:0:0:
331,378,115946,5,4,3:0:0:0:
256,192,116116,1,10,3:0:0:0:
346,54,116287,5,8,3:0:0:0:
390,46,116372,1,0,1:0:0:0:
432,58,116457,1,0,1:0:0:0:
465,87,116542,1,0,1:0:0:0:
487,177,116628,5,8,3:0:0:0:
470,226,116713,1,0,1:0:0:0:
429,259,116798,1,0,1:0:0:0:
376,261,116883,1,0,1:0:0:0:
305,162,116968,5,8,3:0:0:0:
250,135,117054,1,0,1:0:0:0:
190,131,117139,1,0,1:0:0:0:
133,150,117224,1,0,1:0:0:0:
81,268,117309,5,8,3:0:0:0:
129,316,117395,1,0,1:0:0:0:
194,330,117480,1,0,1:0:0:0:
257,307,117565,1,0,1:0:0:0:
320,240,117650,6,0,P|271:246|316:313,1,165
430,342,118673,5,2,0:0:0:0:
421,272,118758,1,2,0:0:0:0:
414,202,118843,1,2,0:0:0:0:
409,131,118929,1,2,0:0:0:0:
404,62,119014,6,0,P|342:51|268:76,1,134.999995880127,0|0,1:0|0:0,0:0:0:0:
47,315,119355,2,0,P|106:332|178:306,1,134.999995880127,0|0,1:0|0:0,0:0:0:0:
257,200,119610,1,0,0:0:0:0:
258,188,119695,1,0,1:0:0:0:
109,242,119866,1,0,0:0:0:0:
390,365,120037,6,0,P|419:260|378:166,1,202.499993820191,0|0,1:0|0:0,0:0:0:0:
302,124,120378,5,0,1:0:0:0:
488,346,120548,1,0,0:0:0:0:
489,90,120718,2,0,P|388:82|321:131,1,134.999995880127,0|0,1:0|0:0,0:0:0:0:
169,338,121059,2,0,P|97:341|37:306,1,134.999995880127,0|0,1:0|0:0,0:0:0:0:
106,92,121400,2,0,P|170:105|89:153,1,202.499993820191,0|0,1:0|0:0,0:0:0:0:
241,32,121741,6,0,P|277:82|273:178,1,134.999995880127,0|0,1:0|0:0,0:0:0:0:
39,316,122082,2,0,P|8:221|14:183,1,134.999995880127,0|0,1:0|0:0,0:0:0:0:
53,77,122338,1,0,0:0:0:0:
68,72,122423,1,0,1:0:0:0:
233,333,122593,1,0,0:0:0:0:
13,188,122764,6,0,P|65:171|149:191,1,134.999995880127,0|0,1:0|0:0,0:0:0:0:
348,334,123105,6,0,P|370:291|365:239,1,86.2500016450882,0|0,1:0|0:0,0:0:0:0:
457,254,123275,2,0,P|446:206|408:170,1,86.2500016450882
489,122,123446,2,0,P|450:92|398:88,1,86.2500016450882,0|0,1:0|0:0,0:0:0:0:
428,1,123616,2,0,P|379:3|337:33,1,86.2500016450882
369,253,123787,6,0,P|327:241|297:211,1,86.2500016450882,0|0,1:0|0:0,0:0:0:0:
235,273,123957,2,0,P|211:237|206:195,1,86.2500016450882
119,202,124128,2,0,P|123:159|147:123,1,86.2500016450882,0|0,1:0|0:0,0:0:0:0:
76,74,124298,2,0,P|106:44|147:32,1,86.2500016450882
318,25,124468,6,0,P|365:72|365:185,1,172.500003290176,0|0,1:0|0:0,0:0:0:0:
130,370,124809,2,0,P|82:322|82:210,1,172.500003290176,0|0,1:0|0:0,0:0:0:0:
154,98,125065,1,0,0:0:0:0:
171,81,125150,1,0,1:0:0:0:
156,278,125321,1,0,0:0:0:0:
455,210,125491,2,0,P|499:273|376:270,1,258.750004935265,0|0,1:0|0:0,0:0:0:0:
366,177,125832,5,0,1:0:0:0:
290,352,126003,1,0,0:0:0:0:
490,118,126173,2,0,P|452:75|331:57,1,172.500003290176,0|0,1:0|0:0,0:0:0:0:
41,269,126514,2,0,P|79:312|200:330,1,172.500003290176,0|0,1:0|0:0,0:0:0:0:
200,68,126855,2,0,P|124:44|171:153,1,258.750004935265,0|0,1:0|0:0,0:0:0:0:
293,160,127196,6,0,P|325:87|292:-15,1,172.500003290176,0|0,1:0|0:0,0:0:0:0:
30,14,127537,2,0,P|-2:87|31:188,1,172.500003290176,0|0,1:0|0:0,0:0:0:0:
103,259,127792,1,0,0:0:0:0:
114,268,127878,1,0,1:0:0:0:
205,31,128048,1,0,0:0:0:0:
361,340,128218,6,0,P|426:278|434:195,1,172.500003290176,0|0,1:0|0:0,0:0:0:0:
205,31,128559,6,0,P|176:129|217:285,1,258.750004935265,0|0,1:0|0:0,0:0:0:0:
299,277,128900,2,0,P|336:155|307:31,1,258.750004935265,0|0,1:0|0:0,0:0:0:0:
112,39,129241,6,0,P|83:163|120:286,1,258.750004935265,0|0,1:0|0:0,0:0:0:0:
392,286,129582,2,0,P|428:163|399:39,1,258.750004935265,0|0,1:0|0:0,0:0:0:0:
215,128,129923,6,0,P|239:208|275:104,1,258.750004935265,4|0,1:0|0:0,0:0:0:0:
191,16,130264,2,0,P|95:13|13:46,1,172.500003290176,0|0,1:0|0:0,0:0:0:0:
0,145,130520,1,0,0:0:0:0:
1,156,130605,1,0,1:0:0:0:
292,111,130775,1,0,0:0:0:0:
34,303,130946,2,0,P|148:340|281:263,1,258.750004935265,0|0,1:0|0:0,0:0:0:0:
293,189,131287,5,0,1:0:0:0:
99,214,131457,1,0,0:0:0:0:
436,375,131628,2,0,P|469:274|447:202,1,172.500003290176,0|0,1:0|0:0,0:0:0:0:
115,51,131968,2,0,P|82:152|104:224,1,172.500003290176,0|0,1:0|0:0,0:0:0:0:
457,129,132309,2,0,P|488:70|393:120,1,258.750004935265,0|0,1:0|0:0,0:0:0:0:
408,204,132650,6,0,P|407:285|371:372,1,172.500003290176,0|0,1:0|0:0,0:0:0:0:
140,178,132991,2,0,P|141:97|177:10,1,172.500003290176,0|0,1:0|0:0,0:0:0:0:
283,14,133247,1,0,0:0:0:0:
299,16,133332,1,0,1:0:0:0:
492,248,133503,1,0,0:0:0:0:
225,366,133673,2,0,P|141:365|71:306,1,172.500003290176,0|0,1:0|0:0,0:0:0:0:
422,284,134014,6,0,P|374:276|333:229,1,86.2500016450882,0|0,1:0|0:0,0:0:0:0:
298,327,134184,2,0,P|266:290|265:227,1,86.2500016450882
176,280,134355,2,0,P|175:231|214:182,1,86.2500016450882,0|0,1:0|0:0,0:0:0:0:
113,167,134525,2,0,P|143:129|205:117,1,86.2500016450882
469,171,134696,6,0,P|429:142|367:146,1,86.2500016450882,0|0,1:0|0:0,0:0:0:0:
411,52,134866,2,0,P|362:55|317:99,1,86.2500016450882
292,0,135037,2,0,P|257:34|250:96,1,86.2500016450882,0|0,1:0|0:0,0:0:0:0:
167,35,135207,2,0,P|162:83|197:135,1,86.2500016450882
105,193,135378,6,0,P|198:216|275:155,1,172.500003290176,0|0,1:0|0:0,0:0:0:0:
506,43,135718,2,0,P|413:19|336:80,1,172.500003290176,0|0,1:0|0:0,0:0:0:0:
338,135,135974,1,0,0:0:0:0:
362,153,136059,1,0,1:0:0:0:
117,81,136230,1,0,0:0:0:0:
277,355,136400,2,0,P|372:323|276:261,1,258.750004935265,0|0,1:0|0:0,0:0:0:0:
173,363,136741,5,0,1:0:0:0:
445,201,136912,1,0,0:0:0:0:
297,23,137082,2,0,P|199:16|119:43,1,172.500003290176,0|0,1:0|0:0,0:0:0:0:
431,367,137423,2,0,P|454:300|434:175,1,172.500003290176,0|0,1:0|0:0,0:0:0:0:
222,108,137764,2,0,P|176:142|275:134,1,258.750004935265,0|0,1:0|0:0,0:0:0:0:
297,23,138105,6,0,P|199:16|119:43,1,172.500003290176,0|0,1:0|0:0,0:0:0:0:
156,311,138446,2,0,P|254:318|334:291,1,172.500003290176,0|0,1:0|0:0,0:0:0:0:
379,193,138701,1,0,0:0:0:0:
387,169,138787,1,0,1:0:0:0:
70,257,138957,1,0,0:0:0:0:
457,96,139128,6,0,P|490:167|468:263,1,172.500003290176,0|0,1:0|0:0,0:0:0:0:
306,284,139468,6,0,P|175:263|130:154,1,258.750004935265,4|0,1:0|0:0,0:0:0:0:
180,93,139809,2,0,P|311:114|356:223,1,258.750004935265,4|0,1:0|0:0,0:0:0:0:
249,380,140150,6,0,P|119:329|47:218,1,258.750004935265,4|0,1:0|0:0,0:0:0:0:
156,16,140491,2,0,P|203:3|269:11,1,86.2500016450882,4|0,1:0|0:0,0:0:0:0:
420,80,140662,5,4,1:0:0:0:
254,193,140832,6,0,B|261:226|261:226|302:184|362:202|362:202|341:168,1,180
170,146,141173,6,0,P|161:229|212:307,1,165.000005035401,4|0,1:0|0:0,0:0:0:0:
301,340,141429,1,0,0:0:0:0:
301,340,141514,2,0,P|345:340|391:313,1,82.5000025177003,0|0,1:0|0:0,0:0:0:0:
465,236,141684,2,0,P|486:197|486:144,1,82.5000025177003
410,48,141855,2,0,P|343:24|386:128,1,247.500007553101,0|0,1:0|0:0,0:0:0:0:
235,13,142196,6,0,P|191:8|147:18,1,82.5000025177003,0|0,1:0|0:0,0:0:0:0:
5,107,142366,2,0,P|49:102|93:112,1,82.5000025177003
217,147,142537,2,0,P|248:241|132:221,1,247.500007553101,0|0,1:0|0:0,0:0:0:0:
313,102,142878,2,0,P|361:209|302:336,1,247.500007553101,0|0,1:0|0:0,0:0:0:0:
102,332,143218,2,0,P|54:225|113:98,1,247.500007553101,0|0,1:0|0:0,0:0:0:0:
197,9,143559,6,0,B|309:37|427:5|427:5|397:24|376:69,1,292.499986610413,0|0,1:0|0:0,0:0:0:0:
467,79,143900,6,0,P|493:137|475:250,1,165.000005035401,0|0,1:0|0:0,0:0:0:0:
393,370,144156,1,0,0:0:0:0:
393,370,144241,2,0,P|378:336|382:276,1,82.5000025177003,0|0,1:0|0:0,0:0:0:0:
375,123,144412,2,0,P|389:157|386:217,1,82.5000025177003
276,335,144582,6,0,P|211:332|292:260,1,247.500007553101,0|0,1:0|0:0,0:0:0:0:
472,193,144923,6,0,L|376:203,1,82.5000025177003,0|0,1:0|0:0,0:0:0:0:
133,147,145093,2,0,L|229:137,1,82.5000025177003
495,112,145264,6,0,L|399:122,1,82.5000025177003,0|0,1:0|0:0,0:0:0:0:
104,69,145434,2,0,L|200:59,1,82.5000025177003
389,201,145605,6,0,L|472:193,1,82.5000025177003,0|0,1:0|0:0,0:0:0:0:
215,138,145775,2,0,L|133:147,1,82.5000025177003
412,120,145946,6,0,L|495:112,1,82.5000025177003,0|0,1:0|0:0,0:0:0:0:
186,60,146116,2,0,L|104:69,1,82.5000025177003
235,317,146287,6,0,P|344:354|318:204,1,292.499986610413
253,152,146628,2,0,P|166:145|86:180,1,165.000005035401,0|0,1:0|0:0,0:0:0:0:
26,262,146883,1,0,0:0:0:0:
26,262,146968,2,0,L|31:355,1,82.5000025177003,0|0,1:0|0:0,0:0:0:0:
148,375,147139,2,0,L|143:282,1,82.5000025177003
128,51,147309,2,0,P|73:41|110:165,1,247.500007553101,0|0,1:0|0:0,0:0:0:0:
240,200,147650,6,0,P|275:184|308:138,1,82.5000025177003,0|0,1:0|0:0,0:0:0:0:
384,231,147821,2,0,P|401:196|396:139,1,82.5000025177003
510,160,147991,2,0,P|501:122|314:82,1,247.500007553101,0|0,1:0|0:0,0:0:0:0:
240,200,148332,2,0,P|145:214|213:126,1,247.500007553101,0|0,1:0|0:0,0:0:0:0:
332,262,148673,2,0,P|265:343|99:320,1,247.500007553101,0|0,1:0|0:0,0:0:0:0:
48,96,149014,6,0,P|167:40|337:32,1,292.499986610413,0|0,1:0|0:0,0:0:0:0:
492,89,149355,2,0,P|510:180|472:256,1,165.000005035401,0|0,1:0|0:0,0:0:0:0:
354,316,149610,1,0,0:0:0:0:
354,316,149696,2,0,P|340:269|341:227,1,82.5000025177003,0|0,1:0|0:0,0:0:0:0:
384,125,149866,2,0,P|403:79|431:48,1,82.5000025177003
231,335,150037,2,0,P|164:368|140:239,1,247.500007553101,0|0,1:0|0:0,0:0:0:0:
384,125,150378,6,0,B|457:205|467:388|376:377|317:329|367:274,1,337.500012874604,0|0,1:0|0:0,0:0:0:0:
136,242,150718,6,0,B|63:161|53:-21|144:-10|203:38|152:93,1,337.500012874604,0|0,1:0|0:0,0:0:0:0:
310,80,151059,6,0,B|390:7|573:-3|562:88|514:147|458:97,1,337.500012874604,0|0,1:0|0:0,0:0:0:0:
221,329,151400,6,0,B|140:402|-42:412|-31:321|17:262|72:312,1,337.500012874604,0|0,1:0|0:0,0:0:0:0:
332,234,151741,6,0,L|319:377,1,142.49999619484,0|0,1:0|0:0,0:0:0:0:
224,86,152082,2,0,L|236:229,1,142.49999619484,0|0,1:0|0:0,0:0:0:0:
351,46,152338,1,0,0:0:0:0:
355,0,152423,2,0,L|342:143,1,142.49999619484,0|0,1:0|0:0,0:0:0:0:
98,211,152764,6,0,P|63:183|153:191,1,213.749994292259,0|0,1:0|0:0,0:0:0:0:
185,238,153105,6,0,P|166:278|128:301,1,71.2499980974198,0|0,1:0|0:0,0:0:0:0:
243,327,153275,2,0,P|262:367|300:390,1,71.2499980974198
352,194,153446,2,0,B|294:163|294:163|321:312,1,213.749994292259,0|0,1:0|0:0,0:0:0:0:
407,341,153787,2,0,B|465:372|465:372|438:223,1,213.749994292259,0|0,1:0|0:0,0:0:0:0:
350,100,154128,2,0,P|296:81|214:195,1,213.749994292259,0|0,1:0|0:0,0:0:0:0:
230,281,154468,6,0,B|152:280|152:280|109:245|109:245|21:246,1,213.749994292259,0|0,1:0|0:0,0:0:0:0:
15,327,154809,2,0,B|80:325|80:325|121:357|121:357|155:359,1,142.49999619484,0|0,1:0|0:0,0:0:0:0:
238,359,155065,1,0,0:0:0:0:
267,359,155150,1,0,1:0:0:0:
136,174,155321,1,0,0:0:0:0:
371,336,155491,2,0,P|453:326|371:269,1,213.749994292259,0|0,1:0|0:0,0:0:0:0:
287,314,155832,6,0,P|293:276|326:234,1,71.2499980974198,0|0,1:0|0:0,0:0:0:0:
242,206,156003,2,0,P|270:181|322:170,1,71.2499980974198
276,95,156173,2,0,P|313:95|360:119,1,71.2499980974198,0|0,1:0|0:0,0:0:0:0:
374,31,156343,2,0,P|402:55|423:104,1,71.2499980974198
448,263,156514,6,0,P|410:256|368:223,1,71.2499980974198,0|0,1:0|0:0,0:0:0:0:
340,308,156685,2,0,P|315:279|304:227,1,71.2499980974198
229,274,156855,2,0,P|229:236|253:189,1,71.2499980974198,0|0,1:0|0:0,0:0:0:0:
165,176,157025,2,0,P|189:147|238:126,1,71.2499980974198
468,31,157196,5,4,1:1:0:0:
463,143,157366,1,0,1:1:0:0:
334,28,157537,5,0,1:1:0:0:
329,140,157707,1,0,1:1:0:0:
178,28,157878,5,0,1:1:0:0:
183,140,158048,1,0,1:1:0:0:
44,31,158219,5,0,1:1:0:0:
49,143,158389,1,0,1:1:0:0:
44,353,158559,5,0,1:1:0:0:
49,241,158729,1,0,1:1:0:0:
178,356,158900,5,0,1:1:0:0:
183,244,159070,1,0,1:1:0:0:
334,356,159241,5,0,1:1:0:0:
329,244,159411,1,0,1:1:0:0:
468,352,159582,5,0,1:1:0:0:
463,241,159752,1,0,1:1:0:0:
292,55,159923,5,0,1:0:0:0:
339,37,160008,1,0,0:0:0:0:
389,38,160093,1,0,0:0:0:0:
437,54,160179,1,0,0:0:0:0:
507,108,160264,5,0,1:0:0:0:
501,163,160349,1,0,0:0:0:0:
496,218,160434,1,0,0:0:0:0:
490,273,160520,1,0,0:0:0:0:
406,324,160605,5,0,1:0:0:0:
349,348,160690,1,0,0:0:0:0:
287,348,160775,1,0,0:0:0:0:
238,309,160860,1,0,0:0:0:0:
218,209,160946,5,0,1:0:0:0:
155,171,161031,1,0,0:0:0:0:
82,178,161116,1,0,0:0:0:0:
40,237,161201,1,0,0:0:0:0:
50,310,161287,6,0,P|98:324|104:271,1,112.500004291535,4|0,1:0|0:0,0:0:0:0:
230,215,161542,6,0,P|182:229|176:176,1,112.500004291535,4|0,1:0|0:0,0:0:0:0:
29,125,161798,6,0,P|77:139|83:86,1,112.500004291535,4|0,1:0|0:0,0:0:0:0:
229,47,162054,6,0,P|181:61|175:8,1,112.500004291535,4|0,1:0|0:0,0:0:0:0:
321,58,162309,6,0,P|315:118|311:126,1,56.2500021457673,4|0,1:0|0:0,0:0:0:0:
244,210,162480,2,0,L|238:134,1,56.2500021457673,0|0,1:0|0:0,0:0:0:0:
395,246,162650,6,0,P|350:251|407:208,1,150,4|0,1:0|0:0,0:0:0:0:
461,333,162906,6,0,P|506:338|477:258,1,165.000005035401,4|0,1:0|0:0,0:0:0:0:
377,359,163162,6,0,P|348:394|349:308,1,179.999994506836,4|0,1:0|0:0,0:0:0:0:
429,116,163417,6,0,P|450:92|450:179,1,194.999991073609,4|0,1:0|0:0,0:0:0:0:
369,254,163673,6,0,P|346:193|382:197,1,104.999996795654,4|0,1:0|0:0,0:0:0:0:
411,17,163843,2,0,P|368:51|348:108,1,104.999996795654,0|0,1:0|0:0,0:0:0:0:
508,265,164014,6,0,P|465:268|483:303,1,90
419,361,164355,5,0,0:0:0:0:
365,105,164525,1,0,0:0:0:0:
280,368,164696,5,0,0:0:0:0:
442,196,164866,1,0,0:0:0:0:
451,191,164951,1,0,0:0:0:0:
203,93,165122,1,0,0:0:0:0:
194,88,165207,1,0,0:0:0:0:
461,75,165378,5,0,0:0:0:0:
252,258,165548,1,0,0:0:0:0:
247,266,165633,1,0,0:0:0:0:
357,53,165804,1,0,0:0:0:0:
361,45,165889,1,0,0:0:0:0:
129,125,166059,6,0,P|149:182|188:177,1,90
210,98,166400,6,0,B|215:75|222:57|222:57|199:51|186:52|186:52|175:28|147:6|147:6|115:57|63:49,1,225
15,102,166741,5,0,1:0:0:0:
84,259,166912,1,0,1:0:0:0:
224,183,167082,1,0,0:0:0:0:
238,175,167167,2,0,P|293:222|234:229,1,150
141,120,167423,5,4,1:0:0:0:
266,65,167679,5,0,0:0:0:0:
166,261,167849,1,0,0:0:0:0:
363,345,168105,5,0,0:0:0:0:
368,289,168218,5,0,0:0:0:0:
373,233,168332,5,0,0:0:0:0:
378,177,168446,5,4,0:0:0:0:
383,121,168559,5,0,0:0:0:0:
388,65,168673,5,0,0:0:0:0:
392,9,168787,5,0,0:0:0:0:
253,100,168957,1,0,0:0:0:0:
455,200,169128,2,0,B|438:176|409:172|409:172|445:211|425:289,1,157.499995193482
346,231,169468,6,0,B|293:257|266:336|266:336|240:257|187:231,1,269.999991760254,4|0,1:0|0:0,0:0:0:0:
77,176,169809,6,0,P|56:76|154:140,1,269.999991760254,0|0,1:0|0:0,0:0:0:0:
187,231,170150,6,0,B|240:257|266:336|266:336|293:257|346:231,1,269.999991760254,0|0,1:0|0:0,0:0:0:0:
412,104,170491,2,0,P|446:89|503:97,1,89.9999972534181,0|0,1:0|0:0,0:0:0:0:
329,47,170662,1,0,0:0:0:0:
304,142,170747,1,0,0:0:0:0:
345,231,170832,6,0,P|380:256|451:256,1,89.9999972534181,0|0,1:0|0:0,0:0:0:0:
245,77,171003,2,0,P|210:52|139:52,1,89.9999972534181
42,158,171173,2,0,B|113:172|169:128|169:128|121:178|118:267,1,269.999991760254,0|0,1:0|0:0,0:0:0:0:
108,358,171429,1,0,0:0:0:0:
216,234,171514,2,0,P|289:212|216:304,1,269.999991760254,0|0,1:0|0:0,0:0:0:0:
231,231,171855,6,0,P|306:249|263:313,1,180,0|0,1:0|0:0,0:0:0:0:
102,332,172196,6,0,B|36:279|85:183|85:183|70:219|103:267,1,225.000008583069,4|0,1:0|0:0,0:0:0:0:
102,332,172451,6,0,B|36:279|85:183|85:183|70:219|103:267,1,225.000008583069,4|0,1:0|0:0,0:0:0:0:
102,332,172707,6,0,P|72:294|78:204,1,112.500004291535,4|0,1:0|0:0,0:0:0:0:
146,84,172878,2,0,B|187:63|231:85|231:85|275:107|319:85,1,179.999994506836,0|0,1:0|0:0,1:0:0:0:
428,24,173133,1,0,0:0:0:0:
447,8,173218,2,0,P|466:39|455:110,1,89.9999972534181,0|0,1:0|0:0,0:0:0:0:
404,166,173389,2,0,P|385:197|396:268,1,89.9999972534181
512,300,173559,6,0,P|503:264|445:222,1,89.9999972534181,0|0,1:0|0:0,0:0:0:0:
261,74,173730,2,0,P|269:109|327:151,1,89.9999972534181
496,96,173900,2,0,P|478:29|401:81,1,179.999994506836,0|0,1:0|0:0,0:0:0:0:
307,145,174156,1,0,0:0:0:0:
299,162,174241,2,0,P|297:210|338:270,1,89.9999972534181,0|0,1:0|0:0,0:0:0:0:
429,300,174412,1,0,0:0:0:0:
451,181,174497,1,0,0:0:0:0:
400,67,174582,2,0,P|296:15|182:126,1,269.999991760254,0|0,1:0|0:0,0:0:0:0:
148,269,174923,6,0,B|52:268|-61:146|-8:102|81:81|105:155,1,337.500012874604,4|0,1:0|0:0,0:0:0:0:
104,154,175264,1,0,0:0:0:0:
104,154,175349,1,0,1:0:0:0:
241,191,175434,6,0,B|298:138|365:201|389:266|230:315|146:268,1,337.500012874604,4|0,1:0|0:0,0:0:0:0:
147,268,175775,1,0,0:0:0:0:
147,268,175860,1,0,0:0:0:0:
103,185,175946,5,4,1:0:0:0:
101,173,176031,1,0,0:0:0:0:
130,132,176116,5,0,0:0:0:0:
128,120,176201,1,0,0:0:0:0:
245,171,176287,6,0,B|332:202|455:174|471:124|386:16|326:106,1,337.500012874604,4|0,1:0|0:0,0:0:0:0:
245,171,176628,2,0,B|332:202|455:174|471:124|386:16|326:106,1,337.500012874604
245,171,176968,6,0,B|159:201|36:173|20:123|105:15|163:104,1,337.500012874604
245,171,177309,2,0,B|159:201|36:173|20:123|105:15|163:104,1,337.500012874604
330,339,177991,6,0,B|376:243|332:160|332:160|336:211|296:258,1,269.999991760254,0|0,0:1|0:0,0:0:0:0:
245,180,178332,6,0,B|115:174|115:174|174:218,1,179.999994506836,0|0,1:0|0:0,0:0:0:0:
185,297,178588,1,0,1:0:0:0:
185,297,178673,6,0,B|55:303|55:303|94:273,1,179.999994506836,0|0,1:0|0:0,0:0:0:0:
21,220,178929,1,0,1:0:0:0:
21,220,179014,6,0,B|50:259|50:259|44:129,1,179.999994506836,0|0,1:0|0:0,0:0:0:0:
171,160,179270,1,0,1:0:0:0:
171,160,179355,6,0,B|141:199|141:199|147:69,1,179.999994506836,0|0,1:0|0:0,0:0:0:0:
253,69,179610,1,0,1:0:0:0:
253,69,179695,6,0,B|282:29|282:29|276:159,1,179.999994506836,0|0,1:0|0:0,0:0:0:0:
234,246,179951,1,0,1:0:0:0:
391,165,180037,1,8,1:0:0:0:
234,246,180207,5,0,1:0:0:0:
512,66,180378,6,0,B|450:35|384:68|384:68|318:101|252:68,1,269.999991760254,4|0,1:0|0:0,0:0:0:0:
66,17,180718,2,0,P|55:55|76:109,1,89.9999972534181,8|0,1:0|0:0,0:0:0:0:
7,168,180889,2,0,P|39:190|97:186,1,89.9999972534181
252,68,181059,6,0,P|324:72|264:149,1,179.999994506836,0|0,1:0|0:0,0:0:0:0:
187,126,181315,1,0,0:0:0:0:
175,115,181400,2,0,P|157:66|171:19,1,89.9999972534181,8|0,1:0|0:0,0:0:0:0:
310,261,181571,1,0,0:0:0:0:
231,278,181656,1,0,0:0:0:0:
150,277,181741,6,0,B|103:261|86:199|86:199|61:264|-4:268,1,225.000008583069,4|0,1:0|0:0,0:0:0:0:
6,157,181997,1,0,1:0:0:0:
13,147,182082,1,8,1:0:0:0:
85,199,182167,1,0,1:0:0:0:
150,277,182253,6,0,B|103:261|86:199|86:199|61:264|-4:268,1,225.000008583069,4|0,1:0|0:0,0:0:0:0:
6,157,182508,1,0,1:0:0:0:
13,147,182593,1,0,0:0:0:0:
85,199,182678,1,0,1:0:0:0:
150,277,182764,6,0,P|121:260|85:195,1,106.499994637299,4|0,1:0|0:0,0:0:0:0:
91,8,182934,2,0,P|60:50|55:103,1,106.499994637299,0|0,1:0|0:0,0:0:0:0:
260,330,183105,6,0,B|304:260|297:140|252:103|167:114|173:199,1,319.499983911897
373,338,183446,6,0,P|393:272|385:227,1,106.499994637299,8|0,1:0|0:0,0:0:0:0:
321,73,183616,1,0,0:0:0:0:
300,66,183701,1,0,0:0:0:0:
278,66,183787,2,0,P|319:56|381:73,1,106.499994637299,0|0,1:0|0:0,0:0:0:0:
502,124,183957,1,0,0:0:0:0:
506,139,184042,1,0,1:0:0:0:
509,155,184128,2,0,P|468:165|406:148,1,106.499994637299,8|0,1:0|0:0,0:0:0:0:
352,239,184298,2,0,P|326:205|318:141,1,106.499994637299,0|0,1:0|0:0,0:0:0:0:
288,58,184468,6,0,P|241:82|213:127,1,106.499994637299,0|0,1:0|0:0,0:0:0:0:
372,321,184639,2,0,P|419:297|448:253,1,106.499994637299,0|0,0:0|1:0,0:0:0:0:
490,53,184809,2,0,P|419:29|450:122,1,212.999989274598,8|0,1:0|1:0,0:0:0:0:
311,42,185065,1,0,0:0:0:0:
287,31,185150,6,0,B|211:14|132:67|132:67|161:66|194:84,1,212.999989274598,0|0,1:0|0:0,0:0:0:0:
120,186,185406,1,0,1:0:0:0:
141,198,185491,6,0,B|217:215|296:162|296:162|194:156|176:63,1,319.499983911897,8|0,1:0|0:0,0:0:0:0:
400,146,185832,6,0,B|488:107|490:48|445:8|390:-2|346:17|320:98|432:295,1,472.499985580445,4|0,1:0|1:0,0:0:0:0:
240,374,186173,6,0,P|160:369|115:332,1,112.500004291535,8|0,1:0|0:0,0:0:0:0:
320,263,186343,2,0,P|400:268|445:305,1,112.500004291535,0|0,1:0|0:0,0:0:0:0:
42,376,186514,6,0,B|-3:299|32:211|32:211|34:254|68:279,1,225.000008583069,0|0,1:0|0:0,0:0:0:0:
142,208,186770,1,0,1:0:0:0:
157,193,186855,2,0,P|177:137|164:77,1,112.500004291535,8|0,1:0|0:0,0:0:0:0:
65,11,187025,2,0,P|45:66|58:126,1,112.500004291535,0|0,1:0|0:0,0:0:0:0:
347,250,187196,6,0,P|411:211|315:182,1,225.000008583069,4|0,1:0|0:0,0:0:0:0:
316,338,187451,1,0,1:0:0:0:
441,325,187537,2,0,P|483:284|494:224,1,112.500004291535,4|0,1:0|0:0,0:0:0:0:
272,82,187707,2,0,P|230:123|219:182,1,112.500004291535,0|0,1:0|0:0,0:0:0:0:
452,92,187963,6,0,P|395:75|425:180,1,225.000008583069,4|0,1:0|0:0,0:0:0:0:
490,17,188218,2,0,P|423:-7|356:2,1,112.500004291535,12|0,1:0|0:0,0:0:0:0:
316,243,188389,2,0,P|383:267|450:258,1,112.500004291535,0|0,1:0|0:0,0:0:0:0:
272,82,188559,5,4,1:0:0:0:
375,264,199468,6,0,L|382:142,1,112.500004291535,8|0,0:0|0:0,0:0:0:0:
137,264,199809,2,0,L|130:142,1,112.500004291535,8|0,0:0|0:0,1:0:0:0:
381,264,200150,6,0,L|388:142,1,112.500004291535,8|0,0:0|0:0,0:0:0:0:
131,264,200491,2,0,L|124:142,1,112.500004291535,8|0,0:0|0:0,0:0:0:0:
381,151,200832,6,0,L|375:264,1,112.500004291535,8|0,0:0|0:0,0:0:0:0:
130,151,201173,2,0,L|137:264,1,112.500004291535,8|0,0:0|0:0,0:0:0:0:
387,151,201514,6,0,L|381:264,1,112.500004291535,8|0,0:0|0:0,0:0:0:0:
124,151,201855,2,0,L|131:264,1,112.500004291535,8|0,0:0|0:0,0:0:0:0:
327,73,202196,6,0,L|206:66,1,112.500004291535,8|0,0:0|0:0,0:0:0:0:
327,311,202537,2,0,L|206:318,1,112.500004291535,8|0,0:0|0:0,0:0:0:0:
328,67,202878,6,0,L|206:60,1,112.500004291535,8|0,0:0|0:0,0:0:0:0:
328,317,203219,2,0,L|206:324,1,112.500004291535,8|0,0:0|0:0,0:0:0:0:
215,66,203560,6,0,L|327:73,1,112.500004291535,8|0,0:0|0:0,0:0:0:0:
215,317,203901,2,0,L|327:311,1,112.500004291535,8|0,0:0|0:0,0:0:0:0:
215,60,204241,6,0,L|328:67,1,112.500004291535,8|0,0:0|0:0,0:0:0:0:
215,323,204583,2,0,L|328:317,1,112.500004291535,8|0,0:0|0:0,0:0:0:0:
70,117,204923,5,8,0:0:0:0:
256,192,205093,1,0,1:0:0:0:
57,220,205264,5,8,0:0:0:0:
256,192,205434,1,0,1:0:0:0:
98,315,205605,5,8,0:0:0:0:
256,192,205775,1,0,1:0:0:0:
181,378,205946,5,8,0:0:0:0:
256,192,206116,1,0,1:0:0:0:
442,117,206287,5,8,0:0:0:0:
256,192,206457,1,0,1:0:0:0:
454,220,206628,5,8,0:0:0:0:
256,192,206798,1,0,1:0:0:0:
413,315,206968,5,8,0:0:0:0:
256,192,207139,1,0,1:0:0:0:
331,378,207309,5,8,0:0:0:0:
256,192,207480,1,0,1:0:0:0:
346,54,207650,5,8,3:0:0:0:
390,46,207735,1,0,1:0:0:0:
432,58,207820,1,0,1:0:0:0:
465,87,207905,1,0,1:0:0:0:
487,177,207991,5,8,3:0:0:0:
470,226,208076,1,0,1:0:0:0:
429,259,208161,1,0,1:0:0:0:
376,261,208246,1,0,1:0:0:0:
305,162,208331,5,8,3:0:0:0:
250,135,208417,1,0,1:0:0:0:
190,131,208502,1,0,1:0:0:0:
133,150,208587,1,0,1:0:0:0:
81,268,208672,5,8,3:0:0:0:
129,316,208758,1,0,1:0:0:0:
194,330,208843,1,0,1:0:0:0:
257,307,208928,1,0,1:0:0:0:
320,240,209013,6,0,P|289:255|316:313,1,112.500004291535,2|0,0:0|0:0,0:0:0:0:
408,275,209270,1,2,0:0:0:0:
314,240,209355,6,0,P|283:255|310:313,1,112.500004291535,2|0,0:0|0:0,0:0:0:0:
402,275,209610,1,2,0:0:0:0:
308,240,209696,6,0,P|279:246|256:287,1,56.2500021457673,2|0,0:0|0:0,0:0:0:0:
175,229,209866,6,0,P|169:258|197:295,1,56.2500021457673,2|0,0:0|0:0,0:0:0:0:
318,336,210037,6,0,P|347:330|370:289,1,56.2500021457673,2|0,0:0|0:0,0:0:0:0:
464,342,210207,5,0,0:0:0:0:
480,251,210292,1,0,0:0:0:0:
402,171,210378,5,4,1:0:0:0:
320,32,213105,5,0,3:0:0:0:
426,167,213275,1,0,3:0:0:0:
256,191,213446,2,0,L|126:210,1,112.500004291535,8|0,3:0|3:0,3:0:0:0:
106,191,213701,1,0,3:0:0:0:
108,168,213787,1,0,3:0:0:0:
111,145,213872,1,0,3:0:0:0:
114,122,213957,1,0,3:0:0:0:
328,304,214128,6,0,L|198:323,1,112.500004291535,8|0,3:0|3:0,3:0:0:0:
178,304,214383,1,0,3:0:0:0:
180,281,214469,1,0,3:0:0:0:
348,108,214639,6,0,L|459:91,1,112.500004291535,8|0,3:0|3:0,3:0:0:0:
482,106,214895,1,0,3:0:0:0:
489,127,214980,1,0,3:0:0:0:
212,196,215150,6,0,L|100:179,1,112.500004291535,8|0,3:0|3:0,3:0:0:0:
73,152,215406,1,0,3:0:0:0:
65,133,215491,2,0,P|82:110|95:128,1,56.2500021457673,8|0,3:0|3:0,3:0:0:0:
98,257,215662,2,0,P|81:280|68:262,1,56.2500021457673,0|0,3:0|3:0,3:0:0:0:
345,147,215832,6,0,P|365:85|285:110,1,168.750006437302,2|0,1:0|0:0,0:0:0:0:
217,141,216173,6,0,L|223:221,1,67.4999979400635
295,264,216514,6,0,B|251:299|181:303|132:240|132:240|143:263|133:303,1,225.000008583069,0|0,1:0|0:0,0:0:0:0:
38,103,216769,2,0,P|102:56|59:152,1,225.000008583069,0|0,1:0|0:0,0:0:0:0:
42,292,217025,2,0,B|-12:268|-12:268|45:237,1,112.500004291535,0|0,1:0|0:0,0:0:0:0:
295,264,217195,6,0,B|378:282|460:258|460:258|401:291,1,225.000008583069,0|0,1:0|0:0,0:0:0:0:
223,379,217451,1,0,1:0:0:0:
209,365,217536,2,0,B|187:313|187:313|203:249,1,112.500004291535,0|0,1:0|0:0,0:0:0:0:
272,51,217707,2,0,B|294:103|294:103|278:167,1,112.500004291535
200,173,217878,6,0,P|154:174|134:161,1,67.4999979400635,2|0,0:0|0:0,0:0:0:0:
60,129,218218,1,2,1:0:0:0:
66,72,218303,1,2,1:0:0:0:
72,15,218389,1,2,1:0:0:0:
340,82,218559,6,0,B|373:59|394:30|394:30|342:145|372:262,1,292.499986610413,4|0,1:0|0:0,0:0:0:0:
261,343,218900,2,0,P|210:344|263:264,1,194.999991073609,0|0,1:0|0:0,0:0:0:0:
118,350,219156,1,0,0:0:0:0:
105,337,219241,2,0,P|97:279|112:235,1,97.4999955368044,0|0,1:0|0:0,0:0:0:0:
243,54,219412,2,0,P|251:112|236:156,1,97.4999955368044,0|0,0:0|1:0,0:0:0:0:
14,115,219582,6,0,B|76:92|153:106|153:106|125:119|105:142,1,194.999991073609,0|0,0:0|1:0,0:0:0:0:
55,218,219838,1,0,0:0:0:0:
74,247,219923,6,0,P|116:253|186:224,1,97.4999955368044,0|0,1:0|0:0,0:0:0:0:
233,317,220093,2,0,P|254:280|255:204,1,97.4999955368044
359,197,220264,2,0,P|334:162|264:132,1,97.4999955368044,0|0,1:0|0:0,0:0:0:0:
297,34,220434,2,0,P|255:43|200:95,1,97.4999955368044
122,27,220605,6,0,P|114:68|146:142,1,112.500004291535,0|0,1:0|0:0,0:0:0:0:
54,191,220775,2,0,P|89:214|169:213,1,112.500004291535,0|0,0:0|1:0,0:0:0:0:
178,317,220946,2,0,P|213:293|244:219,1,112.500004291535
342,252,221116,2,0,P|333:210|278:153,1,112.500004291535,0|0,1:0|0:0,0:0:0:0:
122,27,221287,6,0,P|39:77|166:212,1,337.500012874604
313,191,221628,2,0,B|365:88|329:10|216:49|260:117,1,225.000008583069,0|0,1:0|0:0,0:0:0:0:
235,261,221883,1,0,0:0:0:0:
258,284,221968,2,0,P|310:300|371:274,1,112.500004291535,0|0,1:0|0:0,0:0:0:0:
512,150,222139,2,0,P|460:134|399:160,1,112.500004291535,0|0,0:0|1:0,0:0:0:0:
165,331,222309,2,0,B|109:255|136:162|136:162|148:193|170:207,1,225.000008583069,0|0,0:0|1:0,0:0:0:0:
389,44,222650,6,0,P|452:54|490:89,1,112.500004291535,0|0,1:0|0:0,0:0:0:0:
407,152,222821,2,0,P|421:212|406:265,1,112.500004291535
314,210,222991,2,0,P|263:248|297:120,1,337.500012874604,0|0,1:0|0:0,0:0:0:0:
407,152,223332,2,0,P|421:218|291:321,1,225.000008583069,0|0,1:0|0:0,0:0:0:0:
180,333,223588,1,0,1:0:0:0:
152,331,223673,6,0,P|112:315|81:289,1,56.2500021457673
18,327,223843,2,0,P|17:283|28:245,1,56.2500021457673,0|0,1:0|0:0,0:0:0:0:
82,140,224014,6,0,B|144:107|232:151|232:151|314:192|408:151,1,337.500012874604,0|0,1:0|0:0,0:0:0:0:
406,151,224355,6,0,B|314:192|232:151|232:151|144:107|82:140,1,337.500012874604,0|0,1:0|0:0,0:0:0:0:
135,288,224696,2,0,P|147:254|143:194,1,75,0|0,1:0|0:0,0:0:0:0:
141,51,224866,2,0,P|114:26|57:6,1,75,0|0,0:0|1:0,0:0:0:0:
82,140,225037,6,0,B|144:107|232:151|232:151|314:192|408:151,1,337.500012874604
477,73,225378,6,0,B|431:48|431:48|470:241,1,225.000008583069,4|0,1:0|0:0,0:0:0:0:
480,300,225633,1,0,0:0:0:0:
372,227,225718,6,0,P|366:251|404:348,1,112.500004291535,4|0,1:0|0:0,0:0:0:0:
290,337,225889,2,0,P|307:365|341:391,1,56.2500021457673
246,211,226059,6,0,P|228:228|125:243,1,112.500004291535,4|0,1:0|0:0,0:0:0:0:
191,338,226230,2,0,P|158:337|118:320,1,56.2500021457673
161,69,226400,5,4,1:0:0:0:
258,228,226741,6,0,L|251:128,3,89.9999972534181
291,58,227934,6,0,P|268:49|228:50,1,44.999998626709
35,89,228105,6,0,B|102:108|168:72|168:72|134:112|145:172,1,225.000008583069,4|0,1:0|0:0,0:0:0:0:
248,243,228360,1,0,0:0:0:0:
269,249,228446,2,0,P|276:175|240:132,1,112.500004291535,0|0,1:0|0:0,0:0:0:0:
66,180,228616,2,0,P|59:254|95:297,1,112.500004291535
270,346,228787,6,0,B|370:342|432:280|432:280|423:304|429:328,1,225.000008583069,0|0,1:0|0:0,0:0:0:0:
510,167,229042,2,0,B|410:171|348:233|348:233|357:209|351:185,1,225.000008583069,0|0,1:0|0:0,0:0:0:0:
162,193,229298,2,0,P|111:189|48:139,1,112.500004291535,0|0,1:0|0:0,0:0:0:0:
190,43,229468,6,0,P|243:-1|216:126,1,337.500012874604,0|0,1:0|0:0,0:0:0:0:
77,80,229809,2,0,B|30:71|-10:22|-10:22|61:112|53:280,1,337.500012874604,0|0,1:0|0:0,0:0:0:0:
165,315,230150,6,0,P|301:297|330:188,1,225.000008583069,0|0,1:0|0:0,0:0:0:0:
318,84,230406,1,0,1:0:0:0:
292,64,230491,2,0,P|248:56|186:82,1,112.500004291535
392,148,230662,2,0,P|436:156|498:130,1,112.500004291535,0|0,1:0|0:0,0:0:0:0:
292,64,230832,6,0,P|258:89|229:159,1,97.4999955368044,0|0,1:0|0:0,0:0:0:0:
130,126,231002,2,0,P|141:167|194:221,1,97.4999955368044
125,300,231173,2,0,P|167:307|238:278,1,97.4999955368044,0|0,1:0|0:0,0:0:0:0:
284,372,231343,2,0,P|307:335|309:260,1,97.4999955368044
413,253,231514,6,0,P|389:218|314:188,1,112.500004291535,0|0,1:0|0:0,0:0:0:0:
345,89,231684,2,0,P|303:97|248:154,1,112.500004291535,0|0,0:0|1:0,0:0:0:0:
168,88,231855,2,0,P|160:129|190:203,1,112.500004291535
98,249,232025,2,0,P|134:272|213:273,1,112.500004291535,0|0,1:0|0:0,0:0:0:0:
464,110,232196,6,0,B|382:112|353:37|353:37|321:108|231:130,1,292.499986610413,4|0,1:0|1:0,0:0:0:0:
146,80,232537,2,0,P|140:129|159:185,1,97.4999955368044
281,298,232707,2,0,P|287:249|268:193,1,97.4999955368044,0|0,1:0|0:0,0:0:0:0:
51,335,232878,6,0,P|108:359|196:343,1,150,8|0,1:0|0:0,0:0:0:0:
281,298,233133,1,0,1:0:0:0:
312,122,233304,1,0,0:0:0:0:
302,116,233389,2,0,B|281:160|281:160|312:220,1,97.4999955368044,0|0,1:0|0:0,0:0:0:0:
452,302,233559,2,0,B|424:261|424:261|356:258,1,97.4999955368044
206,341,233730,2,0,B|254:337|254:337|291:280,1,97.4999955368044,0|0,1:0|0:0,0:0:0:0:
412,157,233901,5,0,0:0:0:0:
395,130,233985,2,0,P|352:114|279:123,1,97.4999955368044,0|0,1:0|1:0,0:0:0:0:
64,184,234157,1,0,0:0:0:0:
54,184,234242,6,0,B|16:220|16:220|72:207|114:222,1,150,8|0,1:0|0:0,0:0:0:0:
211,272,234497,5,0,1:0:0:0:
224,264,234583,2,0,P|240:217|228:161,1,97.4999955368044,0|0,1:0|0:0,0:0:0:0:
182,24,234753,2,0,P|166:71|178:127,1,97.4999955368044,0|0,1:0|0:0,0:0:0:0:
340,181,234924,6,0,B|380:159|412:181|412:181|449:203|503:181,1,150,0|0,1:0|0:0,0:0:0:0:
502,94,235179,1,0,1:0:0:0:
495,85,235265,2,0,P|448:50|463:110,1,150,0|0,0:0|1:0,0:0:0:0:
332,88,235520,1,0,0:0:0:0:
321,87,235605,6,0,B|264:89|264:89|228:112|228:112|170:115,1,150,8|0,1:0|0:0,0:0:0:0:
86,122,235861,1,0,1:0:0:0:
261,238,236032,1,0,0:0:0:0:
267,216,236117,1,0,1:0:0:0:
61,324,236287,6,0,B|131:283|203:323|203:323|262:351|338:332|371:289|362:232,1,360,4|0,1:0|0:0,0:0:0:0:
318,49,236628,6,0,B|175:78|53:24|53:24|98:41|116:87,1,360,4|0,1:0|0:0,0:0:0:0:
280,161,236969,6,0,B|393:194|550:160|526:54|447:23|400:96,1,360,4|0,1:0|0:0,0:0:0:0:
131,253,237309,6,0,B|-109:221|-53:73|12:55|76:115|40:171,1,360,4|0,1:0|0:0,0:0:0:0:
47,158,237650,6,0,P|20:72|126:120,1,262.5
201,40,239014,6,0,B|225:85|220:140|220:140|269:96|269:96|289:153|289:153|312:103|363:73,1,336
372,214,240378,6,0,P|459:154|453:260,1,262.5
318,285,241741,6,0,P|263:297|204:281,1,112.5
207,136,242423,6,0,P|261:123|320:139,1,112.5
264,220,243105,6,0,B|200:236|133:202|133:202|150:269|110:334,1,262.5
44,208,244468,6,0,B|12:99|27:41|58:33|102:40|130:75|99:124,1,262.5
219,116,245832,6,0,P|282:120|329:92,1,112.5
368,201,246514,6,0,P|431:197|478:225,1,112.5
281,229,247196,6,0,P|218:233|171:205,1,112.5
121,104,247878,6,0,B|78:127|14:120|14:120|84:197|77:265|77:265|142:254|173:334|101:377|30:375|19:277|74:270,1,525
