osu file format v14

[General]
AudioFilename: audio-2.mp3
AudioLeadIn: 0
PreviewTime: 99185
Countdown: 0
SampleSet: Normal
StackLeniency: 0.7
Mode: 1
LetterboxInBreaks: 0
WidescreenStoryboard: 1

[Editor]
DistanceSpacing: 1
BeatDivisor: 4
GridSize: 32
TimelineZoom: 2.799999

[Metadata]
Title:Your voice so... feat. Such (M-Project Remix)
TitleUnicode:Your voice so... feat. Such (M-Project Remix)
Artist:PSYQUI
ArtistUnicode:PSYQUI
Creator:uranosu1030
Version:uone's Muzukashii
Source:
Tags:uone tasuke912 electronic japanese english megarex mrx-071 レ​イ​ヴ​大​戦 20th ANV BEST COLLECTION
BeatmapID:3953771
BeatmapSetID:1913447

[Difficulty]
HPDrainRate:6
CircleSize:3
OverallDifficulty:5
ApproachRate:9
SliderMultiplier:1.4
SliderTickRate:1

[Events]
//Background and Video events
0,0,"aaa.jpg",0,30
//Break Periods
2,23036,33145
//Storyboard Layer 0 (Background)
//Storyboard Layer 1 (Fail)
//Storyboard Layer 2 (Pass)
//Storyboard Layer 3 (Foreground)
//Storyboard Layer 4 (Overlay)
//Storyboard Sound Samples

[TimingPoints]
990,340.909090909091,4,1,0,80,1,0
990,-102.040816326531,4,1,0,80,0,0
11842,-102.040816326531,4,1,0,85,0,0
22808,340.909090909091,4,1,0,80,1,8
22836,340.909090909091,4,1,0,80,1,0
22836,-102.040816326531,4,1,0,80,0,0
22865,-102.040816326531,4,1,0,60,0,0
44569,-102.040816326531,4,1,0,85,0,0
44683,-102.040816326531,4,1,0,70,0,0
55478,-102.040816326531,4,1,0,85,0,0
55536,340.909090909091,4,1,0,80,1,0
55536,-102.040816326531,4,1,0,80,0,0
66387,-102.040816326531,4,1,0,100,0,0
88205,-102.040816326531,4,1,0,85,0,0
99172,340.909090909091,4,1,0,80,1,8
99200,340.909090909091,4,1,0,80,1,0
99200,-102.040816326531,4,1,0,80,0,0
99228,-102.040816326531,4,1,0,70,0,0
110024,-102.040816326531,4,1,0,85,0,0
110082,340.909090909091,4,1,0,80,1,0
110082,-102.040816326531,4,1,0,80,0,0
119569,-102.040816326531,4,1,0,70,0,0
120933,-102.040816326531,4,1,0,85,0,0
142751,-102.040816326531,4,1,0,100,0,0
142809,-102.040816326531,4,1,0,100,0,1
163093,-102.040816326531,4,1,0,70,0,1
163263,-102.040816326531,4,1,0,70,0,0
163887,-102.040816326531,4,1,0,85,0,0
164569,-102.040816326531,4,1,0,100,0,0
164627,-102.040816326531,4,1,0,100,0,1
185024,-102.040816326531,4,1,0,70,0,1
185082,-102.040816326531,4,1,0,70,0,0
185705,-102.040816326531,4,1,0,85,0,0
186387,-102.040816326531,4,1,0,100,0,0
206842,-102.040816326531,4,1,0,70,0,0
208205,-102.040816326531,4,1,0,85,0,0
219115,-102.040816326531,4,1,0,80,0,0

[HitObjects]
256,192,990,5,0,0:0:0:0:
256,192,1330,1,0,0:0:0:0:
256,192,1671,1,8,0:0:0:0:
256,192,2012,1,8,0:0:0:0:
256,192,2353,1,0,0:0:0:0:
256,192,2694,1,8,0:0:0:0:
256,192,3035,1,0,0:0:0:0:
256,192,3717,1,0,0:0:0:0:
256,192,4058,1,8,0:0:0:0:
256,192,4399,1,0,0:0:0:0:
256,192,4740,1,0,0:0:0:0:
256,192,5080,1,8,0:0:0:0:
256,192,5421,1,0,0:0:0:0:
256,192,5762,1,8,0:0:0:0:
256,192,6444,1,0,0:0:0:0:
256,192,6785,1,0,0:0:0:0:
256,192,7126,1,8,0:0:0:0:
256,192,7467,1,8,0:0:0:0:
256,192,7808,1,0,0:0:0:0:
256,192,8149,1,8,0:0:0:0:
256,192,8490,1,0,0:0:0:0:
256,192,9171,1,0,0:0:0:0:
256,192,9512,1,8,0:0:0:0:
256,192,9853,1,0,0:0:0:0:
256,192,10194,1,0,0:0:0:0:
256,192,10535,1,8,0:0:0:0:
256,192,10876,1,8,0:0:0:0:
256,192,11217,1,8,0:0:0:0:
256,192,11899,1,12,0:0:0:0:
256,192,12240,1,0,0:0:0:0:
256,192,12410,1,8,0:0:0:0:
256,192,12580,1,0,0:0:0:0:
256,192,12921,1,8,0:0:0:0:
256,192,13262,1,0,0:0:0:0:
256,192,13603,1,0,0:0:0:0:
256,192,13774,1,0,0:0:0:0:
256,192,13944,1,8,0:0:0:0:
256,192,14285,1,0,0:0:0:0:
256,192,14626,1,8,0:0:0:0:
256,192,14967,1,0,0:0:0:0:
256,192,15137,1,8,0:0:0:0:
256,192,15308,1,0,0:0:0:0:
256,192,15478,1,0,0:0:0:0:
256,192,15649,1,8,0:0:0:0:
256,192,15990,1,0,0:0:0:0:
256,192,16160,1,0,0:0:0:0:
256,192,16330,1,0,0:0:0:0:
256,192,16501,1,0,0:0:0:0:
256,192,16671,1,8,0:0:0:0:
256,192,17353,1,8,0:0:0:0:
256,192,17524,1,8,0:0:0:0:
256,192,17694,1,0,0:0:0:0:
256,192,17865,1,0,0:0:0:0:
256,192,18035,1,8,0:0:0:0:
256,192,18205,1,8,0:0:0:0:
256,192,18376,1,0,0:0:0:0:
256,192,18717,1,8,0:0:0:0:
256,192,18887,1,8,0:0:0:0:
256,192,19058,1,0,0:0:0:0:
256,192,19228,1,8,0:0:0:0:
256,192,19399,1,0,0:0:0:0:
256,192,19569,1,0,0:0:0:0:
256,192,19740,1,8,0:0:0:0:
256,192,20080,1,0,0:0:0:0:
256,192,20166,1,0,0:0:0:0:
256,192,20251,1,0,0:0:0:0:
256,192,20421,1,8,0:0:0:0:
256,192,20592,1,0,0:0:0:0:
256,192,20762,1,8,0:0:0:0:
256,192,20847,1,8,0:0:0:0:
256,192,20933,1,8,0:0:0:0:
256,192,21103,1,8,0:0:0:0:
256,192,21274,1,8,0:0:0:0:
256,192,22126,1,0,0:0:0:0:
256,192,22211,1,0,0:0:0:0:
256,192,22296,1,0,0:0:0:0:
256,192,22467,1,8,0:0:0:0:
256,192,22836,1,4,0:0:0:0:
256,192,33745,5,8,0:0:0:0:
256,192,35108,1,8,0:0:0:0:
256,192,36472,1,8,0:0:0:0:
256,192,37836,1,8,0:0:0:0:
256,192,38518,1,8,0:0:0:0:
256,192,39199,1,8,0:0:0:0:
256,192,40563,1,8,0:0:0:0:
256,192,41927,1,8,0:0:0:0:
256,192,42608,1,8,0:0:0:0:
256,192,43290,1,8,0:0:0:0:
256,192,43972,1,8,0:0:0:0:
256,192,44654,1,4,0:0:0:0:
256,192,45336,1,8,0:0:0:0:
256,192,46018,1,0,0:0:0:0:
256,192,46699,1,8,0:0:0:0:
256,192,47381,1,0,0:0:0:0:
256,192,47722,1,8,0:0:0:0:
256,192,48063,1,8,0:0:0:0:
256,192,48745,1,0,0:0:0:0:
256,192,49086,1,8,0:0:0:0:
256,192,49427,1,0,0:0:0:0:
256,192,49768,1,8,0:0:0:0:
256,192,50108,1,0,0:0:0:0:
256,192,50620,1,8,0:0:0:0:
256,192,51131,1,8,0:0:0:0:
256,192,51472,1,0,0:0:0:0:
256,192,51813,1,8,0:0:0:0:
256,192,52154,1,8,0:0:0:0:
256,192,52495,1,8,0:0:0:0:
256,192,52836,1,0,0:0:0:0:
256,192,53347,1,8,0:0:0:0:
256,192,53518,1,0,0:0:0:0:
256,192,53858,1,8,0:0:0:0:
256,192,54199,1,0,0:0:0:0:
256,192,54881,1,0,0:0:0:0:
256,192,55536,1,8,0:0:0:0:
256,192,55876,1,0,0:0:0:0:
256,192,56046,1,8,0:0:0:0:
256,192,56217,1,0,0:0:0:0:
256,192,56558,1,8,0:0:0:0:
256,192,56899,1,0,0:0:0:0:
256,192,57240,1,8,0:0:0:0:
256,192,57580,1,0,0:0:0:0:
256,192,57751,1,0,0:0:0:0:
256,192,57921,1,8,0:0:0:0:
256,192,58262,1,8,0:0:0:0:
256,192,58603,1,0,0:0:0:0:
256,192,58774,1,8,0:0:0:0:
256,192,58944,1,0,0:0:0:0:
256,192,59115,1,0,0:0:0:0:
256,192,59285,1,8,0:0:0:0:
256,192,59626,1,0,0:0:0:0:
256,192,59967,1,8,0:0:0:0:
256,192,60137,1,0,0:0:0:0:
256,192,60308,1,8,0:0:0:0:
256,192,60990,1,8,0:0:0:0:
256,192,61330,1,8,0:0:0:0:
256,192,61501,1,8,0:0:0:0:
256,192,61671,1,8,0:0:0:0:
256,192,62012,1,0,0:0:0:0:
256,192,62183,1,0,0:0:0:0:
256,192,62353,1,8,0:0:0:0:
256,192,62694,1,8,0:0:0:0:
256,192,62865,1,0,0:0:0:0:
256,192,63035,1,8,0:0:0:0:
256,192,63376,1,0,0:0:0:0:
256,192,63717,1,8,0:0:0:0:
256,192,63887,1,0,0:0:0:0:
256,192,63972,1,0,0:0:0:0:
256,192,64058,1,0,0:0:0:0:
256,192,64228,1,0,0:0:0:0:
256,192,64399,1,8,0:0:0:0:
256,192,64569,1,8,0:0:0:0:
256,192,64654,1,8,0:0:0:0:
256,192,64740,1,8,0:0:0:0:
256,192,64910,1,8,0:0:0:0:
256,192,66103,1,8,0:0:0:0:
256,192,66444,1,4,0:0:0:0:
256,192,66785,1,0,0:0:0:0:
256,192,66955,1,8,0:0:0:0:
256,192,67126,1,0,0:0:0:0:
256,192,67296,1,8,0:0:0:0:
256,192,67382,1,8,0:0:0:0:
256,192,67467,1,8,0:0:0:0:
256,192,67637,1,8,0:0:0:0:
256,192,67808,1,0,0:0:0:0:
256,192,68149,1,8,0:0:0:0:
256,192,68319,1,8,0:0:0:0:
256,192,68490,1,0,0:0:0:0:
256,192,68660,1,0,0:0:0:0:
256,192,68830,1,8,0:0:0:0:
256,192,69171,1,0,0:0:0:0:
256,192,69512,1,0,0:0:0:0:
256,192,69683,1,0,0:0:0:0:
256,192,69853,1,8,0:0:0:0:
256,192,70024,1,0,0:0:0:0:
256,192,70109,1,0,0:0:0:0:
256,192,70194,1,0,0:0:0:0:
256,192,70365,1,8,0:0:0:0:
256,192,70535,1,0,0:0:0:0:
256,192,70705,1,0,0:0:0:0:
256,192,70876,1,8,0:0:0:0:
256,192,71046,1,8,0:0:0:0:
256,192,71217,1,0,0:0:0:0:
256,192,71558,1,8,0:0:0:0:
256,192,71899,1,0,0:0:0:0:
256,192,72240,1,8,0:0:0:0:
256,192,72495,1,8,0:0:0:0:
256,192,72580,1,0,0:0:0:0:
256,192,72751,1,0,0:0:0:0:
256,192,72921,1,8,0:0:0:0:
256,192,73262,1,0,0:0:0:0:
256,192,73433,1,8,0:0:0:0:
256,192,73518,1,8,0:0:0:0:
256,192,73603,1,8,0:0:0:0:
256,192,73774,1,8,0:0:0:0:
256,192,73944,1,0,0:0:0:0:
256,192,74115,1,0,0:0:0:0:
256,192,74285,1,8,0:0:0:0:
256,192,74626,1,0,0:0:0:0:
256,192,74882,1,0,0:0:0:0:
256,192,74967,1,8,0:0:0:0:
256,192,75137,1,0,0:0:0:0:
256,192,75393,1,8,0:0:0:0:
256,192,75478,1,0,0:0:0:0:
256,192,75649,1,8,0:0:0:0:
256,192,75990,1,4,0:0:0:0:
256,192,76330,1,4,0:0:0:0:
256,192,76671,1,12,0:0:0:0:
256,192,77012,1,12,0:0:0:0:
256,192,77694,1,0,0:0:0:0:
256,192,78035,1,0,0:0:0:0:
256,192,78205,1,8,0:0:0:0:
256,192,78291,1,8,0:0:0:0:
256,192,78376,1,8,0:0:0:0:
256,192,78546,1,8,0:0:0:0:
256,192,78717,1,0,0:0:0:0:
256,192,79058,1,8,0:0:0:0:
256,192,79228,1,8,0:0:0:0:
256,192,79399,1,0,0:0:0:0:
256,192,79569,1,0,0:0:0:0:
256,192,79740,1,8,0:0:0:0:
256,192,80080,1,0,0:0:0:0:
256,192,80421,1,0,0:0:0:0:
256,192,80592,1,0,0:0:0:0:
256,192,80762,1,8,0:0:0:0:
256,192,80933,1,0,0:0:0:0:
256,192,81018,1,0,0:0:0:0:
256,192,81103,1,0,0:0:0:0:
256,192,81274,1,8,0:0:0:0:
256,192,81444,1,0,0:0:0:0:
256,192,81615,1,8,0:0:0:0:
256,192,81785,1,8,0:0:0:0:
256,192,81955,1,8,0:0:0:0:
256,192,82126,1,0,0:0:0:0:
256,192,82467,1,8,0:0:0:0:
256,192,82808,1,0,0:0:0:0:
256,192,83149,1,8,0:0:0:0:
256,192,83319,1,8,0:0:0:0:
256,192,83404,1,8,0:0:0:0:
256,192,83490,1,8,0:0:0:0:
256,192,83660,1,0,0:0:0:0:
256,192,83830,1,8,0:0:0:0:
256,192,84171,1,0,0:0:0:0:
256,192,84512,1,8,0:0:0:0:
256,192,84768,1,8,0:0:0:0:
256,192,84853,1,0,0:0:0:0:
256,192,85024,1,0,0:0:0:0:
256,192,85194,1,8,0:0:0:0:
256,192,85535,1,0,0:0:0:0:
256,192,85705,1,0,0:0:0:0:
256,192,85876,1,8,0:0:0:0:
256,192,86132,1,8,0:0:0:0:
256,192,86217,1,0,0:0:0:0:
256,192,86387,1,0,0:0:0:0:
256,192,86558,1,8,0:0:0:0:
256,192,86643,1,8,0:0:0:0:
256,192,86728,1,8,0:0:0:0:
256,192,87580,1,0,0:0:0:0:
256,192,87666,1,0,0:0:0:0:
256,192,87751,1,0,0:0:0:0:
256,192,87921,1,8,0:0:0:0:
256,192,88262,1,0,0:0:0:0:
256,192,88774,1,0,0:0:0:0:
256,192,88944,1,8,0:0:0:0:
256,192,89285,1,0,0:0:0:0:
256,192,89626,1,0,0:0:0:0:
256,192,89796,1,8,0:0:0:0:
256,192,89882,1,8,0:0:0:0:
256,192,89967,1,8,0:0:0:0:
256,192,90137,1,0,0:0:0:0:
256,192,90308,1,8,0:0:0:0:
256,192,90649,1,8,0:0:0:0:
256,192,90990,1,0,0:0:0:0:
256,192,91330,1,8,0:0:0:0:
256,192,91671,1,8,0:0:0:0:
256,192,91927,1,8,0:0:0:0:
256,192,92012,1,0,0:0:0:0:
256,192,92183,1,8,0:0:0:0:
256,192,92353,1,0,0:0:0:0:
256,192,92694,1,8,0:0:0:0:
256,192,92865,1,0,0:0:0:0:
256,192,92950,1,0,0:0:0:0:
256,192,93035,1,0,0:0:0:0:
256,192,93205,1,0,0:0:0:0:
256,192,93376,1,8,0:0:0:0:
256,192,93717,1,0,0:0:0:0:
256,192,94228,1,0,0:0:0:0:
256,192,94399,1,8,0:0:0:0:
256,192,94740,1,0,0:0:0:0:
256,192,95080,1,0,0:0:0:0:
256,192,95251,1,8,0:0:0:0:
256,192,95336,1,8,0:0:0:0:
256,192,95421,1,8,0:0:0:0:
256,192,95592,1,0,0:0:0:0:
256,192,95762,1,8,0:0:0:0:
256,192,95933,1,0,0:0:0:0:
256,192,96103,1,8,0:0:0:0:
256,192,96444,1,0,0:0:0:0:
256,192,96785,1,8,0:0:0:0:
256,192,97126,1,8,0:0:0:0:
256,192,97382,1,8,0:0:0:0:
256,192,97467,1,0,0:0:0:0:
256,192,97637,1,8,0:0:0:0:
256,192,97808,1,0,0:0:0:0:
256,192,98149,1,8,0:0:0:0:
256,192,98319,1,0,0:0:0:0:
256,192,98660,1,0,0:0:0:0:
256,192,98830,1,8,0:0:0:0:
256,192,99200,1,4,0:0:0:0:
256,192,99881,1,8,0:0:0:0:
256,192,100563,1,0,0:0:0:0:
256,192,101245,1,8,0:0:0:0:
256,192,101927,1,0,0:0:0:0:
256,192,102268,1,8,0:0:0:0:
256,192,102608,1,8,0:0:0:0:
256,192,103290,1,0,0:0:0:0:
256,192,103631,1,8,0:0:0:0:
256,192,103972,1,0,0:0:0:0:
256,192,104313,1,8,0:0:0:0:
256,192,104654,1,0,0:0:0:0:
256,192,105165,1,8,0:0:0:0:
256,192,105677,1,8,0:0:0:0:
256,192,106018,1,0,0:0:0:0:
256,192,106699,1,8,0:0:0:0:
256,192,107040,1,8,0:0:0:0:
256,192,107381,1,0,0:0:0:0:
256,192,108063,1,0,0:0:0:0:
256,192,108404,1,8,0:0:0:0:
256,192,108745,1,0,0:0:0:0:
256,192,109427,1,0,0:0:0:0:
256,192,110082,1,8,0:0:0:0:
256,192,110422,1,0,0:0:0:0:
256,192,110593,1,8,0:0:0:0:
256,192,110763,1,0,0:0:0:0:
256,192,111104,1,8,0:0:0:0:
256,192,111275,1,8,0:0:0:0:
256,192,111445,1,0,0:0:0:0:
256,192,111786,1,8,0:0:0:0:
256,192,112127,1,0,0:0:0:0:
256,192,112297,1,0,0:0:0:0:
256,192,112468,1,8,0:0:0:0:
256,192,112809,1,8,0:0:0:0:
256,192,113150,1,0,0:0:0:0:
256,192,113320,1,8,0:0:0:0:
256,192,113491,1,0,0:0:0:0:
256,192,113661,1,0,0:0:0:0:
256,192,113831,1,8,0:0:0:0:
256,192,114002,1,8,0:0:0:0:
256,192,114172,1,0,0:0:0:0:
256,192,114513,1,8,0:0:0:0:
256,192,114684,1,0,0:0:0:0:
256,192,114854,1,8,0:0:0:0:
256,192,115536,1,8,0:0:0:0:
256,192,115877,1,8,0:0:0:0:
256,192,116047,1,8,0:0:0:0:
256,192,116218,1,8,0:0:0:0:
256,192,116559,1,0,0:0:0:0:
256,192,116729,1,0,0:0:0:0:
256,192,116900,1,8,0:0:0:0:
256,192,117241,1,8,0:0:0:0:
256,192,117411,1,0,0:0:0:0:
256,192,117581,1,8,0:0:0:0:
256,192,117752,1,8,0:0:0:0:
256,192,117922,1,0,0:0:0:0:
256,192,118263,1,8,0:0:0:0:
256,192,118434,1,0,0:0:0:0:
256,192,118519,1,0,0:0:0:0:
256,192,118604,1,0,0:0:0:0:
256,192,118775,1,0,0:0:0:0:
256,192,118945,1,8,0:0:0:0:
256,192,119116,1,8,0:0:0:0:
256,192,119201,1,8,0:0:0:0:
256,192,119286,1,8,0:0:0:0:
256,192,119456,1,8,0:0:0:0:
256,192,120991,1,4,0:0:0:0:
256,192,121331,1,8,0:0:0:0:
256,192,121587,1,8,0:0:0:0:
256,192,121672,1,0,0:0:0:0:
256,192,121843,1,0,0:0:0:0:
256,192,122013,1,8,0:0:0:0:
256,192,122354,1,0,0:0:0:0:
256,192,122525,1,0,0:0:0:0:
256,192,122695,1,8,0:0:0:0:
256,192,123036,1,8,0:0:0:0:
256,192,123718,1,0,0:0:0:0:
256,192,124059,1,8,0:0:0:0:
256,192,124314,1,8,0:0:0:0:
256,192,124400,1,0,0:0:0:0:
256,192,124570,1,0,0:0:0:0:
256,192,124741,1,8,0:0:0:0:
256,192,125081,1,0,0:0:0:0:
256,192,125252,1,8,0:0:0:0:
256,192,125422,1,8,0:0:0:0:
256,192,125593,1,0,0:0:0:0:
256,192,125763,1,8,0:0:0:0:
256,192,126104,1,0,0:0:0:0:
256,192,126445,1,0,0:0:0:0:
256,192,126786,1,8,0:0:0:0:
256,192,127042,1,8,0:0:0:0:
256,192,127127,1,0,0:0:0:0:
256,192,127297,1,0,0:0:0:0:
256,192,127468,1,8,0:0:0:0:
256,192,127809,1,0,0:0:0:0:
256,192,127979,1,0,0:0:0:0:
256,192,128150,1,8,0:0:0:0:
256,192,128491,1,8,0:0:0:0:
256,192,129172,1,0,0:0:0:0:
256,192,129513,1,8,0:0:0:0:
256,192,129769,1,8,0:0:0:0:
256,192,129854,1,0,0:0:0:0:
256,192,130025,1,0,0:0:0:0:
256,192,130195,1,8,0:0:0:0:
256,192,130536,1,0,0:0:0:0:
256,192,130877,1,0,0:0:0:0:
256,192,131218,1,8,0:0:0:0:
256,192,131900,1,0,0:0:0:0:
256,192,132241,1,8,0:0:0:0:
256,192,132496,1,8,0:0:0:0:
256,192,132581,1,0,0:0:0:0:
256,192,132752,1,0,0:0:0:0:
256,192,132922,1,8,0:0:0:0:
256,192,133263,1,0,0:0:0:0:
256,192,133604,1,8,0:0:0:0:
256,192,133860,1,0,0:0:0:0:
256,192,133945,1,0,0:0:0:0:
256,192,134116,1,0,0:0:0:0:
256,192,134286,1,8,0:0:0:0:
256,192,134627,1,0,0:0:0:0:
256,192,134968,1,8,0:0:0:0:
256,192,135223,1,8,0:0:0:0:
256,192,135309,1,0,0:0:0:0:
256,192,135479,1,0,0:0:0:0:
256,192,135650,1,8,0:0:0:0:
256,192,135991,1,0,0:0:0:0:
256,192,136331,1,8,0:0:0:0:
256,192,136587,1,0,0:0:0:0:
256,192,136672,1,0,0:0:0:0:
256,192,136843,1,0,0:0:0:0:
256,192,137013,1,8,0:0:0:0:
256,192,137354,1,0,0:0:0:0:
256,192,137695,1,8,0:0:0:0:
256,192,137951,1,8,0:0:0:0:
256,192,138036,1,0,0:0:0:0:
256,192,138377,1,8,0:0:0:0:
256,192,138633,1,8,0:0:0:0:
256,192,138718,1,0,0:0:0:0:
256,192,139059,1,8,0:0:0:0:
256,192,139314,1,8,0:0:0:0:
256,192,139400,1,0,0:0:0:0:
256,192,139741,1,8,0:0:0:0:
256,192,139996,1,8,0:0:0:0:
256,192,140081,1,0,0:0:0:0:
256,192,140422,1,0,0:0:0:0:
256,192,140593,1,0,0:0:0:0:
256,192,140763,1,8,0:0:0:0:
256,192,140934,1,8,0:0:0:0:
256,192,141019,1,8,0:0:0:0:
256,192,141104,1,8,0:0:0:0:
256,192,141275,1,8,0:0:0:0:
256,192,142468,1,8,0:0:0:0:
256,192,142809,1,4,0:0:0:0:
256,192,143150,1,8,0:0:0:0:
256,192,143405,1,8,0:0:0:0:
256,192,143491,1,0,0:0:0:0:
256,192,143661,1,0,0:0:0:0:
256,192,143831,1,8,0:0:0:0:
256,192,144172,1,0,0:0:0:0:
256,192,144343,1,8,0:0:0:0:
256,192,144428,1,8,0:0:0:0:
256,192,144513,1,8,0:0:0:0:
256,192,144684,1,8,0:0:0:0:
256,192,144854,1,0,0:0:0:0:
256,192,145195,1,8,0:0:0:0:
256,192,145366,1,8,0:0:0:0:
256,192,145536,1,0,0:0:0:0:
256,192,145877,1,8,0:0:0:0:
256,192,146133,1,8,0:0:0:0:
256,192,146218,1,0,0:0:0:0:
256,192,146388,1,0,0:0:0:0:
256,192,146559,1,8,0:0:0:0:
256,192,146729,1,0,0:0:0:0:
256,192,146814,1,0,0:0:0:0:
256,192,146900,1,0,0:0:0:0:
256,192,147070,1,0,0:0:0:0:
256,192,147241,1,8,0:0:0:0:
256,192,147411,1,8,0:0:0:0:
256,192,147581,1,0,0:0:0:0:
256,192,147922,1,8,0:0:0:0:
256,192,148263,1,0,0:0:0:0:
256,192,148604,1,8,0:0:0:0:
256,192,148860,1,8,0:0:0:0:
256,192,148945,1,0,0:0:0:0:
256,192,149116,1,0,0:0:0:0:
256,192,149286,1,8,0:0:0:0:
256,192,149627,1,0,0:0:0:0:
256,192,149797,1,8,0:0:0:0:
256,192,149883,1,8,0:0:0:0:
256,192,149968,1,8,0:0:0:0:
256,192,150138,1,8,0:0:0:0:
256,192,150309,1,0,0:0:0:0:
256,192,150479,1,0,0:0:0:0:
256,192,150650,1,8,0:0:0:0:
256,192,150991,1,0,0:0:0:0:
256,192,151331,1,8,0:0:0:0:
256,192,151587,1,8,0:0:0:0:
256,192,151672,1,0,0:0:0:0:
256,192,151843,1,0,0:0:0:0:
256,192,152013,1,8,0:0:0:0:
256,192,152354,1,4,0:0:0:0:
256,192,152695,1,4,0:0:0:0:
256,192,153036,1,12,0:0:0:0:
256,192,153377,1,12,0:0:0:0:
256,192,153718,1,4,0:0:0:0:
256,192,154059,1,8,0:0:0:0:
256,192,154314,1,8,0:0:0:0:
256,192,154400,1,0,0:0:0:0:
256,192,154570,1,0,0:0:0:0:
256,192,154741,1,8,0:0:0:0:
256,192,155081,1,0,0:0:0:0:
256,192,155252,1,8,0:0:0:0:
256,192,155337,1,8,0:0:0:0:
256,192,155422,1,8,0:0:0:0:
256,192,155593,1,8,0:0:0:0:
256,192,155763,1,0,0:0:0:0:
256,192,156104,1,8,0:0:0:0:
256,192,156275,1,8,0:0:0:0:
256,192,156445,1,0,0:0:0:0:
256,192,156786,1,8,0:0:0:0:
256,192,157042,1,8,0:0:0:0:
256,192,157127,1,0,0:0:0:0:
256,192,157297,1,0,0:0:0:0:
256,192,157468,1,8,0:0:0:0:
256,192,157638,1,0,0:0:0:0:
256,192,157723,1,0,0:0:0:0:
256,192,157809,1,0,0:0:0:0:
256,192,157979,1,8,0:0:0:0:
256,192,158150,1,8,0:0:0:0:
256,192,158320,1,8,0:0:0:0:
256,192,158491,1,0,0:0:0:0:
256,192,158831,1,8,0:0:0:0:
256,192,159172,1,0,0:0:0:0:
256,192,159513,1,8,0:0:0:0:
256,192,159769,1,8,0:0:0:0:
256,192,159854,1,0,0:0:0:0:
256,192,160025,1,0,0:0:0:0:
256,192,160195,1,8,0:0:0:0:
256,192,160536,1,0,0:0:0:0:
256,192,160706,1,8,0:0:0:0:
256,192,160792,1,8,0:0:0:0:
256,192,160877,1,8,0:0:0:0:
256,192,161047,1,8,0:0:0:0:
256,192,161218,1,0,0:0:0:0:
256,192,161388,1,8,0:0:0:0:
256,192,161559,1,8,0:0:0:0:
256,192,161900,1,0,0:0:0:0:
256,192,162241,1,8,0:0:0:0:
256,192,162496,1,8,0:0:0:0:
256,192,162581,1,0,0:0:0:0:
256,192,162752,1,8,0:0:0:0:
256,192,162922,1,0,0:0:0:0:
256,192,163093,1,8,0:0:0:0:
256,192,163945,1,0,0:0:0:0:
256,192,164030,1,0,0:0:0:0:
256,192,164116,1,0,0:0:0:0:
256,192,164286,1,8,0:0:0:0:
256,192,164627,1,4,0:0:0:0:
256,192,164968,1,8,0:0:0:0:
256,192,165223,1,8,0:0:0:0:
256,192,165309,1,0,0:0:0:0:
256,192,165479,1,0,0:0:0:0:
256,192,165650,1,8,0:0:0:0:
256,192,165820,1,8,0:0:0:0:
256,192,165991,1,0,0:0:0:0:
256,192,166161,1,8,0:0:0:0:
256,192,166246,1,8,0:0:0:0:
256,192,166331,1,8,0:0:0:0:
256,192,166502,1,8,0:0:0:0:
256,192,166672,1,0,0:0:0:0:
256,192,167013,1,8,0:0:0:0:
256,192,167184,1,8,0:0:0:0:
256,192,167354,1,0,0:0:0:0:
256,192,167695,1,8,0:0:0:0:
256,192,167951,1,8,0:0:0:0:
256,192,168036,1,0,0:0:0:0:
256,192,168206,1,0,0:0:0:0:
256,192,168377,1,8,0:0:0:0:
256,192,168547,1,0,0:0:0:0:
256,192,168633,1,0,0:0:0:0:
256,192,168718,1,0,0:0:0:0:
256,192,168888,1,0,0:0:0:0:
256,192,169059,1,8,0:0:0:0:
256,192,169229,1,8,0:0:0:0:
256,192,169400,1,0,0:0:0:0:
256,192,169741,1,8,0:0:0:0:
256,192,170081,1,0,0:0:0:0:
256,192,170422,1,8,0:0:0:0:
256,192,170678,1,8,0:0:0:0:
256,192,170763,1,0,0:0:0:0:
256,192,170934,1,0,0:0:0:0:
256,192,171104,1,8,0:0:0:0:
256,192,171275,1,8,0:0:0:0:
256,192,171445,1,0,0:0:0:0:
256,192,171616,1,8,0:0:0:0:
256,192,171701,1,8,0:0:0:0:
256,192,171786,1,8,0:0:0:0:
256,192,171956,1,8,0:0:0:0:
256,192,172127,1,0,0:0:0:0:
256,192,172297,1,0,0:0:0:0:
256,192,172468,1,8,0:0:0:0:
256,192,172809,1,0,0:0:0:0:
256,192,173150,1,8,0:0:0:0:
256,192,173405,1,8,0:0:0:0:
256,192,173491,1,0,0:0:0:0:
256,192,173661,1,0,0:0:0:0:
256,192,173831,1,8,0:0:0:0:
256,192,174172,1,4,0:0:0:0:
256,192,174513,1,4,0:0:0:0:
256,192,174854,1,12,0:0:0:0:
256,192,175195,1,12,0:0:0:0:
256,192,175877,1,8,0:0:0:0:
256,192,176133,1,8,0:0:0:0:
256,192,176218,1,0,0:0:0:0:
256,192,176388,1,0,0:0:0:0:
256,192,176559,1,8,0:0:0:0:
256,192,176729,1,8,0:0:0:0:
256,192,176900,1,0,0:0:0:0:
256,192,177070,1,8,0:0:0:0:
256,192,177155,1,8,0:0:0:0:
256,192,177241,1,8,0:0:0:0:
256,192,177411,1,8,0:0:0:0:
256,192,177581,1,0,0:0:0:0:
256,192,177922,1,8,0:0:0:0:
256,192,178093,1,8,0:0:0:0:
256,192,178263,1,0,0:0:0:0:
256,192,178434,1,0,0:0:0:0:
256,192,178604,1,8,0:0:0:0:
256,192,178860,1,8,0:0:0:0:
256,192,178945,1,0,0:0:0:0:
256,192,179116,1,0,0:0:0:0:
256,192,179286,1,8,0:0:0:0:
256,192,179456,1,0,0:0:0:0:
256,192,179542,1,0,0:0:0:0:
256,192,179627,1,0,0:0:0:0:
256,192,179797,1,8,0:0:0:0:
256,192,179968,1,8,0:0:0:0:
256,192,180138,1,8,0:0:0:0:
256,192,180309,1,0,0:0:0:0:
256,192,180650,1,8,0:0:0:0:
256,192,180991,1,0,0:0:0:0:
256,192,181331,1,8,0:0:0:0:
256,192,181587,1,8,0:0:0:0:
256,192,181672,1,0,0:0:0:0:
256,192,181843,1,0,0:0:0:0:
256,192,182013,1,8,0:0:0:0:
256,192,182184,1,8,0:0:0:0:
256,192,182354,1,0,0:0:0:0:
256,192,182525,1,8,0:0:0:0:
256,192,182610,1,8,0:0:0:0:
256,192,182695,1,8,0:0:0:0:
256,192,182866,1,8,0:0:0:0:
256,192,183036,1,0,0:0:0:0:
256,192,183206,1,8,0:0:0:0:
256,192,183377,1,8,0:0:0:0:
256,192,183547,1,8,0:0:0:0:
256,192,183718,1,0,0:0:0:0:
256,192,184059,1,8,0:0:0:0:
256,192,184314,1,8,0:0:0:0:
256,192,184400,1,0,0:0:0:0:
256,192,184570,1,0,0:0:0:0:
256,192,184741,1,8,0:0:0:0:
256,192,184911,1,8,0:0:0:0:
256,192,185763,1,0,0:0:0:0:
256,192,185848,1,0,0:0:0:0:
256,192,185934,1,0,0:0:0:0:
256,192,186104,1,8,0:0:0:0:
256,192,186445,1,4,0:0:0:0:
256,192,186786,1,0,0:0:0:0:
256,192,186956,1,8,0:0:0:0:
256,192,187127,1,0,0:0:0:0:
256,192,187297,1,8,0:0:0:0:
256,192,187383,1,8,0:0:0:0:
256,192,187468,1,8,0:0:0:0:
256,192,187638,1,8,0:0:0:0:
256,192,187809,1,0,0:0:0:0:
256,192,188150,1,8,0:0:0:0:
256,192,188320,1,8,0:0:0:0:
256,192,188491,1,0,0:0:0:0:
256,192,188661,1,8,0:0:0:0:
256,192,188831,1,8,0:0:0:0:
256,192,189172,1,0,0:0:0:0:
256,192,189513,1,0,0:0:0:0:
256,192,189684,1,8,0:0:0:0:
256,192,189854,1,8,0:0:0:0:
256,192,190025,1,0,0:0:0:0:
256,192,190110,1,0,0:0:0:0:
256,192,190195,1,0,0:0:0:0:
256,192,190366,1,8,0:0:0:0:
256,192,190536,1,0,0:0:0:0:
256,192,190706,1,0,0:0:0:0:
256,192,190877,1,8,0:0:0:0:
256,192,191047,1,8,0:0:0:0:
256,192,191218,1,0,0:0:0:0:
256,192,191559,1,8,0:0:0:0:
256,192,191900,1,0,0:0:0:0:
256,192,192241,1,8,0:0:0:0:
256,192,192496,1,8,0:0:0:0:
256,192,192581,1,0,0:0:0:0:
256,192,192752,1,0,0:0:0:0:
256,192,192922,1,8,0:0:0:0:
256,192,193263,1,0,0:0:0:0:
256,192,193434,1,8,0:0:0:0:
256,192,193519,1,8,0:0:0:0:
256,192,193604,1,8,0:0:0:0:
256,192,193775,1,8,0:0:0:0:
256,192,193945,1,0,0:0:0:0:
256,192,194116,1,0,0:0:0:0:
256,192,194286,1,8,0:0:0:0:
256,192,194627,1,0,0:0:0:0:
256,192,194883,1,0,0:0:0:0:
256,192,194968,1,8,0:0:0:0:
256,192,195138,1,0,0:0:0:0:
256,192,195394,1,8,0:0:0:0:
256,192,195479,1,0,0:0:0:0:
256,192,195650,1,8,0:0:0:0:
256,192,195991,1,0,0:0:0:0:
256,192,196331,1,0,0:0:0:0:
256,192,196672,1,8,0:0:0:0:
256,192,197013,1,12,0:0:0:0:
256,192,197695,1,0,0:0:0:0:
256,192,198036,1,0,0:0:0:0:
256,192,198206,1,8,0:0:0:0:
256,192,198292,1,8,0:0:0:0:
256,192,198377,1,8,0:0:0:0:
256,192,198547,1,8,0:0:0:0:
256,192,198718,1,0,0:0:0:0:
256,192,199059,1,8,0:0:0:0:
256,192,199229,1,8,0:0:0:0:
256,192,199400,1,0,0:0:0:0:
256,192,199570,1,8,0:0:0:0:
256,192,199741,1,8,0:0:0:0:
256,192,200081,1,0,0:0:0:0:
256,192,200422,1,0,0:0:0:0:
256,192,200593,1,8,0:0:0:0:
256,192,200763,1,8,0:0:0:0:
256,192,200934,1,0,0:0:0:0:
256,192,201019,1,0,0:0:0:0:
256,192,201104,1,0,0:0:0:0:
256,192,201275,1,8,0:0:0:0:
256,192,201445,1,0,0:0:0:0:
256,192,201616,1,8,0:0:0:0:
256,192,201786,1,8,0:0:0:0:
256,192,201956,1,8,0:0:0:0:
256,192,202127,1,0,0:0:0:0:
256,192,202468,1,8,0:0:0:0:
256,192,202809,1,0,0:0:0:0:
256,192,203150,1,8,0:0:0:0:
256,192,203320,1,8,0:0:0:0:
256,192,203405,1,8,0:0:0:0:
256,192,203491,1,8,0:0:0:0:
256,192,203661,1,0,0:0:0:0:
256,192,203831,1,8,0:0:0:0:
256,192,204172,1,0,0:0:0:0:
256,192,204513,1,8,0:0:0:0:
256,192,204769,1,8,0:0:0:0:
256,192,204854,1,0,0:0:0:0:
256,192,205025,1,0,0:0:0:0:
256,192,205195,1,8,0:0:0:0:
256,192,205536,1,0,0:0:0:0:
256,192,205706,1,8,0:0:0:0:
256,192,205877,1,8,0:0:0:0:
256,192,206133,1,8,0:0:0:0:
256,192,206218,1,0,0:0:0:0:
256,192,206388,1,0,0:0:0:0:
256,192,206559,1,8,0:0:0:0:
256,192,206644,1,8,0:0:0:0:
256,192,206729,1,8,0:0:0:0:
256,192,208263,1,4,0:0:0:0:
256,192,208604,1,0,0:0:0:0:
256,192,208945,1,8,0:0:0:0:
256,192,209286,1,8,0:0:0:0:
256,192,209627,1,0,0:0:0:0:
256,192,209968,1,8,0:0:0:0:
256,192,210309,1,0,0:0:0:0:
256,192,210991,1,0,0:0:0:0:
256,192,211331,1,8,0:0:0:0:
256,192,211672,1,0,0:0:0:0:
256,192,212013,1,0,0:0:0:0:
256,192,212354,1,8,0:0:0:0:
256,192,212695,1,0,0:0:0:0:
256,192,213036,1,8,0:0:0:0:
256,192,213718,1,0,0:0:0:0:
256,192,214059,1,0,0:0:0:0:
256,192,214400,1,8,0:0:0:0:
256,192,214741,1,8,0:0:0:0:
256,192,215081,1,0,0:0:0:0:
256,192,215422,1,8,0:0:0:0:
256,192,215763,1,0,0:0:0:0:
256,192,216445,1,0,0:0:0:0:
256,192,216786,1,8,0:0:0:0:
256,192,217127,1,0,0:0:0:0:
256,192,217468,1,0,0:0:0:0:
256,192,217809,1,8,0:0:0:0:
256,192,218150,1,8,0:0:0:0:
256,192,218491,1,8,0:0:0:0:
256,192,219172,1,4,0:0:0:0:
256,192,219854,1,8,0:0:0:0:
256,192,220536,1,0,0:0:0:0:
256,192,220877,1,8,0:0:0:0:
256,192,221218,1,0,0:0:0:0:
256,192,221900,1,0,0:0:0:0:
256,192,222581,1,0,0:0:0:0:
256,192,223263,1,8,0:0:0:0:
256,192,223604,1,0,0:0:0:0:
256,192,223945,1,8,0:0:0:0:
256,192,224627,1,0,0:0:0:0:
256,192,225309,1,8,0:0:0:0:
256,192,225991,1,0,0:0:0:0:
256,192,226331,1,8,0:0:0:0:
256,192,226672,1,0,0:0:0:0:
256,192,227354,1,0,0:0:0:0:
256,192,228036,1,0,0:0:0:0:
256,192,228718,1,8,0:0:0:0:
256,192,229059,1,8,0:0:0:0:
256,192,229400,1,8,0:0:0:0:
256,192,229741,1,8,0:0:0:0:
