osu file format v14

[General]
AudioFilename: audio.mp3
AudioLeadIn: 0
PreviewTime: 25051
Countdown: 0
SampleSet: Normal
StackLeniency: 0.2
Mode: 1
LetterboxInBreaks: 0
WidescreenStoryboard: 0

[Editor]
DistanceSpacing: 4
BeatDivisor: 4
GridSize: 32
TimelineZoom: 3.599999

[Metadata]
Title:Update
TitleUnicode:Update
Artist:PSYQUI
ArtistUnicode:PSYQUI
Creator:Genjuro
Version:Inner Oni
Source:
Tags:r:turnover rpcd-0017 riparia records psytrance
BeatmapID:2063567
BeatmapSetID:986373

[Difficulty]
HPDrainRate:5
CircleSize:2
OverallDifficulty:6
ApproachRate:9
SliderMultiplier:1.4
SliderTickRate:1

[Events]
//Background and Video events
0,0,"bg.jpg",0,100
//Break Periods
//Storyboard Layer 0 (Background)
//Storyboard Layer 1 (Fail)
//Storyboard Layer 2 (Pass)
//Storyboard Layer 3 (Foreground)
//Storyboard Sound Samples

[TimingPoints]
116,389.61038961039,4,1,0,60,1,0
116,-125,4,1,0,60,0,0
11414,-122.819795112018,4,1,0,60,0,0
11512,-121.757891737753,4,1,0,60,0,0
11706,-119.688379335562,4,1,0,60,0,0
11804,-118.679711940603,4,1,0,60,0,0
11999,-116.712670911117,4,1,0,60,0,0
12096,-115.753468263293,4,1,0,60,0,0
12291,-113.88133792351,4,1,0,60,0,0
12486,-112.068926872784,4,1,0,60,0,0
12583,-111.18424563713,4,1,0,60,0,0
24661,-90.9090909090909,4,1,0,60,0,0
25051,-100,4,1,0,70,0,1
49986,-100,4,1,0,70,0,0
50375,-111.111111111111,4,1,0,60,0,0
56414,-110.294077097766,4,1,0,60,0,0
56609,-109.489091054413,4,1,0,60,0,0
56804,-108.695652173913,4,1,0,60,0,0
56999,-107.913630246896,4,1,0,60,0,0
57193,-107.142895408177,4,1,0,60,0,0
57388,-106.382978723404,4,1,0,60,0,0
57583,-105.633765621914,4,1,0,60,0,0
57778,-104.895141571728,4,1,0,60,0,0
57973,-104.166666666667,4,1,0,60,0,0
58167,-103.448240190262,4,1,0,60,0,0
58362,-102.739761212247,4,1,0,60,0,0
58557,-102.040816326531,4,1,0,60,0,0
58752,-101.351317111042,4,1,0,60,0,0
58947,-100.671174721871,4,1,0,60,0,0
59141,-100,4,1,0,60,0,0
59239,-99.0180381160036,4,1,0,60,0,0
59336,-98.0550775370526,4,1,0,60,0,0
59434,-97.110760649166,4,1,0,60,0,0
59531,-96.184458707531,4,1,0,60,0,0
59628,-95.2755702957449,4,1,0,60,0,0
59726,-94.3837871305819,4,1,0,60,0,0
59823,-93.5085434080685,4,1,0,60,0,0
59921,-92.6492973940532,4,1,0,60,0,0
59986,-92.0852709609098,4,1,0,60,0,0
60051,-91.5279865124359,4,1,0,60,0,0
60116,-90.9090909090909,4,1,0,60,0,0
60213,-89.8876404494382,4,1,0,60,0,0
60408,-87.9120879120879,4,1,0,60,0,0
60505,-86.9565217391304,4,1,0,60,0,0
60700,-85.1063829787234,4,1,0,60,0,0
60765,-84.5070660583285,4,1,0,60,0,0
60830,-83.91606044306,4,1,0,60,0,0
60895,-83.3333333333333,4,1,0,60,0,0
61674,-76.9230769230769,4,1,0,70,0,0
62843,-142.857142857143,4,1,0,40,0,0
75310,-125,4,1,0,50,0,0
87778,-111.111111111111,4,1,0,60,0,0
100245,-100,4,1,0,70,0,0

[HitObjects]
256,192,116,5,4,0:0:0:0:
256,192,310,1,8,0:0:0:0:
256,192,505,1,0,0:0:0:0:
256,192,603,1,8,0:0:0:0:
256,192,797,1,8,0:0:0:0:
256,192,895,1,8,0:0:0:0:
256,192,1090,1,8,0:0:0:0:
256,192,1187,1,0,0:0:0:0:
256,192,1382,1,8,0:0:0:0:
256,192,1479,1,0,0:0:0:0:
256,192,1577,1,0,0:0:0:0:
256,192,1771,1,0,0:0:0:0:
256,192,1869,1,8,0:0:0:0:
256,192,2064,1,8,0:0:0:0:
256,192,2161,1,0,0:0:0:0:
256,192,2453,1,8,0:0:0:0:
256,192,2648,1,0,0:0:0:0:
256,192,2745,1,0,0:0:0:0:
256,192,2940,1,8,0:0:0:0:
256,192,3038,1,8,0:0:0:0:
256,192,3135,1,0,0:0:0:0:
256,192,3330,1,0,0:0:0:0:
256,192,3427,1,8,0:0:0:0:
256,192,3622,1,0,0:0:0:0:
256,192,3719,1,8,0:0:0:0:
256,192,3914,1,8,0:0:0:0:
256,192,4012,1,8,0:0:0:0:
256,192,4206,1,8,0:0:0:0:
256,192,4304,1,0,0:0:0:0:
256,192,4499,1,8,0:0:0:0:
256,192,4596,1,0,0:0:0:0:
256,192,4693,1,0,0:0:0:0:
256,192,4888,1,0,0:0:0:0:
256,192,4986,1,8,0:0:0:0:
256,192,5180,1,8,0:0:0:0:
256,192,5278,1,0,0:0:0:0:
256,192,5570,1,8,0:0:0:0:
256,192,5765,1,0,0:0:0:0:
256,192,5862,1,0,0:0:0:0:
256,192,6057,1,8,0:0:0:0:
256,192,6252,1,8,0:0:0:0:
256,192,6447,1,0,0:0:0:0:
256,192,6544,1,8,0:0:0:0:
256,192,6739,1,0,0:0:0:0:
256,192,6836,1,8,0:0:0:0:
256,192,7031,1,8,0:0:0:0:
256,192,7128,1,8,0:0:0:0:
256,192,7323,1,8,0:0:0:0:
256,192,7421,1,0,0:0:0:0:
256,192,7616,1,8,0:0:0:0:
256,192,7713,1,0,0:0:0:0:
256,192,7810,1,0,0:0:0:0:
256,192,8005,1,0,0:0:0:0:
256,192,8103,1,8,0:0:0:0:
256,192,8297,1,8,0:0:0:0:
256,192,8395,1,0,0:0:0:0:
256,192,8687,1,8,0:0:0:0:
256,192,8882,1,8,0:0:0:0:
256,192,8979,1,0,0:0:0:0:
256,192,9174,1,8,0:0:0:0:
256,192,9369,1,8,0:0:0:0:
256,192,9564,1,0,0:0:0:0:
256,192,9661,1,8,0:0:0:0:
256,192,9856,1,8,0:0:0:0:
256,192,9953,1,0,0:0:0:0:
256,192,10148,1,0,0:0:0:0:
256,192,10245,1,8,0:0:0:0:
256,192,10440,1,8,0:0:0:0:
256,192,10538,1,0,0:0:0:0:
256,192,10732,1,0,0:0:0:0:
256,192,10830,1,8,0:0:0:0:
256,192,11025,1,0,0:0:0:0:
256,192,11122,1,0,0:0:0:0:
256,192,11219,1,8,0:0:0:0:
256,192,11414,1,0,0:0:0:0:
256,192,11512,1,8,0:0:0:0:
256,192,11706,1,0,0:0:0:0:
256,192,11804,1,8,0:0:0:0:
256,192,11999,1,8,0:0:0:0:
256,192,12096,1,0,0:0:0:0:
256,192,12291,1,8,0:0:0:0:
256,192,12486,1,8,0:0:0:0:
256,192,12583,1,4,0:0:0:0:
256,192,12778,1,0,0:0:0:0:
256,192,12973,1,8,0:0:0:0:
256,192,13070,1,0,0:0:0:0:
256,192,13167,1,0,0:0:0:0:
256,192,13362,1,8,0:0:0:0:
256,192,13460,1,8,0:0:0:0:
256,192,13557,1,0,0:0:0:0:
256,192,13752,1,8,0:0:0:0:
256,192,14044,1,8,0:0:0:0:
256,192,14141,1,0,0:0:0:0:
256,192,14336,1,0,0:0:0:0:
256,192,14531,1,8,0:0:0:0:
256,192,14628,1,8,0:0:0:0:
256,192,14726,1,0,0:0:0:0:
256,192,14823,1,0,0:0:0:0:
256,192,14921,1,8,0:0:0:0:
256,192,15116,1,0,0:0:0:0:
256,192,15213,1,0,0:0:0:0:
256,192,15408,1,8,0:0:0:0:
256,192,15505,1,8,0:0:0:0:
256,192,15700,1,0,0:0:0:0:
256,192,15895,1,0,0:0:0:0:
256,192,16090,1,8,0:0:0:0:
256,192,16187,1,0,0:0:0:0:
256,192,16284,1,0,0:0:0:0:
256,192,16479,1,8,0:0:0:0:
256,192,16577,1,8,0:0:0:0:
256,192,16674,1,0,0:0:0:0:
256,192,16869,1,8,0:0:0:0:
256,192,17161,1,8,0:0:0:0:
256,192,17258,1,0,0:0:0:0:
256,192,17453,1,0,0:0:0:0:
256,192,17648,1,8,0:0:0:0:
256,192,17745,1,8,0:0:0:0:
256,192,17843,1,0,0:0:0:0:
256,192,17940,1,0,0:0:0:0:
256,192,18038,1,8,0:0:0:0:
256,192,18232,1,0,0:0:0:0:
256,192,18330,1,8,0:0:0:0:
256,192,18427,1,8,0:0:0:0:
256,192,18525,1,0,0:0:0:0:
256,192,18719,1,8,0:0:0:0:
256,192,18817,1,0,0:0:0:0:
256,192,19012,1,0,0:0:0:0:
256,192,19206,1,8,0:0:0:0:
256,192,19304,1,0,0:0:0:0:
256,192,19401,1,0,0:0:0:0:
256,192,19596,1,8,0:0:0:0:
256,192,19693,1,8,0:0:0:0:
256,192,19791,1,0,0:0:0:0:
256,192,19986,1,8,0:0:0:0:
256,192,20278,1,8,0:0:0:0:
256,192,20375,1,0,0:0:0:0:
256,192,20570,1,0,0:0:0:0:
256,192,20765,1,8,0:0:0:0:
256,192,20862,1,8,0:0:0:0:
256,192,20960,1,0,0:0:0:0:
256,192,21057,1,0,0:0:0:0:
256,192,21154,1,8,0:0:0:0:
256,192,21349,1,0,0:0:0:0:
256,192,21447,1,0,0:0:0:0:
256,192,21641,1,8,0:0:0:0:
256,192,21836,1,8,0:0:0:0:
256,192,21934,1,0,0:0:0:0:
256,192,22128,1,8,0:0:0:0:
256,192,22323,1,0,0:0:0:0:
256,192,22421,1,8,0:0:0:0:
256,192,22518,1,0,0:0:0:0:
256,192,22713,1,8,0:0:0:0:
256,192,22810,1,0,0:0:0:0:
256,192,22908,1,0,0:0:0:0:
256,192,23005,1,8,0:0:0:0:
256,192,23200,1,0,0:0:0:0:
256,192,23297,1,8,0:0:0:0:
256,192,23492,1,0,0:0:0:0:
256,192,23687,1,8,0:0:0:0:
256,192,23882,1,0,0:0:0:0:
256,192,23979,1,8,0:0:0:0:
256,192,24174,1,0,0:0:0:0:
256,192,24271,1,8,0:0:0:0:
256,192,24369,1,8,0:0:0:0:
256,192,24466,1,0,0:0:0:0:
256,192,24661,1,12,0:0:0:0:
256,192,25051,1,4,0:0:0:0:
256,192,25245,1,0,0:0:0:0:
256,192,25440,1,8,0:0:0:0:
256,192,25538,1,8,0:0:0:0:
256,192,25635,1,0,0:0:0:0:
256,192,25732,1,0,0:0:0:0:
256,192,25830,1,8,0:0:0:0:
256,192,26025,1,8,0:0:0:0:
256,192,26122,1,0,0:0:0:0:
256,192,26317,1,8,0:0:0:0:
256,192,26414,1,8,0:0:0:0:
256,192,26609,1,0,0:0:0:0:
256,192,26804,1,8,0:0:0:0:
256,192,26999,1,8,0:0:0:0:
256,192,27096,1,0,0:0:0:0:
256,192,27291,1,0,0:0:0:0:
256,192,27388,1,8,0:0:0:0:
256,192,27486,1,8,0:0:0:0:
256,192,27583,1,0,0:0:0:0:
256,192,27680,1,0,0:0:0:0:
256,192,27875,1,0,0:0:0:0:
256,192,27973,1,8,0:0:0:0:
256,192,28167,1,0,0:0:0:0:
256,192,28362,1,0,0:0:0:0:
256,192,28557,1,8,0:0:0:0:
256,192,28654,1,8,0:0:0:0:
256,192,28752,1,0,0:0:0:0:
256,192,28849,1,0,0:0:0:0:
256,192,28947,1,8,0:0:0:0:
256,192,29141,1,8,0:0:0:0:
256,192,29239,1,0,0:0:0:0:
256,192,29434,1,8,0:0:0:0:
256,192,29531,1,8,0:0:0:0:
256,192,29726,1,0,0:0:0:0:
256,192,29921,1,0,0:0:0:0:
256,192,30116,1,8,0:0:0:0:
256,192,30213,1,0,0:0:0:0:
256,192,30408,1,0,0:0:0:0:
256,192,30505,1,8,0:0:0:0:
256,192,30603,1,8,0:0:0:0:
256,192,30700,1,0,0:0:0:0:
256,192,30797,1,8,0:0:0:0:
256,192,30992,1,8,0:0:0:0:
256,192,31090,1,8,0:0:0:0:
256,192,31187,1,8,0:0:0:0:
256,192,31284,1,0,0:0:0:0:
256,192,31479,1,0,0:0:0:0:
256,192,31674,1,8,0:0:0:0:
256,192,31771,1,8,0:0:0:0:
256,192,31869,1,0,0:0:0:0:
256,192,31966,1,0,0:0:0:0:
256,192,32064,1,8,0:0:0:0:
256,192,32258,1,8,0:0:0:0:
256,192,32356,1,0,0:0:0:0:
256,192,32551,1,8,0:0:0:0:
256,192,32648,1,8,0:0:0:0:
256,192,32843,1,0,0:0:0:0:
256,192,33038,1,8,0:0:0:0:
256,192,33232,1,8,0:0:0:0:
256,192,33330,1,0,0:0:0:0:
256,192,33525,1,0,0:0:0:0:
256,192,33622,1,8,0:0:0:0:
256,192,33719,1,8,0:0:0:0:
256,192,33817,1,0,0:0:0:0:
256,192,33914,1,0,0:0:0:0:
256,192,34109,1,8,0:0:0:0:
256,192,34304,1,8,0:0:0:0:
256,192,34401,1,0,0:0:0:0:
256,192,34596,1,8,0:0:0:0:
256,192,34791,1,0,0:0:0:0:
256,192,34888,1,8,0:0:0:0:
256,192,34986,1,0,0:0:0:0:
256,192,35083,1,0,0:0:0:0:
256,192,35180,1,8,0:0:0:0:
256,192,35375,1,0,0:0:0:0:
256,192,35473,1,8,0:0:0:0:
256,192,35667,1,0,0:0:0:0:
256,192,35765,1,8,0:0:0:0:
256,192,35862,1,8,0:0:0:0:
256,192,35960,1,0,0:0:0:0:
256,192,36154,1,8,0:0:0:0:
256,192,36349,1,0,0:0:0:0:
256,192,36447,1,8,0:0:0:0:
256,192,36544,1,0,0:0:0:0:
256,192,36739,1,8,0:0:0:0:
256,192,36836,1,8,0:0:0:0:
256,192,36934,1,0,0:0:0:0:
256,192,37031,1,8,0:0:0:0:
256,192,37128,1,0,0:0:0:0:
256,192,37323,1,8,0:0:0:0:
256,192,37518,1,4,0:0:0:0:
256,192,37713,1,8,0:0:0:0:
256,192,37908,1,8,0:0:0:0:
256,192,38005,1,8,0:0:0:0:
256,192,38103,1,0,0:0:0:0:
256,192,38200,1,0,0:0:0:0:
256,192,38297,1,8,0:0:0:0:
256,192,38492,1,8,0:0:0:0:
256,192,38590,1,0,0:0:0:0:
256,192,38784,1,8,0:0:0:0:
256,192,38882,1,8,0:0:0:0:
256,192,38979,1,8,0:0:0:0:
256,192,39077,1,0,0:0:0:0:
256,192,39271,1,8,0:0:0:0:
256,192,39466,1,8,0:0:0:0:
256,192,39564,1,0,0:0:0:0:
256,192,39758,1,0,0:0:0:0:
256,192,39856,1,8,0:0:0:0:
256,192,39953,1,8,0:0:0:0:
256,192,40051,1,0,0:0:0:0:
256,192,40148,1,0,0:0:0:0:
256,192,40343,1,8,0:0:0:0:
256,192,40538,1,8,0:0:0:0:
256,192,40635,1,0,0:0:0:0:
256,192,40830,1,8,0:0:0:0:
256,192,41025,1,8,0:0:0:0:
256,192,41122,1,8,0:0:0:0:
256,192,41219,1,0,0:0:0:0:
256,192,41317,1,0,0:0:0:0:
256,192,41414,1,8,0:0:0:0:
256,192,41609,1,8,0:0:0:0:
256,192,41706,1,0,0:0:0:0:
256,192,41901,1,8,0:0:0:0:
256,192,41999,1,8,0:0:0:0:
256,192,42096,1,8,0:0:0:0:
256,192,42193,1,0,0:0:0:0:
256,192,42388,1,0,0:0:0:0:
256,192,42583,1,8,0:0:0:0:
256,192,42680,1,0,0:0:0:0:
256,192,42875,1,0,0:0:0:0:
256,192,42973,1,8,0:0:0:0:
256,192,43070,1,8,0:0:0:0:
256,192,43167,1,0,0:0:0:0:
256,192,43265,1,8,0:0:0:0:
256,192,43460,1,0,0:0:0:0:
256,192,43557,1,8,0:0:0:0:
256,192,43654,1,8,0:0:0:0:
256,192,43752,1,0,0:0:0:0:
256,192,43947,1,8,0:0:0:0:
256,192,44141,1,8,0:0:0:0:
256,192,44239,1,8,0:0:0:0:
256,192,44336,1,0,0:0:0:0:
256,192,44434,1,0,0:0:0:0:
256,192,44531,1,8,0:0:0:0:
256,192,44726,1,8,0:0:0:0:
256,192,44823,1,0,0:0:0:0:
256,192,45018,1,8,0:0:0:0:
256,192,45116,1,8,0:0:0:0:
256,192,45213,1,8,0:0:0:0:
256,192,45310,1,0,0:0:0:0:
256,192,45505,1,8,0:0:0:0:
256,192,45700,1,8,0:0:0:0:
256,192,45797,1,0,0:0:0:0:
256,192,45992,1,0,0:0:0:0:
256,192,46090,1,8,0:0:0:0:
256,192,46187,1,8,0:0:0:0:
256,192,46284,1,0,0:0:0:0:
256,192,46382,1,0,0:0:0:0:
256,192,46577,1,8,0:0:0:0:
256,192,46771,1,8,0:0:0:0:
256,192,46869,1,0,0:0:0:0:
256,192,47064,1,8,0:0:0:0:
256,192,47258,1,0,0:0:0:0:
256,192,47356,1,8,0:0:0:0:
256,192,47453,1,0,0:0:0:0:
256,192,47551,1,0,0:0:0:0:
256,192,47648,1,8,0:0:0:0:
256,192,47843,1,0,0:0:0:0:
256,192,47940,1,8,0:0:0:0:
256,192,48135,1,0,0:0:0:0:
256,192,48232,1,8,0:0:0:0:
256,192,48330,1,8,0:0:0:0:
256,192,48427,1,0,0:0:0:0:
256,192,48622,1,8,0:0:0:0:
256,192,48817,1,0,0:0:0:0:
256,192,48914,1,8,0:0:0:0:
256,192,49109,1,0,0:0:0:0:
256,192,49206,1,8,0:0:0:0:
256,192,49304,1,8,0:0:0:0:
256,192,49401,1,0,0:0:0:0:
256,192,49499,1,8,0:0:0:0:
256,192,49596,1,0,0:0:0:0:
256,192,49791,1,8,0:0:0:0:
256,192,49986,1,4,0:0:0:0:
256,192,50375,1,8,0:0:0:0:
256,192,50473,1,8,0:0:0:0:
256,192,50570,1,0,0:0:0:0:
256,192,50667,1,0,0:0:0:0:
256,192,50765,1,8,0:0:0:0:
256,192,50960,1,0,0:0:0:0:
256,192,51057,1,8,0:0:0:0:
256,192,51252,1,0,0:0:0:0:
256,192,51349,1,8,0:0:0:0:
256,192,51447,1,8,0:0:0:0:
256,192,51544,1,0,0:0:0:0:
256,192,51739,1,8,0:0:0:0:
256,192,51934,1,8,0:0:0:0:
256,192,52031,1,8,0:0:0:0:
256,192,52226,1,0,0:0:0:0:
256,192,52323,1,8,0:0:0:0:
256,192,52518,1,0,0:0:0:0:
256,192,52616,1,8,0:0:0:0:
256,192,52713,1,0,0:0:0:0:
256,192,52908,1,8,0:0:0:0:
256,192,53103,1,0,0:0:0:0:
256,192,53492,1,8,0:0:0:0:
256,192,53590,1,8,0:0:0:0:
256,192,53687,1,0,0:0:0:0:
256,192,53784,1,0,0:0:0:0:
256,192,53882,1,8,0:0:0:0:
256,192,54077,1,8,0:0:0:0:
256,192,54174,1,0,0:0:0:0:
256,192,54369,1,0,0:0:0:0:
256,192,54466,1,8,0:0:0:0:
256,192,54564,1,8,0:0:0:0:
256,192,54661,1,0,0:0:0:0:
256,192,54856,1,8,0:0:0:0:
256,192,55051,1,8,0:0:0:0:
256,192,55148,1,0,0:0:0:0:
256,192,55343,1,0,0:0:0:0:
256,192,55440,1,8,0:0:0:0:
256,192,55538,1,0,0:0:0:0:
256,192,55635,1,8,0:0:0:0:
256,192,55732,1,8,0:0:0:0:
256,192,55830,1,0,0:0:0:0:
256,192,56025,1,8,0:0:0:0:
256,192,56219,1,4,0:0:0:0:
256,192,56414,1,8,0:0:0:0:
256,192,56609,1,0,0:0:0:0:
256,192,56804,1,0,0:0:0:0:
256,192,56999,1,8,0:0:0:0:
256,192,57193,1,0,0:0:0:0:
256,192,57388,1,8,0:0:0:0:
256,192,57583,1,8,0:0:0:0:
256,192,57778,1,0,0:0:0:0:
256,192,57973,1,8,0:0:0:0:
256,192,58167,1,0,0:0:0:0:
256,192,58362,1,0,0:0:0:0:
256,192,58557,1,8,0:0:0:0:
256,192,58752,1,0,0:0:0:0:
256,192,58947,1,8,0:0:0:0:
256,192,59141,1,8,0:0:0:0:
256,192,59239,1,8,0:0:0:0:
256,192,59336,1,0,0:0:0:0:
256,192,59434,1,8,0:0:0:0:
256,192,59531,1,0,0:0:0:0:
256,192,59628,1,0,0:0:0:0:
256,192,59726,1,8,0:0:0:0:
256,192,59823,1,0,0:0:0:0:
256,192,59921,1,8,0:0:0:0:
256,192,59986,1,8,0:0:0:0:
256,192,60051,1,8,0:0:0:0:
256,192,60116,1,0,0:0:0:0:
256,192,60213,1,8,0:0:0:0:
256,192,60408,1,0,0:0:0:0:
256,192,60505,1,8,0:0:0:0:
256,192,60700,1,8,0:0:0:0:
256,192,60765,1,8,0:0:0:0:
256,192,60830,1,8,0:0:0:0:
256,192,60895,1,0,0:0:0:0:
256,192,61674,2,4,L|320:192,8,45.4999979171754
256,192,62843,1,0,0:0:0:0:
256,192,62940,1,8,0:0:0:0:
256,192,63135,1,8,0:0:0:0:
256,192,63232,1,0,0:0:0:0:
256,192,63330,1,0,0:0:0:0:
256,192,63427,1,8,0:0:0:0:
256,192,63622,1,0,0:0:0:0:
256,192,63719,1,8,0:0:0:0:
256,192,63914,1,8,0:0:0:0:
256,192,64012,1,0,0:0:0:0:
256,192,64109,1,0,0:0:0:0:
256,192,64206,1,8,0:0:0:0:
256,192,64401,1,0,0:0:0:0:
256,192,64499,1,8,0:0:0:0:
256,192,64693,1,8,0:0:0:0:
256,192,64791,1,0,0:0:0:0:
256,192,64888,1,0,0:0:0:0:
256,192,64986,1,8,0:0:0:0:
256,192,65180,1,0,0:0:0:0:
256,192,65570,1,0,0:0:0:0:
256,192,65765,1,8,0:0:0:0:
256,192,65960,1,0,0:0:0:0:
256,192,66057,1,8,0:0:0:0:
256,192,66252,1,8,0:0:0:0:
256,192,66349,1,0,0:0:0:0:
256,192,66447,1,0,0:0:0:0:
256,192,66544,1,8,0:0:0:0:
256,192,66739,1,0,0:0:0:0:
256,192,66836,1,8,0:0:0:0:
256,192,67031,1,8,0:0:0:0:
256,192,67128,1,0,0:0:0:0:
256,192,67226,1,0,0:0:0:0:
256,192,67323,1,8,0:0:0:0:
256,192,67518,1,0,0:0:0:0:
256,192,67616,1,8,0:0:0:0:
256,192,67810,1,8,0:0:0:0:
256,192,67908,1,0,0:0:0:0:
256,192,68005,1,0,0:0:0:0:
256,192,68103,1,8,0:0:0:0:
256,192,68297,1,0,0:0:0:0:
256,192,68492,1,8,0:0:0:0:
256,192,68687,1,0,0:0:0:0:
256,192,69077,1,8,0:0:0:0:
256,192,69174,1,0,0:0:0:0:
256,192,69369,1,8,0:0:0:0:
256,192,69466,1,0,0:0:0:0:
256,192,69564,1,8,0:0:0:0:
256,192,69661,1,8,0:0:0:0:
256,192,69856,1,8,0:0:0:0:
256,192,69953,1,0,0:0:0:0:
256,192,70148,1,8,0:0:0:0:
256,192,70245,1,0,0:0:0:0:
256,192,70343,1,8,0:0:0:0:
256,192,70440,1,8,0:0:0:0:
256,192,70635,1,8,0:0:0:0:
256,192,70732,1,0,0:0:0:0:
256,192,70927,1,8,0:0:0:0:
256,192,71025,1,0,0:0:0:0:
256,192,71122,1,8,0:0:0:0:
256,192,71219,1,8,0:0:0:0:
256,192,71414,1,0,0:0:0:0:
256,192,71804,1,8,0:0:0:0:
256,192,71999,1,0,0:0:0:0:
256,192,72193,1,8,0:0:0:0:
256,192,72291,1,0,0:0:0:0:
256,192,72486,1,8,0:0:0:0:
256,192,72583,1,0,0:0:0:0:
256,192,72680,1,8,0:0:0:0:
256,192,72778,1,8,0:0:0:0:
256,192,72973,1,8,0:0:0:0:
256,192,73070,1,0,0:0:0:0:
256,192,73265,1,8,0:0:0:0:
256,192,73362,1,0,0:0:0:0:
256,192,73460,1,8,0:0:0:0:
256,192,73557,1,8,0:0:0:0:
256,192,73752,1,8,0:0:0:0:
256,192,73849,1,0,0:0:0:0:
256,192,74044,1,0,0:0:0:0:
256,192,74141,1,8,0:0:0:0:
256,192,74336,1,8,0:0:0:0:
256,192,74434,1,0,0:0:0:0:
256,192,74628,1,8,0:0:0:0:
256,192,74823,1,8,0:0:0:0:
256,192,74921,1,0,0:0:0:0:
256,192,75310,1,8,0:0:0:0:
256,192,75408,1,0,0:0:0:0:
256,192,75603,1,8,0:0:0:0:
256,192,75700,1,0,0:0:0:0:
256,192,75797,1,8,0:0:0:0:
256,192,75895,1,0,0:0:0:0:
256,192,75992,1,0,0:0:0:0:
256,192,76090,1,8,0:0:0:0:
256,192,76187,1,0,0:0:0:0:
256,192,76382,1,8,0:0:0:0:
256,192,76479,1,0,0:0:0:0:
256,192,76577,1,8,0:0:0:0:
256,192,76674,1,0,0:0:0:0:
256,192,76771,1,0,0:0:0:0:
256,192,76869,1,8,0:0:0:0:
256,192,76966,1,0,0:0:0:0:
256,192,77161,1,8,0:0:0:0:
256,192,77258,1,0,0:0:0:0:
256,192,77356,1,8,0:0:0:0:
256,192,77453,1,0,0:0:0:0:
256,192,77551,1,0,0:0:0:0:
256,192,77648,1,8,0:0:0:0:
256,192,78038,1,8,0:0:0:0:
256,192,78232,1,0,0:0:0:0:
256,192,78427,1,8,0:0:0:0:
256,192,78525,1,0,0:0:0:0:
256,192,78719,1,8,0:0:0:0:
256,192,78817,1,0,0:0:0:0:
256,192,78914,1,8,0:0:0:0:
256,192,79012,1,0,0:0:0:0:
256,192,79109,1,0,0:0:0:0:
256,192,79206,1,8,0:0:0:0:
256,192,79304,1,0,0:0:0:0:
256,192,79499,1,8,0:0:0:0:
256,192,79596,1,0,0:0:0:0:
256,192,79693,1,8,0:0:0:0:
256,192,79791,1,0,0:0:0:0:
256,192,79888,1,0,0:0:0:0:
256,192,79986,1,8,0:0:0:0:
256,192,80083,1,0,0:0:0:0:
256,192,80278,1,8,0:0:0:0:
256,192,80375,1,0,0:0:0:0:
256,192,80473,1,8,0:0:0:0:
256,192,80570,1,0,0:0:0:0:
256,192,80667,1,0,0:0:0:0:
256,192,80765,1,8,0:0:0:0:
256,192,80960,1,8,0:0:0:0:
256,192,81154,1,0,0:0:0:0:
256,192,81544,1,8,0:0:0:0:
256,192,81641,1,0,0:0:0:0:
256,192,81836,1,8,0:0:0:0:
256,192,81934,1,0,0:0:0:0:
256,192,82031,1,8,0:0:0:0:
256,192,82128,1,8,0:0:0:0:
256,192,82226,1,0,0:0:0:0:
256,192,82323,1,8,0:0:0:0:
256,192,82421,1,0,0:0:0:0:
256,192,82616,1,8,0:0:0:0:
256,192,82713,1,0,0:0:0:0:
256,192,82810,1,8,0:0:0:0:
256,192,82908,1,8,0:0:0:0:
256,192,83005,1,0,0:0:0:0:
256,192,83103,1,8,0:0:0:0:
256,192,83200,1,0,0:0:0:0:
256,192,83395,1,8,0:0:0:0:
256,192,83492,1,0,0:0:0:0:
256,192,83590,1,8,0:0:0:0:
256,192,83687,1,8,0:0:0:0:
256,192,83784,1,0,0:0:0:0:
256,192,83882,1,8,0:0:0:0:
256,192,84271,1,8,0:0:0:0:
256,192,84466,1,0,0:0:0:0:
256,192,84661,1,8,0:0:0:0:
256,192,84758,1,0,0:0:0:0:
256,192,84953,1,8,0:0:0:0:
256,192,85051,1,0,0:0:0:0:
256,192,85148,1,8,0:0:0:0:
256,192,85245,1,8,0:0:0:0:
256,192,85343,1,0,0:0:0:0:
256,192,85440,1,8,0:0:0:0:
256,192,85538,1,0,0:0:0:0:
256,192,85732,1,8,0:0:0:0:
256,192,85830,1,0,0:0:0:0:
256,192,85927,1,8,0:0:0:0:
256,192,86025,1,8,0:0:0:0:
256,192,86122,1,0,0:0:0:0:
256,192,86219,1,8,0:0:0:0:
256,192,86317,1,0,0:0:0:0:
256,192,86512,1,8,0:0:0:0:
256,192,86609,1,0,0:0:0:0:
256,192,86706,1,8,0:0:0:0:
256,192,86804,1,8,0:0:0:0:
256,192,86999,1,0,0:0:0:0:
256,192,87096,1,0,0:0:0:0:
256,192,87193,1,8,0:0:0:0:
256,192,87388,1,0,0:0:0:0:
256,192,87778,1,8,0:0:0:0:
256,192,87875,1,0,0:0:0:0:
256,192,87973,1,0,0:0:0:0:
256,192,88070,1,8,0:0:0:0:
256,192,88167,1,0,0:0:0:0:
256,192,88265,1,8,0:0:0:0:
256,192,88362,1,8,0:0:0:0:
256,192,88460,1,0,0:0:0:0:
256,192,88557,1,8,0:0:0:0:
256,192,88654,1,0,0:0:0:0:
256,192,88752,1,0,0:0:0:0:
256,192,88849,1,8,0:0:0:0:
256,192,89044,1,8,0:0:0:0:
256,192,89141,1,0,0:0:0:0:
256,192,89239,1,0,0:0:0:0:
256,192,89336,1,8,0:0:0:0:
256,192,89434,1,0,0:0:0:0:
256,192,89531,1,8,0:0:0:0:
256,192,89628,1,8,0:0:0:0:
256,192,89726,1,0,0:0:0:0:
256,192,89823,1,8,0:0:0:0:
256,192,89921,1,0,0:0:0:0:
256,192,90018,1,0,0:0:0:0:
256,192,90116,1,8,0:0:0:0:
256,192,90505,1,0,0:0:0:0:
256,192,90554,1,0,0:0:0:0:
256,192,90603,1,8,0:0:0:0:
256,192,90700,1,0,0:0:0:0:
256,192,90797,1,0,0:0:0:0:
256,192,90895,1,8,0:0:0:0:
256,192,90992,1,0,0:0:0:0:
256,192,91090,1,0,0:0:0:0:
256,192,91187,1,8,0:0:0:0:
256,192,91284,1,0,0:0:0:0:
256,192,91382,1,8,0:0:0:0:
256,192,91479,1,8,0:0:0:0:
256,192,91577,1,0,0:0:0:0:
256,192,91674,1,8,0:0:0:0:
256,192,91771,1,0,0:0:0:0:
256,192,91869,1,0,0:0:0:0:
256,192,91966,1,8,0:0:0:0:
256,192,92161,1,0,0:0:0:0:
256,192,92356,1,8,0:0:0:0:
256,192,92453,1,0,0:0:0:0:
256,192,92551,1,0,0:0:0:0:
256,192,92648,1,8,0:0:0:0:
256,192,92745,1,0,0:0:0:0:
256,192,92843,1,8,0:0:0:0:
256,192,92940,1,8,0:0:0:0:
256,192,93038,1,0,0:0:0:0:
256,192,93135,1,8,0:0:0:0:
256,192,93232,1,0,0:0:0:0:
256,192,93427,1,8,0:0:0:0:
256,192,93622,1,0,0:0:0:0:
256,192,94012,1,8,0:0:0:0:
256,192,94109,1,0,0:0:0:0:
256,192,94206,1,0,0:0:0:0:
256,192,94304,1,8,0:0:0:0:
256,192,94401,1,0,0:0:0:0:
256,192,94499,1,8,0:0:0:0:
256,192,94596,1,8,0:0:0:0:
256,192,94693,1,0,0:0:0:0:
256,192,94791,1,8,0:0:0:0:
256,192,94888,1,0,0:0:0:0:
256,192,94986,1,0,0:0:0:0:
256,192,95083,1,8,0:0:0:0:
256,192,95278,1,8,0:0:0:0:
256,192,95375,1,0,0:0:0:0:
256,192,95473,1,0,0:0:0:0:
256,192,95570,1,8,0:0:0:0:
256,192,95667,1,0,0:0:0:0:
256,192,95765,1,8,0:0:0:0:
256,192,95862,1,8,0:0:0:0:
256,192,95960,1,0,0:0:0:0:
256,192,96057,1,8,0:0:0:0:
256,192,96154,1,0,0:0:0:0:
256,192,96252,1,0,0:0:0:0:
256,192,96349,1,8,0:0:0:0:
256,192,96739,1,0,0:0:0:0:
256,192,96788,1,0,0:0:0:0:
256,192,96836,1,8,0:0:0:0:
256,192,96934,1,0,0:0:0:0:
256,192,97031,1,0,0:0:0:0:
256,192,97128,1,8,0:0:0:0:
256,192,97226,1,0,0:0:0:0:
256,192,97323,1,0,0:0:0:0:
256,192,97421,1,8,0:0:0:0:
256,192,97518,1,0,0:0:0:0:
256,192,97616,1,8,0:0:0:0:
256,192,97713,1,8,0:0:0:0:
256,192,97810,1,0,0:0:0:0:
256,192,97908,1,8,0:0:0:0:
256,192,98005,1,0,0:0:0:0:
256,192,98103,1,0,0:0:0:0:
256,192,98200,1,8,0:0:0:0:
256,192,98395,1,0,0:0:0:0:
256,192,98590,1,8,0:0:0:0:
256,192,98687,1,0,0:0:0:0:
256,192,98784,1,8,0:0:0:0:
256,192,98882,1,8,0:0:0:0:
256,192,98979,1,0,0:0:0:0:
256,192,99077,1,8,0:0:0:0:
256,192,99661,1,8,0:0:0:0:
256,192,99758,1,0,0:0:0:0:
256,192,99856,1,0,0:0:0:0:
256,192,100245,1,8,0:0:0:0:
256,192,100343,1,0,0:0:0:0:
256,192,100440,1,0,0:0:0:0:
256,192,100538,1,8,0:0:0:0:
256,192,100635,1,0,0:0:0:0:
256,192,100732,1,8,0:0:0:0:
256,192,100830,1,8,0:0:0:0:
256,192,100927,1,0,0:0:0:0:
256,192,101025,1,8,0:0:0:0:
256,192,101122,1,0,0:0:0:0:
256,192,101219,1,0,0:0:0:0:
256,192,101317,1,8,0:0:0:0:
256,192,101414,1,0,0:0:0:0:
256,192,101512,1,8,0:0:0:0:
256,192,101609,1,0,0:0:0:0:
256,192,101706,1,0,0:0:0:0:
256,192,101804,1,8,0:0:0:0:
256,192,101901,1,0,0:0:0:0:
256,192,101999,1,8,0:0:0:0:
256,192,102096,1,0,0:0:0:0:
256,192,102193,1,8,0:0:0:0:
256,192,102291,1,8,0:0:0:0:
256,192,102388,1,0,0:0:0:0:
256,192,102486,1,8,0:0:0:0:
256,192,102583,1,0,0:0:0:0:
256,192,102973,1,0,0:0:0:0:
256,192,103021,1,0,0:0:0:0:
256,192,103070,1,8,0:0:0:0:
256,192,103167,1,0,0:0:0:0:
256,192,103265,1,0,0:0:0:0:
256,192,103362,1,8,0:0:0:0:
256,192,103460,1,0,0:0:0:0:
256,192,103557,1,0,0:0:0:0:
256,192,103654,1,8,0:0:0:0:
256,192,103752,1,0,0:0:0:0:
256,192,103849,1,8,0:0:0:0:
256,192,103947,1,8,0:0:0:0:
256,192,104044,1,0,0:0:0:0:
256,192,104141,1,8,0:0:0:0:
256,192,104239,1,0,0:0:0:0:
256,192,104336,1,0,0:0:0:0:
256,192,104434,1,8,0:0:0:0:
256,192,104531,1,0,0:0:0:0:
256,192,104628,1,0,0:0:0:0:
256,192,104726,1,0,0:0:0:0:
256,192,104823,1,8,0:0:0:0:
256,192,104921,1,0,0:0:0:0:
256,192,105018,1,0,0:0:0:0:
256,192,105116,1,8,0:0:0:0:
256,192,105213,1,0,0:0:0:0:
256,192,105310,1,8,0:0:0:0:
256,192,105408,1,8,0:0:0:0:
256,192,105505,1,0,0:0:0:0:
256,192,105603,1,8,0:0:0:0:
256,192,105700,1,0,0:0:0:0:
256,192,106090,1,8,0:0:0:0:
256,192,106349,1,0,0:0:0:0:
256,192,106414,1,0,0:0:0:0:
256,192,106479,1,8,0:0:0:0:
256,192,106577,1,0,0:0:0:0:
256,192,106674,1,0,0:0:0:0:
256,192,106771,1,8,0:0:0:0:
256,192,106869,1,0,0:0:0:0:
256,192,106966,1,0,0:0:0:0:
256,192,107064,1,8,0:0:0:0:
256,192,107161,1,0,0:0:0:0:
256,192,107258,1,8,0:0:0:0:
256,192,107356,1,8,0:0:0:0:
256,192,107453,1,0,0:0:0:0:
256,192,107551,1,8,0:0:0:0:
256,192,107648,1,0,0:0:0:0:
256,192,107745,1,8,0:0:0:0:
256,192,107843,1,0,0:0:0:0:
256,192,107940,1,0,0:0:0:0:
256,192,108038,1,8,0:0:0:0:
256,192,108135,1,0,0:0:0:0:
256,192,108232,1,8,0:0:0:0:
256,192,108330,1,8,0:0:0:0:
256,192,108427,1,0,0:0:0:0:
256,192,108525,1,8,0:0:0:0:
256,192,108622,1,0,0:0:0:0:
256,192,108719,1,0,0:0:0:0:
256,192,108817,1,8,0:0:0:0:
256,192,109206,1,0,0:0:0:0:
256,192,109255,1,0,0:0:0:0:
256,192,109304,1,8,0:0:0:0:
256,192,109401,1,0,0:0:0:0:
256,192,109499,1,0,0:0:0:0:
256,192,109596,1,8,0:0:0:0:
256,192,109693,1,0,0:0:0:0:
256,192,109791,1,0,0:0:0:0:
256,192,109888,1,8,0:0:0:0:
256,192,109986,1,0,0:0:0:0:
256,192,110083,1,8,0:0:0:0:
256,192,110180,1,8,0:0:0:0:
256,192,110278,1,0,0:0:0:0:
256,192,110375,1,8,0:0:0:0:
256,192,110473,1,0,0:0:0:0:
256,192,110570,1,8,0:0:0:0:
256,192,110765,1,4,0:0:0:0:
