osu file format v14

[General]
AudioFilename: audio.mp3
AudioLeadIn: 0
PreviewTime: 47116
Countdown: 0
SampleSet: Soft
StackLeniency: 0.6
Mode: 0
LetterboxInBreaks: 0
WidescreenStoryboard: 1

[Editor]
Bookmarks: 50271
DistanceSpacing: 0.6
BeatDivisor: 8
GridSize: 32
TimelineZoom: 2.899999

[Metadata]
Title:Still in my heart feat. Punipuni Denki
TitleUnicode:Still in my heart feat. ぷにぷに電機
Artist:PSYQUI
ArtistUnicode:PSYQUI
Creator:Setu
Version:Insane
Source:
Tags:shiratamamywife nathan sukinathan japanese electronic hardcore future core bass j-core jcore megarex fugene3 puniden
BeatmapID:4214410
BeatmapSetID:2000038

[Difficulty]
HPDrainRate:5
CircleSize:4
OverallDifficulty:8
ApproachRate:9
SliderMultiplier:1.6
SliderTickRate:1

[Events]
//Background and Video events
0,0,"110257210_p0.jpg",0,0
//Break Periods
//Storyboard Layer 0 (Background)
//Storyboard Layer 1 (Fail)
//Storyboard Layer 2 (Pass)
//Storyboard Layer 3 (Foreground)
//Storyboard Layer 4 (Overlay)
//Storyboard Sound Samples

[TimingPoints]
2306,348.837209302326,4,2,1,50,1,0
2306,-133.333333333333,4,2,1,50,0,0
11637,-100,4,2,1,50,0,0
12073,-100,4,2,1,70,0,0
18352,-133.333333333333,4,2,1,70,0,0
19050,-100,4,2,1,70,0,0
23585,-100,4,2,0,60,0,0
24108,-100,4,2,2,60,0,0
24631,-100,4,2,2,80,0,0
40765,-100,4,2,0,80,0,0
41375,-100,4,2,2,80,0,0
48352,-100,4,2,2,60,0,0
58119,-83.3333333333333,4,2,2,60,0,0
59515,-83.3333333333333,4,2,2,80,0,0
59864,-83.3333333333333,4,2,1,80,0,0
69980,-100,4,2,1,80,0,0
70678,-133.333333333333,4,2,1,80,0,0
70721,-133.333333333333,4,2,1,30,0,0
72945,-133.333333333333,4,2,1,40,0,0
76259,-133.333333333333,4,2,1,50,0,0
77654,-133.333333333333,4,2,1,60,0,0
80445,-133.333333333333,4,2,1,70,0,0
81840,-117.647058823529,4,2,1,70,0,0
92654,-57.1428571428571,4,2,2,70,0,0
92698,-57.1428571428571,4,2,2,30,0,0
93003,-80,4,2,2,80,0,0
102771,-86.9565217391304,4,2,2,80,0,0
104166,-83.3333333333333,4,2,2,80,0,0
137131,-83.3333333333333,4,2,2,60,0,0
137654,-133.333333333333,4,2,2,60,0,0
143236,-133.333333333333,4,2,2,50,0,0
143759,-133.333333333333,4,2,2,50,0,0
143933,-133.333333333333,4,2,1,50,0,0
152567,-100,4,2,1,50,0,0
153003,-100,4,2,1,70,0,0
159282,-133.333333333333,4,2,1,70,0,0
159980,-100,4,2,1,70,0,0
164515,-100,4,2,0,60,0,0
165038,-100,4,2,1,60,0,0
165212,-100,4,2,2,60,0,0
165561,-100,4,2,2,80,0,0
181608,-100,4,2,0,80,0,0
182306,-100,4,2,2,80,0,0
186840,-166.666666666667,4,2,2,80,0,0
187887,-166.666666666667,4,2,2,60,0,0
188585,-166.666666666667,4,2,0,60,0,0
199050,-166.666666666667,4,2,0,50,0,0
213003,-166.666666666667,4,2,0,5,0,0

[Colours]
Combo1 : 254,253,199
Combo2 : 247,210,249
Combo3 : 190,248,254

[HitObjects]
77,145,2306,6,0,B|122:151|122:151|147:172|147:172|195:176,1,120,6|0,3:2|2:0,2:0:0:0:
256,137,2829,1,2,2:0:0:0:
183,180,3003,2,0,B|141:176|141:176|116:155|116:155|71:149,1,120,10|0,2:0|2:0,2:0:0:0:
256,137,3526,1,2,2:0:0:0:
151,266,3701,6,0,P|195:239|179:176,1,120,6|0,3:2|2:0,2:0:0:0:
287,50,4224,2,0,P|243:77|259:140,1,120,6|0,3:2|2:0,2:0:0:0:
330,194,4747,2,0,L|400:181,1,60.0000000000001,6|0,3:2|2:0,2:0:0:0:
257,224,5096,6,0,B|250:187|250:187|259:162|259:162|251:118,1,90.0000000000002,2|0,2:0|2:0,2:0:0:0:
242,44,5445,2,0,B|249:81|249:81|240:106|240:106|248:150,1,90.0000000000002,2|0,2:0|2:0,2:0:0:0:
178,192,5794,5,10,2:0:0:0:
43,122,5968,1,2,2:0:0:0:
104,0,6143,2,0,B|120:26|120:26|112:64,1,60.0000000000001,2|0,2:0|2:0,2:0:0:0:
34,134,6492,6,0,B|86:124|86:124|111:130|111:130|165:118,1,120,6|0,3:2|2:0,2:0:0:0:
422,66,7189,2,0,B|370:56|370:56|345:62|345:62|291:50,1,120,14|0,3:2|2:0,2:0:0:0:
301,207,7887,6,0,P|347:201|374:135,1,120,6|0,3:2|2:0,2:0:0:0:
337,78,8410,1,2,2:0:0:0:
379,144,8585,2,0,P|360:198|305:211,1,120,10|0,2:0|2:0,2:0:0:0:
337,78,9108,1,2,2:0:0:0:
491,138,9282,6,0,B|442:122|442:122|415:144|376:143,1,120,6|0,3:2|2:0,2:0:0:0:
233,5,9806,2,0,B|282:21|282:21|309:-1|348:0,1,120,6|0,3:2|2:0,2:0:0:0:
384,151,10329,2,0,L|244:127,1,120,6|0,3:2|2:0,2:0:0:0:
194,167,10852,1,2,2:0:0:0:
260,209,11026,1,2,2:0:0:0:
265,130,11201,1,2,2:0:0:0:
189,247,11375,6,0,L|117:257,1,60.0000000000001,0|0,1:0|2:0,2:0:0:0:
113,257,11637,2,0,L|81:249,2,20,0|0|0,1:0|1:0|1:0,2:0:0:0:
256,346,11899,1,0,1:0:0:0:
260,209,12073,6,0,B|311:219|311:219|337:239|337:239|396:249,1,120,6|0,3:2|2:0,2:0:0:0:
463,320,12422,2,0,B|446:270|446:270|450:238|450:238|429:182,1,120,6|0,3:2|2:0,2:0:0:0:
460,88,12771,2,0,B|425:127|425:127|395:139|395:139|357:185,1,120,6|0,3:2|2:0,2:0:0:0:
238,279,13119,2,0,L|219:148,1,120,6|0,3:2|2:0,2:0:0:0:
278,106,13468,6,0,B|292:60|292:60|281:24,1,80,6|0,3:2|2:0,2:0:0:0:
89,112,13817,2,0,B|123:72|173:90|173:90|155:101|145:132,1,120,2|0,3:2|2:0,2:0:0:0:
153,120,14166,2,0,L|145:168,1,40,2|0,3:2|2:0,2:0:0:0:
62,260,14340,1,2,2:0:0:0:
62,260,14428,1,0,2:0:0:0:
62,260,14515,2,0,L|48:178,1,80,2|2,3:2|2:0,2:0:0:0:
213,222,14864,5,6,3:2:0:0:
158,322,15038,1,2,2:0:0:0:
310,282,15212,2,0,L|323:200,1,80,2|0,3:2|2:0,2:0:0:0:
312,168,15474,1,0,2:0:0:0:
312,168,15561,2,0,B|302:151|302:151|277:138,3,40,2|0|2|0,3:2|2:0|2:0|2:0,2:0:0:0:
400,209,15910,2,0,L|391:258,3,40,2|0|2|0,3:2|2:0|2:0|2:0,2:0:0:0:
418,192,16259,6,0,B|432:150|432:150|421:114|421:114|435:68,1,120,6|0,3:2|2:0,2:0:0:0:
446,58,16608,1,2,3:2:0:0:
342,120,16782,1,2,2:0:0:0:
342,120,16869,1,0,2:0:0:0:
342,120,16957,2,0,L|249:137,1,80,2|0,3:2|2:0,2:0:0:0:
218,79,17218,1,0,2:0:0:0:
218,79,17306,2,0,B|208:54|208:54|218:23,1,40,2|0,3:2|2:0,2:0:0:0:
273,1,17480,1,2,2:0:0:0:
179,148,17654,6,0,P|141:121|76:132,1,80,6|0,3:2|2:0,2:0:0:0:
256,272,18003,2,0,P|304:306|386:292,1,120,0|0,3:0|2:0,2:0:0:0:
374,294,18352,6,0,L|361:169,1,120,6|2,3:2|2:0,2:0:0:0:
390,42,18875,5,0,1:0:0:0:
390,42,18962,1,0,1:0:0:0:
390,42,19050,2,0,B|427:58|427:58|393:79,1,80,6|0,3:2|2:0,2:0:0:0:
280,88,19311,2,0,B|275:47|275:47|310:66,1,80,0|0,3:2|2:0,2:0:0:0:
356,147,19573,2,0,B|339:159|339:159|339:139,1,40,0|0,3:0|2:0,2:0:0:0:
351,244,19747,6,0,P|311:229|252:220,1,80,6|0,3:2|2:0,2:0:0:0:
193,66,20009,2,0,P|200:108|221:163,1,80,0|0,3:0|2:0,2:0:0:0:
154,259,20271,2,0,P|175:241|200:210,1,40,0|0,3:0|2:0,2:0:0:0:
75,226,20445,6,0,P|67:276|101:322,1,80,6|0,3:2|2:0,2:0:0:0:
137,371,20707,2,0,P|184:352|207:300,1,80,0|0,3:0|2:0,2:0:0:0:
247,229,20968,2,0,P|224:210|191:214,1,40,0|0,3:0|2:0,2:0:0:0:
42,153,21143,6,0,B|73:145|73:145|96:148|96:148|144:138,1,80,6|0,3:2|2:0,2:0:0:0:
193,66,21404,1,0,3:0:0:0:
193,66,21492,2,0,B|224:74|224:74|247:71|247:71|295:81,1,80,0|0,2:0|3:0,2:0:0:0:
431,175,21840,5,6,3:2:0:0:
461,71,22015,1,0,3:0:0:0:
358,39,22189,1,0,3:0:0:0:
327,144,22364,1,0,3:0:0:0:
424,223,22538,6,0,P|435:204|436:172,1,40,0|0,3:0|1:0,2:0:0:0:
351,174,22712,2,0,P|336:157|306:146,1,40,0|0,3:0|1:0,2:0:0:0:
274,216,22887,2,0,P|253:224|234:250,1,40,0|0,3:0|1:0,2:0:0:0:
188,307,23061,2,0,P|170:297|157:282,1,40,0|0,3:0|1:0,2:0:0:0:
94,229,23236,5,6,3:2:0:0:
256,26,23585,6,0,L|243:123,1,80,8|0,2:0|2:0,2:0:0:0:
203,174,23933,1,10,2:0:0:0:
274,216,24108,1,0,3:0:0:0:
245,105,24282,1,8,2:0:0:0:
424,2,24631,5,2,2:0:0:0:
495,26,24806,1,2,2:0:0:0:
471,98,24980,1,2,2:0:0:0:
333,127,25154,5,2,2:0:0:0:
333,127,25242,1,2,2:0:0:0:
333,127,25329,2,0,L|233:110,1,80,6|0,3:2|2:0,2:0:0:0:
168,80,25590,2,0,L|246:93,1,80,6|0,3:2|2:0,2:0:0:0:
255,187,25852,6,0,B|206:177|206:177|189:159|189:159|123:147,1,120,6|0,3:2|2:0,2:0:0:0:
0,270,26201,1,2,3:2:0:0:
0,270,26288,1,2,2:0:0:0:
0,270,26375,2,0,L|96:257,1,80,0|2,3:0|2:0,2:0:0:0:
210,136,26724,6,0,L|145:123,1,40,2|0,3:2|2:0,2:0:0:0:
10,194,26899,2,0,L|75:185,1,40,2|0,2:0|2:0,2:0:0:0:
148,335,27073,1,0,3:0:0:0:
148,335,27160,1,0,2:0:0:0:
148,335,27247,1,2,2:0:0:0:
148,335,27335,1,0,2:0:0:0:
148,335,27422,6,0,B|163:285|163:285|157:257|157:257|171:207,1,120,6|0,3:2|2:0,2:0:0:0:
323,122,27771,2,0,L|334:177,3,40,2|2|2|0,3:2|2:0|2:0|2:0,2:0:0:0:
330,84,28119,6,0,B|296:99|296:99|272:81|231:82,1,80,2|0,3:2|2:0,2:0:0:0:
167,173,28381,1,2,3:2:0:0:
167,173,28468,2,0,L|253:162,1,80,0|2,2:0|3:2,2:0:0:0:
90,133,28817,6,0,P|80:187|106:227,1,80,0|2,3:0|2:0,2:0:0:0:
290,305,29166,2,0,P|300:251|274:211,1,80,2|2,3:2|2:0,2:0:0:0:
2,308,29515,6,0,B|52:297|52:297|76:305|76:305|127:293,1,120,2|0,3:2|2:0,2:0:0:0:
145,326,29864,2,0,L|157:243,1,80,2|0,3:2|2:0,2:0:0:0:
30,24,30212,5,6,3:2:0:0:
6,109,30387,1,2,2:0:0:0:
90,133,30561,1,2,3:2:0:0:
218,63,30736,5,0,2:0:0:0:
218,63,30823,1,0,2:0:0:0:
218,63,30910,2,0,B|248:58|248:58|274:64|274:64|316:54,1,80,2|0,3:2|2:0,2:0:0:0:
292,136,31172,2,0,B|269:139|269:139|234:130,1,40,2|0,3:2|2:0,2:0:0:0:
343,0,31433,6,0,B|384:22|388:63|388:63|361:83|361:124,1,120,2|0,3:2|2:0,2:0:0:0:
421,201,31782,1,2,3:2:0:0:
421,201,31869,1,2,2:0:0:0:
421,201,31957,2,0,L|439:111,1,80,2|2,3:2|2:0,2:0:0:0:
482,287,32306,6,0,L|428:275,1,40,2|0,3:2|2:0,2:0:0:0:
302,225,32480,2,0,L|356:213,1,40,2|0,2:0|2:0,2:0:0:0:
345,346,32654,1,2,3:2:0:0:
345,346,32742,1,0,2:0:0:0:
345,346,32829,1,2,2:0:0:0:
345,346,32916,1,0,2:0:0:0:
345,346,33003,6,0,B|299:336|299:336|270:345|270:345|220:333,1,120,6|0,3:2|2:0,2:0:0:0:
166,266,33352,2,0,L|116:276,3,40,2|2|2|0,2:0|2:0|2:0|2:0,2:0:0:0:
105,292,33701,2,0,B|105:262|87:247|87:247|104:202,1,80,2|0,3:2|2:0,2:0:0:0:
158,114,33962,1,2,3:2:0:0:
158,114,34050,2,0,B|158:144|176:159|176:159|159:204,1,80,0|0,2:0|3:0,2:0:0:0:
101,51,34399,6,0,P|142:30|191:38,1,80,6|0,3:2|2:0,2:0:0:0:
415,70,34747,2,0,P|374:91|325:83,1,80,6|0,3:2|2:0,2:0:0:0:
262,32,35096,6,0,B|251:83|251:83|259:106|259:106|249:160,1,120,6|0,3:2|2:0,2:0:0:0:
256,173,35445,1,12,2:0:0:0:
31,352,36143,5,14,2:0:0:0:
173,317,36317,1,0,2:0:0:0:
173,317,36404,1,0,2:0:0:0:
173,317,36492,2,0,P|117:321|82:288,1,80,0|0,3:0|2:0,2:0:0:0:
31,271,36753,2,0,L|48:221,1,40,0|0,3:0|2:0,2:0:0:0:
189,237,37015,6,0,B|223:246|237:270|237:270|266:255|316:263,1,120,0|0,3:0|2:0,2:0:0:0:
343,198,37364,1,2,3:2:0:0:
343,198,37451,1,2,2:0:0:0:
343,198,37538,2,0,P|300:185|242:194,1,80,10|2,2:0|2:0,2:0:0:0:
298,310,37887,6,0,L|308:262,1,40,2|0,3:2|2:0,2:0:0:0:
202,69,38061,2,0,L|212:117,1,40,2|0,2:0|2:0,2:0:0:0:
281,202,38236,1,8,2:0:0:0:
281,202,38323,1,0,2:0:0:0:
281,202,38410,1,2,2:0:0:0:
281,202,38497,1,0,2:0:0:0:
281,202,38585,6,0,B|236:197|236:197|206:212|206:212|153:206,1,120,6|0,3:2|2:0,2:0:0:0:
25,262,38933,2,0,L|15:207,3,40,10|2|2|0,2:0|2:0|2:0|2:0,2:0:0:0:
13,280,39282,2,0,B|45:273|63:284|63:284|84:272|109:276,1,80,0|0,3:0|2:0,2:0:0:0:
177,347,39544,1,2,3:2:0:0:
177,347,39631,2,0,B|145:354|127:343|127:343|106:355|81:351,1,80,0|2,2:0|3:2,2:0:0:0:
115,164,39980,6,0,P|154:189|204:187,1,80,0|0,3:0|2:0,2:0:0:0:
397,220,40329,2,0,P|358:195|308:197,1,80,10|0,2:0|2:0,2:0:0:0:
244,275,40678,2,0,L|269:97,1,160,6|8,3:2|2:0,2:0:0:0:
252,31,41201,5,0,1:0:0:0:
252,31,41288,1,0,1:0:0:0:
252,31,41375,2,0,L|263:117,1,80,6|2,3:2|2:0,2:0:0:0:
378,92,41724,2,0,L|328:85,1,40,8|0,2:0|2:0,2:0:0:0:
193,142,41899,5,0,2:0:0:0:
193,142,41986,1,0,2:0:0:0:
193,142,42073,2,0,L|107:131,1,80,2|0,3:2|2:0,2:0:0:0:
52,181,42335,1,2,3:2:0:0:
52,181,42422,2,0,B|64:196|64:196|93:204,1,40,0|0,2:0|2:0,2:0:0:0:
198,279,42596,6,0,B|173:283|162:291|162:291|139:260|166:207,1,120,2|0,3:2|2:0,2:0:0:0:
262,110,42945,1,2,3:2:0:0:
262,110,43032,1,2,2:0:0:0:
262,110,43119,2,0,L|273:196,1,80,10|2,2:0|2:0,2:0:0:0:
382,160,43468,6,0,L|332:145,1,40,2|0,3:2|2:0,2:0:0:0:
154,186,43643,2,0,L|204:201,1,40,2|0,2:0|2:0,2:0:0:0:
255,305,43817,1,10,2:0:0:0:
255,305,43904,1,0,2:0:0:0:
255,305,43992,1,2,2:0:0:0:
255,305,44079,1,0,2:0:0:0:
255,305,44166,6,0,B|267:261|267:261|260:228|260:228|275:179,1,120,6|0,3:2|2:0,2:0:0:0:
235,21,44515,2,0,L|245:80,3,40,2|2|2|0,2:0|2:0|2:0|2:0,2:0:0:0:
230,93,44864,2,0,B|204:83|182:87|182:87|161:103|126:108,1,80,8|2,2:0|2:0,2:0:0:0:
69,31,45125,1,2,2:0:0:0:
69,31,45212,2,0,B|95:41|117:37|117:37|138:21|173:16,1,80,2|2,2:0|2:0,2:0:0:0:
256,173,45561,5,4,3:2:0:0:
256,192,45649,12,0,47131,2:0:0:0:
10,163,48352,6,0,B|102:141|73:228|180:187,1,160,6|0,3:2|3:0,2:0:0:0:
329,131,48875,1,2,2:0:0:0:
217,93,49050,1,2,3:2:0:0:
252,262,49224,2,0,L|261:206,2,40,0|0|0,2:0|2:0|3:0,2:0:0:0:
212,84,49573,6,0,L|203:28,1,40,2|0,2:0|2:0,2:0:0:0:
162,189,49747,1,2,3:2:0:0:
338,136,49922,6,0,B|362:136|362:136|386:125,1,40,2|0,2:0|0:0,0:0:0:0:
464,65,50096,2,0,B|452:85|452:85|449:112,1,40,2|0,3:2|0:0,0:0:0:0:
460,208,50271,2,0,B|448:187|448:187|426:171,1,40,2|0,2:0|0:0,0:0:0:0:
475,313,50445,5,6,3:2:0:0:
373,253,50619,1,0,2:0:0:0:
272,327,50794,2,0,B|261:286|261:286|270:254|270:254|260:201,1,120,2|0,3:2|2:0,2:0:0:0:
284,182,51143,6,0,P|234:198|187:200,1,80,6|0,3:2|2:0,2:0:0:0:
31,240,51492,2,0,P|84:243|123:324,1,120,2|0,3:2|2:0,2:0:0:0:
126,305,51840,1,2,3:2:0:0:
229,124,52015,1,2,2:0:0:0:
162,77,52189,2,0,B|141:117|141:117|157:172,1,80,2|0,3:2|2:0,2:0:0:0:
150,150,52451,1,0,2:0:0:0:
150,150,52538,1,6,3:2:0:0:
302,98,52712,5,2,2:0:0:0:
221,206,52887,1,2,3:2:0:0:
238,46,53061,1,2,2:0:0:0:
294,175,53236,6,0,P|340:166|390:163,1,80,2|0,3:2|2:0,2:0:0:0:
505,70,53585,2,0,P|456:71|410:1,1,120,2|0,3:2|2:0,2:0:0:0:
406,15,53933,6,0,P|393:55|407:107,1,80,6|0,3:2|2:0,2:0:0:0:
398,91,54195,1,0,2:0:0:0:
398,91,54282,1,0,3:0:0:0:
506,196,54457,1,2,2:0:0:0:
379,239,54631,6,0,P|366:199|380:147,1,80,2|0,3:2|2:0,2:0:0:0:
372,163,54893,1,0,2:0:0:0:
372,163,54980,1,0,3:0:0:0:
256,294,55154,1,2,2:0:0:0:
162,213,55329,6,0,P|219:208|253:309,1,160,6|2,3:2|3:2,2:0:0:0:
95,267,55852,2,0,P|85:227|80:165,1,80,2|0,2:0|3:0,2:0:0:0:
80,188,56114,1,0,2:0:0:0:
80,188,56201,1,0,2:0:0:0:
119,49,56375,2,0,P|129:89|134:151,1,80,2|0,3:2|2:0,2:0:0:0:
133,127,56637,1,0,2:0:0:0:
133,127,56724,5,6,3:2:0:0:
283,164,56899,1,2,2:0:0:0:
222,91,57073,1,2,3:2:0:0:
234,252,57247,1,2,2:0:0:0:
370,156,57422,6,0,B|394:151|394:151|420:125,2,40,2|0|0,3:2|2:0|2:0,2:0:0:0:
234,252,57683,1,0,0:0:0:0:
234,252,57771,2,0,L|136:233,1,80,0|2,3:0|2:0,2:0:0:0:
290,310,58119,6,0,B|316:279|316:279|306:206,1,96,6|0,3:2|2:0,2:0:0:0:
253,166,58381,1,0,2:0:0:0:
253,166,58468,2,0,B|227:197|227:197|234:252,1,96,6|0,3:2|2:0,2:0:0:0:
180,352,58817,2,0,L|119:340,2,48,6|0|0,3:2|2:0|2:0,2:0:0:0:
327,275,59166,2,0,L|388:263,2,48,6|0|0,3:2|2:0|2:0,2:0:0:0:
151,168,59515,6,0,B|187:128|168:78|168:78|142:107|96:107,1,144,6|0,3:2|2:0,2:0:0:0:
120,107,59864,2,0,P|166:118|214:131,1,96,10|0,2:0|2:0,2:0:0:0:
337,79,60212,1,2,3:2:0:0:
252,53,60387,1,2,2:0:0:0:
370,160,60561,1,10,2:0:0:0:
455,186,60736,1,2,2:0:0:0:
337,79,60910,5,6,3:2:0:0:
213,230,61085,1,2,2:0:0:0:
373,303,61259,2,0,P|351:276|282:279,1,95.9999970703126,8|0,2:0|0:0,2:0:0:0:
211,367,61608,2,0,B|204:311|204:311|215:284|215:284|206:218,1,144,2|0,3:2|2:0,2:0:0:0:
184,204,61957,2,0,L|296:188,1,96,10|0,2:0|2:0,2:0:0:0:
139,271,62306,6,0,B|91:259|67:288|67:288|24:272|32:221,1,144,6|0,3:2|2:0,2:0:0:0:
87,183,62654,2,0,P|137:181|194:207,1,96,10|0,2:0|2:0,2:0:0:0:
300,152,63003,5,2,3:2:0:0:
285,72,63178,1,2,2:0:0:0:
248,226,63352,1,10,2:0:0:0:
263,306,63526,1,2,2:0:0:0:
356,214,63701,6,0,B|369:198|387:196|387:196|400:164|375:136,1,96,6|0,3:2|2:0,2:0:0:0:
230,13,64050,2,0,B|217:29|199:31|199:31|186:63|211:91,1,96,8|0,2:0|2:0,2:0:0:0:
107,185,64399,6,0,L|46:176,3,48,2|0|0|0,3:2|2:0|2:0|2:0,2:0:0:0:
152,248,64747,2,0,B|161:265|161:265|149:309,3,48,10|0|0|0,2:0|2:0|2:0|2:0,2:0:0:0:
174,152,65096,6,0,B|191:90|191:90|223:64,1,96,6|0,3:2|2:0,2:0:0:0:
338,232,65445,2,0,B|321:294|321:294|289:320,1,96,10|0,2:0|2:0,2:0:0:0:
152,248,65794,5,2,3:2:0:0:
245,240,65968,1,0,2:0:0:0:
360,136,66143,1,8,2:0:0:0:
267,144,66317,1,2,2:0:0:0:
423,226,66492,6,0,B|482:220|482:220|519:188,1,96,6|0,3:2|2:0,2:0:0:0:
420,30,66840,2,0,L|411:83,2,48,10|0|0,2:0|2:0|2:0,2:0:0:0:
357,142,67189,1,2,3:2:0:0:
306,0,67364,1,2,2:0:0:0:
357,142,67538,2,0,L|339:248,1,96,10|0,2:0|2:0,2:0:0:0:
340,236,67800,1,0,2:0:0:0:
340,236,67887,5,6,3:2:0:0:
393,304,68061,1,2,2:0:0:0:
466,278,68236,2,0,L|482:231,2,48,10|0|0,2:0|2:0|2:0,2:0:0:0:
313,323,68585,5,0,3:2:0:0:
260,255,68759,1,0,2:0:0:0:
187,281,68933,2,0,L|171:328,2,48,8|0|0,2:0|2:0|2:0,2:0:0:0:
275,179,69282,6,0,B|364:203|364:203|338:154,1,144,6|0,3:2|2:0,2:0:0:0:
277,102,69631,2,0,B|188:78|188:78|214:127,1,144,10|0,2:0|2:0,2:0:0:0:
339,157,69980,6,0,L|425:142,1,80,2|0,3:2|2:0,2:0:0:0:
212,123,70329,2,0,L|126:138,1,80,10|0,2:0|2:0,2:0:0:0:
0,239,70678,6,0,B|75:225|75:225|129:246,3,120,6|0|0|0,3:2|3:2|3:2|3:2,2:0:0:0:
188,329,72073,2,0,L|205:196,3,120,0|0|0|0,3:0|3:0|3:0|3:0,2:0:0:0:
324,55,73468,6,0,L|307:188,3,120,0|0|0|0,3:0|3:0|3:0|3:0,2:0:0:0:
396,143,74864,2,0,B|437:159|437:159|512:145,3,120,0|0|2|0,3:0|3:0|3:2|3:0,2:0:0:0:
378,222,76259,6,0,B|342:255|366:289|366:289|395:309|386:340,3,120,0|0|0|0,3:0|3:0|3:0|3:0,2:0:0:0:
322,368,77654,6,0,L|244:354,1,60.0000000000001,0|0,3:2|2:0,2:0:0:0:
196,358,78003,2,0,L|274:344,1,60.0000000000001,0|0,3:0|2:0,2:0:0:0:
381,303,78352,6,0,L|309:288,1,60.0000000000001,0|2,3:0|2:0,2:0:0:0:
157,290,78701,2,0,L|229:275,1,60.0000000000001,0|2,3:0|2:0,2:0:0:0:
363,221,79050,6,0,B|381:195|381:195|369:147,1,60.0000000000001,0|0,3:0|2:0,2:0:0:0:
285,85,79399,2,0,B|259:67|259:67|211:79,1,60.0000000000001,0|2,3:0|2:0,2:0:0:0:
149,163,79747,2,0,B|131:189|131:189|143:237,1,60.0000000000001,0|2,3:0|2:0,2:0:0:0:
227,299,80096,2,0,B|253:317|253:317|301:305,1,60.0000000000001,0|2,3:0|2:0,2:0:0:0:
374,167,80445,5,0,3:2:0:0:
374,167,80619,1,0,2:0:0:0:
231,73,80794,1,0,3:0:0:0:
231,73,80968,1,2,2:0:0:0:
137,216,81143,1,0,3:0:0:0:
137,216,81317,1,2,2:0:0:0:
280,310,81492,1,0,3:0:0:0:
280,310,81666,1,2,2:0:0:0:
273,136,81840,6,0,L|252:252,1,102,6|0,3:2|2:0,2:0:0:0:
254,236,82189,2,0,L|243:189,1,34.0000000000001,2|0,3:2|2:0,2:0:0:0:
337,251,82364,2,0,L|326:204,1,34.0000000000001,0|0,1:0|2:0,2:0:0:0:
423,255,82538,2,0,L|412:208,4,34.0000000000001,2|0|0|0|2,3:2|1:0|1:0|1:0|3:2,2:0:0:0:
382,121,83061,1,0,2:0:0:0:
487,178,83236,5,2,3:2:0:0:
487,178,83323,1,0,1:0:0:0:
458,41,83497,1,0,1:0:0:0:
458,41,83585,1,0,3:0:0:0:
382,121,83759,1,0,1:0:0:0:
213,49,83933,6,0,B|198:39|198:39|164:39,3,34.0000000000001,0|0|0|0,3:0|1:0|1:0|1:0,2:0:0:0:
296,24,84282,2,0,B|311:34|311:34|345:34,3,34.0000000000001,0|0|0|0,3:0|1:0|1:0|1:0,2:0:0:0:
340,28,84631,1,0,3:0:0:0:
228,137,84806,5,0,2:0:0:0:
228,137,84893,1,0,1:0:0:0:
228,137,84980,2,0,L|238:218,1,68.0000000000002,0|0,3:0|2:0,2:0:0:0:
167,252,85329,6,0,L|160:205,4,34.0000000000001,0|0|2|0|2,3:0|1:0|1:2|1:0|3:2,2:0:0:0:
32,322,85852,1,2,1:2:0:0:
125,352,86026,5,2,3:2:0:0:
125,352,86114,1,0,1:0:0:0:
46,230,86288,1,0,1:0:0:0:
46,230,86375,1,2,3:2:0:0:
182,145,86550,1,0,1:0:0:0:
192,269,86724,6,0,L|148:257,3,34.0000000000001,2|0|2|0,3:2|1:0|1:2|1:0,2:0:0:0:
307,311,87073,2,0,L|351:299,3,34.0000000000001,0|0|2|0,3:0|1:0|1:2|1:0,2:0:0:0:
358,285,87422,1,6,3:2:0:0:
303,133,87596,5,0,1:0:0:0:
290,155,87683,1,0,1:0:0:0:
285,180,87771,1,0,3:0:0:0:
288,205,87858,1,0,1:0:0:0:
298,228,87945,1,0,1:0:0:0:
440,305,88119,5,0,3:0:0:0:
440,305,88207,1,0,1:0:0:0:
440,305,88294,2,0,L|487:296,4,34.0000000000001,0|0|2|0|0,1:0|1:0|3:2|1:0|1:0,2:0:0:0:
396,194,88817,1,2,3:2:0:0:
396,194,88904,1,0,1:0:0:0:
396,194,88992,2,0,L|349:185,4,34.0000000000001,0|0|2|0|0,1:0|1:0|3:2|2:0|1:0,2:0:0:0:
481,165,89515,6,0,P|490:146|484:118,3,34.0000000000001,2|0|2|0,3:2|1:0|1:2|1:0,2:0:0:0:
420,10,89864,2,0,P|411:29|417:57,3,34.0000000000001,0|0|2|0,3:0|1:0|1:2|1:0,2:0:0:0:
422,68,90212,6,0,L|346:53,1,68.0000000000002,2|0,3:2|3:0,2:0:0:0:
109,82,90561,2,0,L|185:97,1,68.0000000000002,0|0,3:0|3:0,2:0:0:0:
328,171,90910,1,0,3:0:0:0:
328,171,91085,1,0,3:0:0:0:
260,22,91259,1,0,3:0:0:0:
260,22,91433,1,0,3:0:0:0:
184,171,91608,5,6,3:2:0:0:
349,268,92654,6,0,L|381:262,9,23.3333333333334,10|2|2|2|2|2|2|2|2|0,2:0|2:0|2:0|2:0|2:0|2:0|2:0|2:0|2:0|2:0,2:0:0:0:
331,285,93003,6,0,B|284:293|265:240|265:240|306:215|305:155,1,150,6|0,3:2|2:0,2:0:0:0:
177,97,93352,2,0,B|224:89|243:142|243:142|202:167|203:227,1,150,2|0,3:2|2:0,2:0:0:0:
113,264,93701,6,0,L|178:252,1,50,2|0,3:2|2:0,2:0:0:0:
349,129,93962,2,0,L|399:120,1,50,2|0,3:2|2:0,2:0:0:0:
261,223,94224,2,0,L|248:158,1,50,2|0,3:2|2:0,2:0:0:0:
256,168,94399,6,0,L|265:217,1,50,4|0,3:2|2:0,2:0:0:0:
304,285,94573,2,0,B|300:292|283:304|283:304|263:304|247:287,1,50,2|0,2:0|2:0,2:0:0:0:
214,100,94747,2,0,B|218:93|235:81|235:81|255:81|271:98,1,50,2|0,3:2|2:0,2:0:0:0:
369,210,95096,6,0,B|451:188|444:256|526:224,2,150,2|2|2,3:2|3:2|3:2,2:0:0:0:
241,268,95794,6,0,B|223:240|187:241|187:241|170:186|215:161,1,150,6|0,3:2|2:0,2:0:0:0:
271,116,96143,2,0,B|289:144|325:143|325:143|342:198|297:223,1,150,2|0,3:2|2:0,2:0:0:0:
356,277,96492,6,0,L|411:270,1,50,2|0,3:2|2:0,2:0:0:0:
106,113,96753,2,0,L|156:107,1,50,2|0,3:2|2:0,2:0:0:0:
250,225,97015,2,0,L|260:164,1,50,2|0,3:2|2:0,2:0:0:0:
253,170,97189,6,0,L|244:219,1,50,6|0,3:2|2:0,2:0:0:0:
208,285,97364,2,0,B|212:292|229:304|229:304|249:304|265:287,1,50,2|0,2:0|2:0,2:0:0:0:
298,100,97538,2,0,B|294:93|277:81|277:81|257:81|241:98,1,50,2|0,3:2|2:0,2:0:0:0:
46,197,97887,6,0,P|6:137|36:34,2,150,2|2|2,3:2|3:2|3:2,2:0:0:0:
256,142,98585,6,0,B|281:140|311:116|311:116|364:123|373:181,1,150,6|0,3:2|2:0,2:0:0:0:
256,242,98933,2,0,B|231:244|201:268|201:268|148:261|139:203,1,150,2|0,3:2|2:0,2:0:0:0:
174,145,99282,6,0,L|187:86,1,50,2|0,3:2|2:0,2:0:0:0:
338,239,99544,2,0,L|325:298,1,50,2|0,3:2|2:0,2:0:0:0:
225,201,99806,2,0,L|288:182,1,50,2|0,3:2|2:0,2:0:0:0:
277,181,99980,6,0,L|229:195,1,50,6|0,3:2|2:0,2:0:0:0:
382,45,100329,6,0,P|343:94|367:164,1,100,2|0,3:2|2:0,2:0:0:0:
483,138,100678,2,0,B|456:107|419:111|419:111|437:132|423:165,1,100,0|0,3:2|2:0,2:0:0:0:
322,198,100939,2,0,B|349:229|386:225|386:225|368:204|382:171,1,100,2|0,3:2|2:0,2:0:0:0:
336,79,101201,2,0,L|346:148,1,50,2|0,3:2|2:0,2:0:0:0:
445,281,101375,6,0,P|468:256|505:254,1,50,6|0,3:2|2:0,2:0:0:0:
421,86,101724,2,0,P|444:111|481:113,1,50,2|0,3:2|2:0,2:0:0:0:
385,336,102073,6,0,P|365:304|370:264,1,50,2|0,3:2|2:0,2:0:0:0:
239,166,102335,2,0,P|263:137|302:129,1,50,2|0,3:2|2:0,2:0:0:0:
433,14,102596,2,0,P|467:28|487:63,1,50,2|0,3:2|2:0,2:0:0:0:
413,89,102771,6,0,L|273:61,1,138,6|0,3:2|1:0,2:0:0:0:
265,70,103119,2,0,L|254:13,1,46,6|0,3:2|2:0,2:0:0:0:
262,12,103294,1,0,1:0:0:0:
149,220,103468,6,0,L|289:192,1,138,6|0,3:2|1:0,2:0:0:0:
297,201,103817,2,0,L|308:144,1,46,6|0,3:2|2:0,2:0:0:0:
300,143,103992,1,0,1:0:0:0:
73,248,104166,6,0,P|117:294|204:278,1,144,6|0,3:2|2:0,2:0:0:0:
103,152,104515,2,0,P|172:143|222:191,1,144,10|0,2:0|2:0,2:0:0:0:
73,248,104864,5,2,3:2:0:0:
73,248,104951,2,0,P|54:261|26:265,1,48,0|0,2:0|2:0,2:0:0:0:
103,152,105125,5,2,3:2:0:0:
103,152,105212,2,0,P|84:137|72:112,1,48,8|0,2:0|2:0,2:0:0:0:
205,150,105387,6,0,P|216:130|240:114,1,48,2|0,3:2|2:0,2:0:0:0:
323,41,105561,5,6,3:2:0:0:
151,90,105736,1,2,2:0:0:0:
258,281,105910,2,0,B|267:239|267:239|263:223|263:223|275:177,1,96,10|0,2:0|2:0,2:0:0:0:
339,120,106259,6,0,L|352:193,1,48,2|0,3:2|2:0,2:0:0:0:
415,232,106433,5,0,2:0:0:0:
415,232,106521,1,2,3:2:0:0:
415,232,106608,2,8,L|428:159,1,48,8|0,2:0|2:0,2:0:0:0:
487,143,106782,6,0,L|500:216,1,48,2|0,3:2|2:0,2:0:0:0:
467,314,106957,6,0,P|426:267|326:271,1,144,6|0,3:2|2:0,2:0:0:0:
239,344,107306,2,0,P|300:331|346:243,1,144,10|0,2:0|2:0,2:0:0:0:
246,182,107654,5,2,3:2:0:0:
246,182,107742,2,0,P|238:160|247:125,1,48,0|0,2:0|2:0,2:0:0:0:
195,81,107916,5,2,3:2:0:0:
195,81,108003,2,0,P|213:66|249:64,1,48,10|0,2:0|2:0,2:0:0:0:
279,0,108178,6,0,P|298:13|311:46,1,48,2|0,3:2|2:0,2:0:0:0:
322,155,108352,6,0,L|424:144,1,96,6|0,3:2|2:0,2:0:0:0:
190,229,108701,2,0,L|88:240,1,96,10|0,2:0|2:0,2:0:0:0:
298,292,109050,6,0,L|311:234,1,48,2|0,3:2|2:0,2:0:0:0:
203,138,109224,5,0,2:0:0:0:
203,138,109311,1,0,3:2:0:0:
203,138,109399,2,0,L|214:92,1,48,8|0,2:0|2:0,2:0:0:0:
295,66,109573,6,0,L|307:13,1,48,2|0,3:2|2:0,2:0:0:0:
286,157,109747,6,0,B|229:167|229:167|201:186|201:186|133:194,1,144,6|0,3:2|2:0,2:0:0:0:
258,241,110096,2,0,B|315:231|315:231|343:212|343:212|411:204,1,144,10|0,2:0|2:0,2:0:0:0:
509,191,110445,5,2,3:2:0:0:
509,191,110532,2,0,P|480:200|461:229,1,48,0|0,2:0|2:0,2:0:0:0:
394,205,110707,5,2,3:2:0:0:
394,205,110794,2,0,P|393:235|415:262,1,48,8|0,2:0|2:0,2:0:0:0:
372,320,110968,6,0,P|400:329|433:317,1,48,2|0,3:2|2:0,2:0:0:0:
435,135,111143,6,0,P|390:121|317:160,1,96,6|0,3:2|2:0,2:0:0:0:
167,239,111492,2,0,P|212:253|285:214,1,96,10|0,2:0|2:0,2:0:0:0:
311,67,111840,6,0,L|321:6,1,48,2|0,3:2|2:0,2:0:0:0:
214,115,112015,5,0,2:0:0:0:
214,115,112102,1,2,3:2:0:0:
214,115,112189,2,0,L|204:54,1,48,8|0,2:0|2:0,2:0:0:0:
330,196,112364,6,0,L|340:135,1,48,2|0,3:2|2:0,2:0:0:0:
93,205,112538,6,0,B|185:187|185:187|154:178|139:142,1,144,6|0,3:2|2:0,2:0:0:0:
285,78,112887,2,0,B|193:96|193:96|224:105|239:141,1,144,10|0,2:0|2:0,2:0:0:0:
249,248,113236,5,2,3:2:0:0:
249,248,113323,2,0,L|262:183,1,48,0|0,2:0|2:0,2:0:0:0:
337,148,113497,5,2,3:2:0:0:
337,148,113585,2,0,L|350:213,1,48,8|0,2:0|2:0,2:0:0:0:
410,248,113759,6,0,L|424:197,1,48,2|0,3:2|2:0,2:0:0:0:
436,190,113933,5,6,3:2:0:0:
13,63,114631,5,6,2:0:0:0:
13,63,114980,1,6,2:0:0:0:
73,5,115329,6,0,P|96:51|37:142,1,144,6|0,3:2|2:0,2:0:0:0:
108,266,115678,2,0,P|93:237|130:180,1,96,10|0,2:0|2:0,2:0:0:0:
165,123,115939,5,2,2:0:0:0:
165,123,116026,2,0,P|192:125|226:103,1,48,2|0,3:2|2:0,2:0:0:0:
276,154,116201,2,0,P|286:128|275:89,1,48,2|0,2:0|3:0,2:0:0:0:
267,32,116375,6,0,P|294:30|328:52,1,48,10|0,2:0|2:0,2:0:0:0:
378,1,116550,2,0,P|388:26|377:65,1,48,2|0,3:2|2:0,2:0:0:0:
362,126,116724,6,0,L|460:111,1,96,6|2,3:2|2:0,2:0:0:0:
211,224,117073,2,0,L|113:239,1,96,10|0,2:0|2:0,2:0:0:0:
308,347,117422,6,0,L|324:241,1,96,2|0,3:2|2:0,2:0:0:0:
289,89,117683,1,0,3:0:0:0:
289,89,117771,2,0,L|278:143,1,48,10|0,2:0|2:0,2:0:0:0:
211,224,117945,1,2,3:2:0:0:
39,131,118119,6,0,P|93:115|163:184,1,144,6|0,3:2|2:0,2:0:0:0:
211,224,118468,2,0,P|177:242|161:302,1,96,10|0,2:0|2:0,2:0:0:0:
225,362,118730,5,2,2:0:0:0:
225,362,118817,2,0,L|283:349,1,48,2|0,3:2|2:0,2:0:0:0:
341,383,118992,2,0,L|354:327,1,48,2|0,2:0|3:0,2:0:0:0:
257,234,119166,6,0,L|199:221,1,48,10|0,2:0|2:0,2:0:0:0:
141,255,119340,2,0,L|128:199,1,48,2|0,3:2|2:0,2:0:0:0:
328,264,119515,6,0,L|427:243,1,96,6|2,3:2|2:0,2:0:0:0:
184,120,119864,2,0,L|85:141,1,96,10|0,2:0|2:0,2:0:0:0:
318,190,120212,6,0,L|335:76,1,96,2|0,3:2|2:0,2:0:0:0:
276,32,120474,1,2,3:2:0:0:
276,32,120561,2,0,L|345:20,1,48,8|0,2:0|2:0,2:0:0:0:
478,2,120736,1,2,3:2:0:0:
318,190,120910,6,0,P|287:150|167:152,1,144,6|0,3:2|2:0,2:0:0:0:
130,96,121259,2,0,P|115:145|153:199,1,96,10|0,2:0|2:0,2:0:0:0:
198,263,121521,5,0,2:0:0:0:
198,263,121608,2,0,L|208:200,1,48,2|0,3:2|2:0,2:0:0:0:
272,153,121782,2,0,L|282:216,1,48,2|0,2:0|3:0,2:0:0:0:
188,269,121957,6,0,L|131:256,1,48,10|0,2:0|2:0,2:0:0:0:
279,146,122131,2,0,L|336:133,1,48,2|0,3:2|2:0,2:0:0:0:
290,281,122306,5,6,3:2:0:0:
189,137,122480,1,2,2:0:0:0:
298,287,122654,2,0,L|402:263,1,96,10|0,2:0|2:0,2:0:0:0:
474,286,122916,5,0,2:0:0:0:
474,286,123003,2,0,B|492:220|492:220|460:232,1,96,2|0,3:2|2:0,2:0:0:0:
406,172,123265,1,0,3:0:0:0:
406,172,123352,2,0,L|392:106,1,48,10|0,2:0|2:0,2:0:0:0:
448,11,123526,2,0,L|462:77,1,48,2|0,3:2|2:0,2:0:0:0:
325,155,123701,6,0,B|300:156|273:125|273:125|221:125|200:178,1,144,6|0,3:2|2:0,2:0:0:0:
244,309,124050,2,0,P|251:261|265:205,1,96,10|0,2:0|2:0,2:0:0:0:
193,118,124311,5,2,2:0:0:0:
193,118,124399,2,0,P|202:151|210:178,1,48,2|0,3:2|2:0,2:0:0:0:
123,252,124573,2,0,P|132:219|140:192,1,48,2|0,2:0|2:0,2:0:0:0:
251,262,124747,6,0,L|198:247,1,48,10|0,2:0|2:0,2:0:0:0:
67,150,124922,2,0,L|120:135,1,48,2|0,3:2|2:0,2:0:0:0:
206,0,125096,6,0,P|234:49|188:119,1,144,6|0,3:2|2:0,2:0:0:0:
148,196,125445,2,0,P|176:147|261:147,1,144,6|0,3:2|2:0,2:0:0:0:
351,157,125794,2,0,P|294:156|256:81,1,144,6|0,3:2|2:0,2:0:0:0:
339,39,126143,6,0,L|326:102,1,48,6|0,3:2|2:0,2:0:0:0:
211,257,126317,2,0,L|224:194,1,48,0|0,2:0|2:0,2:0:0:0:
351,157,126492,6,0,B|385:164|410:142|410:142|451:140|484:186,1,144,6|0,3:2|2:0,2:0:0:0:
413,226,126840,2,0,P|367:236|286:209,1,96,8|0,2:0|2:0,2:0:0:0:
209,138,127102,5,2,2:0:0:0:
209,138,127189,2,0,L|198:82,1,48,2|0,3:2|2:0,2:0:0:0:
295,22,127364,2,0,L|306:78,1,48,2|0,2:0|3:0,2:0:0:0:
154,102,127538,6,0,L|169:38,1,48,10|0,2:0|2:0,2:0:0:0:
341,82,127712,2,0,L|326:146,1,48,2|0,3:2|2:0,2:0:0:0:
212,220,127887,6,0,L|117:198,1,96,6|2,3:2|2:0,2:0:0:0:
300,164,128236,2,0,L|395:186,1,96,10|0,2:0|2:0,2:0:0:0:
275,339,128585,6,0,L|291:243,1,96,2|0,3:2|2:0,2:0:0:0:
239,114,128846,1,0,3:0:0:0:
239,114,128933,2,0,B|220:132|220:132|221:171,1,48,10|0,2:0|2:0,2:0:0:0:
137,283,129108,1,2,3:2:0:0:
0,157,129282,6,0,P|55:152|107:231,1,144,6|0,3:2|2:0,2:0:0:0:
137,283,129631,2,0,L|236:267,1,96,10|0,2:0|2:0,2:0:0:0:
318,188,129893,5,2,2:0:0:0:
318,188,129980,2,0,L|260:199,1,48,2|0,3:2|2:0,2:0:0:0:
174,130,130154,2,0,L|232:141,1,48,2|0,2:0|3:0,2:0:0:0:
204,264,130329,6,0,L|196:208,1,48,10|0,2:0|2:0,2:0:0:0:
284,57,130503,2,0,L|292:113,1,48,2|0,3:2|2:0,2:0:0:0:
377,263,130678,5,6,3:2:0:0:
441,121,130852,1,2,2:0:0:0:
393,287,131026,2,0,L|300:267,1,96,10|0,2:0|2:0,2:0:0:0:
295,193,131288,5,0,2:0:0:0:
295,193,131375,2,0,P|264:238|210:247,1,96,2|0,3:2|2:0,2:0:0:0:
110,196,131637,1,0,3:0:0:0:
110,196,131724,2,0,L|169:206,1,48,10|0,2:0|2:0,2:0:0:0:
297,346,131899,2,0,L|238:336,1,48,2|0,3:2|2:0,2:0:0:0:
66,367,132073,6,0,P|30:321|64:226,1,144,6|0,3:2|2:0,2:0:0:0:
89,112,132422,2,0,P|117:149|101:207,1,96,10|0,2:0|2:0,2:0:0:0:
214,262,132683,5,2,2:0:0:0:
214,262,132771,2,0,P|254:258|273:233,1,48,2|0,3:2|2:0,2:0:0:0:
329,286,132945,2,0,P|337:246|319:220,1,48,2|0,2:0|3:0,2:0:0:0:
307,100,133119,6,0,P|276:126|276:158,1,48,10|0,2:0|2:0,2:0:0:0:
199,145,133294,2,0,P|215:181|244:192,1,48,2|0,3:2|2:0,2:0:0:0:
345,168,133468,6,0,B|406:156|406:156|428:128,1,96,6|0,3:2|2:0,2:0:0:0:
326,6,133817,2,0,L|305:107,1,96,10|0,2:0|2:0,2:0:0:0:
220,185,134166,6,0,B|159:197|159:197|137:225,1,96,2|0,3:2|2:0,2:0:0:0:
67,264,134428,1,0,3:0:0:0:
67,264,134515,2,0,L|49:199,1,48,10|0,2:0|2:0,2:0:0:0:
84,146,134689,1,2,3:2:0:0:
199,271,134864,6,0,B|296:251|296:251|308:224|332:206,1,144,6|0,3:2|2:0,2:0:0:0:
308,53,135212,2,0,P|299:104|290:148,1,96,10|0,2:0|2:0,2:0:0:0:
373,281,135474,5,2,2:0:0:0:
373,281,135561,2,0,P|407:274|434:270,1,48,2|0,3:2|2:0,2:0:0:0:
512,195,135736,2,0,P|478:202|451:206,1,48,2|0,2:0|3:0,2:0:0:0:
382,150,135910,6,0,L|398:222,1,48,10|0,2:0|2:0,2:0:0:0:
502,323,136085,2,0,L|486:251,1,48,2|0,3:2|2:0,2:0:0:0:
310,223,136259,6,0,P|288:274|342:358,1,144,6|0,3:2|2:0,2:0:0:0:
222,205,136608,2,0,P|244:154|190:70,1,144,6|0,3:2|2:0,2:0:0:0:
300,21,136957,5,6,3:2:0:0:
165,148,137131,1,0,3:0:0:0:
165,148,137218,1,0,3:0:0:0:
66,8,137393,1,0,3:0:0:0:
66,8,137480,1,0,3:0:0:0:
215,15,137654,6,0,L|199:88,3,60.0000000000001,6|0|0|0,3:2|2:0|2:0|2:0,2:0:0:0:
320,158,138352,2,0,L|332:99,3,60.0000000000001,2|0|0|0,2:0|2:0|2:0|2:0,2:0:0:0:
133,178,139050,6,0,B|155:154|155:154|199:147,3,60.0000000000001,2|0|0|0,2:0|2:0|2:0|2:0,2:0:0:0:
379,206,139747,2,0,B|357:230|357:230|313:237,3,60.0000000000001,2|0|0|0,2:0|2:0|2:0|2:0,2:0:0:0:
186,281,140445,5,2,2:0:0:0:
186,281,140619,1,0,2:0:0:0:
275,159,140794,1,2,2:0:0:0:
275,159,140968,1,0,2:0:0:0:
275,310,141143,1,2,2:0:0:0:
275,310,141317,1,0,2:0:0:0:
186,188,141492,1,2,2:0:0:0:
186,188,141666,1,0,2:0:0:0:
329,234,141840,5,2,2:0:0:0:
146,43,143236,6,0,B|140:88|140:88|119:113|119:113|115:161,1,120,6|0,3:2|2:0,2:0:0:0:
154,222,143759,1,2,2:0:0:0:
111,149,143933,2,0,B|115:107|115:107|136:82|136:82|142:37,1,120,10|0,2:0|2:0,2:0:0:0:
154,222,144457,1,2,2:0:0:0:
25,117,144631,6,0,P|52:161|115:145,1,120,6|0,3:2|2:0,2:0:0:0:
241,253,145154,2,0,P|214:209|151:225,1,120,6|0,3:2|2:0,2:0:0:0:
97,296,145678,2,0,L|110:366,1,60.0000000000001,6|0,3:2|2:0,2:0:0:0:
67,223,146026,6,0,P|115:217|156:241,1,90.0000000000002,2|0,2:0|2:0,2:0:0:0:
239,233,146375,2,0,P|191:239|150:215,1,90.0000000000002,2|0,2:0|2:0,2:0:0:0:
129,147,146724,1,10,2:0:0:0:
238,66,146899,1,2,2:0:0:0:
170,22,147073,2,0,B|154:48|154:48|162:86,1,60.0000000000001,2|0,2:0|2:0,2:0:0:0:
195,260,147422,6,0,L|212:140,1,120,6|0,3:2|2:0,2:0:0:0:
313,12,148119,2,0,L|296:132,1,120,14|0,3:2|2:0,2:0:0:0:
390,260,148817,6,0,P|450:266|496:224,1,120,6|0,3:2|2:0,2:0:0:0:
493,151,149340,1,2,2:0:0:0:
488,234,149515,2,0,P|442:270|384:264,1,120,10|0,2:0|2:0,2:0:0:0:
493,151,150038,1,2,2:0:0:0:
422,199,150212,6,0,L|401:76,1,120,6|0,3:2|2:0,2:0:0:0:
300,6,150736,2,0,L|320:124,1,120,6|0,3:2|2:0,2:0:0:0:
237,216,151259,2,8,B|172:185|185:250|114:220,1,120,6|0,3:2|2:0,2:0:0:0:
123,223,151782,1,2,2:0:0:0:
57,181,151957,1,2,2:0:0:0:
52,260,152131,1,2,2:0:0:0:
106,376,152306,6,0,L|117:302,1,60.0000000000001,0|0,1:0|2:0,2:0:0:0:
117,304,152567,2,0,L|122:272,2,20,0|0|0,1:0|1:0|2:0,2:0:0:0:
136,147,152829,1,0,1:0:0:0:
203,296,153003,6,0,B|211:249|211:249|203:223|203:223|212:170,1,120,6|0,3:2|2:0,2:0:0:0:
177,68,153352,2,0,B|213:98|213:98|240:104|240:104|281:138,1,120,6|0,3:2|2:0,2:0:0:0:
389,160,153701,2,0,B|344:176|344:176|325:196|325:196|275:215,1,120,6|0,3:2|2:0,2:0:0:0:
396,238,154050,2,0,L|476:251,1,80,6|0,3:2|2:0,2:0:0:0:
424,76,154399,6,0,L|344:89,1,80,6|0,3:2|2:0,2:0:0:0:
170,149,154747,2,0,B|120:109|151:68|151:68|175:60|195:78,1,120,2|0,3:2|2:0,2:0:0:0:
186,74,155096,2,0,L|233:81,1,40,2|0,3:2|2:0,2:0:0:0:
337,170,155271,1,2,2:0:0:0:
337,170,155358,1,0,2:0:0:0:
337,170,155445,2,0,L|236:184,1,80,2|2,3:2|2:0,2:0:0:0:
107,279,155794,5,6,3:2:0:0:
176,332,155968,1,2,2:0:0:0:
152,202,156143,2,0,B|115:183|115:183|68:195,1,80,2|0,3:2|2:0,2:0:0:0:
42,209,156404,1,0,2:0:0:0:
42,209,156492,2,0,L|31:256,3,40,2|0|2|0,3:2|2:0|2:0|2:0,2:0:0:0:
80,116,156840,1,2,3:2:0:0:
75,96,156928,1,0,2:0:0:0:
71,76,157015,1,2,2:0:0:0:
67,57,157102,1,0,2:0:0:0:
63,36,157189,6,0,B|110:46|110:46|130:68|130:68|191:73,1,120,6|0,3:2|2:0,2:0:0:0:
192,60,157538,1,2,3:2:0:0:
330,145,157712,1,2,2:0:0:0:
330,145,157800,1,0,2:0:0:0:
330,145,157887,2,0,L|345:60,1,80,2|2,3:2|2:0,2:0:0:0:
359,48,158149,1,0,2:0:0:0:
359,48,158236,2,0,B|342:32|342:32|306:34,1,40,2|0,3:2|2:0,2:0:0:0:
267,79,158410,1,2,2:0:0:0:
318,226,158585,6,0,B|369:218|369:218|409:183,1,80,6|0,3:2|2:0,2:0:0:0:
182,154,158933,2,0,B|131:162|131:162|91:197,1,80,2|0,3:2|2:0,2:0:0:0:
245,217,159282,6,0,L|267:87,1,120,6|2,3:2|2:0,2:0:0:0:
246,10,159806,5,0,1:0:0:0:
246,10,159893,1,0,1:0:0:0:
246,10,159980,2,0,L|261:108,1,80,6|0,3:2|2:0,2:0:0:0:
327,5,160242,2,0,L|342:103,1,80,2|0,3:2|2:0,2:0:0:0:
405,19,160503,2,0,L|414:84,1,40,0|0,3:0|2:0,2:0:0:0:
475,149,160678,6,0,L|460:247,1,80,6|0,3:2|2:0,2:0:0:0:
393,145,160939,2,0,L|378:243,1,80,0|0,3:0|2:0,2:0:0:0:
315,159,161201,2,0,L|305:224,1,40,0|0,3:0|2:0,2:0:0:0:
166,262,161375,6,0,L|181:360,1,80,6|0,3:2|2:0,2:0:0:0:
247,257,161637,2,0,L|262:355,1,80,0|0,3:0|2:0,2:0:0:0:
325,271,161899,2,0,L|334:336,1,40,0|0,3:2|2:0,2:0:0:0:
159,185,162073,6,0,B|127:192|127:192|108:211|108:211|66:221,1,80,6|0,3:2|2:0,2:0:0:0:
82,297,162335,1,0,3:0:0:0:
82,297,162422,2,0,B|50:290|50:290|31:271|31:271|-11:261,1,80,0|0,2:0|3:0,2:0:0:0:
159,101,162771,5,6,3:2:0:0:
239,75,162945,1,2,3:2:0:0:
288,143,163119,1,0,3:0:0:0:
239,212,163294,1,0,3:0:0:0:
158,184,163468,5,0,3:0:0:0:
288,143,163643,1,0,3:0:0:0:
366,251,163817,1,0,3:0:0:0:
288,364,163992,1,0,3:0:0:0:
158,319,164166,5,6,3:2:0:0:
366,251,164515,6,0,L|460:241,1,80,10|0,2:0|2:0,2:0:0:0:
491,62,164864,1,10,2:0:0:0:
428,102,165038,1,2,3:2:0:0:
461,170,165212,1,10,2:0:0:0:
256,13,165561,5,2,2:0:0:0:
183,35,165736,1,2,2:0:0:0:
206,108,165910,1,2,2:0:0:0:
287,315,166085,5,2,2:0:0:0:
287,315,166172,1,2,2:0:0:0:
287,315,166259,2,0,L|299:223,1,80,6|0,3:2|2:0,2:0:0:0:
230,186,166521,2,0,L|219:265,1,80,6|0,3:2|2:0,2:0:0:0:
330,380,166782,6,0,B|349:368|360:341|360:341|398:333|432:361,1,120,6|0,3:2|2:0,2:0:0:0:
501,240,167131,1,2,3:2:0:0:
501,240,167218,1,2,2:0:0:0:
501,240,167306,2,0,B|514:185|514:185|502:143,1,80,2|2,3:2|2:0,2:0:0:0:
335,88,167654,2,0,L|348:141,1,40,2|0,3:2|2:0,2:0:0:0:
439,191,167829,2,0,L|426:138,1,40,2|0,2:0|2:0,2:0:0:0:
318,212,168003,5,2,3:2:0:0:
318,212,168090,1,0,2:0:0:0:
318,212,168178,1,2,2:0:0:0:
318,212,168265,1,0,2:0:0:0:
318,212,168352,6,0,B|276:203|276:203|242:215|242:215|188:203,1,120,6|0,3:2|2:0,2:0:0:0:
19,133,168701,2,0,L|74:124,3,40,2|2|0|0,3:2|2:0|2:0|2:0,2:0:0:0:
91,111,169050,2,0,B|71:137|79:165|79:165|104:181|106:211,1,80,2|0,3:2|2:0,2:0:0:0:
35,294,169311,1,2,3:2:0:0:
35,294,169399,2,0,B|55:268|47:240|47:240|22:224|20:194,1,80,0|2,2:0|3:2,2:0:0:0:
242,152,169747,6,0,L|155:141,1,80,6|2,3:2|2:0,2:0:0:0:
270,232,170096,2,0,L|357:243,1,80,2|2,3:2|2:0,2:0:0:0:
230,336,170445,6,0,P|211:297|122:274,1,120,2|0,3:2|2:0,2:0:0:0:
119,254,170794,2,0,B|107:288|107:288|115:312|115:312|104:352,1,80,2|0,3:2|2:0,2:0:0:0:
266,67,171143,5,6,3:2:0:0:
242,152,171317,1,2,2:0:0:0:
326,176,171492,1,2,3:2:0:0:
473,56,171666,5,2,2:0:0:0:
473,56,171753,1,0,2:0:0:0:
473,56,171840,2,0,B|445:63|445:63|430:78|430:78|394:86,1,80,2|0,3:2|2:0,2:0:0:0:
453,147,172102,2,0,B|476:143|476:143|502:117,1,40,2|0,3:2|2:0,2:0:0:0:
335,53,172364,6,0,B|303:84|324:123|324:123|358:140|352:179,1,120,2|0,3:2|2:0,2:0:0:0:
301,268,172712,1,2,3:2:0:0:
301,268,172800,1,2,2:0:0:0:
301,268,172887,2,0,L|285:184,1,80,2|2,3:2|2:0,2:0:0:0:
238,68,173236,6,0,L|222:127,1,40,2|0,3:2|2:0,2:0:0:0:
139,231,173410,2,0,L|123:172,1,40,2|0,2:0|2:0,2:0:0:0:
19,123,173585,1,2,3:2:0:0:
19,123,173672,1,0,2:0:0:0:
19,123,173759,1,2,2:0:0:0:
19,123,173846,1,0,2:0:0:0:
19,123,173933,6,0,B|62:114|62:114|97:124|97:124|159:108|159:108,1,120,6|0,3:2|2:0,2:0:0:0:
266,227,174282,2,0,L|276:169,3,40,2|2|2|0,2:0|2:0|2:0|2:0,2:0:0:0:
256,164,174631,6,0,B|288:159|308:174|308:174|327:154|353:148,1,80,2|0,3:2|2:0,2:0:0:0:
429,226,174893,1,2,3:2:0:0:
429,226,174980,2,0,B|397:231|377:216|377:216|358:236|332:242,1,80,0|2,2:0|3:2,2:0:0:0:
339,131,175329,6,0,L|442:147,1,80,6|0,3:2|2:0,2:0:0:0:
193,239,175678,2,0,L|90:223,1,80,6|0,3:2|2:0,2:0:0:0:
266,35,176026,6,0,B|253:85|253:85|263:109|263:109|251:159,1,120,6|0,3:2|2:0,2:0:0:0:
256,164,176375,1,14,2:0:0:0:
0,65,177422,6,0,L|93:78,1,80,6|0,3:2|2:0,2:0:0:0:
150,36,177683,1,2,3:2:0:0:
150,36,177771,2,0,B|160:57|160:57|151:88,1,40,0|0,2:0|2:0,2:0:0:0:
117,142,177945,2,0,B|99:179|99:179|115:224,1,80,2|0,3:2|2:0,2:0:0:0:
224,360,178294,5,2,3:2:0:0:
245,339,178381,1,2,2:0:0:0:
255,311,178468,1,10,2:0:0:0:
251,282,178556,1,0,2:0:0:0:
234,257,178643,1,2,2:0:0:0:
135,312,178817,6,0,L|190:304,1,40,2|0,3:2|2:0,2:0:0:0:
348,225,178992,2,0,L|293:217,1,40,2|0,2:0|2:0,2:0:0:0:
219,150,179166,1,10,2:0:0:0:
219,150,179253,1,0,2:0:0:0:
219,150,179340,1,0,2:0:0:0:
219,150,179428,1,0,2:0:0:0:
219,150,179515,6,0,B|209:102|209:102|220:80|220:80|211:22,1,120,6|0,3:2|2:0,2:0:0:0:
363,150,179864,2,0,L|416:142,3,40,10|2|2|0,2:0|2:0|2:0|2:0,2:0:0:0:
440,117,180212,2,0,B|427:141|436:163|436:163|458:180|456:204,1,80,2|0,3:2|2:0,2:0:0:0:
404,296,180474,1,2,3:2:0:0:
404,296,180561,2,0,B|417:272|408:250|408:250|386:233|388:209,1,80,0|2,2:0|3:2,2:0:0:0:
351,140,180910,6,0,L|262:154,1,80,6|2,3:2|2:0,2:0:0:0:
161,244,181259,2,0,L|250:230,1,80,10|0,2:0|2:0,2:0:0:0:
262,104,181608,2,0,L|249:285,1,160,6|8,3:2|2:0,2:0:0:0:
265,348,182131,5,0,1:0:0:0:
265,348,182218,1,0,1:0:0:0:
265,348,182306,2,0,L|254:262,1,80,6|2,3:2|2:0,2:0:0:0:
374,308,182654,2,0,L|324:298,1,40,10|0,2:0|2:0,2:0:0:0:
189,226,182829,5,2,2:0:0:0:
189,226,182916,1,0,2:0:0:0:
189,226,183003,2,0,L|106:209,1,80,2|0,3:2|2:0,2:0:0:0:
217,154,183265,1,2,3:2:0:0:
217,154,183352,2,0,B|242:163|242:163|256:195,1,40,0|0,2:0|2:0,2:0:0:0:
328,303,183526,6,0,B|298:319|298:319|262:275|309:231,1,120,2|0,3:2|2:0,2:0:0:0:
394,128,183875,1,2,2:0:0:0:
394,128,183962,1,2,2:0:0:0:
394,128,184050,2,0,L|478:144,1,80,10|2,2:0|2:0,2:0:0:0:
374,240,184399,2,0,L|364:185,1,40,2|0,3:2|2:0,2:0:0:0:
327,45,184573,2,0,L|317:100,1,40,0|0,2:0|2:0,2:0:0:0:
256,192,184747,5,10,2:0:0:0:
235,158,184835,1,0,2:0:0:0:
200,139,184922,1,2,2:0:0:0:
161,140,185009,1,0,2:0:0:0:
128,161,185096,1,6,3:2:0:0:
124,169,185445,6,0,L|131:217,3,40,2|2|2|0,2:0|2:0|2:0|2:0,2:0:0:0:
156,278,185794,6,0,B|177:270|187:259|187:259|213:253|254:276,1,80,8|2,2:0|2:0,2:0:0:0:
256,192,186056,1,2,2:0:0:0:
256,192,186143,2,0,B|277:200|287:211|287:211|313:217|354:194,1,80,2|0,2:0|2:0,2:0:0:0:
512,334,186492,5,6,3:2:0:0:
505,341,186840,6,0,L|491:243,2,95.9999999999998,2|2|2,2:0|2:0|2:0,2:0:0:0:
416,203,187887,6,0,L|425:151,3,47.9999999999999,6|0|0|0,3:2|2:0|2:0|2:0,2:0:0:0:
481,106,188585,2,0,L|472:54,3,47.9999999999999,8|0|0|0,2:0|2:0|2:0|2:0,2:0:0:0:
419,150,189282,6,0,L|410:197,3,47.9999999999999,2|0|0|0,2:0|2:0|2:0|2:0,2:0:0:0:
467,53,189980,2,0,L|475:100,3,47.9999999999999,8|2|0|2,2:0|2:0|2:0|2:0,2:0:0:0:
383,81,190678,6,0,L|318:73,1,47.9999999999999,0|2,2:0|2:0,2:0:0:0:
205,114,191026,2,0,L|140:106,1,47.9999999999999,0|0,2:0|2:0,2:0:0:0:
152,113,191375,6,0,L|200:119,1,47.9999999999999,8|0,2:0|2:0,2:0:0:0:
340,70,191724,2,0,L|388:76,1,47.9999999999999,0|0,2:0|2:0,2:0:0:0:
301,183,192073,6,0,L|290:125,1,47.9999999999999,2|0,2:0|2:0,2:0:0:0:
230,207,192422,2,0,L|219:149,1,47.9999999999999,0|0,2:0|2:0,2:0:0:0:
232,329,192771,6,0,L|243:271,1,47.9999999999999,10|2,2:0|2:0,2:0:0:0:
161,305,193119,2,0,L|172:247,1,47.9999999999999,0|2,2:0|2:0,2:0:0:0:
318,264,193468,6,0,L|379:252,3,47.9999999999999,0|0|0|2,2:0|2:0|2:0|2:0,2:0:0:0:
186,215,194166,2,0,L|138:205,3,47.9999999999999,8|2|0|0,2:0|2:0|2:0|2:0,2:0:0:0:
262,186,194864,6,0,P|278:157|277:129,1,47.9999999999999,2|0,2:0|2:0,2:0:0:0:
341,101,195212,2,0,P|318:76|291:69,1,47.9999999999999,0|0,2:0|2:0,2:0:0:0:
284,0,195561,2,0,P|254:14|238:37,1,47.9999999999999,8|2,2:0|2:0,2:0:0:0:
169,25,195910,2,0,P|173:57|190:79,1,47.9999999999999,0|2,2:0|2:0,2:0:0:0:
153,143,196259,6,0,P|185:149|211:139,3,47.9999999999999,0|2|0|2,2:0|2:0|2:0|2:0,2:0:0:0:
341,101,196957,2,0,P|318:76|291:69,3,47.9999999999999,10|0|0|0,2:0|2:0|2:0|2:0,2:0:0:0:
169,25,197654,2,0,P|173:57|190:79,3,47.9999999999999,2|0|0|0,2:0|2:0|2:0|2:0,2:0:0:0:
262,186,198352,2,0,P|278:157|277:129,3,47.9999999999999,8|0|0|0,2:0|2:0|2:0|2:0,2:0:0:0:
284,0,199050,5,6,2:0:0:0:
276,6,199399,2,0,L|286:67,1,47.9999999999999,2|0,2:0|2:0,2:0:0:0:
344,103,199747,2,0,B|398:98|398:98|446:131,2,95.9999999999998,10|2|2,2:0|2:0|2:0,2:0:0:0:
204,158,200794,2,0,L|141:144,1,47.9999999999999,0|0,2:0|2:0,2:0:0:0:
240,93,201143,2,0,L|255:204,1,95.9999999999998,10|0,2:0|2:0,2:0:0:0:
364,281,201840,6,0,L|379:170,1,95.9999999999998,2|0,2:0|2:0,2:0:0:0:
430,139,202538,2,0,B|393:132|393:132|369:139|369:139|330:131,1,95.9999999999998,8|0,2:0|2:0,2:0:0:0:
165,185,203236,2,0,L|147:68,2,95.9999999999998,2|2|10,2:0|2:0|2:0,2:0:0:0:
256,254,204631,6,0,P|306:230|224:186,1,192,2|8,2:0|2:0,2:0:0:0:
162,344,206026,2,0,B|234:333|234:333|276:348|276:348|358:333,1,192,2|8,2:0|2:0,2:0:0:0:
485,191,207422,6,0,B|470:175|463:143|463:143|362:151|405:255,1,192,2|8,2:0|2:0,2:0:0:0:
425,308,208817,2,0,L|454:105,1,192,0|8,2:0|2:0,2:0:0:0:
256,20,210212,5,6,3:2:0:0:
256,192,210300,12,0,213003,2:0:0:0:
