osu file format v14

[General]
AudioFilename: audio.mp3
AudioLeadIn: 0
PreviewTime: 47116
Countdown: 0
SampleSet: Soft
StackLeniency: 0.7
Mode: 0
LetterboxInBreaks: 0
WidescreenStoryboard: 1

[Editor]
DistanceSpacing: 1
BeatDivisor: 4
GridSize: 32
TimelineZoom: 1.8

[Metadata]
Title:Still in my heart feat. Punipuni Denki
TitleUnicode:Still in my heart feat. ぷにぷに電機
Artist:PSYQUI
ArtistUnicode:PSYQUI
Creator:Setu
Version:Hard
Source:
Tags:shiratamamywife nathan sukinathan japanese electronic hardcore future core bass j-core jcore megarex fugene3 puniden
BeatmapID:4207510
BeatmapSetID:2000038

[Difficulty]
HPDrainRate:4
CircleSize:3.8
OverallDifficulty:6
ApproachRate:8
SliderMultiplier:1.4
SliderTickRate:1

[Events]
//Background and Video events
0,0,"110257210_p0.jpg",0,0
//Break Periods
//Storyboard Layer 0 (Background)
//Storyboard Layer 1 (Fail)
//Storyboard Layer 2 (Pass)
//Storyboard Layer 3 (Foreground)
//Storyboard Layer 4 (Overlay)
//Storyboard Sound Samples

[TimingPoints]
2306,348.837209302326,4,2,1,50,1,0
13468,-100,4,2,1,70,0,0
35445,-100,4,2,2,80,0,0
40765,-100,4,2,0,80,0,0
41375,-100,4,2,2,80,0,0
48352,-100,4,2,2,60,0,0
59515,-100,4,2,2,80,0,0
59864,-100,4,2,1,80,0,0
71026,-100,4,2,1,30,0,0
72945,-100,4,2,1,40,0,0
76259,-100,4,2,1,50,0,0
77654,-100,4,2,1,60,0,0
80445,-100,4,2,1,70,0,0
93003,-100,4,2,1,80,0,0
104515,-100,4,2,2,80,0,0
137131,-100,4,2,2,60,0,0
143236,-100,4,2,2,50,0,0
143759,-100,4,2,2,50,0,0
143933,-100,4,2,1,50,0,0
154399,-100,4,2,1,70,0,0
167306,-83.3333333333333,4,2,1,80,0,0
176375,-83.3333333333333,4,2,2,80,0,0
181608,-83.3333333333333,4,2,0,80,0,0
182306,-83.3333333333333,4,2,2,80,0,0
187887,-133.333333333333,4,2,2,60,0,0
188061,-133.333333333333,4,2,0,60,0,0
199050,-133.333333333333,4,2,0,50,0,0
210300,-133.333333333333,4,2,0,5,0,0

[Colours]
Combo1 : 254,253,199
Combo2 : 247,210,249
Combo3 : 190,248,254

[HitObjects]
36,50,2306,6,0,B|94:59|94:59|118:83|118:83|190:90,1,140,6|0,3:2|2:0,2:0:0:0:
227,30,2829,1,2,2:0:0:0:
227,30,3003,2,0,P|247:63|221:158,1,140,10|0,2:0|2:0,2:0:0:0:
159,209,3526,1,2,2:0:0:0:
159,209,3701,6,0,P|139:242|165:337,1,140,6|0,3:2|2:0,2:0:0:0:
240,368,4224,2,0,B|297:359|323:332|323:332|347:346|374:348,1,140,6|0,3:2|2:0,2:0:0:0:
443,309,4747,1,6,3:2:0:0:
312,203,5096,6,0,P|298:163|330:92,1,105,2|0,2:0|2:0,2:0:0:0:
346,75,5445,2,0,L|253:63,1,70,2|0,2:0|2:0,2:0:0:0:
208,113,5794,1,10,2:0:0:0:
208,113,5968,1,2,2:0:0:0:
141,60,6143,2,0,P|123:96|132:142,1,70,2|0,2:0|2:0,2:0:0:0:
171,194,6492,6,0,B|133:161|91:179|91:179|65:205|35:207,1,140,6|0,3:2|2:0,2:0:0:0:
131,349,7189,2,0,B|169:382|211:364|211:364|237:338|267:336,1,140,14|0,3:2|2:0,2:0:0:0:
396,244,7887,6,0,B|342:232|342:232|309:246|309:246|252:234,1,140,6|0,3:2|2:0,2:0:0:0:
197,180,8410,1,2,2:0:0:0:
197,180,8585,2,0,P|170:112|199:45,1,140,10|0,2:0|2:0,2:0:0:0:
269,15,9108,1,2,2:0:0:0:
269,15,9282,6,0,B|294:22|308:47|308:47|349:16|408:37,1,140,6|0,3:2|2:0,2:0:0:0:
426,109,9806,2,0,P|376:140|280:124,1,140,6|0,3:2|2:0,2:0:0:0:
223,174,10329,2,0,L|204:322,1,140,6|0,3:2|2:0,2:0:0:0:
205,312,11375,1,0,1:0:0:0:
205,312,12073,6,0,B|133:298|133:298|108:265|62:259,3,140,6|6|6|6,3:2|3:2|3:2|3:2,2:0:0:0:
17,105,13468,2,0,P|55:109|96:118,1,70,6|0,3:2|2:0,2:0:0:0:
153,165,13817,2,0,P|168:130|189:93,1,70,2|0,3:2|2:0,2:0:0:0:
251,51,14166,2,0,L|299:59,3,35,2|0|2|0,3:2|2:0|2:0|2:0,2:0:0:0:
321,34,14515,2,0,L|334:110,1,70,2|2,3:2|2:0,2:0:0:0:
291,177,14864,5,6,3:2:0:0:
291,177,15038,1,2,2:0:0:0:
362,220,15212,2,0,P|403:202|436:197,1,70,2|0,3:2|2:0,2:0:0:0:
286,263,15561,2,0,L|240:254,3,35,2|0|2|0,3:2|2:0|2:0|2:0,2:0:0:0:
217,231,15910,2,0,L|171:240,3,35,2|0|2|0,3:2|2:0|2:0|2:0,2:0:0:0:
153,268,16259,6,0,P|141:224|130:178,1,70,6|0,3:2|2:0,2:0:0:0:
76,147,16608,1,2,3:2:0:0:
76,147,16782,1,2,2:0:0:0:
131,83,16957,2,0,L|176:92,3,35,2|0|0|0,3:2|2:0|2:0|2:0,2:0:0:0:
196,118,17306,2,0,P|238:104|285:98,1,70,2|2,3:2|2:0,2:0:0:0:
329,47,17654,6,0,P|355:82|375:125,1,70,6|0,3:2|2:0,2:0:0:0:
427,163,18003,2,0,P|401:199|366:231,1,70,0|0,3:0|2:0,2:0:0:0:
329,281,18352,2,0,B|272:272|272:272|243:284|243:284|183:276,1,140,6|2,3:2|2:0,2:0:0:0:
192,277,19050,6,0,P|144:274|87:314,2,105,6|0|0,3:2|3:2|3:0,2:0:0:0:
169,196,19747,2,0,P|157:149|101:107,2,105,6|0|0,3:2|3:0|3:0,2:0:0:0:
250,218,20445,6,0,B|301:208|301:208|334:219,1,70,6|0,3:2|2:0,2:0:0:0:
354,236,20707,1,0,3:0:0:0:
354,236,20794,2,0,B|370:241|370:241|422:231,1,70,0|0,2:0|3:0,2:0:0:0:
419,129,21143,6,0,B|367:138|367:138|335:128,1,70,6|0,3:2|2:0,2:0:0:0:
315,111,21404,1,0,3:0:0:0:
315,111,21492,2,0,B|298:105|298:105|246:115,1,70,0|0,2:0|3:0,2:0:0:0:
141,98,21840,6,0,B|122:90|122:90|94:97,3,35,6|0|0|0,3:2|1:0|3:0|1:0,2:0:0:0:
74,119,22189,2,0,B|55:127|55:127|27:120,3,35,0|0|0|0,3:0|1:0|3:0|1:0,2:0:0:0:
1,107,22538,2,0,L|14:159,3,35,0|0|0|0,3:0|1:0|3:0|1:0,2:0:0:0:
28,178,22887,2,0,L|15:230,3,35,0|0|0|0,3:0|1:0|3:0|1:0,2:0:0:0:
5,251,23236,1,6,3:2:0:0:
153,348,24631,6,0,B|209:339|209:339|232:313|232:313|289:304,1,140,2|2,2:0|2:0,2:0:0:0:
339,246,25154,1,2,2:0:0:0:
339,246,25242,1,2,2:0:0:0:
339,246,25329,2,0,P|372:271|452:274,2,105,6|6|6,3:2|3:2|3:2,2:0:0:0:
203,165,26201,5,2,3:2:0:0:
203,165,26288,1,2,2:0:0:0:
203,165,26375,2,0,L|118:177,1,70,0|2,3:0|2:0,2:0:0:0:
61,143,26724,1,2,3:2:0:0:
61,143,26899,1,2,2:0:0:0:
9,210,27073,1,0,3:0:0:0:
9,210,27247,1,2,2:0:0:0:
50,283,27422,6,0,B|106:273|106:273|138:286|138:286|199:274,1,140,6|2,3:2|3:2,2:0:0:0:
249,221,27945,1,2,2:0:0:0:
249,221,28032,1,0,2:0:0:0:
249,221,28119,2,0,B|294:231|294:231|322:258,1,70,2|0,3:2|2:0,2:0:0:0:
346,279,28381,1,2,3:2:0:0:
346,279,28468,2,0,L|432:264,1,70,0|2,2:0|3:2,2:0:0:0:
481,214,28817,6,0,B|500:183|500:183|487:138,1,70,0|2,3:0|2:0,2:0:0:0:
417,108,29166,2,0,B|398:139|398:139|411:184,1,70,2|2,3:2|2:0,2:0:0:0:
352,238,29515,2,0,L|233:218,1,105,2|0,3:2|2:0,2:0:0:0:
212,198,29864,2,0,L|227:277,1,70,2|0,3:2|2:0,2:0:0:0:
151,307,30212,6,0,L|137:238,1,70,6|2,3:2|2:0,2:0:0:0:
81,176,30561,2,0,L|92:125,3,35,2|0|0|0,3:2|2:0|2:0|2:0,2:0:0:0:
118,111,30910,2,0,B|165:102|165:102|200:112,1,70,2|0,3:2|2:0,2:0:0:0:
217,144,31172,1,2,3:2:0:0:
217,144,31259,1,0,2:0:0:0:
290,103,31433,2,0,P|304:139|286:187,1,70,2|0,3:2|2:0,2:0:0:0:
240,230,31782,5,2,3:2:0:0:
240,230,31869,1,2,2:0:0:0:
240,230,31957,2,0,P|226:266|244:314,1,70,2|2,3:2|2:0,2:0:0:0:
296,349,32306,2,0,B|344:344|344:344|380:323,1,70,2|2,3:2|2:0,2:0:0:0:
400,312,32567,1,0,2:0:0:0:
400,312,32654,2,0,L|390:231,1,70,2|2,3:2|2:0,2:0:0:0:
331,182,33003,5,6,3:2:0:0:
437,51,33352,2,0,L|445:95,3,35,2|2|2|0,2:0|2:0|2:0|2:0,2:0:0:0:
464,122,33701,2,0,L|380:106,1,70,2|0,3:2|2:0,2:0:0:0:
366,86,33962,1,2,3:2:0:0:
366,86,34050,2,0,L|282:70,1,70,0|0,2:0|3:0,2:0:0:0:
215,92,34399,6,0,B|196:122|196:122|209:164,1,70,6|0,3:2|2:0,2:0:0:0:
285,183,34747,2,0,B|304:213|304:213|291:255,1,70,6|0,3:2|2:0,2:0:0:0:
228,299,35096,2,0,B|157:284|157:284|115:306,1,105,6|0,3:2|2:0,2:0:0:0:
92,322,35445,1,12,2:0:0:0:
16,46,36143,6,0,L|86:57,1,70,14|0,2:0|2:0,2:0:0:0:
115,92,36404,1,0,2:0:0:0:
115,92,36492,2,0,P|147:71|192:66,1,70,0|0,3:0|2:0,2:0:0:0:
213,42,36753,1,0,3:0:0:0:
213,42,36840,1,0,2:0:0:0:
270,103,37015,2,0,L|257:182,1,70,0|0,3:0|2:0,2:0:0:0:
189,213,37364,5,2,3:2:0:0:
189,213,37451,1,2,2:0:0:0:
189,213,37538,2,0,P|155:196|103:196,1,70,10|2,2:0|2:0,2:0:0:0:
50,234,37887,2,0,B|33:267|33:267|50:317,1,70,2|2,3:2|2:0,2:0:0:0:
81,327,38149,1,0,2:0:0:0:
81,327,38236,2,0,L|158:314,1,70,8|2,2:0|2:0,2:0:0:0:
228,285,38585,6,0,B|284:296|284:296|312:323|312:323|371:333,1,140,6|10,3:2|2:0,2:0:0:0:
429,286,39108,1,2,2:0:0:0:
429,286,39195,1,0,2:0:0:0:
429,286,39282,2,0,B|415:251|440:216|440:216|423:198|416:169,2,105,0|2|2,3:0|3:2|3:2,2:0:0:0:
346,270,39980,6,0,B|305:257|305:257|268:263,1,70,0|2,3:0|2:0,2:0:0:0:
218,321,40329,2,0,B|177:334|177:334|140:328,1,70,10|0,2:0|2:0,2:0:0:0:
69,307,40678,2,0,P|31:273|127:265,1,210,6|0,3:2|1:0,2:0:0:0:
203,214,41375,6,0,L|212:138,1,70,6|2,3:2|2:0,2:0:0:0:
292,123,41724,2,0,L|283:192,1,70,8|0,2:0|2:0,2:0:0:0:
314,228,41986,1,0,2:0:0:0:
314,228,42073,2,0,B|345:241|345:241|408:229,1,70,2|0,3:2|2:0,2:0:0:0:
411,205,42335,1,2,3:2:0:0:
411,205,42422,1,0,2:0:0:0:
475,258,42596,2,0,L|461:336,1,70,2|0,3:2|2:0,2:0:0:0:
386,363,42945,5,2,3:2:0:0:
386,363,43032,1,2,2:0:0:0:
386,363,43119,2,0,P|346:333|314:329,1,70,10|2,2:0|2:0,2:0:0:0:
255,284,43468,2,0,L|175:297,1,70,2|2,3:2|2:0,2:0:0:0:
153,277,43730,1,0,2:0:0:0:
153,277,43817,2,0,B|130:247|130:247|150:188,1,70,10|2,2:0|2:0,2:0:0:0:
208,166,44166,5,6,3:2:0:0:
108,30,44515,2,0,L|98:81,3,35,2|2|2|0,2:0|2:0|2:0|2:0,2:0:0:0:
76,98,44864,2,0,L|145:86,1,70,8|2,2:0|2:0,2:0:0:0:
186,72,45125,1,2,2:0:0:0:
186,72,45212,2,0,B|205:94|205:94|193:142,1,70,2|2,2:0|2:0,2:0:0:0:
256,191,45561,5,4,3:2:0:0:
85,26,48352,6,0,L|66:181,1,140,6|0,3:2|3:0,2:0:0:0:
124,227,48875,1,2,2:0:0:0:
198,188,49050,2,0,P|236:183|286:183,1,70,2|0,3:2|2:0,2:0:0:0:
341,142,49399,1,0,3:0:0:0:
397,210,49573,1,2,2:0:0:0:
397,210,49747,6,0,P|397:265|333:310,2,105,2|0|2,3:2|2:0|2:0,2:0:0:0:
478,180,50445,1,6,3:2:0:0:
478,180,50619,1,0,2:0:0:0:
432,110,50794,2,0,P|423:73|432:28,1,70,2|0,3:2|2:0,2:0:0:0:
462,17,51056,1,0,2:0:0:0:
462,17,51143,6,0,L|382:7,1,70,6|0,3:2|2:0,2:0:0:0:
336,71,51492,2,0,L|256:81,1,70,2|0,3:2|2:0,2:0:0:0:
191,42,51840,2,0,P|182:92|196:124,1,70,2|2,3:2|2:0,2:0:0:0:
244,170,52189,2,0,P|253:220|239:252,1,70,2|0,3:2|2:0,2:0:0:0:
172,276,52538,6,0,P|136:242|66:262,1,105,6|0,3:2|2:0,2:0:0:0:
50,273,52887,2,0,P|44:226|36:183,1,70,2|2,3:2|2:0,2:0:0:0:
30,120,53236,2,0,B|82:129|82:129|106:157|106:157|165:168,1,140,2|2,3:2|3:2,2:0:0:0:
234,128,53759,1,0,2:0:0:0:
234,128,53846,1,0,2:0:0:0:
234,128,53933,6,0,P|250:93|173:69,1,140,6|0,3:2|3:0,2:0:0:0:
128,136,54457,1,2,2:0:0:0:
128,136,54631,2,0,P|154:182|127:273,1,140,2|0,3:2|3:0,2:0:0:0:
69,314,55154,1,2,2:0:0:0:
69,314,55329,6,0,B|119:304|119:304|160:318|160:318|218:307,1,140,6|2,3:2|3:2,2:0:0:0:
278,350,55852,2,0,L|299:197,1,140,2|0,2:0|2:0,2:0:0:0:
277,179,56288,1,0,2:0:0:0:
277,179,56375,2,0,P|236:185|196:197,1,70,2|0,3:2|2:0,2:0:0:0:
138,146,56724,6,0,P|122:107|140:62,1,70,6|2,3:2|2:0,2:0:0:0:
188,23,57073,1,2,3:2:0:0:
188,23,57247,1,2,2:0:0:0:
256,71,57422,2,0,P|292:74|329:70,1,70,2|0,3:2|2:0,2:0:0:0:
360,46,57683,1,2,2:0:0:0:
360,46,57771,2,0,P|396:43|433:47,1,70,0|2,3:0|2:0,2:0:0:0:
488,106,58119,6,0,B|462:137|462:137|478:207,1,105,6|0,3:2|2:0,2:0:0:0:
498,236,58468,2,0,L|430:218,1,70,6|0,3:2|2:0,2:0:0:0:
361,267,58817,2,0,B|335:236|335:236|351:166,1,105,6|0,3:2|2:0,2:0:0:0:
371,137,59166,2,0,L|303:155,1,70,6|0,3:2|2:0,2:0:0:0:
230,197,59515,6,0,P|202:157|130:152,1,105,6|0,3:2|2:0,2:0:0:0:
128,108,59864,2,0,P|95:124|58:130,1,70,10|0,2:0|2:0,2:0:0:0:
10,196,60212,1,2,3:2:0:0:
10,196,60387,1,2,2:0:0:0:
71,252,60561,2,0,P|104:236|141:230,1,70,10|2,2:0|2:0,2:0:0:0:
207,185,60910,6,0,B|227:217|227:217|217:266,2,70,6|2|8,3:2|2:0|2:0,2:0:0:0:
311,52,61608,2,0,P|347:80|419:78,1,105,2|0,3:2|2:0,2:0:0:0:
441,62,61957,2,0,L|426:141,1,70,10|0,2:0|2:0,2:0:0:0:
483,194,62306,6,0,B|439:216|439:216|370:203,1,105,6|0,3:2|2:0,2:0:0:0:
354,235,62654,2,0,L|339:156,1,70,10|0,2:0|2:0,2:0:0:0:
276,120,63003,1,2,3:2:0:0:
276,120,63178,1,2,2:0:0:0:
206,166,63352,2,0,P|177:161|127:157,1,70,10|2,2:0|2:0,2:0:0:0:
74,99,63701,6,0,P|52:138|63:206,1,105,6|0,3:2|2:0,2:0:0:0:
88,225,64050,2,0,P|78:266|73:302,1,70,8|0,2:0|2:0,2:0:0:0:
155,312,64399,2,0,P|160:277|169:243,1,70,2|0,3:2|2:0,2:0:0:0:
207,223,64660,1,0,2:0:0:0:
207,223,64747,2,0,P|243:230|282:237,1,70,10|0,2:0|2:0,2:0:0:0:
347,191,65096,6,0,B|368:154|368:154|352:79,1,105,6|0,3:2|2:0,2:0:0:0:
386,64,65445,2,0,L|304:50,1,70,10|0,2:0|2:0,2:0:0:0:
260,114,65794,1,2,3:2:0:0:
260,114,65968,1,0,2:0:0:0:
192,63,66143,2,0,P|174:96|181:146,1,70,8|2,2:0|2:0,2:0:0:0:
191,210,66492,6,0,B|124:197|124:197|80:216,1,105,6|0,3:2|2:0,2:0:0:0:
51,196,66840,2,0,L|66:281,1,70,10|0,2:0|2:0,2:0:0:0:
96,342,67189,2,0,P|125:315|170:310,1,70,2|2,3:2|2:0,2:0:0:0:
191,286,67451,1,0,2:0:0:0:
191,286,67538,2,0,P|220:313|265:318,1,70,10|0,2:0|2:0,2:0:0:0:
309,377,67887,6,0,P|332:334|304:260,1,105,6|0,3:2|2:0,2:0:0:0:
301,243,68236,2,0,L|379:262,1,70,10|0,2:0|2:0,2:0:0:0:
365,175,68585,2,0,L|258:150,1,105,0|0,3:2|2:0,2:0:0:0:
225,169,68933,2,0,P|202:126|211:82,1,70,8|0,2:0|2:0,2:0:0:0:
256,41,69282,2,0,P|310:57|399:27,3,140,6|10|2|10,3:2|2:0|3:2|2:0,2:0:0:0:
494,166,70678,5,6,3:2:0:0:
432,251,71026,1,0,3:2:0:0:
332,218,71375,1,0,3:2:0:0:
332,113,71724,1,0,3:2:0:0:
432,81,72073,6,0,B|453:125|453:125|431:224,1,140,0|0,3:0|3:0,2:0:0:0:
333,351,72771,2,0,B|312:307|312:307|334:208,1,140,0|0,3:0|3:0,2:0:0:0:
228,85,73468,5,0,3:0:0:0:
166,8,73817,1,0,3:0:0:0:
66,33,74166,1,0,3:0:0:0:
66,138,74515,1,0,3:0:0:0:
166,170,74864,6,0,B|218:182|218:182|263:170|263:170|311:180,1,140,0|0,3:0|3:0,2:0:0:0:
412,304,75561,2,0,B|360:292|360:292|315:304|315:304|267:294,1,140,2|0,3:2|3:0,2:0:0:0:
114,343,76259,6,0,P|93:309|93:267,1,70,0|0,3:0|2:0,2:0:0:0:
49,207,76608,2,0,P|74:176|114:163,1,70,0|2,3:0|2:0,2:0:0:0:
158,104,76957,2,0,P|194:119|219:153,1,70,0|2,3:0|2:0,2:0:0:0:
290,176,77306,2,0,P|287:215|262:249,1,70,0|2,3:0|2:0,2:0:0:0:
262,322,77654,6,0,P|228:332|194:325,3,70,0|0|0|0,3:2|2:0|3:0|2:0,2:0:0:0:
157,250,78352,2,0,P|165:216|188:190,3,70,0|2|0|2,3:0|2:0|3:0|2:0,2:0:0:0:
266,220,79050,6,0,L|338:234,3,70,0|0|0|2,3:0|2:0|3:0|2:0,2:0:0:0:
317,151,79747,2,0,L|245:137,3,70,0|2|0|2,3:0|2:0|3:0|2:0,2:0:0:0:
188,77,80445,6,0,P|167:111|167:153,1,70,0|0,3:2|2:0,2:0:0:0:
123,213,80794,2,0,P|148:243|188:256,1,70,0|2,3:0|2:0,2:0:0:0:
232,316,81143,2,0,P|268:300|293:266,1,70,0|2,3:0|2:0,2:0:0:0:
364,244,81492,2,0,P|361:204|336:170,1,70,0|2,3:0|2:0,2:0:0:0:
336,97,81840,6,0,P|302:87|268:94,1,70,6|0,3:2|2:0,2:0:0:0:
234,79,82102,1,0,2:0:0:0:
234,79,82189,2,0,L|247:152,1,70,2|0,3:2|1:0,2:0:0:0:
189,209,82538,2,0,L|147:200,3,35,2|0|0|0,3:2|1:0|1:0|1:0,2:0:0:0:
125,171,82887,2,0,L|56:189,1,70,2|0,3:2|2:0,2:0:0:0:
13,260,83236,6,0,L|54:268,1,35,2|0,3:2|1:0,2:0:0:0:
113,317,83497,2,0,L|154:309,1,35,0|0,1:0|3:0,2:0:0:0:
212,256,83759,1,0,1:0:0:0:
170,183,83933,2,0,P|167:167|175:141,3,35,0|0|0|0,3:0|1:0|1:0|1:0,2:0:0:0:
203,122,84282,2,0,P|206:106|198:80,3,35,0|0|0|0,3:0|1:0|1:0|1:0,2:0:0:0:
179,52,84631,6,0,L|266:63,1,70,0|0,3:0|2:0,2:0:0:0:
292,50,84893,1,0,1:0:0:0:
292,50,84980,2,0,P|310:85|301:131,1,70,0|0,3:0|2:0,2:0:0:0:
260,184,85329,2,0,P|255:204|260:230,3,35,0|0|2|0,3:0|1:0|1:2|1:0,2:0:0:0:
287,246,85678,2,0,L|273:329,1,70,2|2,3:2|1:2,2:0:0:0:
359,318,86026,6,0,L|367:267,1,35,2|0,3:2|1:0,2:0:0:0:
432,233,86288,2,0,L|424:182,1,35,0|2,1:0|3:2,2:0:0:0:
366,139,86550,1,0,1:0:0:0:
424,78,86724,6,0,P|430:58|422:35,3,35,2|0|2|0,3:2|1:0|1:2|1:0,2:0:0:0:
398,13,87073,2,0,L|346:23,3,35,0|0|2|0,3:0|1:0|1:2|1:0,2:0:0:0:
328,42,87422,5,6,3:2:0:0:
220,171,87771,2,0,L|168:161,4,35,0|0|0|0|0,3:0|1:0|1:0|2:0|3:0,2:0:0:0:
300,209,88294,1,0,1:0:0:0:
300,209,88468,2,0,L|381:194,1,70,2|0,3:2|1:0,2:0:0:0:
229,252,88817,6,0,L|219:296,4,35,2|0|0|0|2,3:2|1:0|1:0|1:0|3:2,2:0:0:0:
300,209,89340,1,0,1:0:0:0:
300,209,89515,2,0,L|320:121,1,70,2|2,3:2|1:2,2:0:0:0:
249,88,89864,2,0,L|269:0,1,70,0|2,3:0|1:2,3:0:0:0:
348,22,90212,6,0,B|373:25|373:25|393:43,3,35,2|0|0|0,3:2|1:0|3:0|1:0,2:0:0:0:
421,42,90561,2,0,B|425:66|425:66|414:91,3,35,0|0|0|0,3:0|1:0|3:0|1:0,1:0:0:0:
437,115,90910,2,0,B|415:127|415:127|388:124,3,35,0|0|0|0,3:0|1:0|3:0|1:0,1:0:0:0:
369,149,91259,2,0,B|350:131|350:131|344:105,3,35,0|0|0|0,3:0|1:0|3:0|1:0,1:0:0:0:
314,97,91608,5,6,3:2:0:0:
89,333,93003,6,0,P|58:315|47:267,1,70,6|0,3:2|2:0,2:0:0:0:
69,203,93352,2,0,P|100:185|147:199,1,70,2|0,3:2|2:0,2:0:0:0:
194,246,93701,2,0,B|193:281|171:313|171:313|169:296|151:279,2,105,2|2|2,3:2|3:2|3:2,2:0:0:0:
256,189,94399,5,4,3:2:0:0:
256,189,94573,1,2,2:0:0:0:
256,105,94747,2,0,L|256:30,1,70,2|0,3:2|2:0,2:0:0:0:
334,4,95096,2,0,B|387:34|387:34|445:24,2,105,2|2|2,3:2|3:2|3:2,2:0:0:0:
256,35,95794,6,0,P|226:52|212:83,1,70,6|0,3:2|2:0,2:0:0:0:
236,165,96143,2,0,P|265:182|299:178,1,70,2|0,3:2|2:0,2:0:0:0:
361,122,96492,2,0,B|360:86|338:55|338:55|336:72|323:83,2,105,2|2|2,3:2|3:2|3:2,2:0:0:0:
439,164,97189,5,6,3:2:0:0:
439,164,97364,1,2,2:0:0:0:
374,217,97538,2,0,L|364:295,1,70,2|0,3:2|2:0,2:0:0:0:
391,366,97887,2,0,B|426:343|426:343|498:351,2,105,2|2|2,3:2|3:2|3:2,2:0:0:0:
307,355,98585,6,0,P|277:337|263:306,1,70,6|0,3:2|2:0,2:0:0:0:
287,225,98933,2,0,P|316:207|350:211,1,70,2|0,3:2|2:0,2:0:0:0:
412,268,99282,2,0,B|411:303|389:335|389:335|387:318|374:306,2,105,2|2|2,3:2|3:2|3:2,2:0:0:0:
493,247,99980,6,0,P|476:205|476:171,1,70,6|0,3:2|2:0,2:0:0:0:
396,151,100329,2,0,P|413:109|413:75,1,70,2|2,3:2|2:0,2:0:0:0:
357,21,100678,2,0,B|405:48|405:48|457:38,2,105,0|2|2,3:2|3:2|3:2,2:0:0:0:
300,82,101375,6,0,P|329:99|343:130,1,70,6|0,3:2|2:0,2:0:0:0:
320,212,101724,2,0,P|290:229|256:225,1,70,2|0,3:2|2:0,2:0:0:0:
195,169,102073,2,0,B|195:133|218:102|218:102|220:119|232:130,2,105,2|2|2,3:2|3:2|3:2,2:0:0:0:
153,242,102771,6,0,P|123:225|87:227,1,70,6|0,3:2|2:0,2:0:0:0:
52,216,103032,1,0,1:0:0:0:
52,216,103119,2,0,L|68:291,1,70,6|0,3:2|1:0,2:0:0:0:
137,329,103468,2,0,P|167:346|203:344,1,70,6|0,3:2|2:0,2:0:0:0:
239,372,103730,1,0,1:0:0:0:
239,372,103817,2,0,L|255:297,1,70,6|0,3:2|1:0,2:0:0:0:
218,227,104166,6,0,L|204:148,1,70,6|0,3:2|2:0,2:0:0:0:
199,74,104515,2,0,B|232:79|232:79|246:93|246:93|282:95,1,70,10|0,2:0|2:0,2:0:0:0:
343,70,104864,2,0,P|381:46|446:43,2,105,2|2|2,3:2|3:2|3:2,2:0:0:0:
321,150,105561,6,0,B|309:186|309:186|321:222,2,70,6|2|10,3:2|2:0|2:0,2:0:0:0:
197,39,106259,2,0,P|156:35|99:88,1,105,2|2,3:2|3:2,2:0:0:0:
63,69,106608,2,8,P|77:115|83:152,1,70,8|2,2:0|3:2,2:0:0:0:
130,204,106957,6,0,P|173:194|207:192,1,70,6|0,3:2|2:0,2:0:0:0:
267,143,107306,2,0,P|310:153|344:155,1,70,10|0,2:0|2:0,2:0:0:0:
396,212,107654,2,0,P|433:228|501:192,2,105,2|2|2,3:2|3:2|3:2,2:0:0:0:
315,238,108352,6,0,B|295:280|295:280|311:343,1,105,6|0,3:2|2:0,2:0:0:0:
338,367,108701,2,0,L|258:356,1,70,10|0,2:0|2:0,2:0:0:0:
206,300,109050,2,0,P|172:325|119:326,1,70,2|0,3:2|2:0,2:0:0:0:
107,340,109311,1,0,3:2:0:0:
107,340,109399,2,0,L|121:267,1,70,8|2,2:0|3:2,2:0:0:0:
70,203,109747,6,0,P|56:167|66:128,1,70,6|0,3:2|2:0,2:0:0:0:
0,78,110096,2,0,P|29:53|70:51,1,70,10|0,2:0|2:0,2:0:0:0:
132,5,110445,2,0,P|172:43|231:45,2,105,2|2|2,3:2|3:2|3:2,2:0:0:0:
74,68,111143,6,0,L|53:190,1,105,6|0,3:2|2:0,2:0:0:0:
31,205,111492,2,0,L|117:192,1,70,10|0,2:0|2:0,2:0:0:0:
164,140,111840,2,0,P|193:168|238:172,1,70,2|0,3:2|2:0,2:0:0:0:
249,212,112102,1,2,3:2:0:0:
249,212,112189,2,0,P|278:184|323:180,1,70,8|2,2:0|3:2,2:0:0:0:
377,221,112538,6,0,L|388:143,1,70,6|0,3:2|2:0,2:0:0:0:
455,234,112887,2,0,L|466:156,1,70,10|0,2:0|2:0,2:0:0:0:
430,87,113236,2,0,B|392:103|392:103|357:87|318:103,2,105,2|2|2,3:2|3:2|3:2,2:0:0:0:
478,18,113933,5,6,3:2:0:0:
478,18,114631,2,0,L|468:94,1,70,6|0,2:0|2:0,2:0:0:0:
395,45,114980,2,0,L|385:121,1,70,6|0,2:0|2:0,2:0:0:0:
323,170,115329,6,0,B|308:160|296:135|296:135|265:114|212:145,1,105,6|0,3:2|2:0,2:0:0:0:
205,160,115678,2,0,P|167:170|119:150,1,70,10|0,2:0|2:0,2:0:0:0:
102,140,115939,1,2,2:0:0:0:
102,140,116026,2,0,B|86:102|86:102|94:69,1,70,2|2,3:2|2:0,2:0:0:0:
160,23,116375,2,0,B|176:61|176:61|168:94,1,70,10|2,2:0|3:2,2:0:0:0:
211,167,116724,5,6,3:2:0:0:
211,167,116899,1,2,2:0:0:0:
285,128,117073,2,0,P|348:118|394:132,1,105,10|0,2:0|2:0,2:0:0:0:
426,113,117422,2,0,L|412:187,1,70,2|0,3:2|2:0,2:0:0:0:
451,262,117771,1,10,2:0:0:0:
451,262,117945,1,2,3:2:0:0:
383,310,118119,6,0,B|364:292|362:270|362:270|327:254|282:276,1,105,6|0,3:2|2:0,2:0:0:0:
270,292,118468,2,0,L|278:211,1,70,10|0,2:0|2:0,2:0:0:0:
253,193,118730,1,2,2:0:0:0:
253,193,118817,2,0,P|210:198|174:185,1,70,2|2,3:2|2:0,2:0:0:0:
152,112,119166,2,0,P|195:107|231:120,1,70,10|2,2:0|3:2,2:0:0:0:
293,69,119515,5,6,3:2:0:0:
293,69,119689,1,2,2:0:0:0:
349,6,119864,2,0,P|376:44|367:112,1,105,10|0,2:0|2:0,2:0:0:0:
348,135,120212,2,0,L|359:211,1,70,2|0,3:2|2:0,2:0:0:0:
430,256,120561,1,8,2:0:0:0:
430,256,120736,1,2,3:2:0:0:
384,326,120910,6,0,B|346:317|346:317|324:327|324:327|301:311|261:314,1,105,6|0,3:2|2:0,2:0:0:0:
254,344,121259,2,0,L|242:268,1,70,10|0,2:0|2:0,2:0:0:0:
244,236,121521,1,0,2:0:0:0:
244,236,121608,2,0,P|196:263|158:263,1,70,2|2,3:2|2:0,2:0:0:0:
117,319,121957,2,0,P|76:281|64:245,1,70,10|2,2:0|3:2,2:0:0:0:
48,192,122306,5,6,3:2:0:0:
48,192,122480,1,2,2:0:0:0:
117,144,122654,2,0,P|134:108|119:34,1,105,10|0,2:0|2:0,2:0:0:0:
101,10,123003,2,0,L|177:20,1,70,2|0,3:2|2:0,2:0:0:0:
246,67,123352,1,10,2:0:0:0:
246,67,123526,1,2,3:2:0:0:
213,144,123701,6,0,B|225:177|200:204|200:204|219:227|209:262,1,105,6|0,3:2|2:0,2:0:0:0:
188,276,124050,2,0,P|233:266|271:263,1,70,10|0,2:0|2:0,2:0:0:0:
292,239,124311,1,2,2:0:0:0:
292,239,124399,2,0,P|337:249|375:252,1,70,2|2,3:2|2:0,2:0:0:0:
431,295,124747,2,0,P|447:254|430:212,1,70,10|2,2:0|3:2,2:0:0:0:
382,169,125096,6,0,P|363:122|378:58,1,105,6|0,3:2|2:0,2:0:0:0:
403,41,125445,2,0,L|313:22,1,70,6|0,3:2|2:0,2:0:0:0:
250,36,125794,2,0,P|269:83|254:147,1,105,6|0,3:2|2:0,2:0:0:0:
283,171,126143,2,0,L|193:190,1,70,6|0,3:2|2:0,2:0:0:0:
144,138,126492,6,0,P|106:138|71:165,1,70,6|0,3:2|2:0,2:0:0:0:
55,189,126753,1,0,2:0:0:0:
55,189,126840,2,0,L|71:276,1,70,8|0,2:0|2:0,2:0:0:0:
53,300,127102,1,2,2:0:0:0:
53,300,127189,2,0,P|96:285|139:298,1,70,2|2,3:2|2:0,2:0:0:0:
186,338,127538,2,0,P|229:353|272:340,1,70,10|2,2:0|3:2,2:0:0:0:
317,295,127887,5,6,3:2:0:0:
317,295,128061,1,2,2:0:0:0:
261,231,128236,2,0,B|254:203|231:197|231:197|213:159|241:117,1,105,10|0,2:0|2:0,2:0:0:0:
249,104,128585,2,0,P|286:114|324:117,1,70,2|0,3:2|2:0,2:0:0:0:
392,77,128933,1,10,2:0:0:0:
392,77,129108,1,2,3:2:0:0:
449,138,129282,6,0,B|439:160|439:160|444:178|444:178|435:207,1,70,6|0,3:2|2:0,2:0:0:0:
460,245,129544,1,0,2:0:0:0:
460,245,129631,2,0,P|423:235|385:232,1,70,10|0,2:0|2:0,2:0:0:0:
363,208,129893,1,2,2:0:0:0:
363,208,129980,2,0,P|326:218|288:221,1,70,2|2,3:2|2:0,2:0:0:0:
219,258,130329,2,0,P|208:217|224:177,1,70,10|2,2:0|3:2,2:0:0:0:
279,136,130678,5,6,3:2:0:0:
279,136,130852,1,2,2:0:0:0:
219,76,131026,2,0,P|175:88|103:62,1,105,10|0,2:0|2:0,2:0:0:0:
92,40,131375,2,0,L|106:122,1,70,2|0,3:2|2:0,2:0:0:0:
59,182,131724,1,10,2:0:0:0:
59,182,131899,1,2,3:2:0:0:
108,249,132073,6,0,P|146:228|186:232,1,70,6|0,3:2|2:0,2:0:0:0:
214,215,132335,1,0,2:0:0:0:
214,215,132422,2,0,L|199:293,1,70,10|0,2:0|2:0,2:0:0:0:
229,321,132683,1,2,2:0:0:0:
229,321,132771,2,0,P|267:342|307:338,1,70,2|2,3:2|2:0,2:0:0:0:
372,366,133119,2,0,P|403:336|412:297,1,70,10|2,2:0|3:2,2:0:0:0:
464,247,133468,5,6,3:2:0:0:
464,247,133643,1,0,2:0:0:0:
446,165,133817,2,0,B|422:167|400:187|400:187|370:198|326:167,1,105,10|0,2:0|2:0,2:0:0:0:
320,149,134166,2,0,P|291:137|243:145,1,70,2|0,3:2|2:0,2:0:0:0:
224,171,134428,1,0,3:0:0:0:
224,171,134515,2,0,L|141:156,1,70,10|2,2:0|3:2,2:0:0:0:
85,111,134864,6,0,B|121:132|120:175|120:175|97:191|87:220,1,105,6|0,3:2|2:0,2:0:0:0:
74,227,135212,2,0,P|54:256|60:298,1,70,10|0,2:0|2:0,2:0:0:0:
87,325,135474,1,2,2:0:0:0:
87,325,135561,2,0,P|129:315|166:316,1,70,2|2,3:2|2:0,2:0:0:0:
222,262,135910,2,0,P|264:272|301:271,1,70,10|2,2:0|3:2,2:0:0:0:
370,298,136259,5,6,3:2:0:0:
420,230,136433,1,2,2:0:0:0:
370,162,136608,1,6,3:2:0:0:
290,188,136782,1,0,2:0:0:0:
290,272,136957,5,6,3:2:0:0:
215,309,137131,2,0,L|176:299,1,35,0|0,3:0|3:0,2:0:0:0:
126,236,137393,2,0,L|87:226,1,35,0|0,3:0|3:0,2:0:0:0:
33,167,137654,5,6,3:2:0:0:
256,192,137742,12,2,141840,2:0:0:0:
36,334,143236,6,0,B|94:325|94:325|118:301|118:301|190:294,1,140,6|0,3:2|2:0,2:0:0:0:
239,346,143759,1,2,2:0:0:0:
239,346,143933,2,0,B|252:293|252:293|239:258|239:258|251:209,1,140,10|0,2:0|2:0,2:0:0:0:
182,170,144457,1,2,2:0:0:0:
182,170,144631,6,0,B|169:117|169:117|182:82|182:82|170:33,1,140,6|0,3:2|2:0,2:0:0:0:
243,0,145154,2,0,B|279:42|326:36|326:36|346:16|379:18,1,140,6|0,3:2|2:0,2:0:0:0:
380,101,145678,1,6,3:2:0:0:
275,232,146026,6,0,B|262:275|262:275|270:305|270:305|255:364,1,105,2|0,2:0|2:0,2:0:0:0:
299,353,146375,2,0,L|206:365,1,70,2|0,2:0|2:0,2:0:0:0:
180,300,146724,1,10,2:0:0:0:
180,300,146899,1,2,2:0:0:0:
113,353,147073,2,0,P|95:317|104:271,1,70,2|0,2:0|2:0,2:0:0:0:
147,220,147422,6,0,P|110:206|19:251,1,140,6|0,3:2|2:0,2:0:0:0:
128,113,148119,2,0,P|165:127|256:82,1,140,14|0,3:2|2:0,2:0:0:0:
396,1,148817,6,0,B|384:55|384:55|398:88|398:88|386:145,1,140,6|0,3:2|2:0,2:0:0:0:
314,173,149340,1,2,2:0:0:0:
314,173,149515,2,0,B|326:227|326:227|312:260|312:260|324:317,1,140,10|0,2:0|2:0,2:0:0:0:
384,372,150038,1,2,2:0:0:0:
384,372,150212,6,0,B|409:365|423:340|423:340|464:371|523:350,1,140,6|0,3:2|2:0,2:0:0:0:
481,274,150736,2,0,P|427:248|348:288,1,140,6|0,3:2|2:0,2:0:0:0:
288,227,151259,2,8,B|263:139|263:139|278:79,1,140,6|0,3:2|2:0,2:0:0:0:
274,91,152306,1,0,1:0:0:0:
274,91,153003,6,0,B|202:105|202:105|177:138|131:144,3,140,6|6|6|6,3:2|3:2|3:2|3:2,2:0:0:0:
38,269,154399,2,0,P|76:265|117:256,1,70,6|0,3:2|2:0,2:0:0:0:
181,218,154747,2,0,P|196:253|217:290,1,70,2|0,3:2|2:0,2:0:0:0:
272,338,155096,2,0,L|321:327,3,35,2|0|2|0,3:2|2:0|2:0|2:0,2:0:0:0:
344,347,155445,2,0,L|357:271,1,70,2|2,3:2|2:0,2:0:0:0:
307,215,155794,5,6,3:2:0:0:
307,215,155968,1,2,2:0:0:0:
375,166,156143,2,0,P|416:184|449:189,1,70,2|0,3:2|2:0,2:0:0:0:
334,97,156492,2,0,L|288:106,3,35,2|0|2|0,3:2|2:0|2:0|2:0,2:0:0:0:
264,126,156840,2,0,L|218:117,3,35,2|0|2|0,3:2|2:0|2:0|2:0,2:0:0:0:
199,89,157189,6,0,P|204:135|208:175,1,70,6|0,3:2|2:0,2:0:0:0:
146,217,157538,1,2,3:2:0:0:
146,217,157712,1,2,2:0:0:0:
207,274,157887,2,0,L|252:265,3,35,2|0|2|0,3:2|2:0|2:0|2:0,2:0:0:0:
272,239,158236,2,0,P|314:253|361:259,1,70,2|2,3:2|2:0,2:0:0:0:
395,319,158585,6,0,P|421:284|441:241,1,70,6|0,3:2|2:0,2:0:0:0:
501,211,158933,2,0,P|475:175|440:143,1,70,2|0,3:2|2:0,2:0:0:0:
498,83,159282,2,0,B|441:74|441:74|412:86|412:86|352:78,1,140,6|2,3:2|2:0,2:0:0:0:
214,161,159980,6,0,P|166:164|109:124,2,105,6|2|0,3:2|3:2|3:0,2:0:0:0:
198,243,160678,2,0,P|186:290|130:332,2,105,6|0|0,3:2|3:0|3:0,2:0:0:0:
278,219,161375,6,0,P|320:231|368:219,1,70,6|0,3:2|2:0,2:0:0:0:
381,204,161637,1,0,3:0:0:0:
381,204,161724,2,0,P|415:201|448:213,1,70,0|0,2:0|3:2,2:0:0:0:
487,317,162073,6,0,P|453:320|420:308,1,70,6|0,3:2|2:0,2:0:0:0:
388,288,162335,1,0,3:0:0:0:
388,288,162422,2,0,P|355:275|320:278,1,70,0|0,2:0|3:0,2:0:0:0:
256,332,162771,6,0,B|237:340|237:340|209:333,3,35,6|0|2|0,3:2|1:0|3:2|1:0,2:0:0:0:
189,311,163119,2,0,B|170:303|170:303|142:310,3,35,0|0|0|0,3:0|1:0|3:0|1:0,2:0:0:0:
116,323,163468,2,0,L|129:271,3,35,0|0|0|0,3:0|1:0|3:0|1:0,2:0:0:0:
143,252,163817,2,0,L|130:200,3,35,0|0|0|0,3:0|1:0|3:0|1:0,2:0:0:0:
120,179,164166,5,6,3:2:0:0:
0,23,165561,6,0,B|56:32|56:32|79:58|79:58|136:67,1,140,2|2,2:0|2:0,2:0:0:0:
198,128,166085,1,2,2:0:0:0:
198,128,166172,1,2,2:0:0:0:
198,128,166259,2,0,P|231:103|311:100,2,105,6|6|6,3:2|3:2|3:2,2:0:0:0:
43,180,167131,5,2,3:2:0:0:
43,180,167218,1,2,2:0:0:0:
43,180,167306,2,0,P|21:221|26:268,1,84,2|2,3:2|2:0,2:0:0:0:
84,319,167654,1,2,3:2:0:0:
158,357,167829,1,2,2:0:0:0:
217,298,168003,1,2,3:2:0:0:
179,223,168178,1,2,2:0:0:0:
96,236,168352,6,0,B|85:181|85:181|102:139|102:139|89:71,1,168,6|2,3:2|3:2,2:0:0:0:
159,24,168875,1,0,2:0:0:0:
159,24,168962,1,0,2:0:0:0:
159,24,169050,2,0,P|198:44|248:40,1,84,2|0,3:2|2:0,2:0:0:0:
279,30,169311,1,2,3:2:0:0:
279,30,169399,2,0,B|301:59|301:59|286:127,1,84,0|2,2:0|3:2,2:0:0:0:
217,146,169747,6,0,L|131:131,1,84,6|2,3:2|2:0,2:0:0:0:
285,192,170096,2,0,L|371:177,1,84,2|2,3:2|2:0,2:0:0:0:
210,227,170445,2,0,P|188:266|199:351,1,126,2|0,3:2|2:0,2:0:0:0:
235,359,170794,2,0,L|327:343,1,84,2|0,3:2|2:0,2:0:0:0:
339,263,171143,6,0,L|256:277,1,84,6|2,3:2|2:0,2:0:0:0:
203,211,171492,2,0,L|192:166,3,42,2|0|2|0,3:2|2:0|2:0|2:0,2:0:0:0:
165,138,171840,2,0,P|190:101|192:50,1,84,2|0,3:2|2:0,2:0:0:0:
176,30,172102,1,2,3:2:0:0:
176,30,172189,1,0,2:0:0:0:
256,4,172364,2,0,L|340:18,1,84,2|0,3:2|2:0,2:0:0:0:
366,107,172712,5,2,3:2:0:0:
366,107,172800,1,2,2:0:0:0:
366,107,172887,2,0,L|283:93,1,84,2|2,3:2|2:0,2:0:0:0:
199,103,173236,1,2,3:2:0:0:
119,129,173410,1,2,2:0:0:0:
119,213,173585,1,2,3:2:0:0:
199,239,173759,1,2,2:0:0:0:
248,171,173933,5,6,3:2:0:0:
377,64,174282,2,0,L|385:108,3,42,2|2|2|0,2:0|2:0|2:0|2:0,2:0:0:0:
404,135,174631,2,0,L|320:119,1,84,2|0,3:2|2:0,2:0:0:0:
306,99,174893,1,2,3:2:0:0:
306,99,174980,2,0,L|222:83,1,84,0|2,2:0|3:2,2:0:0:0:
171,17,175329,6,0,P|142:51|145:104,1,84,6|0,3:2|2:0,2:0:0:0:
108,167,175678,2,0,P|151:175|196:146,1,84,6|0,3:2|2:0,2:0:0:0:
250,104,176026,2,0,P|302:78|380:105,1,126,6|0,3:2|2:0,2:0:0:0:
397,120,176375,1,14,2:0:0:0:
494,336,177422,6,0,L|410:322,1,84,6|0,3:2|2:0,2:0:0:0:
387,294,177683,1,2,3:2:0:0:
387,294,177771,1,0,2:0:0:0:
312,332,177945,2,0,P|301:292|326:235,1,84,2|0,3:2|2:0,2:0:0:0:
373,194,178294,5,2,3:2:0:0:
373,194,178381,1,2,2:0:0:0:
373,194,178468,2,0,P|384:154|359:97,1,84,10|2,2:0|2:0,2:0:0:0:
298,70,178817,1,2,3:2:0:0:
217,46,178992,1,2,2:0:0:0:
169,115,179166,1,10,2:0:0:0:
219,182,179340,1,0,2:0:0:0:
299,154,179515,6,0,B|338:188|321:233|321:233|282:264|296:311,1,168,6|10,3:2|2:0,2:0:0:0:
373,355,180038,1,2,2:0:0:0:
373,355,180125,1,0,2:0:0:0:
373,355,180212,2,0,B|438:369|438:369|490:329,2,126,2|2|2,3:2|3:2|3:2,2:0:0:0:
303,307,180910,6,0,B|260:296|260:296|241:305|214:304,1,84,6|2,3:2|2:0,2:0:0:0:
152,352,181259,2,0,B|109:363|109:363|90:354|63:355,1,84,10|0,2:0|2:0,2:0:0:0:
15,290,181608,2,0,B|-24:235|12:180|12:180|54:188|67:221,1,168,6|8,3:2|2:0,2:0:0:0:
130,261,182131,1,0,1:0:0:0:
130,261,182218,1,0,1:0:0:0:
130,261,182306,6,0,L|140:173,1,84,6|2,3:2|2:0,2:0:0:0:
220,156,182654,2,0,L|210:239,1,84,10|2,2:0|2:0,2:0:0:0:
244,272,182916,1,0,2:0:0:0:
244,272,183003,2,0,B|288:271|288:271|310:291|310:291|334:270|376:278,2,126,2|2|2,3:2|3:2|3:2,2:0:0:0:
126,167,183875,5,2,2:0:0:0:
126,167,183962,1,2,2:0:0:0:
126,167,184050,2,0,P|115:121|142:74,1,84,10|2,2:0|2:0,2:0:0:0:
199,47,184399,1,2,3:2:0:0:
278,21,184573,1,0,2:0:0:0:
328,89,184747,1,10,2:0:0:0:
278,156,184922,1,2,2:0:0:0:
198,131,185096,5,6,3:2:0:0:
101,267,185445,2,0,L|92:216,3,42,2|2|2|0,2:0|2:0|2:0|2:0,2:0:0:0:
65,193,185794,2,0,L|148:208,1,84,8|2,2:0|2:0,2:0:0:0:
184,238,186056,1,2,2:0:0:0:
184,238,186143,2,0,L|267:253,1,84,2|0,2:0|2:0,2:0:0:0:
349,270,186492,5,6,3:2:0:0:
8,69,187887,6,0,B|183:19|124:178|323:110,1,315.000000000001,6|0,3:2|2:0,2:0:0:0:
388,176,189282,2,0,P|428:218|304:210,1,315.000000000001,2|0,2:0|2:0,2:0:0:0:
228,138,190678,6,0,B|106:98|131:192|23:149|23:149|68:164|81:229,1,315.000000000001,0|0,2:0|2:0,2:0:0:0:
21,312,192073,2,0,L|344:272,1,315.000000000001,2|0,2:0|2:0,2:0:0:0:
438,274,193468,6,0,B|461:152|328:126|328:126|308:186|236:182,1,315.000000000001,0|0,2:0|2:0,2:0:0:0:
165,245,194864,2,0,P|29:232|62:72,1,315.000012016297,2|0,2:0|2:0,2:0:0:0:
130,30,196259,6,0,L|341:61,1,210.000008010865,0|10,2:0|2:0,2:0:0:0:
417,255,197654,2,0,L|206:224,1,210.000008010865,2|8,2:0|2:0,2:0:0:0:
54,367,199050,6,0,B|46:285|46:285|20:250|20:250|10:156,2,210.000000000001,6|10|2,2:0|2:0|2:0,2:0:0:0:
150,180,201143,1,10,2:0:0:0:
292,333,201840,6,0,P|352:351|465:268,2,210.000000000001,2|8|2,2:0|2:0|2:0,2:0:0:0:
150,180,203933,1,10,2:0:0:0:
306,39,204631,6,0,P|384:20|348:103,1,210.000000000001,2|8,2:0|2:0,2:0:0:0:
150,180,206026,2,0,P|72:161|108:244,1,210.000008010865,2|8,2:0|2:0,2:0:0:0:
297,330,207422,6,0,P|333:233|292:124,1,210.000000000001,2|8,2:0|2:0,2:0:0:0:
108,48,208817,2,0,P|73:146|114:255,1,210.000000000001,0|8,2:0|2:0,2:0:0:0:
298,163,210212,5,6,3:2:0:0:
256,192,210300,12,0,213003,2:0:0:0:
