osu file format v14

[General]
AudioFilename: audio.mp3
AudioLeadIn: 0
PreviewTime: 47116
Countdown: 0
SampleSet: Soft
StackLeniency: 0.4
Mode: 0
LetterboxInBreaks: 0
WidescreenStoryboard: 0

[Editor]
DistanceSpacing: 0.6
BeatDivisor: 8
GridSize: 32
TimelineZoom: 1.8

[Metadata]
Title:Still in my heart feat. Punipuni Denki
TitleUnicode:Still in my heart feat. ぷにぷに電機
Artist:PSYQUI
ArtistUnicode:PSYQUI
Creator:Setu
Version:Extra
Source:
Tags:shiratamamywife nathan sukinathan japanese electronic hardcore future core bass j-core jcore megarex fugene3 puniden
BeatmapID:4157963
BeatmapSetID:2000038

[Difficulty]
HPDrainRate:5.5
CircleSize:4
OverallDifficulty:8.8
ApproachRate:9.2
SliderMultiplier:1.6
SliderTickRate:1

[Events]
//Background and Video events
0,0,"110257210_p0.jpg",0,0
//Break Periods
//Storyboard Layer 0 (Background)
//Storyboard Layer 1 (Fail)
//Storyboard Layer 2 (Pass)
//Storyboard Layer 3 (Foreground)
//Storyboard Layer 4 (Overlay)
//Storyboard Sound Samples

[TimingPoints]
2306,348.837209302326,4,2,1,50,1,0
2306,-133.333333333333,4,2,1,50,0,0
2829,-100,4,2,1,50,0,0
3003,-133.333333333333,4,2,1,50,0,0
3526,-100,4,2,1,50,0,0
3701,-133.333333333333,4,2,1,50,0,0
5445,-100,4,2,1,50,0,0
6143,-133.333333333333,4,2,1,50,0,0
6492,-200,4,2,1,50,0,0
7887,-133.333333333333,4,2,1,50,0,0
8410,-100,4,2,1,50,0,0
8585,-133.333333333333,4,2,1,50,0,0
10329,-100,4,2,1,50,0,0
11375,-66.6666666666667,4,2,1,50,0,0
12073,-100,4,2,1,70,0,0
12422,-80,4,2,1,70,0,0
12771,-66.6666666666667,4,2,1,70,0,0
13119,-57.1428571428571,4,2,1,70,0,0
13468,-80,4,2,1,70,0,0
14689,-66.6666666666667,4,2,1,70,0,0
15212,-80,4,2,1,70,0,0
18352,-133.333333333333,4,2,1,70,0,0
19050,-66.6666666666667,4,2,1,80,0,0
23585,-133.333333333333,4,2,0,80,0,0
24108,-133.333333333333,4,2,2,80,0,0
24282,-79.9999999999999,4,2,2,80,0,0
26375,-66.6666666666667,4,2,2,80,0,0
28817,-100,4,2,2,80,0,0
29515,-66.6666666666667,4,2,2,80,0,0
33526,-100,4,2,2,80,0,0
33701,-66.6666666666667,4,2,2,80,0,0
34399,-100,4,2,2,80,0,0
34747,-80,4,2,2,80,0,0
35096,-66.6666666666667,4,2,2,80,0,0
35445,-133.333333333333,4,2,2,80,0,0
36492,-66.6666666666667,4,2,2,80,0,0
39980,-100,4,2,2,80,0,0
40678,-133.333333333333,4,2,2,80,0,0
40765,-133.333333333333,4,2,0,80,0,0
41375,-133.333333333333,4,2,2,80,0,0
41550,-66.6666666666667,4,2,2,80,0,0
44689,-100,4,2,2,80,0,0
48352,-80,4,2,2,60,0,0
58119,-66.6666666666667,4,2,2,60,0,0
59515,-66.6666666666667,4,2,2,80,0,0
59864,-66.6666666666667,4,2,1,80,0,0
69631,-80,4,2,1,80,0,0
69980,-100,4,2,1,80,0,0
70329,-133.333333333333,4,2,1,80,0,0
72945,-100,4,2,1,40,0,0
76085,-100,4,2,1,50,0,0
77654,-100,4,2,1,60,0,0
80445,-100,4,2,1,70,0,0
81840,-76.9230769230769,4,2,1,70,0,0
90561,-66.6666666666667,4,2,1,70,0,0
92654,-66.6666666666667,4,2,2,70,0,0
93003,-66.6666666666667,4,2,2,80,0,0
93701,-55.5555555555556,4,2,2,80,0,0
94747,-66.6666666666667,4,2,2,80,0,0
96492,-55.5555555555556,4,2,2,80,0,0
97538,-66.6666666666667,4,2,2,80,0,0
99282,-55.5555555555556,4,2,2,80,0,0
99980,-66.6666666666667,4,2,2,80,0,0
102073,-55.5555555555556,4,2,2,80,0,0
102771,-47.6190476190476,4,2,2,80,0,0
103119,-66.6666666666667,4,2,2,80,0,0
103468,-47.6190476190476,4,2,2,80,0,0
103817,-66.6666666666667,4,2,2,80,0,0
104166,-76.9230769230769,4,2,2,80,0,0
104515,-55.5555555555556,4,2,2,80,0,0
105212,-47.6190476190476,4,2,2,80,0,0
105561,-55.5555555555556,4,2,2,80,0,0
106957,-76.9230769230769,4,2,2,80,0,0
107306,-55.5555555555556,4,2,2,80,0,0
108003,-47.6190476190476,4,2,2,80,0,0
108352,-55.5555555555556,4,2,2,80,0,0
108701,-66.6666666666667,4,2,2,80,0,0
109050,-55.5555555555556,4,2,2,80,0,0
109747,-76.9230769230769,4,2,2,80,0,0
110096,-55.5555555555556,4,2,2,80,0,0
110794,-47.6190476190476,4,2,2,80,0,0
111143,-55.5555555555556,4,2,2,80,0,0
112538,-76.9230769230769,4,2,2,80,0,0
112887,-55.5555555555556,4,2,2,80,0,0
113933,-100,4,2,2,80,0,0
115329,-66.6666666666667,4,2,2,80,0,0
115678,-55.5555555555556,4,2,2,80,0,0
116899,-66.6666666666667,4,2,2,80,0,0
118468,-55.5555555555556,4,2,2,80,0,0
119515,-66.6666666666667,4,2,2,80,0,0
121259,-55.5555555555556,4,2,2,80,0,0
122654,-66.6666666666667,4,2,2,80,0,0
124050,-55.5555555555556,4,2,2,80,0,0
125096,-90.9090909090909,4,2,2,80,0,0
125445,-76.9230769230769,4,2,2,80,0,0
125794,-55.5555555555556,4,2,2,80,0,0
126143,-47.6190476190476,4,2,2,80,0,0
126492,-66.6666666666667,4,2,2,80,0,0
126840,-55.5555555555556,4,2,2,80,0,0
128236,-66.6666666666667,4,2,2,80,0,0
129631,-55.5555555555556,4,2,2,80,0,0
130678,-66.6666666666667,4,2,2,80,0,0
132422,-55.5555555555556,4,2,2,80,0,0
133817,-66.6666666666667,4,2,2,80,0,0
135910,-55.5555555555556,4,2,2,80,0,0
136259,-66.6666666666667,4,2,2,80,0,0
137131,-66.6666666666667,4,2,2,60,0,0
137654,-133.333333333333,4,2,2,60,0,0
143236,-100,4,2,2,50,0,0
143759,-80,4,2,2,50,0,0
143933,-100,4,2,1,50,0,0
144457,-80,4,2,1,50,0,0
144631,-100,4,2,1,50,0,0
146375,-80,4,2,1,50,0,0
147073,-100,4,2,1,50,0,0
147422,-200,4,2,1,50,0,0
148817,-100,4,2,1,50,0,0
149340,-80,4,2,1,50,0,0
149515,-100,4,2,1,50,0,0
152306,-66.6666666666667,4,2,1,50,0,0
153003,-90.9090909090909,4,2,1,70,0,0
153352,-76.9230769230769,4,2,1,70,0,0
153701,-55.5555555555556,4,2,1,70,0,0
154050,-47.6190476190476,4,2,1,70,0,0
154399,-80,4,2,1,70,0,0
159282,-133.333333333333,4,2,1,80,0,0
159980,-66.6666666666667,4,2,1,80,0,0
162771,-55.5555555555556,4,2,1,80,0,0
164515,-133.333333333333,4,2,0,80,0,0
165038,-133.333333333333,4,2,1,80,0,0
165212,-79.9999999999999,4,2,2,80,0,0
167306,-66.6666666666667,4,2,2,80,0,0
174457,-133.333333333333,4,2,2,80,0,0
174631,-66.6666666666667,4,2,2,80,0,0
175329,-100,4,2,2,80,0,0
175678,-80,4,2,2,80,0,0
176026,-66.6666666666667,4,2,2,80,0,0
181608,-100,4,2,0,80,0,0
182306,-100,4,2,2,80,0,0
182480,-66.6666666666667,4,2,2,80,0,0
185619,-100,4,2,2,80,0,0
186840,-166.666666666667,4,2,2,80,0,0
187887,-166.666666666667,4,2,2,60,0,0
188585,-166.666666666667,4,2,0,60,0,0
197654,-250.000000000001,4,2,0,60,0,0
199050,-200,4,2,0,50,0,0
210300,-200,4,2,0,5,0,0

[Colours]
Combo1 : 254,253,199
Combo2 : 247,210,249
Combo3 : 190,248,254

[HitObjects]
50,59,2306,6,0,P|107:52|142:142,1,150,6|0,3:2|2:0,2:0:0:0:
82,161,2829,2,0,L|33:170,1,40,2|0,2:0|2:0,2:0:0:0:
147,202,3003,2,0,B|193:194|193:194|218:203|218:203|269:192,1,120,10|0,2:0|2:0,2:0:0:0:
415,231,3526,2,0,L|419:184,1,40,2|0,2:0|2:0,2:0:0:0:
369,131,3701,6,0,B|346:160|346:160|337:260,1,120,6|0,3:2|2:0,2:0:0:0:
233,305,4224,2,0,B|256:276|256:276|265:176,1,120,6|0,3:2|2:0,2:0:0:0:
169,117,4747,2,0,L|85:124,1,60.0000000000001,6|0,3:2|2:0,2:0:0:0:
168,39,5096,6,0,P|213:45|243:101,1,90.0000000000002,2|0,2:0|2:0,2:0:0:0:
240,90,5445,2,0,L|369:79,1,120,2|0,2:0|2:0,2:0:0:0:
364,84,5794,1,10,2:0:0:0:
337,157,5968,1,2,2:0:0:0:
447,266,6143,2,0,L|468:204,1,60.0000000000001,2|0,2:0|2:0,2:0:0:0:
378,309,6492,6,0,L|248:332,1,120,6|0,3:2|2:0,2:0:0:0:
135,267,7189,2,0,L|253:246,1,120,14|0,3:2|2:0,2:0:0:0:
392,118,7887,6,0,P|346:107|314:203,1,150,6|0,3:2|2:0,2:0:0:0:
354,277,8410,2,0,L|361:223,1,40,2|0,2:0|2:0,2:0:0:0:
276,257,8585,2,0,B|270:308|270:308|282:333|282:333|275:384,1,120,10|0,2:0|2:0,2:0:0:0:
116,312,9108,2,0,L|67:304,1,30.0000000000001,2|0,2:0|2:0,2:0:0:0:
25,260,9282,6,0,B|7:221|7:221|36:134,1,120,6|0,3:2|2:0,2:0:0:0:
140,96,9806,2,0,B|158:135|158:135|129:222,1,120,6|0,3:2|2:0,2:0:0:0:
210,333,10329,2,0,L|384:305,1,160,6|0,3:2|2:0,2:0:0:0:
367,307,10852,5,2,2:0:0:0:
440,357,11026,1,2,2:0:0:0:
446,277,11201,1,2,2:0:0:0:
335,229,11375,6,0,L|177:254,1,120,0|0,1:0|2:0,2:0:0:0:
191,232,11637,2,0,B|181:220|181:220|185:200,2,30.0000011444092,0|0|0,1:0|1:0|1:0,1:0:0:0:
348,55,11899,1,0,1:0:0:0:
279,17,12073,6,0,P|267:66|326:129,1,120,6|0,3:2|2:0,2:0:0:0:
439,151,12422,2,0,P|382:155|335:240,1,150,6|0,3:2|2:0,2:0:0:0:
331,362,12771,2,0,P|306:302|197:281,1,180,6|0,3:2|2:0,2:0:0:0:
15,365,13119,2,0,B|74:325|145:336|145:336|110:304|125:258,1,210,6|0,3:2|2:0,2:0:0:0:
236,163,13468,6,0,P|256:196|241:265,1,100,6|0,3:2|2:0,2:0:0:0:
114,70,13817,2,0,B|157:98|157:98|283:72,1,150,2|0,3:2|2:0,2:0:0:0:
265,86,14166,6,0,P|270:56|273:25,1,50,2|0,3:2|2:0,2:0:0:0:
175,219,14340,1,2,2:0:0:0:
175,219,14428,1,0,2:0:0:0:
175,219,14515,2,0,P|146:229|118:242,1,50,2|0,3:2|2:0,2:0:0:0:
236,163,14689,2,0,P|270:168|309:177,1,60,2|0,2:0|2:0,2:0:0:0:
363,226,14864,5,6,3:2:0:0:
250,279,15038,1,2,2:0:0:0:
335,370,15212,2,0,B|353:311|353:311|346:289|346:289|368:206,1,150,2|0,3:2|2:0,2:0:0:0:
435,173,15561,6,0,L|448:240,3,50,2|0|2|0,3:2|2:0|2:0|2:0,2:0:0:0:
348,125,15910,1,2,3:2:0:0:
350,110,15997,1,0,2:0:0:0:
353,96,16085,1,2,2:0:0:0:
355,82,16172,1,0,2:0:0:0:
357,59,16259,6,0,P|300:80|213:11,1,150,6|0,3:2|2:0,2:0:0:0:
219,32,16608,1,2,3:2:0:0:
236,163,16782,1,2,2:0:0:0:
236,163,16869,1,0,2:0:0:0:
236,163,16957,2,0,P|196:154|163:151,1,50,2|0,3:2|2:0,2:0:0:0:
68,62,17131,2,0,P|108:71|141:74,1,50,0|0,2:0|2:0,2:0:0:0:
120,198,17306,2,0,P|109:170|114:139,1,50,2|0,3:2|2:0,2:0:0:0:
219,32,17480,1,2,2:0:0:0:
193,241,17654,6,0,P|144:279|90:275,1,100,6|0,3:2|2:0,2:0:0:0:
303,120,18003,2,0,P|360:63|452:70,1,150,0|0,3:0|2:0,2:0:0:0:
435,49,18352,6,0,B|447:99|447:99|437:125|437:125|446:168,1,120,6|2,3:2|2:0,2:0:0:0:
512,292,18875,5,0,1:0:0:0:
512,292,18962,1,0,1:0:0:0:
512,292,19050,2,0,P|472:251|378:264,1,120,6|0,3:2|2:0,2:0:0:0:
368,168,19311,2,0,P|316:193|299:286,1,120,0|0,3:2|2:0,2:0:0:0:
204,265,19573,2,0,P|209:300|261:328,1,60,0|0,3:0|2:0,2:0:0:0:
396,352,19747,6,0,B|425:321|425:321|409:230,1,120,6|0,3:2|2:0,2:0:0:0:
383,60,20009,2,0,B|354:91|354:91|370:182,1,120,0|0,3:0|2:0,2:0:0:0:
341,292,20271,2,0,L|329:227,1,60,0|0,3:0|2:0,2:0:0:0:
296,38,20445,6,0,P|239:28|171:94,1,120,6|0,3:2|2:0,2:0:0:0:
106,22,20707,2,0,P|78:72|119:158,1,120,0|0,3:0|2:0,2:0:0:0:
30,197,20968,2,0,P|54:222|113:214,1,60,0|0,3:0|2:0,2:0:0:0:
241,195,21143,6,0,P|217:170|158:178,1,60,6|0,3:2|2:0,2:0:0:0:
95,318,21317,1,0,2:0:0:0:
95,318,21404,2,0,P|147:294|164:200,1,120,0|0,3:0|2:0,2:0:0:0:
254,126,21666,2,0,P|247:166|240:203,1,60,0|0,3:0|2:0,2:0:0:0:
356,334,21840,6,0,B|393:345|393:345|435:331,1,60,6|0,3:2|1:0,2:0:0:0:
457,177,22015,2,0,B|420:166|420:166|378:180,1,60,0|0,3:0|1:0,2:0:0:0:
269,263,22190,5,0,3:0:0:0:
266,281,22277,1,0,1:0:0:0:
263,299,22364,1,0,3:0:0:0:
260,318,22451,1,0,1:0:0:0:
255,336,22538,5,0,3:0:0:0:
231,353,22625,1,0,1:0:0:0:
202,360,22712,1,0,3:0:0:0:
173,354,22800,1,0,1:0:0:0:
148,337,22887,1,0,3:0:0:0:
123,320,22974,1,0,1:0:0:0:
94,313,23061,1,0,3:0:0:0:
65,319,23149,1,0,1:0:0:0:
40,336,23236,5,6,3:2:0:0:
202,280,23585,6,0,L|213:186,1,90.0000000000002,8|0,2:0|2:0,2:0:0:0:
214,180,23933,2,0,P|200:185|169:192,1,30.0000000000001,10|0,2:0|2:0,2:0:0:0:
288,204,24108,2,0,P|290:189|300:159,1,30.0000000000001,0|0,3:0|2:0,2:0:0:0:
338,43,24282,6,0,P|352:94|456:75,1,150,8|0,2:0|2:0,2:0:0:0:
437,100,24631,1,2,2:0:0:0:
507,65,24806,1,2,2:0:0:0:
512,142,24980,1,2,2:0:0:0:
368,135,25154,5,2,2:0:0:0:
368,135,25242,1,2,2:0:0:0:
368,135,25329,2,0,P|324:125|252:112,1,100,6|0,3:2|2:0,2:0:0:0:
203,59,25590,2,0,B|245:28|245:28|314:41,1,100,6|0,3:2|2:0,2:0:0:0:
310,201,25852,2,0,B|258:239|258:239|172:223,1,150,6|0,3:2|2:0,2:0:0:0:
159,143,26201,5,2,3:2:0:0:
159,143,26288,1,2,2:0:0:0:
159,143,26375,2,0,B|122:155|122:155|103:175,1,60,0|0,3:0|2:0,2:0:0:0:
17,268,26550,2,0,B|54:256|54:256|73:236,1,60,2|0,2:0|2:0,2:0:0:0:
37,112,26724,6,0,L|24:189,1,60,2|0,3:2|2:0,2:0:0:0:
135,304,26899,2,0,L|144:244,1,60,2|0,2:0|2:0,2:0:0:0:
234,88,27073,5,0,3:0:0:0:
236,102,27160,1,0,2:0:0:0:
239,117,27247,1,2,2:0:0:0:
242,132,27335,1,0,2:0:0:0:
245,146,27422,6,0,B|312:175|360:129|360:129|376:163|415:168,1,180,6|0,3:2|2:0,2:0:0:0:
512,94,27771,1,2,3:2:0:0:
512,94,27858,1,2,2:0:0:0:
512,94,27945,2,0,P|477:90|439:83,1,60,2|0,2:0|2:0,2:0:0:0:
344,228,28119,6,0,P|314:271|322:344,1,120,2|0,3:2|2:0,2:0:0:0:
249,367,28381,2,0,B|214:354|214:354|178:362,1,60,2|0,3:2|2:0,2:0:0:0:
78,268,28556,1,0,2:0:0:0:
78,268,28643,2,0,B|113:281|113:281|149:273,1,60,2|0,3:2|2:0,2:0:0:0:
245,146,28817,6,0,L|231:273,1,120,0|0,3:0|0:0,2:0:0:0:
150,173,29166,2,0,L|163:53,1,120,2|0,3:2|0:0,2:0:0:0:
346,65,29515,6,0,P|346:133|248:134,1,180,2|0,3:2|2:0,2:0:0:0:
245,146,29864,2,0,B|284:117|326:142|326:142|361:195|438:168,1,180,2|0,3:2|2:0,2:0:0:0:
417,172,30212,5,6,3:2:0:0:
202,215,30387,2,0,P|169:184|169:147,1,60,2|0,2:0|2:0,2:0:0:0:
234,9,30561,2,0,P|267:40|267:77,1,60,2|0,3:2|2:0,2:0:0:0:
122,100,30736,1,0,2:0:0:0:
122,100,30823,1,0,2:0:0:0:
122,100,30910,2,0,B|72:111|72:111|55:132|55:132|8:143,1,120,2|0,3:2|2:0,2:0:0:0:
1,221,31172,2,0,L|72:204,1,60,2|0,3:2|2:0,2:0:0:0:
170,331,31346,5,0,2:0:0:0:
173,321,31433,2,0,B|197:202|197:202|140:245,1,180,2|0,3:2|2:0,2:0:0:0:
264,332,31782,5,2,3:2:0:0:
264,332,31869,1,2,2:0:0:0:
264,332,31957,2,0,L|277:261,1,60,2|0,3:2|2:0,2:0:0:0:
288,135,32131,2,0,L|277:194,1,60,2|0,2:0|2:0,2:0:0:0:
151,238,32306,6,0,B|178:246|178:246|234:227,1,60,2|0,3:2|2:0,2:0:0:0:
404,227,32480,2,0,B|377:219|377:219|321:238,1,60,2|0,2:0|2:0,2:0:0:0:
204,157,32654,5,2,3:2:0:0:
198,127,32742,1,0,2:0:0:0:
193,98,32829,1,2,2:0:0:0:
187,68,32916,1,0,2:0:0:0:
181,40,33003,1,6,3:2:0:0:
184,26,33352,5,2,2:0:0:0:
182,33,33439,1,2,2:0:0:0:
180,41,33526,2,0,L|243:30,1,40,2|0,2:0|2:0,2:0:0:0:
384,102,33701,6,0,B|410:111|410:111|457:97,2,60,2|0|0,3:2|2:0|2:0,2:0:0:0:
320,59,33962,2,0,B|314:31|314:31|279:-1,2,60,2|0|0,3:2|2:0|2:0,2:0:0:0:
314,135,34224,2,0,B|293:153|293:153|281:200,1,60,0|0,3:0|2:0,2:0:0:0:
363,325,34399,6,0,L|495:304,1,120,6|0,3:2|2:0,2:0:0:0:
360,211,34747,6,0,L|175:240,1,150,6|0,3:2|2:0,2:0:0:0:
176,362,35096,6,0,L|383:328,1,180,6|0,3:2|2:0,2:0:0:0:
363,325,35445,6,0,B|377:260|377:260|357:222|357:222|374:139,1,180,12|0,2:0|2:0,2:0:0:0:
436,14,36143,5,14,2:0:0:0:
344,74,36317,1,0,2:0:0:0:
344,74,36404,1,0,2:0:0:0:
344,74,36492,2,0,P|292:111|223:102,1,120,0|0,3:0|2:0,2:0:0:0:
173,3,36753,2,0,P|202:16|215:48,1,60,0|0,3:0|2:0,2:0:0:0:
127,215,36928,1,0,2:0:0:0:
116,217,37015,2,0,B|12:241|12:241|48:213|47:163,1,180,0|0,3:0|2:0,2:0:0:0:
127,78,37364,5,2,3:2:0:0:
127,78,37451,1,2,2:0:0:0:
127,78,37538,2,0,L|116:150,1,60,10|0,2:0|2:0,2:0:0:0:
191,268,37712,2,0,L|202:196,1,60,2|0,2:0|2:0,2:0:0:0:
66,241,37887,6,0,B|75:225|75:225|116:216,1,60,2|0,3:2|2:0,2:0:0:0:
253,103,38061,2,0,B|244:119|244:119|203:128,1,60,2|0,2:0|2:0,2:0:0:0:
253,308,38236,5,8,2:0:0:0:
267,310,38323,1,0,2:0:0:0:
282,313,38410,1,2,2:0:0:0:
297,315,38497,1,0,2:0:0:0:
314,319,38585,6,0,B|333:294|365:287|365:287|389:207|310:190,1,180,6|0,3:2|2:0,2:0:0:0:
288,74,38933,1,10,2:0:0:0:
288,74,39021,1,2,2:0:0:0:
288,74,39108,2,0,B|273:105|273:105|284:152,1,60,2|0,2:0|2:0,2:0:0:0:
366,230,39282,6,0,B|447:217|447:217|473:185,1,120,0|0,3:0|2:0,2:0:0:0:
404,143,39544,2,0,P|380:135|355:101,1,60,2|0,3:2|2:0,2:0:0:0:
278,218,39718,1,0,2:0:0:0:
278,218,39806,2,0,P|254:226|229:260,1,60,2|0,3:2|2:0,2:0:0:0:
25,115,39980,6,0,B|-18:85|-3:43|-3:43|26:35|36:56,1,120,0|0,3:0|2:0,2:0:0:0:
90,167,40329,2,0,B|85:219|41:227|41:227|20:206|33:186,1,120,10|0,2:0|2:0,2:0:0:0:
103,90,40678,6,0,L|221:108,1,120,6|8,3:2|2:0,2:0:0:0:
221,108,41201,1,0,1:0:0:0:
221,108,41288,1,0,1:0:0:0:
221,108,41375,1,6,3:2:0:0:
328,43,41550,6,0,B|364:34|364:34|403:49,1,60,2|0,2:0|2:0,2:0:0:0:
267,194,41724,2,0,B|231:203|231:203|192:188,1,60,8|0,2:0|2:0,2:0:0:0:
376,296,41899,1,0,2:0:0:0:
376,296,41986,1,0,2:0:0:0:
376,296,42073,2,0,B|426:285|426:285|448:262|448:262|498:252,1,120,2|0,3:2|2:0,2:0:0:0:
439,188,42335,2,0,B|406:193|406:193|383:222,1,60,2|0,3:2|2:0,2:0:0:0:
296,333,42509,5,0,2:0:0:0:
286,336,42596,2,0,B|167:360|167:360|210:303,1,180,2|0,3:2|2:0,2:0:0:0:
267,194,42945,5,2,3:2:0:0:
267,194,43032,1,2,2:0:0:0:
267,194,43119,2,0,L|278:271,1,60,10|0,2:0|2:0,2:0:0:0:
193,140,43294,2,0,L|182:63,1,60,2|0,2:0|2:0,2:0:0:0:
128,226,43468,6,0,B|154:230|154:230|187:220,1,60,2|0,3:2|2:0,2:0:0:0:
332,104,43643,2,0,B|307:101|307:101|274:111,1,60,2|0,2:0|2:0,2:0:0:0:
359,282,43817,5,10,2:0:0:0:
398,301,43904,1,0,2:0:0:0:
442,294,43992,1,2,2:0:0:0:
473,262,44079,1,0,2:0:0:0:
480,219,44166,1,6,3:2:0:0:
475,195,44515,5,2,2:0:0:0:
478,207,44602,1,2,2:0:0:0:
480,219,44689,2,0,L|441:214,1,40,2|0,2:0|2:0,2:0:0:0:
267,194,44864,1,8,2:0:0:0:
409,141,45038,1,2,2:0:0:0:
409,141,45125,1,2,2:0:0:0:
409,141,45212,1,2,2:0:0:0:
308,49,45387,1,2,2:0:0:0:
360,288,45561,5,4,3:2:0:0:
256,192,45649,12,0,47131,2:0:0:0:
84,73,48352,6,0,P|53:99|49:167,1,100,6|0,3:2|2:0,2:0:0:0:
44,155,48614,1,0,2:0:0:0:
44,155,48701,1,0,3:0:0:0:
222,299,48875,2,0,L|168:287,1,50,2|0,2:0|2:0,2:0:0:0:
39,246,49050,6,0,B|97:237|97:237|115:216|140:208,1,100,2|0,3:2|2:0,2:0:0:0:
129,212,49311,1,0,2:0:0:0:
129,212,49399,1,0,3:0:0:0:
279,97,49573,6,0,L|269:161,1,50,2|0,2:0|2:0,2:0:0:0:
222,46,49747,1,2,3:2:0:0:
348,56,49922,6,0,B|377:48|377:48|398:26,1,50,2|0,2:0|2:0,2:0:0:0:
394,158,50096,2,0,B|372:136|372:136|343:129,1,50,2|0,3:2|2:0,2:0:0:0:
463,68,50271,2,0,B|454:97|454:97|463:126,1,50,2|0,2:0|2:0,2:0:0:0:
326,209,50445,5,6,3:2:0:0:
495,308,50619,1,0,2:0:0:0:
281,362,50794,2,0,B|241:319|262:265|262:265|290:297|340:296,1,150,2|0,3:2|2:0,2:0:0:0:
307,294,51143,6,0,P|257:306|205:321,1,100,6|0,3:2|2:0,2:0:0:0:
8,137,51492,2,0,P|74:161|91:243,1,150,2|0,3:2|2:0,2:0:0:0:
89,240,51840,1,2,3:2:0:0:
241,158,52015,1,2,2:0:0:0:
122,332,52189,2,0,P|72:320|20:305,1,100,2|0,3:2|2:0,2:0:0:0:
25,306,52451,1,0,2:0:0:0:
25,306,52538,5,6,3:2:0:0:
179,265,52712,2,0,P|212:256|239:243,1,50,2|0,2:0|2:0,2:0:0:0:
362,158,52887,2,0,P|337:133|312:117,1,50,2|0,3:2|2:0,2:0:0:0:
179,51,53061,2,0,P|170:84|168:113,1,50,2|0,2:0|2:0,2:0:0:0:
307,234,53236,6,0,P|357:241|422:255,1,100,2|0,3:2|2:0,2:0:0:0:
504,15,53585,2,0,P|443:17|407:103,1,150,2|0,3:2|2:0,2:0:0:0:
467,210,53933,6,0,P|488:163|463:108,1,100,6|0,3:2|2:0,2:0:0:0:
473,118,54195,1,0,2:0:0:0:
473,118,54282,1,0,3:0:0:0:
320,0,54457,2,0,L|334:61,1,50,2|0,2:0|2:0,2:0:0:0:
405,159,54631,6,0,B|351:150|351:150|327:124|287:120,1,100,2|0,3:2|2:0,2:0:0:0:
313,125,54893,1,0,2:0:0:0:
313,125,54980,1,0,3:0:0:0:
129,89,55154,6,0,L|181:72,1,50,2|0,2:0|2:0,2:0:0:0:
258,199,55329,1,6,3:2:0:0:
16,200,55503,6,0,P|6:231|16:264,1,50,2|0,2:0|2:0,2:0:0:0:
122,358,55678,2,0,P|132:327|122:294,1,50,2|0,3:2|2:0,2:0:0:0:
172,180,55852,2,0,P|118:190|88:247,1,100,2|0,2:0|3:0,2:0:0:0:
0,333,56114,1,0,2:0:0:0:
0,333,56201,2,0,L|66:321,1,50,0|0,2:0|2:0,2:0:0:0:
201,263,56375,2,0,P|255:274|314:292,1,100,2|0,3:2|2:0,2:0:0:0:
298,286,56637,1,0,2:0:0:0:
298,286,56724,5,6,3:2:0:0:
237,355,56899,1,2,2:0:0:0:
368,228,57073,1,2,3:2:0:0:
201,263,57247,1,2,2:0:0:0:
413,293,57422,6,0,P|444:261|440:193,1,100,2|0,3:2|2:0,2:0:0:0:
392,148,57683,2,0,P|364:142|336:150,2,50,2|0|0,2:0|3:0|2:0,2:0:0:0:
468,130,57945,1,2,2:0:0:0:
287,199,58119,6,0,P|243:195|209:112,1,120,6|0,3:2|2:0,2:0:0:0:
132,63,58381,1,0,2:0:0:0:
132,63,58468,2,0,P|176:67|210:150,1,120,6|0,3:2|2:0,2:0:0:0:
131,217,58730,1,0,2:0:0:0:
131,217,58817,6,0,B|93:211|93:211|60:221,2,60,6|0|0,3:2|2:0|2:0,2:0:0:0:
214,126,59079,1,0,2:0:0:0:
214,126,59166,2,0,B|238:96|238:96|246:62,2,60,6|0|0,3:2|2:0|2:0,2:0:0:0:
182,320,59428,1,0,2:0:0:0:
182,320,59515,6,0,B|284:296|256:374|363:338,1,180,6|0,3:2|2:0,2:0:0:0:
458,248,59864,2,0,B|435:322|435:322|427:293|397:272,1,120,10|0,2:0|2:0,2:0:0:0:
339,124,60212,6,0,L|329:55,1,60,2|0,3:2|2:0,2:0:0:0:
173,260,60387,2,0,L|183:329,1,60,2|0,2:0|2:0,2:0:0:0:
330,131,60561,2,0,L|406:139,1,60,10|0,2:0|2:0,2:0:0:0:
182,253,60736,2,0,L|106:245,1,60,2|0,2:0|2:0,2:0:0:0:
353,340,60910,5,6,3:2:0:0:
242,102,61085,1,2,2:0:0:0:
353,340,61259,2,0,B|303:353|259:307|259:307|237:338|186:343,1,180,8|0,2:0|2:0,2:0:0:0:
112,192,61608,2,0,P|162:164|156:260,1,180,2|0,3:2|2:0,2:0:0:0:
119,316,61957,2,0,L|-14:291,1,120,10|0,2:0|2:0,2:0:0:0:
31,212,62218,1,0,2:0:0:0:
31,212,62306,6,0,L|53:90,1,120,6|0,3:2|2:0,2:0:0:0:
205,300,62654,2,0,L|189:384,2,60,10|0|0,2:0|2:0|2:0,2:0:0:0:
344,151,63003,6,0,B|358:127|358:127|345:77,1,60,2|0,3:2|2:0,2:0:0:0:
161,33,63178,2,0,L|173:104,1,60,2|0,2:0|2:0,2:0:0:0:
195,219,63352,1,10,2:0:0:0:
334,23,63526,1,2,2:0:0:0:
436,264,63701,6,0,P|382:202|282:207,1,180,6|0,3:2|2:0,2:0:0:0:
442,145,64050,2,0,P|468:95|446:20,1,120,8|0,2:0|2:0,2:0:0:0:
253,274,64399,2,0,P|253:310|274:345,1,60,2|0,3:2|2:0,2:0:0:0:
344,151,64573,1,0,2:0:0:0:
344,151,64660,1,0,2:0:0:0:
344,151,64747,2,0,P|344:115|323:80,1,60,10|0,2:0|2:0,2:0:0:0:
390,297,64922,5,0,2:0:0:0:
390,297,65009,1,0,2:0:0:0:
390,297,65096,2,0,L|316:286,1,60,6|0,3:2|2:0,2:0:0:0:
173,262,65271,1,0,2:0:0:0:
410,214,65445,6,0,B|529:233|529:233|504:254|480:271,1,180,10|0,2:0|2:0,2:0:0:0:
334,214,65794,2,0,B|318:129|318:129|353:159,1,120,2|0,3:2|2:0,2:0:0:0:
480,51,66143,1,8,2:0:0:0:
410,214,66317,1,2,2:0:0:0:
283,45,66492,6,0,L|409:66,1,120,6|0,3:2|2:0,2:0:0:0:
195,135,66840,2,0,L|109:120,2,60,10|0|0,2:0|2:0|2:0,2:0:0:0:
376,234,67189,1,2,3:2:0:0:
195,135,67364,1,2,2:0:0:0:
259,336,67538,2,0,L|278:170,1,120,10|0,2:0|2:0,2:0:0:0:
282,192,67800,1,0,2:0:0:0:
282,192,67887,5,6,3:2:0:0:
195,135,68061,1,2,2:0:0:0:
283,45,68236,2,0,L|347:26,2,60,10|0|0,2:0|2:0|2:0,2:0:0:0:
104,292,68585,5,0,3:2:0:0:
191,235,68759,1,0,2:0:0:0:
103,145,68933,2,0,L|39:126,2,60,8|0|0,2:0|2:0|2:0,2:0:0:0:
279,325,69282,6,0,P|320:269|287:156,1,180,6|0,3:2|2:0,2:0:0:0:
423,24,69631,2,0,P|382:80|415:193,1,150,10|0,2:0|2:0,2:0:0:0:
297,166,69980,6,0,L|172:137,1,120,2|0,3:2|2:0,2:0:0:0:
387,157,70329,2,0,L|494:181,1,90.0000000000002,10|0,2:0|2:0,2:0:0:0:
290,383,70678,6,0,L|276:311,1,60.0000000000001,6|0,3:2|2:0,2:0:0:0:
369,353,71026,2,0,L|355:281,1,60.0000000000001,0|0,3:2|2:0,2:0:0:0:
199,288,71375,2,0,L|213:216,1,60.0000000000001,0|0,3:2|2:0,2:0:0:0:
120,258,71724,2,0,L|134:186,1,60.0000000000001,0|0,3:2|2:0,2:0:0:0:
316,137,72073,6,0,L|448:117,2,120,0|0|0,3:0|3:0|3:0,2:0:0:0:
206,74,72945,2,0,L|126:58,1,80,2|0,2:0|3:0,2:0:0:0:
59,109,73294,2,0,B|36:75|36:75|54:20,1,80,2|0,2:0|3:0,2:0:0:0:
48,37,73643,1,2,2:0:0:0:
135,140,73817,2,0,L|106:235,1,80,0|0,3:0|2:0,2:0:0:0:
2,363,74166,6,0,P|38:312|146:312,1,160,0|0,3:0|3:0,2:0:0:0:
189,242,74689,1,0,2:0:0:0:
150,324,74864,2,0,P|227:323|277:263,1,160,0|0,3:0|3:0,2:0:0:0:
228,160,75387,1,2,2:0:0:0:
374,248,75561,1,2,3:2:0:0:
314,148,75736,2,0,L|303:65,1,80,2|0,2:0|3:0,2:0:0:0:
418,179,76085,6,0,P|452:212|451:265,2,80,2|0|0,2:0|3:0|2:0,2:0:0:0:
314,148,76608,1,0,3:0:0:0:
427,38,76782,2,0,P|395:75|391:120,1,80,2|0,2:0|3:0,2:0:0:0:
231,173,77131,2,0,P|256:214|297:232,1,80,2|0,2:0|3:0,2:0:0:0:
418,179,77480,1,2,2:0:0:0:
242,27,77654,6,0,L|71:6,2,160,0|0|0,3:2|3:0|3:0,2:0:0:0:
351,171,78526,2,0,P|383:134|387:89,2,80,2|0|2,2:0|3:0|2:0,2:0:0:0:
103,103,79050,5,0,3:0:0:0:
3,131,79224,1,0,2:0:0:0:
30,230,79399,1,0,3:0:0:0:
131,202,79573,1,2,2:0:0:0:
103,103,79747,5,0,3:0:0:0:
30,230,79922,1,2,2:0:0:0:
155,300,80096,1,0,3:0:0:0:
229,169,80271,1,2,2:0:0:0:
103,103,80445,5,0,3:2:0:0:
155,300,80619,1,0,2:0:0:0:
103,103,80794,1,0,3:0:0:0:
155,300,80968,1,2,2:0:0:0:
330,141,81143,5,0,3:0:0:0:
131,202,81317,1,2,2:0:0:0:
330,141,81492,1,0,3:0:0:0:
131,202,81666,1,2,2:0:0:0:
362,312,81840,6,0,B|471:357|471:357|453:296,1,156,6|0,3:2|2:0,2:0:0:0:
453,298,82189,2,0,L|399:277,1,52,2|0,3:2|2:0,2:0:0:0:
306,367,82364,2,0,L|252:346,1,52,0|0,1:0|2:0,2:0:0:0:
229,169,82538,5,2,3:2:0:0:
234,194,82625,1,0,1:0:0:0:
239,220,82712,1,0,1:0:0:0:
244,245,82800,1,0,1:0:0:0:
249,271,82887,1,2,3:2:0:0:
183,376,83061,1,0,2:0:0:0:
367,243,83236,5,2,3:2:0:0:
367,243,83323,1,0,1:0:0:0:
127,301,83497,1,0,1:0:0:0:
127,301,83585,1,0,3:0:0:0:
367,243,83759,1,0,1:0:0:0:
229,169,83933,5,0,3:0:0:0:
206,163,84021,1,0,1:0:0:0:
184,159,84108,1,0,1:0:0:0:
162,154,84195,1,0,1:0:0:0:
141,149,84282,1,0,3:0:0:0:
134,116,84369,1,0,1:0:0:0:
128,83,84457,1,0,1:0:0:0:
122,50,84544,1,0,1:0:0:0:
115,20,84631,6,0,L|221:40,1,104,0|0,3:0|2:0,2:0:0:0:
274,101,84893,1,0,1:0:0:0:
274,101,84980,2,0,B|376:82|376:82|394:54|432:37,1,156,0|0,3:0|2:0,2:0:0:0:
453,114,85329,5,0,3:0:0:0:
435,133,85416,1,0,1:0:0:0:
423,156,85503,1,2,1:2:0:0:
419,181,85590,1,0,1:0:0:0:
422,207,85678,1,2,3:2:0:0:
510,325,85852,1,2,1:2:0:0:
289,246,86026,5,2,3:2:0:0:
289,246,86114,1,0,1:0:0:0:
387,359,86288,1,0,1:0:0:0:
387,359,86375,1,2,3:2:0:0:
289,246,86550,1,0,1:0:0:0:
453,114,86724,5,2,3:2:0:0:
428,121,86811,1,0,1:0:0:0:
402,119,86899,1,2,1:2:0:0:
378,109,86986,1,0,1:0:0:0:
359,92,87073,1,0,3:0:0:0:
330,66,87160,1,0,1:0:0:0:
298,52,87247,1,2,1:2:0:0:
261,49,87335,1,0,1:0:0:0:
226,60,87422,5,6,3:2:0:0:
138,125,87596,1,0,1:0:0:0:
167,151,87683,1,0,1:0:0:0:
199,165,87771,1,0,3:0:0:0:
236,168,87858,1,0,1:0:0:0:
271,157,87945,1,0,1:0:0:0:
54,209,88119,6,0,L|-7:195,1,52,0|0,3:0|1:0,2:0:0:0:
92,332,88294,1,0,1:0:0:0:
92,332,88381,1,0,1:0:0:0:
92,332,88468,2,0,L|105:272,1,52,2|0,3:2|1:0,2:0:0:0:
138,125,88643,1,0,1:0:0:0:
5,207,88817,6,0,L|55:218,1,52,2|0,3:2|1:0,2:0:0:0:
179,354,88992,1,0,1:0:0:0:
179,354,89079,1,0,1:0:0:0:
179,354,89166,2,0,L|229:365,1,52,2|0,3:2|1:0,3:0:0:0:
8,315,89340,1,0,1:0:0:0:
198,251,89515,6,0,L|211:191,1,52,2|0,3:2|1:0,2:0:0:0:
333,121,89689,1,2,1:2:0:0:
333,121,89776,1,0,1:0:0:0:
333,121,89864,2,0,L|346:61,1,52,0|0,3:0|1:0,3:0:0:0:
203,108,90038,5,2,1:2:0:0:
203,108,90125,1,0,1:0:0:0:
203,108,90212,2,0,B|240:119|240:119|258:144,1,52,2|0,3:2|1:0,2:0:0:0:
340,212,90387,2,0,B|303:201|303:201|285:176,1,52,0|0,3:0|1:0,2:0:0:0:
130,195,90561,6,0,L|191:185,1,60,0|0,3:0|1:0,1:0:0:0:
392,111,90736,2,0,L|331:121,1,60,0|0,3:0|1:0,1:0:0:0:
123,64,90910,5,0,3:0:0:0:
123,64,90997,1,0,1:0:0:0:
123,64,91085,2,0,L|112:1,1,60,0|0,3:0|1:0,1:0:0:0:
251,265,91259,5,0,3:0:0:0:
251,265,91346,1,0,1:0:0:0:
251,265,91433,2,0,L|262:328,1,60,0|0,3:0|1:0,1:0:0:0:
321,0,91608,5,6,3:2:0:0:
104,304,92654,6,0,L|66:297,9,20,10|2|2|2|2|2|2|2|2|2,2:0|2:0|2:0|2:0|2:0|2:0|2:0|2:0|2:0|2:0,2:0:0:0:
165,352,93003,6,0,P|211:367|282:268,1,180,6|0,3:2|2:0,2:0:0:0:
270,130,93352,2,0,P|234:162|284:273,1,180,2|0,3:2|2:0,2:0:0:0:
359,255,93701,6,0,P|390:217|356:252,1,144,2|0,3:2|2:0,2:0:0:0:
322,335,93962,2,0,P|339:380|326:333,1,144,2|0,3:2|2:0,2:0:0:0:
273,270,94224,2,0,P|249:266|271:274,1,71.9999999999999,2|0,3:2|2:0,2:0:0:0:
433,323,94399,5,4,3:2:0:0:
433,323,94573,2,0,P|480:315|505:270,1,71.9999999999999,2|0,2:0|2:0,2:0:0:0:
273,270,94747,2,0,P|189:258|223:344,1,180,2|0,3:2|2:0,2:0:0:0:
359,255,95096,6,0,P|364:173|388:52,2,180,2|2|2,3:2|3:2|3:2,2:0:0:0:
190,329,95794,6,0,P|128:343|123:239,1,180,6|0,3:2|2:0,2:0:0:0:
40,166,96143,2,0,P|102:152|107:256,1,180,2|0,3:2|2:0,2:0:0:0:
190,329,96492,6,0,P|235:347|192:324,1,144,2|0,3:2|2:0,2:0:0:0:
121,245,96753,2,0,P|114:197|115:245,1,144,2|0,3:2|2:0,2:0:0:0:
108,330,97015,2,0,P|91:347|109:332,1,71.9999999999999,2|0,3:2|2:0,2:0:0:0:
242,225,97189,5,6,3:2:0:0:
242,225,97364,2,0,P|289:202|341:222,1,71.9999999999999,2|0,2:0|2:0,2:0:0:0:
447,260,97538,2,0,P|402:226|408:111,1,180.000006866455,2|0,3:2|2:0,2:0:0:0:
486,68,97887,6,0,P|397:72|325:21,2,180,2|2|2,3:2|3:2|3:2,2:0:0:0:
285,113,98585,6,0,B|240:157|263:220|263:220|297:239|308:288,1,180,6|0,3:2|2:0,2:0:0:0:
495,234,98933,2,0,B|479:173|413:161|413:161|379:181|331:166,1,180,2|0,3:2|2:0,2:0:0:0:
222,289,99282,6,0,P|192:326|225:291,1,144,2|0,3:2|2:0,2:0:0:0:
351,170,99544,2,0,P|398:178|350:178,1,144,2|0,3:2|2:0,2:0:0:0:
196,87,99806,2,0,P|185:72|200:87,1,71.9999999999999,2|0,3:2|2:0,2:0:0:0:
302,268,99980,6,0,P|258:220|144:236,1,180,6|0,3:2|2:0,2:0:0:0:
0,201,100329,2,0,P|44:249|158:233,1,180,2|0,3:2|2:0,2:0:0:0:
196,87,100678,6,0,L|77:56,1,120,0|0,3:2|2:0,2:0:0:0:
173,163,100939,2,0,B|258:186|258:186|234:129,1,120,2|0,3:2|2:0,2:0:0:0:
219,11,101201,2,0,L|200:79,1,60,2|0,3:2|2:0,2:0:0:0:
302,268,101375,6,0,B|347:198|410:228|410:228|433:260|405:291,1,180,6|0,3:2|2:0,2:0:0:0:
242,323,101724,2,0,B|197:393|134:363|134:363|111:331|139:300,1,180,2|0,3:2|2:0,2:0:0:0:
136,147,102073,6,0,P|186:183|182:269,1,144,2|0,3:2|2:0,2:0:0:0:
353,381,102335,2,0,P|303:345|307:259,1,144,2|0,3:2|2:0,2:0:0:0:
422,200,102596,2,0,P|431:184|427:207,1,71.9999999999999,2|0,3:2|2:0,2:0:0:0:
278,131,102771,6,0,B|249:22|249:22|306:60,1,168,6|0,3:2|2:0,2:0:0:0:
412,114,103032,1,0,1:0:0:0:
412,114,103119,2,0,L|335:101,1,60,6|0,3:2|2:0,2:0:0:0:
161,200,103294,2,0,L|238:187,1,60,0|0,1:0|2:0,2:0:0:0:
147,120,103468,6,0,B|37:145|37:145|85:171,1,168,6|0,3:2|2:0,2:0:0:0:
175,280,103730,1,0,1:0:0:0:
175,280,103817,2,0,L|162:203,1,60,6|0,3:2|2:0,2:0:0:0:
198,7,103992,2,0,L|211:84,1,60,0|0,1:0|2:0,2:0:0:0:
362,253,104166,6,0,P|420:262|475:184,1,156,6|0,3:2|2:0,2:0:0:0:
362,253,104515,2,0,P|320:293|336:383,1,144,10|0,2:0|2:0,2:0:0:0:
475,192,104776,1,0,2:0:0:0:
475,192,104864,2,0,P|461:135|375:104,1,144,2|0,3:2|2:0,2:0:0:0:
327,373,105125,5,2,3:2:0:0:
401,357,105212,2,0,L|488:336,1,84,8|0,2:0|2:0,2:0:0:0:
362,253,105387,2,0,L|275:274,1,84,2|0,3:2|2:0,2:0:0:0:
103,348,105561,6,0,B|85:326|85:326|100:264,1,71.9999999999999,6|0,3:2|2:0,2:0:0:0:
153,128,105736,2,0,B|170:151|170:151|156:212,1,71.9999999999999,2|0,2:0|2:0,2:0:0:0:
20,259,105910,2,0,L|229:208,1,216,10|0,2:0|2:0,2:0:0:0:
320,68,106259,6,0,B|268:87|275:139|275:139|310:156|311:210,1,144,2|0,3:2|2:0,2:0:0:0:
389,205,106521,1,2,3:2:0:0:
441,136,106608,2,8,L|356:124,1,71.9999999999999,8|0,2:0|2:0,2:0:0:0:
229,207,106782,1,2,3:2:0:0:
434,310,106957,6,0,P|403:258|302:261,1,156,6|0,3:2|2:0,2:0:0:0:
434,310,107306,2,0,P|497:295|503:223,1,144,10|0,2:0|2:0,2:0:0:0:
314,252,107567,1,0,2:0:0:0:
314,252,107654,2,0,P|295:314|354:355,1,144,2|0,3:2|2:0,2:0:0:0:
504,225,107916,5,2,3:2:0:0:
445,174,108003,2,0,L|360:189,1,84,10|0,2:0|2:0,2:0:0:0:
269,369,108178,2,0,L|351:354,1,84,2|0,3:2|2:0,2:0:0:0:
398,106,108352,6,0,B|314:123|314:123|297:152|297:152|185:171,1,216,6|0,3:2|2:0,2:0:0:0:
70,50,108701,2,0,B|146:33|149:110|149:110|113:138|128:190,1,180,10|0,2:0|2:0,2:0:0:0:
169,275,109050,6,0,B|140:227|76:235|76:235|32:269,1,144,2|0,3:2|2:0,2:0:0:0:
11,340,109311,1,0,3:2:0:0:
92,383,109399,2,0,L|103:307,1,71.9999999999999,8|0,2:0|2:0,2:0:0:0:
123,162,109573,1,2,3:2:0:0:
278,351,109747,6,0,P|335:295|436:306,1,156,6|0,3:2|2:0,2:0:0:0:
278,351,110096,2,0,P|227:320|245:243,1,144,10|0,2:0|2:0,2:0:0:0:
479,207,110358,1,0,2:0:0:0:
479,207,110445,2,0,P|477:266|401:289,1,144,2|0,3:2|2:0,2:0:0:0:
241,246,110707,5,2,3:2:0:0:
292,189,110794,2,0,L|377:202,1,84,8|0,2:0|2:0,2:0:0:0:
278,351,110968,2,0,L|192:337,1,84,2|0,3:2|2:0,2:0:0:0:
41,255,111143,6,0,B|6:112|6:112|87:158,1,216,6|0,3:2|2:0,2:0:0:0:
113,208,111492,2,0,B|148:351|148:351|67:305,1,216,10|0,2:0|2:0,2:0:0:0:
140,132,111840,6,0,B|192:143|192:143|218:169|218:169|289:179,1,144,2|0,3:2|2:0,2:0:0:0:
331,123,112102,1,2,3:2:0:0:
280,63,112189,2,0,B|234:56|234:56|192:74,1,71.9999999999999,8|0,2:0|2:0,2:0:0:0:
113,208,112364,2,0,B|129:251|129:251|166:278,1,71.9999999999999,2|0,3:2|2:0,2:0:0:0:
266,308,112538,6,0,P|301:260|258:168,1,156,6|0,3:2|2:0,2:0:0:0:
266,308,112887,2,0,P|325:346|405:297,1,144,10|0,2:0|2:0,2:0:0:0:
270,175,113149,1,0,2:0:0:0:
270,175,113236,2,0,P|207:207|210:300,1,144,2|0,3:2|2:0,2:0:0:0:
389,321,113497,5,2,3:2:0:0:
437,263,113585,2,0,L|425:177,1,71.9999999999999,8|0,2:0|2:0,2:0:0:0:
260,103,113759,2,0,L|272:189,1,71.9999999999999,2|0,3:2|2:0,2:0:0:0:
398,108,113933,6,0,L|497:122,1,80,6|0,3:2|2:0,2:0:0:0:
234,310,114282,2,0,L|135:296,1,80,2|0,2:0|2:0,2:0:0:0:
72,125,114631,5,6,2:0:0:0:
72,125,114980,1,6,2:0:0:0:
72,125,115329,6,0,P|142:105|124:195,1,180,6|0,3:2|2:0,2:0:0:0:
72,125,115678,2,0,P|45:75|84:-2,1,144,10|0,2:0|2:0,2:0:0:0:
142,187,115939,5,2,2:0:0:0:
130,263,116026,2,0,L|117:342,1,71.9999999999999,2|0,3:2|2:0,2:0:0:0:
154,111,116201,2,0,L|167:32,1,71.9999999999999,2|0,2:0|3:0,2:0:0:0:
0,215,116375,2,0,B|20:226|20:226|69:215,1,71.9999999999999,10|0,2:0|2:0,2:0:0:0:
275,234,116550,2,0,B|255:223|255:223|206:234,1,71.9999999999999,2|0,3:2|2:0,2:0:0:0:
72,125,116724,5,6,3:2:0:0:
244,304,116899,2,0,B|264:315|264:315|313:304,1,60,2|0,2:0|2:0,2:0:0:0:
142,187,117073,5,10,2:0:0:0:
314,8,117247,2,0,B|334:-3|334:-3|383:8,1,60,0|0,2:0|2:0,2:0:0:0:
470,111,117422,6,0,L|344:82,1,120,2|0,3:2|2:0,2:0:0:0:
235,27,117683,1,0,3:0:0:0:
235,27,117771,2,0,L|248:99,1,60,10|0,2:0|2:0,2:0:0:0:
275,234,117945,1,2,3:2:0:0:
71,249,118119,6,0,P|141:269|123:179,1,180,6|0,3:2|2:0,2:0:0:0:
71,249,118468,2,0,P|61:316|132:369,1,144,10|0,2:0|2:0,2:0:0:0:
141,186,118730,5,2,2:0:0:0:
74,145,118817,2,0,L|-7:161,1,71.9999999999999,2|0,3:2|2:0,2:0:0:0:
138,290,118992,2,0,L|219:274,1,71.9999999999999,2|0,2:0|3:0,2:0:0:0:
158,36,119166,2,0,L|142:116,1,71.9999999999999,10|0,2:0|2:0,2:0:0:0:
276,333,119340,2,0,L|290:262,1,71.9999999999999,2|0,3:2|2:0,2:0:0:0:
236,139,119515,6,0,B|223:171|223:171|249:205,1,60,6|0,3:2|2:0,2:0:0:0:
409,173,119689,2,0,B|422:141|422:141|396:107,1,60,2|0,2:0|2:0,2:0:0:0:
322,5,119864,2,0,B|332:71|332:71|314:109|314:109|326:183,1,180,10|0,2:0|2:0,2:0:0:0:
456,361,120212,6,0,B|484:352|484:352|509:309,2,60,2|0|0,3:2|2:0|2:0,2:0:0:0:
460,193,120474,2,0,B|438:172|438:172|389:172,2,60,2|8|0,3:2|2:0|2:0,2:0:0:0:
318,257,120736,2,0,B|310:286|310:286|335:328,1,60,2|0,3:2|2:0,2:0:0:0:
251,362,120910,6,0,B|212:285|212:285|246:188,1,180,6|0,3:2|2:0,2:0:0:0:
251,362,121259,2,0,B|157:352|157:352|118:291,1,144,10|0,2:0|2:0,2:0:0:0:
242,196,121521,5,0,2:0:0:0:
317,211,121608,2,0,L|389:222,1,71.9999999999999,2|0,3:2|2:0,2:0:0:0:
197,128,121782,2,0,L|125:117,1,71.9999999999999,2|0,2:0|3:0,2:0:0:0:
281,60,121957,2,0,B|298:94|298:94|282:160,1,71.9999999999999,10|0,2:0|2:0,2:0:0:0:
167,268,122131,2,0,B|150:234|150:234|166:168,1,71.9999999999999,2|0,3:2|2:0,2:0:0:0:
200,48,122306,5,6,3:2:0:0:
251,281,122480,1,2,2:0:0:0:
125,117,122654,2,0,B|9:96|9:96|62:161,1,180,10|0,2:0|2:0,2:0:0:0:
104,196,123003,2,0,B|189:211|189:211|150:163,1,120,2|0,3:2|2:0,2:0:0:0:
146,38,123265,1,0,3:0:0:0:
146,38,123352,2,0,L|128:107,1,60,10|0,2:0|2:0,2:0:0:0:
83,275,123526,1,2,3:2:0:0:
340,149,123701,6,0,P|409:93|494:115,1,180,6|0,3:2|2:0,2:0:0:0:
340,149,124050,2,0,P|296:119|300:24,1,144,10|0,2:0|2:0,2:0:0:0:
491,112,124311,1,2,2:0:0:0:
491,112,124399,2,0,P|487:165|402:209,1,144,2|2,3:2|2:0,2:0:0:0:
292,34,124660,5,0,2:0:0:0:
362,4,124747,2,0,L|440:15,1,71.9999999999999,10|0,2:0|2:0,2:0:0:0:
340,149,124922,2,0,L|262:138,1,71.9999999999999,2|0,3:2|2:0,2:0:0:0:
90,214,125096,6,0,P|52:163|72:96,1,132,6|0,3:2|2:0,2:0:0:0:
86,87,125445,2,0,P|129:144|108:222,1,156,6|0,3:2|2:0,2:0:0:0:
90,214,125794,6,0,B|46:172|-9:175|-9:175|43:148|74:84,1,216,6|0,3:2|2:0,2:0:0:0:
86,87,126143,2,0,B|135:134|199:131|199:131|138:162|103:235,1,252,6|0,3:2|2:0,2:0:0:0:
274,333,126492,6,0,P|329:275|428:275,1,180,6|0,3:2|2:0,2:0:0:0:
274,333,126840,2,0,P|223:308|243:220,1,144,8|0,2:0|2:0,2:0:0:0:
310,92,127102,5,2,2:0:0:0:
321,105,127189,2,0,P|324:141|302:190,1,71.9999999999999,2|0,3:2|2:0,2:0:0:0:
136,290,127364,2,0,P|133:254|155:205,1,71.9999999999999,2|0,2:0|3:0,2:0:0:0:
375,243,127538,2,0,P|330:252|295:268,1,71.9999999999999,10|0,2:0|2:0,2:0:0:0:
137,146,127712,2,0,P|182:137|217:121,1,71.9999999999999,2|0,3:2|2:0,2:0:0:0:
274,333,127887,5,6,3:2:0:0:
69,189,128061,1,2,2:0:0:0:
240,20,128236,2,0,B|230:86|230:86|248:124|248:124|236:198,1,180,10|0,2:0|2:0,2:0:0:0:
127,224,128585,2,0,B|86:239|44:210|44:210|80:178,1,120,2|0,3:2|2:0,2:0:0:0:
119,90,128846,1,0,3:0:0:0:
119,90,128933,2,0,P|136:126|134:160,1,60,10|0,2:0|2:0,2:0:0:0:
306,262,129108,1,2,3:2:0:0:
122,345,129282,6,0,P|191:318|285:393,1,180,6|0,3:2|2:0,2:0:0:0:
122,345,129631,2,0,P|93:301|135:219,1,144,10|0,2:0|2:0,2:0:0:0:
282,188,129893,5,2,2:0:0:0:
266,202,129980,2,0,P|219:199|192:163,1,71.9999999999999,2|0,3:2|2:0,2:0:0:0:
103,12,130154,2,0,P|150:15|177:51,1,71.9999999999999,2|0,2:0|3:0,2:0:0:0:
126,223,130329,2,0,P|111:182|132:136,1,71.9999999999999,10|0,2:0|2:0,2:0:0:0:
241,0,130503,2,0,P|256:41|235:87,1,71.9999999999999,2|0,3:2|2:0,2:0:0:0:
201,183,130678,6,0,B|228:206|228:206|251:207,1,60,6|0,3:2|2:0,2:0:0:0:
459,208,130852,2,0,B|425:219|425:219|411:239,1,60,2|0,2:0|2:0,2:0:0:0:
323,376,131026,2,0,B|336:314|336:314|322:278|322:278|340:201,1,180,10|0,2:0|2:0,2:0:0:0:
384,42,131375,2,0,B|416:81|416:81|395:164,1,120,2|0,3:2|2:0,2:0:0:0:
201,183,131637,1,0,3:0:0:0:
201,183,131724,2,0,L|128:168,1,60,10|0,2:0|2:0,2:0:0:0:
322,106,131899,1,2,3:2:0:0:
255,323,132073,6,0,P|200:288|211:170,1,180,6|0,3:2|2:0,2:0:0:0:
255,323,132422,2,0,P|173:354|101:291,1,144,10|0,2:0|2:0,2:0:0:0:
43,280,132683,1,2,2:0:0:0:
53,249,132771,6,0,B|43:217|43:217|48:198|48:198|37:158,1,71.9999999999999,2|0,3:2|2:0,2:0:0:0:
131,24,132945,2,0,B|121:56|121:56|126:75|126:75|115:115,1,71.9999999999999,2|0,2:0|3:0,2:0:0:0:
193,248,133119,2,0,B|210:213|210:213|193:160,1,71.9999999999999,10|0,2:0|2:0,2:0:0:0:
328,39,133294,2,0,B|311:74|311:74|328:127,1,71.9999999999999,2|0,3:2|2:0,2:0:0:0:
453,295,133468,5,6,3:2:0:0:
480,23,133643,1,0,2:0:0:0:
295,214,133817,2,0,L|486:179,1,180,10|0,2:0|2:0,2:0:0:0:
500,207,134166,2,0,B|526:161|526:161|500:76,1,120,2|0,3:2|2:0,2:0:0:0:
407,56,134428,1,0,3:0:0:0:
407,56,134515,2,0,L|330:70,1,60,10|0,2:0|2:0,2:0:0:0:
199,181,134689,1,2,3:2:0:0:
39,50,134864,6,0,P|110:69|120:166,1,180,6|0,3:2|2:0,2:0:0:0:
39,50,135212,2,0,P|80:10|173:26,1,120,10|0,2:0|2:0,2:0:0:0:
121,163,135474,5,2,2:0:0:0:
58,207,135561,2,0,L|-12:192,1,60,2|0,3:2|2:0,2:0:0:0:
184,119,135736,2,0,L|254:134,1,60,2|0,2:0|3:0,2:0:0:0:
149,307,135910,6,0,B|123:275|123:275|132:228,1,71.9999999999999,10|0,2:0|2:0,2:0:0:0:
96,21,136085,2,0,B|122:53|122:53|113:100,1,71.9999999999999,2|0,3:2|2:0,2:0:0:0:
263,235,136259,6,0,B|290:191|326:187|326:187|396:202,1,120,6|2,3:2|2:0,2:0:0:0:
512,320,136521,1,0,2:0:0:0:
512,320,136608,2,0,B|465:311|465:311|448:295|448:295|409:302|409:302|391:284|391:284|341:275,1,180,6|0,3:2|2:0,2:0:0:0:
336,275,136957,1,6,3:2:0:0:
491,187,137131,5,0,3:0:0:0:
491,187,137218,1,0,3:0:0:0:
271,36,137393,1,0,3:0:0:0:
271,36,137480,1,0,3:0:0:0:
35,98,137654,6,0,B|20:68|20:68|26:25,3,60.0000000000001,6|0|0|0,3:2|2:0|2:0|2:0,2:0:0:0:
59,176,138352,2,0,B|29:191|29:191|-14:185,3,60.0000000000001,2|0|0|0,2:0|2:0|2:0|2:0,2:0:0:0:
133,154,139050,2,0,B|148:184|148:184|142:227,3,60.0000000000001,2|0|0|0,2:0|2:0|2:0|2:0,2:0:0:0:
112,79,139747,2,0,B|142:64|142:64|185:70,3,60.0000000000001,2|0|0|0,2:0|2:0|2:0|2:0,2:0:0:0:
324,61,140445,5,2,2:0:0:0:
371,127,140619,1,0,2:0:0:0:
324,193,140794,1,2,2:0:0:0:
246,167,140968,1,0,2:0:0:0:
246,86,141143,5,2,2:0:0:0:
324,193,141317,1,0,2:0:0:0:
324,61,141492,1,2,2:0:0:0:
246,167,141666,1,0,2:0:0:0:
371,127,141840,5,2,2:0:0:0:
37,190,143236,6,0,P|100:203|134:91,1,200,6|0,3:2|2:0,2:0:0:0:
69,59,143759,2,0,L|1:47,1,50,2|0,2:0|2:0,2:0:0:0:
133,18,143933,2,0,B|195:29|195:29|233:15|233:15|310:29,1,160,10|0,2:0|2:0,2:0:0:0:
331,165,144457,6,0,L|399:177,1,50,2|0,2:0|2:0,2:0:0:0:
457,192,144631,2,0,P|487:234|411:228,1,160,6|0,3:2|2:0,2:0:0:0:
434,111,145154,2,0,P|455:64|488:132,1,160,6|0,3:2|2:0,2:0:0:0:
380,173,145678,2,0,L|298:158,1,80,6|0,3:2|2:0,2:0:0:0:
208,115,146026,6,0,L|234:243,1,120,2|0,2:0|2:0,2:0:0:0:
235,245,146375,2,0,B|247:299|247:299|121:254,1,150,2|0,2:0|2:0,2:0:0:0:
157,267,146724,1,10,2:0:0:0:
44,335,146899,1,2,2:0:0:0:
29,185,147073,2,0,L|117:212,1,80,2|0,2:0|2:0,2:0:0:0:
208,115,147422,6,0,B|197:71|197:71|210:43|210:43|198:-14,1,120,6|0,3:2|2:0,2:0:0:0:
304,269,148119,2,0,B|315:313|315:313|302:341|302:341|314:398,1,120,14|0,3:2|2:0,2:0:0:0:
473,234,148817,6,0,P|413:248|372:124,1,200,6|0,3:2|2:0,2:0:0:0:
421,94,149340,2,0,L|475:101,1,50,2|0,2:0|2:0,2:0:0:0:
351,66,149515,2,0,B|284:58|284:58|250:73|250:73|182:64,1,160,10|0,2:0|2:0,2:0:0:0:
8,31,150038,2,0,L|20:85,1,40,2|0,2:0|2:0,2:0:0:0:
13,150,150212,6,0,B|56:154|81:121|81:121|108:155|158:158,1,160,6|0,3:2|2:0,2:0:0:0:
234,112,150736,2,0,P|266:65|195:84,1,160,6|0,3:2|2:0,2:0:0:0:
102,244,151259,2,8,L|272:214,1,160,6|0,3:2|2:0,2:0:0:0:
259,216,151782,5,2,2:0:0:0:
335,259,151957,1,2,2:0:0:0:
261,298,152131,1,2,2:0:0:0:
376,104,152306,6,0,L|227:129,1,120,0|0,1:0|2:0,2:0:0:0:
234,112,152567,2,0,B|224:97|224:97|230:75,2,30.0000011444092,0|0|0,1:0|1:0|1:0,2:0:0:0:
187,337,152829,1,0,1:0:0:0:
15,180,153003,6,0,P|66:142|133:162,1,132,6|0,3:2|2:0,2:0:0:0:
142,176,153352,2,0,P|85:219|7:198,1,156,6|0,3:2|2:0,2:0:0:0:
15,180,153701,6,0,B|57:136|54:81|54:81|81:133|145:164,1,216,6|0,3:2|2:0,2:0:0:0:
142,176,154050,2,0,B|95:225|98:289|98:289|67:228|-6:193,1,252,6|0,3:2|2:0,2:0:0:0:
207,67,154399,6,0,L|312:84,1,100,6|0,3:2|2:0,2:0:0:0:
475,167,154747,2,0,B|376:150|376:150|323:181,1,150,2|0,3:2|2:0,2:0:0:0:
305,168,155096,6,0,P|310:205|320:237,1,50,2|0,3:2|2:0,2:0:0:0:
384,52,155271,1,2,2:0:0:0:
384,52,155358,1,0,2:0:0:0:
384,52,155445,2,0,P|412:31|436:4,1,50,2|0,3:2|2:0,2:0:0:0:
305,82,155619,2,0,P|272:68|237:60,1,50,2|0,2:0|2:0,2:0:0:0:
65,60,155794,5,6,3:2:0:0:
176,2,155968,1,2,2:0:0:0:
195,121,156143,2,0,B|145:107|145:107|116:73|116:73|53:56,1,150,2|0,3:2|2:0,2:0:0:0:
0,130,156492,6,0,L|13:197,3,50,2|0|2|0,3:2|2:0|2:0|2:0,2:0:0:0:
90,233,156840,1,2,3:2:0:0:
85,257,156928,1,0,2:0:0:0:
80,282,157015,1,2,2:0:0:0:
75,306,157102,1,0,2:0:0:0:
70,332,157189,6,0,P|129:290|202:308,1,150,6|0,3:2|2:0,2:0:0:0:
208,318,157538,1,2,3:2:0:0:
168,194,157712,1,2,2:0:0:0:
168,194,157800,1,0,2:0:0:0:
168,194,157887,2,0,P|203:204|236:211,1,50,2|0,3:2|2:0,2:0:0:0:
346,159,158061,2,0,P|311:149|278:142,1,50,2|0,2:0|2:0,2:0:0:0:
225,45,158236,6,0,B|209:80|209:80|217:108,1,50,2|0,3:2|2:0,2:0:0:0:
311,281,158410,1,2,2:0:0:0:
168,194,158585,6,0,P|126:196|75:264,1,100,6|0,3:2|2:0,2:0:0:0:
346,159,158933,2,0,P|398:175|471:97,1,150,2|0,3:2|2:0,2:0:0:0:
475,93,159282,6,0,L|454:227,1,120,6|2,3:2|2:0,2:0:0:0:
313,358,159806,5,0,1:0:0:0:
313,358,159893,1,0,1:0:0:0:
313,358,159980,2,0,P|275:336|281:239,1,120,6|0,3:2|2:0,2:0:0:0:
267,118,160242,2,0,P|305:140|299:237,1,120,2|0,3:2|2:0,2:0:0:0:
184,277,160503,2,0,L|118:262,1,60,0|0,3:0|2:0,2:0:0:0:
0,96,160678,6,0,B|86:117|86:117|112:157,1,120,6|0,3:2|2:0,2:0:0:0:
59,317,160939,2,0,B|34:232|34:232|55:189,1,120,0|0,3:0|2:0,2:0:0:0:
150,75,161201,2,0,L|225:59,1,60,0|0,3:0|2:0,2:0:0:0:
317,3,161375,6,0,P|383:29|383:110,1,120,6|0,3:2|2:0,2:0:0:0:
478,68,161637,2,0,P|473:138|396:163,1,120,0|0,3:0|2:0,2:0:0:0:
457,248,161899,2,0,P|419:257|393:221,1,60,0|0,3:2|2:0,2:0:0:0:
291,133,162073,6,0,P|253:124|227:160,1,60,6|0,3:2|2:0,2:0:0:0:
175,259,162247,1,0,2:0:0:0:
175,259,162335,2,0,P|236:256|248:175,1,120,0|0,3:0|2:0,2:0:0:0:
145,117,162596,2,0,L|161:195,1,60,0|0,3:0|2:0,2:0:0:0:
363,307,162771,6,0,B|394:326|394:326|382:273,1,71.9999999999999,6|0,3:2|1:0,2:0:0:0:
237,29,162945,2,0,B|205:10|205:10|217:62,1,71.9999999999999,2|0,3:2|1:0,2:0:0:0:
175,259,163119,6,0,B|156:290|156:290|208:277,1,71.9999999999999,0|0,3:0|1:0,2:0:0:0:
421,80,163294,2,0,B|439:48|439:48|386:60,1,71.9999999999999,0|0,3:0|1:0,2:0:0:0:
329,217,163468,5,0,3:0:0:0:
286,221,163556,1,0,1:0:0:0:
252,194,163643,1,0,3:0:0:0:
247,152,163730,1,0,1:0:0:0:
274,118,163817,1,0,3:0:0:0:
317,113,163904,1,0,1:0:0:0:
351,140,163992,1,0,3:0:0:0:
355,183,164079,1,0,1:0:0:0:
329,217,164166,5,6,3:2:0:0:
55,106,164515,6,0,P|101:110|165:121,1,90.0000000000002,10|0,2:0|2:0,2:0:0:0:
158,125,164864,2,0,P|141:137|127:160,1,30.0000000000001,10|0,2:0|2:0,2:0:0:0:
184,48,165038,2,0,P|182:27|169:3,1,30.0000000000001,2|0,3:2|2:0,2:0:0:0:
300,168,165212,6,8,P|341:214|440:180,1,150,10|0,2:0|2:0,2:0:0:0:
422,202,165561,1,2,2:0:0:0:
491,158,165736,1,2,2:0:0:0:
500,238,165910,1,2,2:0:0:0:
355,241,166085,5,2,2:0:0:0:
355,241,166172,1,2,2:0:0:0:
355,241,166259,2,0,P|345:285|332:357,1,100,6|0,3:2|2:0,2:0:0:0:
265,381,166521,2,0,B|247:347|247:347|261:281,1,100,6|0,3:2|2:0,2:0:0:0:
286,155,166782,6,0,B|232:142|232:142|202:153|202:153|141:138,1,150,6|0,3:2|2:0,2:0:0:0:
60,85,167131,1,2,3:2:0:0:
60,85,167218,1,2,2:0:0:0:
60,85,167306,2,0,B|21:97|21:97|-1:127,1,60,2|0,3:2|2:0,2:0:0:0:
180,249,167480,2,0,B|219:237|219:237|241:207,1,60,2|0,2:0|2:0,2:0:0:0:
46,190,167654,6,0,L|29:273,1,60,2|0,3:2|2:0,2:0:0:0:
200,132,167829,2,0,L|217:49,1,60,2|0,2:0|2:0,2:0:0:0:
103,280,168003,5,2,3:2:0:0:
117,305,168090,1,0,2:0:0:0:
141,324,168178,1,2,2:0:0:0:
169,333,168265,1,0,2:0:0:0:
199,330,168352,6,0,B|271:338|304:293|304:293|332:333|372:329,1,180,6|0,3:2|2:0,2:0:0:0:
487,275,168701,1,2,3:2:0:0:
487,275,168788,1,2,2:0:0:0:
487,275,168875,2,0,P|496:257|485:274,1,60,0|0,2:0|2:0,2:0:0:0:
374,172,169050,6,0,P|343:132|361:53,1,120,2|0,3:2|2:0,2:0:0:0:
418,23,169311,2,0,L|484:33,1,60,2|0,3:2|2:0,2:0:0:0:
272,50,169486,1,0,2:0:0:0:
272,50,169573,2,0,L|206:40,1,60,2|0,3:2|2:0,2:0:0:0:
374,172,169747,6,0,B|479:192|479:192|437:125,1,180.000006866455,6|0,3:2|0:0,2:0:0:0:
220,117,170096,2,0,B|115:97|115:97|157:164,1,180.000006866455,2|0,3:2|0:0,2:0:0:0:
279,245,170445,6,0,L|312:43,1,180,2|0,3:2|2:0,2:0:0:0:
279,245,170794,2,0,B|175:211|211:296|92:251,1,180,2|0,3:2|2:0,2:0:0:0:
92,247,171143,1,6,3:2:0:0:
313,317,171317,2,0,P|350:290|356:253,1,60,2|0,2:0|2:0,2:0:0:0:
340,89,171492,2,0,P|303:116|297:153,1,60,2|0,3:2|2:0,2:0:0:0:
389,209,171666,5,2,2:0:0:0:
389,209,171753,1,0,2:0:0:0:
389,209,171840,2,0,B|466:198|466:198|479:176|502:164,1,120,2|0,3:2|2:0,2:0:0:0:
429,59,172102,2,0,L|418:126,1,60,2|0,3:2|2:0,2:0:0:0:
396,302,172276,5,0,2:0:0:0:
385,299,172364,2,0,B|259:270|259:270|325:231,1,180,2|0,3:2|2:0,2:0:0:0:
337,371,172712,5,2,3:2:0:0:
337,371,172800,1,2,2:0:0:0:
337,371,172887,2,0,L|258:356,1,60,2|0,3:2|2:0,2:0:0:0:
127,226,173061,2,0,L|206:241,1,60,2|0,2:0|2:0,2:0:0:0:
299,187,173236,6,0,B|310:218|310:218|296:266,1,60,2|0,3:2|2:0,2:0:0:0:
203,384,173410,2,0,B|192:353|192:353|206:305,1,60,2|0,2:0|2:0,2:0:0:0:
216,152,173585,5,2,3:2:0:0:
210,122,173672,1,0,2:0:0:0:
205,92,173759,1,2,2:0:0:0:
200,63,173846,1,0,2:0:0:0:
194,33,173933,1,6,3:2:0:0:
198,17,174282,5,2,2:0:0:0:
196,24,174369,1,2,2:0:0:0:
194,33,174457,2,0,L|247:22,1,30.0000000000001,2|0,2:0|2:0,2:0:0:0:
401,161,174631,6,0,B|427:170|427:170|474:156,2,60,2|0|0,3:2|2:0|2:0,2:0:0:0:
337,118,174893,2,0,B|331:90|331:90|296:58,2,60,2|0|0,3:2|2:0|2:0,2:0:0:0:
331,194,175154,2,0,B|310:212|310:212|298:259,1,60,2|0,3:2|2:0,2:0:0:0:
178,353,175329,6,0,B|162:276|162:276|111:220,1,120,6|0,3:2|2:0,2:0:0:0:
67,203,175678,2,0,L|233:227,1,150,6|0,3:2|2:0,2:0:0:0:
401,161,176026,2,0,B|354:142|327:105|327:105|296:125|241:120,1,180,6|0,3:2|2:0,2:0:0:0:
307,198,176375,5,14,2:0:0:0:
6,125,177422,6,0,L|173:103,1,120,6|0,3:2|2:0,2:0:0:0:
189,6,177683,2,0,B|174:35|174:35|188:75,1,60,2|0,3:2|2:0,2:0:0:0:
105,191,177858,1,0,2:0:0:0:
112,203,177945,2,0,B|76:241|95:305|95:305|70:270|22:272,1,180,2|0,3:2|2:0,2:0:0:0:
181,269,178294,5,2,3:2:0:0:
181,269,178381,1,2,2:0:0:0:
181,269,178468,2,0,L|249:282,1,60,10|0,2:0|2:0,2:0:0:0:
359,149,178643,2,0,L|291:136,1,60,2|0,2:0|2:0,2:0:0:0:
176,65,178817,6,0,B|148:51|148:51|163:79,1,60,2|0,3:2|2:0,2:0:0:0:
336,319,178992,2,0,B|363:331|363:331|349:305,1,60,2|0,2:0|2:0,2:0:0:0:
196,161,179166,5,10,2:0:0:0:
166,167,179253,1,0,2:0:0:0:
137,174,179340,1,0,2:0:0:0:
108,180,179428,1,0,2:0:0:0:
78,187,179515,6,0,B|21:214|34:277|34:277|87:292|93:337,1,180,6|0,3:2|2:0,2:0:0:0:
203,383,179864,1,10,2:0:0:0:
203,383,179951,1,2,2:0:0:0:
203,383,180038,2,0,L|214:312,1,60,2|0,2:0|2:0,2:0:0:0:
371,181,180212,6,0,P|320:222|250:217,1,120,2|0,3:2|2:0,2:0:0:0:
78,187,180474,2,0,P|113:200|136:234,1,60,2|0,3:2|2:0,2:0:0:0:
295,133,180649,1,0,2:0:0:0:
295,133,180736,2,0,L|306:62,1,60,2|0,3:2|2:0,2:0:0:0:
190,0,180910,5,6,3:2:0:0:
78,187,181085,2,0,L|18:200,1,60,2|0,2:0|2:0,2:0:0:0:
161,152,181259,2,0,L|171:87,1,60,10|0,2:0|2:0,2:0:0:0:
98,48,181433,2,0,L|88:107,1,60,0|0,2:0|2:0,2:0:0:0:
129,275,181608,6,0,P|183:226|296:238,1,160,6|8,3:2|2:0,2:0:0:0:
266,222,182131,1,0,1:0:0:0:
266,222,182218,1,0,1:0:0:0:
266,222,182306,1,6,3:2:0:0:
351,164,182480,6,0,B|369:143|369:143|358:96,1,60,2|0,2:0|2:0,2:0:0:0:
375,265,182654,2,0,B|384:291|384:291|430:305,1,60,10|0,2:0|2:0,2:0:0:0:
278,122,182829,1,2,2:0:0:0:
278,122,182916,1,0,2:0:0:0:
278,122,183003,2,0,B|264:82|264:82|175:57,1,120,2|0,3:2|2:0,2:0:0:0:
120,122,183265,2,0,L|200:144,1,60,2|0,3:2|2:0,2:0:0:0:
297,336,183439,5,0,2:0:0:0:
301,322,183526,2,0,B|332:209|332:209|265:239,1,180,2|0,3:2|2:0,2:0:0:0:
391,321,183875,5,2,2:0:0:0:
391,321,183962,1,2,2:0:0:0:
391,321,184050,2,0,L|411:239,1,60,10|0,2:0|2:0,2:0:0:0:
403,104,184224,2,0,L|388:162,1,60,2|0,2:0|2:0,2:0:0:0:
274,234,184399,6,0,B|306:244|306:244|362:226,1,60,2|0,3:2|2:0,2:0:0:0:
512,215,184573,2,0,B|480:205|480:205|424:223,1,60,0|0,2:0|2:0,2:0:0:0:
278,122,184747,5,10,2:0:0:0:
234,112,184835,1,0,2:0:0:0:
190,102,184922,1,2,2:0:0:0:
146,93,185009,1,0,2:0:0:0:
102,83,185096,1,6,3:2:0:0:
89,98,185445,5,2,2:0:0:0:
94,90,185532,1,2,2:0:0:0:
102,83,185619,2,0,L|92:26,1,40,2|0,2:0|2:0,2:0:0:0:
0,151,185794,1,8,2:0:0:0:
130,239,185968,5,2,2:0:0:0:
134,247,186056,1,2,2:0:0:0:
136,257,186143,2,0,L|190:276,1,40,2|0,2:0|2:0,2:0:0:0:
376,140,186317,1,0,2:0:0:0:
256,10,186492,1,6,3:2:0:0:
247,20,186840,6,0,L|263:120,2,95.9999999999998,2|2|2,2:0|2:0|2:0,2:0:0:0:
211,179,187887,6,0,L|155:168,3,47.9999999999999,6|0|0|0,3:2|2:0|2:0|2:0,2:0:0:0:
97,125,188585,2,0,B|81:148|81:148|90:176,1,47.9999999999999,8|0,2:0|2:0,2:0:0:0:
115,276,188933,2,0,B|131:253|131:253|122:225,1,47.9999999999999,0|0,2:0|2:0,2:0:0:0:
0,229,189282,6,0,L|56:240,3,47.9999999999999,2|0|0|0,2:0|2:0|2:0|2:0,2:0:0:0:
186,311,189980,2,0,L|246:300,1,47.9999999999999,8|2,2:0|2:0,2:0:0:0:
250,224,190329,2,0,L|202:232,1,47.9999999999999,0|2,2:0|2:0,2:0:0:0:
109,171,190678,6,0,L|95:121,3,47.9999999999999,0|2|0|0,2:0|2:0|2:0|2:0,2:0:0:0:
183,40,191375,2,0,L|169:90,3,47.9999999999999,8|0|0|0,2:0|2:0|2:0|2:0,2:0:0:0:
257,208,192073,2,0,L|243:158,3,47.9999999999999,2|0|0|0,2:0|2:0|2:0|2:0,2:0:0:0:
339,16,192771,5,10,2:0:0:0:
412,46,192945,2,0,L|463:57,1,47.9999999999999,2|0,2:0|2:0,2:0:0:0:
358,102,193294,2,0,P|333:64|346:4,1,95.9999999999998,2|0,2:0|2:0,2:0:0:0:
271,114,193817,5,0,2:0:0:0:
271,114,193992,2,0,L|220:125,1,47.9999999999999,2|8,2:0|2:0,2:0:0:0:
321,177,194340,2,0,P|358:182|423:206,1,95.9999999999998,2|0,2:0|2:0,2:0:0:0:
474,154,194864,6,0,B|490:132|490:132|485:101,3,47.9999999999999,2|0|0|0,2:0|2:0|2:0|2:0,2:0:0:0:
361,261,195561,1,8,2:0:0:0:
441,250,195736,2,0,L|501:239,2,47.9999999999999,2|0|2,2:0|2:0|2:0,2:0:0:0:
287,305,196259,6,0,L|273:251,7,47.9999999999999,0|2|0|2|10|0|0|0,2:0|2:0|2:0|2:0|2:0|2:0|2:0|2:0,2:0:0:0:
326,197,197654,2,0,L|334:160,7,31.9999999999999,2|0|0|0|8|0|0|0,2:0|2:0|2:0|2:0|2:0|2:0|2:0|2:0,2:0:0:0:
277,110,199050,6,0,L|188:124,1,80,6|2,2:0|2:0,2:0:0:0:
197,122,199573,1,0,2:0:0:0:
133,85,199747,2,0,P|118:66|113:39,1,40,10|0,2:0|2:0,2:0:0:0:
62,126,200096,2,0,P|38:129|12:120,1,40,2|0,2:0|2:0,2:0:0:0:
74,206,200445,6,0,B|94:234|94:234|81:292,1,80,2|0,2:0|2:0,2:0:0:0:
179,355,200968,1,0,2:0:0:0:
179,355,201143,2,0,B|159:327|159:327|172:269,1,80,10|0,2:0|2:0,2:0:0:0:
283,218,201840,6,0,P|323:228|362:235,1,80,2|0,2:0|2:0,2:0:0:0:
361,234,202364,1,0,2:0:0:0:
439,214,202538,1,8,2:0:0:0:
439,214,202887,6,0,L|446:170,1,40,0|0,2:0|2:0,2:0:0:0:
500,116,203236,2,0,L|484:31,2,80,2|2|10,2:0|2:0|2:0,2:0:0:0:
445,174,204108,2,0,B|410:168|410:168|395:175|395:175|360:170,1,80,0|0,2:0|2:0,2:0:0:0:
315,114,204631,5,2,2:0:0:0:
315,114,204980,1,0,2:0:0:0:
367,171,205154,1,0,2:0:0:0:
331,239,205329,1,8,2:0:0:0:
331,239,205678,6,0,L|289:234,1,40,0|0,2:0|2:0,2:0:0:0:
242,176,206026,2,0,L|200:181,1,40,2|0,2:0|2:0,2:0:0:0:
150,237,206375,1,2,2:0:0:0:
150,237,206550,1,0,2:0:0:0:
186,305,206724,1,8,2:0:0:0:
186,305,207073,2,0,L|240:293,1,40,0|0,2:0|2:0,2:0:0:0:
326,249,207422,6,0,L|333:205,7,40,2|0|0|0|8|0|0|0,2:0|2:0|2:0|2:0|2:0|2:0|2:0|2:0,2:0:0:0:
181,217,208817,6,0,L|174:173,7,40,0|0|0|0|8|0|0|0,2:0|2:0|2:0|2:0|2:0|2:0|2:0|2:0,2:0:0:0:
256,192,210212,5,6,3:2:0:0:
256,192,210300,12,0,213003,2:0:0:0:
