osu file format v14

[General]
AudioFilename: audio.mp3
AudioLeadIn: 0
PreviewTime: 92963
Countdown: 0
SampleSet: Soft
StackLeniency: 0.4
Mode: 0
LetterboxInBreaks: 0
WidescreenStoryboard: 0

[Editor]
Bookmarks: 186451,187846,199009
DistanceSpacing: 1
BeatDivisor: 16
GridSize: 16
TimelineZoom: 2.699999

[Metadata]
Title:Still in my heart feat. Punipuni Denki
TitleUnicode:Still in my heart feat. ぷにぷに電機
Artist:PSYQUI
ArtistUnicode:PSYQUI
Creator:NeonLights
Version:Sayonara
Source:
Tags:future core bass froskya nines fugene3 fugene japanese electronic
BeatmapID:2155905
BeatmapSetID:983405

[Difficulty]
HPDrainRate:5.5
CircleSize:4.2
OverallDifficulty:8.5
ApproachRate:9.3
SliderMultiplier:1.8
SliderTickRate:1

[Events]
//Background and Video events
0,0,"still-in-my-heart.jpg",0,0
//Break Periods
//Storyboard Layer 0 (Background)
//Storyboard Layer 1 (Fail)
//Storyboard Layer 2 (Pass)
//Storyboard Layer 3 (Foreground)
//Storyboard Layer 4 (Overlay)
//Storyboard Sound Samples

[TimingPoints]
840,348.837209302326,4,2,3,60,1,0
1101,-200,4,2,3,60,0,0
1537,-100,4,2,3,60,0,0
1886,-66.6666666666667,4,2,3,60,0,0
2584,-100,4,2,3,60,0,0
12002,-50,4,2,2,60,0,0
12351,-66.6666666666667,4,2,2,60,0,0
12700,-100,4,2,2,60,0,0
13049,-66.6666666666667,4,2,2,60,0,0
13398,-80,4,2,4,60,0,0
15840,-80,4,2,4,60,0,0
16188,-80,4,2,2,60,0,0
16886,-80,4,2,4,60,0,0
18281,-333.333333333333,4,2,2,60,0,0
18630,-100,4,2,2,60,0,0
18979,-66.6666666666667,4,2,2,60,0,0
23165,-66.6666666666667,4,2,3,60,0,0
23514,-66.6666666666667,4,2,2,60,0,0
25258,-133.333333333333,4,2,2,70,0,0
25520,-66.6666666666667,4,2,2,70,0,0
25781,-50,4,2,2,70,0,0
25956,-66.6666666666667,4,2,2,70,0,0
34677,-50,4,2,2,70,0,0
35026,-40,4,2,2,70,0,0
35374,-66.6666666666667,4,2,2,70,0,0
35723,-1000,4,2,2,70,0,0
35898,-1000,4,2,2,5,0,0
36072,-66.6666666666667,4,2,2,70,0,0
38340,-100,4,2,2,70,0,0
38514,-66.6666666666667,4,2,2,70,0,0
40607,-100,4,2,2,70,0,0
41130,-100,4,2,4,70,0,0
41653,-100,4,2,2,70,0,0
47235,-133.333333333333,4,2,2,65,0,0
48281,-80,4,2,4,65,0,0
53165,-80,4,2,2,65,0,0
53776,-80,4,2,4,65,0,0
58049,-50,4,2,4,65,0,0
58398,-66.6666666666667,4,2,2,65,0,0
58746,-100,4,2,2,65,0,0
59095,-66.6666666666667,4,2,2,65,0,0
66421,-100,4,2,2,65,0,0
67816,-66.6666666666667,4,2,2,65,0,0
69560,-100,4,2,2,65,0,0
69909,-133.333333333333,4,2,2,65,0,0
70258,-66.6666666666667,4,2,2,65,0,0
70607,-333.333333333333,4,2,2,50,0,0
72002,-200,4,2,2,50,0,0
73398,-133.333333333333,4,2,2,50,0,0
74793,-111.111111111111,4,2,2,50,0,0
76188,-100,4,2,2,55,0,0
81770,-100,4,2,2,60,0,0
86653,-100,4,2,4,60,0,0
87351,-100,4,2,2,65,0,0
92933,-200,4,2,2,80,0,1
93281,-66.6666666666667,4,2,2,80,0,1
93630,-33.3333333333333,4,2,2,80,0,1
93892,-100,4,2,2,80,0,1
94328,-66.6666666666667,4,2,2,80,0,1
95026,-100,4,2,2,80,0,1
95549,-66.6666666666667,4,2,2,80,0,1
95723,-200,4,2,2,80,0,1
96072,-66.6666666666667,4,2,2,80,0,1
96421,-33.3333333333333,4,2,2,80,0,1
96683,-100,4,2,2,80,0,1
97119,-66.6666666666667,4,2,2,80,0,1
97467,-100,4,2,2,80,0,1
97816,-133.333333333333,4,2,2,80,0,1
98340,-66.6666666666667,4,2,2,80,0,1
98514,-133.333333333333,4,2,2,80,0,1
98863,-66.6666666666667,4,2,2,80,0,1
99212,-33.3333333333333,4,2,2,80,0,1
99473,-100,4,2,2,80,0,1
99909,-200,4,2,2,80,0,1
100258,-100,4,2,2,80,0,1
100607,-50,4,2,2,80,0,1
101305,-200,4,2,2,80,0,1
101653,-133.333333333333,4,2,2,80,0,1
102002,-66.6666666666667,4,2,2,80,0,1
102526,-40,4,2,2,80,0,1
103049,-50,4,2,2,80,0,1
103398,-66.6666666666667,4,2,2,80,0,1
103746,-50,4,2,2,80,0,1
104095,-66.6666666666667,4,2,2,80,0,1
113863,-100,4,2,2,70,0,0
115258,-66.6666666666667,4,2,2,80,0,1
115956,-100,4,2,2,80,0,1
117002,-66.6666666666667,4,2,2,80,0,1
118746,-100,4,2,2,80,0,1
119793,-66.6666666666667,4,2,2,80,0,1
121537,-100,4,2,2,80,0,1
122584,-66.6666666666667,4,2,2,80,0,1
124328,-100,4,2,2,80,0,1
125374,-66.6666666666667,4,2,2,80,0,1
125723,-133.333333333333,4,2,2,80,0,1
126072,-66.6666666666667,4,2,2,80,0,1
136886,-66.6666666666667,4,2,2,60,0,0
141944,-133.333333333333,4,2,2,60,0,0
143165,-100,4,2,3,60,0,0
152933,-50,4,2,3,60,0,0
153281,-66.6666666666667,4,2,2,60,0,0
153630,-100,4,2,2,60,0,0
153979,-66.6666666666667,4,2,2,60,0,0
154328,-100,4,2,2,60,0,0
154677,-80,4,2,4,60,0,0
159212,-333.333333333333,4,2,2,60,0,0
159560,-100,4,2,2,60,0,0
159909,-66.6666666666667,4,2,2,60,0,0
162700,-66.6666666666667,4,2,2,60,0,0
164095,-66.6666666666667,4,2,3,60,0,0
164444,-66.6666666666667,4,2,2,60,0,0
166188,-133.333333333333,4,2,2,60,0,0
166450,-66.6666666666667,4,2,2,60,0,0
166712,-50,4,2,2,60,0,0
166886,-66.6666666666667,4,2,2,60,0,0
175258,-50,4,2,2,60,0,0
175607,-40,4,2,2,60,0,0
176305,-100,4,2,2,60,0,0
176653,-1000,4,2,2,60,0,0
176915,-1000,4,2,2,5,0,0
177002,-1000,4,2,2,40,0,0
177264,-1000,4,2,2,5,0,0
177351,-66.6666666666667,4,2,2,60,0,0
179270,-100,4,2,2,60,0,0
179444,-66.6666666666667,4,2,2,60,0,0
181537,-100,4,2,2,60,0,0
182060,-100,4,2,4,60,0,0
182584,-100,4,2,2,60,0,0
187816,-100,4,2,2,30,0,0
188165,-142.857142857143,4,2,2,50,0,0
197584,-200,4,2,2,50,0,0
198979,-133.333333333333,4,2,2,40,0,0
204560,-133.333333333333,4,2,2,30,0,0
205956,-200,4,2,2,25,0,0
207351,-400,4,2,2,20,0,0
212933,-400,4,2,2,5,0,0

[Colours]
Combo1 : 255,102,179
Combo2 : 0,255,168
Combo3 : 231,232,226

[HitObjects]
26,242,1101,6,0,P|69:213|112:230,1,90,2|0,0:0|0:0,0:0:0:0:
173,348,1537,6,0,P|165:305|244:243,1,135,2|0,0:0|0:0,0:0:0:0:
222,126,1886,6,0,P|213:158|214:109,1,202.500007724762,2|0,0:0|0:0,0:0:0:0:
435,171,2235,6,0,L|246:187,1,135.000005149842,0|0,1:2|0:0,0:0:0:0:
351,38,2584,5,0,0:0:0:0:
222,126,2758,2,0,L|227:194,1,45
188,284,2933,2,0,P|225:250|276:258,1,90,8|0,0:0|0:0,0:0:0:0:
332,321,3194,2,0,L|336:252,1,45
339,185,3456,1,0,0:0:0:0:
58,179,3630,6,0,P|140:206|92:231,1,180,0|0,1:2|0:0,0:0:0:0:
299,98,4153,6,0,L|297:161,1,45
292,224,4327,1,8,0:0:0:0:
399,142,4502,1,0,0:0:0:0:
188,37,4677,2,0,P|208:89|134:111,1,135,0|0,1:0|0:0,0:0:0:0:
66,77,5026,6,0,L|76:193,1,90,2|0,0:0|0:0,0:0:0:0:
39,261,5287,1,0,0:0:0:0:
53,271,5374,2,0,P|102:252|160:284,1,90
203,323,5723,1,8,0:0:0:0:
254,230,5898,1,0,0:0:0:0:
293,371,6072,2,0,L|441:358,1,135
413,164,6421,6,0,P|415:257|506:238,1,180,0|0,1:0|0:0,0:0:0:0:
299,79,7119,2,0,B|344:42|344:42|213:66,1,180,8|0,0:0|0:0,0:0:0:0:
41,104,7816,6,0,L|52:169,1,45,2|0,1:2|0:0,0:0:0:0:
41,104,7991,5,0,0:0:0:0:
63,247,8165,1,2,0:0:0:0:
183,149,8340,2,0,L|176:225,1,45,2|0,0:0|0:0,0:0:0:0:
207,291,8514,5,10,0:0:0:0:
63,247,8688,1,2,0:0:0:0:
102,345,8863,5,2,0:0:0:0:
183,149,9037,1,2,0:0:0:0:
207,291,9212,6,0,P|200:349|284:315,1,180,0|0,1:0|0:0,0:0:0:0:
372,159,9735,1,0,1:0:0:0:
372,159,9909,2,0,B|335:126|335:126|347:249,1,135,8|0,0:0|0:0,0:0:0:0:
420,349,10258,6,0,P|406:302|493:328,1,180,0|0,1:0|0:0,0:0:0:0:
235,101,11305,5,10,0:0:0:0:
162,184,11479,2,0,L|166:222,4,22.5
142,28,11828,1,0,0:0:0:0:
397,238,12002,6,0,P|346:174|339:298,1,270,2|0,1:2|0:0,0:0:0:0:
180,309,12351,6,0,B|225:336|225:336|71:323,1,202.500007724762,10|0,0:2|0:0,0:0:0:0:
97,157,12700,6,0,B|97:194|72:236|72:236|32:212|30:203,1,135,2|0,1:2|0:0,0:0:0:0:
12,47,13049,6,0,L|217:64,1,202.500007724762,10|0,0:0|0:0,0:0:0:0:
417,123,13398,6,0,P|298:129|281:181,1,168.75,4|0,1:2|0:0,0:0:0:0:
349,319,13746,6,0,L|355:245,1,56.25,8|0,0:0|0:0,0:0:0:0:
360,181,13921,1,0,0:0:0:0:
170,155,14095,2,0,L|176:231,1,56.25,2|2,1:2|0:0,0:0:0:0:
190,342,14270,1,2,0:0:0:0:
207,317,14357,1,2,0:0:0:0:
237,307,14444,2,0,L|403:323,1,112.5,10|0,0:0|0:0,0:0:0:0:
447,283,14706,5,0,0:0:0:0:
456,276,14793,2,0,L|451:219,1,56.25,0|0,1:0|0:0,0:0:0:0:
367,170,14967,1,0,0:0:0:0:
375,159,15055,1,0,0:0:0:0:
382,150,15142,2,0,P|319:175|256:143,1,112.5,8|0,0:0|0:0,0:0:0:0:
133,38,15403,1,0,0:0:0:0:
145,49,15491,2,0,P|158:78|137:130,1,56.25,2|2,1:2|0:0,0:0:0:0:
114,200,15665,2,0,P|101:229|121:281,1,56.25,2|2,0:0|0:0,0:0:0:0:
155,365,15840,1,10,0:0:0:0:
185,318,15927,1,2,0:0:0:0:
237,298,16014,1,2,0:0:0:0:
291,312,16101,1,2,0:0:0:0:
327,353,16188,6,0,B|338:229|338:229|388:174,1,168.75,0|0,1:0|0:0,0:0:0:0:
412,259,16537,2,0,P|341:228|334:219,1,56.25,8|0,0:0|0:0,0:0:0:0:
217,206,16712,2,0,P|279:160|290:158,1,56.25
364,59,16886,2,0,P|372:135|368:146,1,56.25,2|2,1:2|0:0,0:0:0:0:
301,288,17060,1,2,0:0:0:0:
290,262,17147,1,2,0:0:0:0:
287,234,17234,1,10,0:0:0:0:
451,135,17409,1,2,0:0:0:0:
260,35,17584,5,2,1:2:0:0:
244,58,17671,1,0,0:0:0:0:
220,71,17758,1,0,0:0:0:0:
192,72,17845,1,0,0:0:0:0:
167,59,17933,2,0,L|33:71,1,112.5,8|0,0:0|0:0,0:0:0:0:
23,180,18281,6,0,P|28:162|43:171,1,40.4999987640381,2|0,0:0|0:0,0:0:0:0:
118,231,18630,6,0,B|141:270|141:270|153:152,1,135,2|0,0:0|0:0,0:0:0:0:
364,229,18979,6,0,B|311:180|311:180|250:201,1,135.000005149842,4|0,1:2|0:0,0:0:0:0:
118,231,19241,1,0,1:0:0:0:
118,231,19328,2,0,P|177:243|201:227,1,67.5000025749208,8|0,0:0|0:0,0:0:0:0:
291,107,19502,2,0,P|324:103|354:115,1,67.5000025749208,0|0,1:0|0:0,0:0:0:0:
440,187,19677,6,0,B|458:212|458:212|470:84,1,135.000005149842,0|0,1:0|0:0,0:0:0:0:
364,229,19938,1,0,1:0:0:0:
364,229,20026,2,0,L|370:300,1,67.5000025749208,8|0,0:0|0:0,0:0:0:0:
291,107,20200,2,0,L|284:178,1,67.5000025749208,0|0,1:0|0:0,0:0:0:0:
265,289,20374,6,0,P|195:284|185:345,1,135.000005149842,0|0,1:0|0:0,0:0:0:0:
154,150,20636,1,0,1:0:0:0:
154,150,20723,2,0,P|152:208|122:237,1,67.5000025749208,8|0,0:0|0:0,0:0:0:0:
95,311,20898,2,0,P|96:369|126:398,1,67.5000025749208,0|0,1:0|0:0,0:0:0:0:
32,190,21072,6,0,B|65:168|65:168|55:54,1,135.000005149842,0|0,1:0|0:0,0:0:0:0:
254,18,21334,2,0,P|183:54|138:24,1,135.000005149842,0|0,1:0|0:0,0:0:0:0:
336,69,21595,2,0,L|404:64,1,67.5000025749208,0|0,1:0|0:0,0:0:0:0:
251,332,21770,6,0,P|266:293|261:259,1,67.5000025749208,0|0,1:0|0:0,0:0:0:0:
335,281,21944,2,0,P|328:239|307:212,1,67.5000025749208,0|0,1:0|0:0,0:0:0:0:
229,161,22119,2,0,P|214:122|219:88,1,67.5000025749208,0|0,1:0|0:0,0:0:0:0:
146,111,22293,2,0,P|152:69|173:42,1,67.5000025749208,0|0,1:0|0:0,0:0:0:0:
287,12,22467,5,0,1:0:0:0:
343,34,22554,1,0,0:0:0:0:
368,77,22642,1,0,1:0:0:0:
352,131,22729,1,0,0:0:0:0:
312,203,22816,5,0,1:0:0:0:
335,281,22904,1,0,0:0:0:0:
407,319,22991,1,0,1:0:0:0:
485,294,23078,1,0,0:0:0:0:
512,221,23165,5,10,0:2:0:0:
512,221,23514,1,0,0:2:0:0:
112,131,23863,6,0,L|116:223,1,67.5000025749208,2|0,0:0|0:0,0:0:0:0:
119,284,24037,1,0,1:0:0:0:
107,31,24212,1,8,0:1:0:0:
265,268,24560,6,0,P|256:340|322:291,1,135.000005149842,2|0,0:0|0:0,0:0:0:0:
259,175,24909,1,0,0:0:0:0:
152,206,25084,6,0,L|159:301,1,67.5000025749208
112,131,25258,6,0,P|146:120|193:131,1,67.5000025749208,2|0,1:2|0:0,0:0:0:0:
259,175,25520,6,0,P|317:197|375:140,1,135.000005149842,2|0,1:2|0:0,0:0:0:0:
427,21,25781,2,0,P|418:64|489:108,1,90,2|0,1:2|0:0,0:0:0:0:
512,141,25956,5,0,0:0:0:0:
462,298,26130,5,0,1:0:0:0:
462,298,26217,1,0,0:0:0:0:
462,298,26305,2,0,P|447:250|420:220,1,67.5000025749208,8|0,0:0|0:0,0:0:0:0:
370,156,26479,5,0,1:0:0:0:
370,156,26566,1,0,0:0:0:0:
370,156,26654,2,0,P|320:166|291:219,1,67.5000025749208,0|0,1:0|0:0,0:0:0:0:
267,373,26828,2,0,P|301:336|313:297,1,67.5000025749208,0|0,1:0|0:0,0:0:0:0:
270,112,27002,6,0,P|236:148|232:209,1,67.5000025749208,8|0,0:0|0:0,0:0:0:0:
370,362,27177,2,0,P|381:312|372:273,1,67.5000025749208,0|0,1:0|0:0,0:0:0:0:
169,293,27351,6,0,L|87:301,1,67.5000025749208,0|0,1:0|0:0,0:0:0:0:
0,308,27526,1,0,0:0:0:0:
24,260,27613,1,0,0:0:0:0:
23,208,27700,2,0,L|15:122,1,67.5000025749208,8|0,0:0|0:0,0:0:0:0:
128,32,27874,2,0,L|120:117,1,67.5000025749208
275,69,28049,5,0,1:0:0:0:
280,79,28136,2,0,P|315:74|350:93,1,67.5000025749208
253,235,28310,1,0,1:0:0:0:
251,223,28397,2,0,P|216:215|189:185,1,67.5000025749208,8|0,0:0|0:0,0:0:0:0:
388,162,28572,2,0,P|401:223|390:253,1,67.5000025749208,0|0,1:0|0:0,0:0:0:0:
280,345,28746,6,0,L|133:332,1,135.000005149842,0|0,1:0|0:0,0:0:0:0:
33,370,29008,1,0,0:0:0:0:
21,362,29095,6,0,P|53:304|35:241,1,135.000005149842,8|0,0:0|0:0,0:0:0:0:
98,122,29357,1,0,0:0:0:0:
108,116,29444,2,0,L|100:200,1,67.5000025749208,0|0,1:0|0:0,0:0:0:0:
143,270,29619,1,0,0:0:0:0:
143,270,29706,1,0,0:0:0:0:
143,270,29793,6,0,P|239:267|163:214,1,202.500007724762,8|0,0:0|0:0,0:0:0:0:
352,63,30142,5,0,1:0:0:0:
352,63,30229,1,0,0:0:0:0:
352,63,30316,2,0,L|343:163,2,67.5000025749208,0|0|8,0:0|0:0|0:0,0:0:0:0:
402,267,30665,5,0,0:0:0:0:
328,317,30752,1,0,0:0:0:0:
256,255,30840,1,0,1:0:0:0:
251,265,30927,2,0,P|216:260|181:279,1,67.5000025749208
45,335,31101,1,0,1:0:0:0:
40,323,31188,2,0,P|66:298|74:259,1,67.5000025749208,8|0,0:0|0:0,0:0:0:0:
66,115,31363,6,0,B|121:158|121:158|237:115,1,135.000005149842,0|0,1:0|0:0,0:0:0:0:
241,25,31624,1,0,0:0:0:0:
241,25,31712,2,0,L|331:30,1,67.5000025749208,0|0,1:0|0:0,0:0:0:0:
464,71,31886,5,8,0:0:0:0:
412,84,31973,1,0,0:0:0:0:
394,120,32060,1,0,0:0:0:0:
396,160,32148,1,0,0:0:0:0:
444,225,32235,5,0,1:0:0:0:
451,265,32322,1,0,0:0:0:0:
445,307,32409,1,0,0:0:0:0:
423,341,32496,1,0,0:0:0:0:
353,380,32584,6,0,L|192:365,1,135.000005149842,8|0,0:0|0:0,0:0:0:0:
60,76,32933,5,0,1:0:0:0:
63,121,33020,1,0,0:0:0:0:
66,157,33107,2,0,L|72:234,1,67.5000025749208
82,374,33281,2,0,P|106:340|181:342,1,67.5000025749208,8|0,0:0|0:0,0:0:0:0:
305,268,33456,1,0,0:0:0:0:
300,258,33543,1,0,0:0:0:0:
295,245,33630,5,0,1:0:0:0:
289,234,33717,2,0,P|254:239|219:220,1,67.5000025749208
161,75,33891,1,0,1:0:0:0:
168,85,33978,2,0,P|202:74|240:86,1,67.5000025749208,8|0,0:0|0:0,0:0:0:0:
342,120,34153,2,0,P|374:127|406:116,1,67.5000025749208,0|0,1:0|0:0,0:0:0:0:
502,68,34328,6,0,L|494:306,1,202.500007724762,6|0,1:2|0:0,0:0:0:0:
373,234,34677,6,0,B|353:189|302:163|302:163|251:253|285:335,1,270,6|0,1:2|0:0,0:0:0:0:
376,335,35026,6,0,B|373:376|428:396|474:368|470:316|470:316|461:213|461:213|452:205|452:205|442:99|442:99,1,337.500012874604,6|0,1:2|0:0,1:0:0:0:
412,4,35374,6,0,P|390:73|279:37,1,202.500007724762,6|0,1:2|0:0,0:0:0:0:
201,16,35723,6,0,L|202:27,1,9
19,147,36072,6,0,L|112:138,1,67.5000025749208,8|0,0:0|0:0,0:0:0:0:
228,161,36246,1,0,0:0:0:0:
243,206,36334,1,0,0:0:0:0:
217,242,36421,1,0,1:0:0:0:
179,260,36508,2,0,L|106:253,1,67.5000025749208
323,314,36682,1,0,1:0:0:0:
316,324,36769,2,0,P|282:313|244:325,1,67.5000025749208,8|0,0:0|0:0,0:0:0:0:
406,130,36944,2,0,L|396:274,1,135.000005149842,0|0,1:0|0:0,0:0:0:0:
359,16,37293,5,0,1:0:0:0:
344,52,37380,1,0,0:0:0:0:
313,68,37467,2,0,L|229:60,1,67.5000025749208,8|0,0:0|0:0,0:0:0:0:
69,76,37642,2,0,P|103:90|145:76,1,67.5000025749208
75,194,37816,5,0,1:0:0:0:
45,244,37903,1,0,0:0:0:0:
54,293,37991,1,0,0:0:0:0:
98,324,38078,1,0,0:0:0:0:
201,268,38165,5,8,0:0:0:0:
227,293,38252,1,0,0:0:0:0:
239,324,38340,2,0,P|235:351|227:369,1,45
201,268,38514,2,0,L|352:281,1,135.000005149842,0|0,1:0|0:0,0:0:0:0:
475,338,38863,5,8,0:0:0:0:
450,315,38950,1,0,0:0:0:0:
440,283,39037,1,0,0:0:0:0:
448,251,39124,1,0,0:0:0:0:
471,227,39212,2,0,L|477:148,2,67.5000025749208,0|0|0,1:0|0:0|0:0,0:0:0:0:
345,347,39473,1,0,1:0:0:0:
345,347,39560,2,0,P|311:338|271:349,1,67.5000025749208,8|0,0:0|0:0,0:0:0:0:
118,360,39735,2,0,P|152:369|192:358,1,67.5000025749208,0|0,1:0|0:0,0:0:0:0:
252,248,39909,6,0,B|219:274|219:274|105:235,1,135.000005149842,0|0,1:0|0:0,0:0:0:0:
14,164,40171,1,0,0:0:0:0:
14,164,40258,6,0,P|46:222|28:285,1,135.000005149842,8|0,0:0|0:0,0:0:0:0:
122,157,40520,1,0,0:0:0:0:
122,157,40607,6,0,L|132:41,1,90,0|0,1:0|0:0,0:0:0:0:
252,248,40956,1,8,0:0:0:0:
280,26,41130,5,2,0:0:0:0:
293,75,41217,1,2,0:0:0:0:
305,116,41305,6,0,P|350:125|387:91,1,90,2|0,1:2|0:0,0:0:0:0:
489,230,41653,5,8,0:0:0:0:
447,215,41740,1,0,0:0:0:0:
408,234,41827,1,0,0:0:0:0:
394,276,41914,1,0,0:0:0:0:
414,315,42002,2,0,L|419:383,1,45,0|0,1:0|0:0,0:0:0:0:
310,235,42177,2,0,L|315:175,1,45,0|0,0:0|1:0,0:0:0:0:
310,235,42351,1,8,0:0:0:0:
166,332,42526,6,0,P|115:353|48:332,1,90,0|0,1:0|0:0,0:0:0:0:
3,262,42787,1,0,0:0:0:0:
2,232,42874,1,0,1:0:0:0:
12,203,42961,1,0,0:0:0:0:
30,179,43049,2,0,L|22:106,1,45,8|0,0:0|0:0,0:0:0:0:
149,36,43223,2,0,P|139:56|134:78,1,45
320,68,43398,5,0,1:0:0:0:
293,70,43485,1,0,0:0:0:0:
266,72,43572,1,0,0:0:0:0:
239,75,43659,1,0,0:0:0:0:
195,153,43746,5,8,0:0:0:0:
222,155,43833,1,0,0:0:0:0:
249,157,43920,1,0,0:0:0:0:
276,160,44007,1,0,0:0:0:0:
374,142,44095,6,0,P|351:190|392:236,1,90,0|0,1:0|0:0,0:0:0:0:
504,302,44444,2,0,L|450:307,1,45,8|0,0:0|0:0,0:0:0:0:
369,349,44619,2,0,L|315:344,1,45
188,292,44793,5,0,1:0:0:0:
195,299,44880,2,0,L|276:290,1,45
369,349,45055,1,0,1:0:0:0:
369,349,45142,2,0,L|315:344,1,45,8|0,0:0|0:0,0:0:0:0:
99,259,45316,1,0,1:0:0:0:
256,192,45491,12,2,47060,0:0:0:0:
255,55,47235,6,0,P|206:84|184:124,1,101.250003862381,2|0,0:0|0:0,0:0:0:0:
117,62,47584,2,0,P|100:113|103:164,1,101.250003862381,2|0,0:0|0:0,0:0:0:0:
15,144,47933,2,0,P|26:197|54:239,1,101.250003862381,2|0,0:0|0:0,0:0:0:0:
271,327,48281,6,0,L|159:314,1,112.5,0|2,1:0|0:0,0:0:0:0:
369,261,48543,1,2,0:0:0:0:
386,256,48630,2,0,P|358:319|415:362,1,112.5,0|0,1:0|0:0,0:0:0:0:
467,68,48979,5,2,1:2:0:0:
476,87,49066,2,0,L|472:163,1,56.25,2|2,0:2|0:2,0:0:0:0:
466,219,49241,1,2,0:2:0:0:
478,239,49328,1,2,1:2:0:0:
294,126,49502,6,0,P|310:161|299:205,1,56.25,2|0,0:2|0:0,0:0:0:0:
245,353,49677,2,0,P|229:318|240:274,1,56.25,2|2,1:2|0:0,0:0:0:0:
118,224,49851,2,0,L|254:213,2,112.5,0|2|2,0:0|0:0|0:0,0:0:0:0:
18,70,50374,5,2,1:2:0:0:
22,86,50462,2,0,L|92:92,1,56.25,2|0,0:0|0:0,0:0:0:0:
114,240,50636,1,2,0:0:0:0:
118,224,50724,2,0,L|188:217,1,56.25,2|0,1:2|0:0,0:0:0:0:
214,118,50898,2,0,L|283:124,1,56.25,2|2,0:0|0:0,0:0:0:0:
439,255,51072,6,0,B|384:188|384:188|297:243,1,168.75,0|2,1:0|0:0,0:0:0:0:
207,341,51421,5,2,1:2:0:0:
183,78,51595,2,0,L|189:145,1,56.25,2|0,0:0|0:0,0:0:0:0:
198,237,51770,5,2,1:2:0:0:
198,237,51857,2,0,P|247:241|309:300,1,112.5,2|2,0:0|0:0,0:0:0:0:
374,354,52119,2,0,P|369:325|388:296,1,56.25,2|0,1:2|0:0,0:0:0:0:
457,174,52293,2,0,L|450:248,1,56.25,2|0,0:0|0:0,0:0:0:0:
474,317,52467,1,2,1:2:0:0:
410,80,52642,6,0,P|376:122|321:121,1,112.5,0|0,0:0|1:0,0:0:0:0:
182,54,52903,1,2,0:0:0:0:
190,72,52991,2,0,L|289:68,1,56.25,2|0,0:0|0:0,0:0:0:0:
24,141,53165,2,0,P|128:147|119:210,1,168.75,0|0,1:0|0:0,0:0:0:0:
231,320,53514,2,0,B|197:345|197:345|210:195,1,168.75,0|2,1:0|0:0,0:0:0:0:
269,81,53863,6,0,P|274:133|328:149,1,112.5,2|0,1:2|0:0,0:0:0:0:
419,103,54124,1,2,0:0:0:0:
427,115,54212,2,0,L|420:194,1,56.25,2|0,1:2|0:0,0:0:0:0:
368,319,54386,2,0,L|361:240,1,56.25,2|0,0:0|0:0,0:0:0:0:
235,225,54560,6,0,L|123:235,1,112.5,2|0,1:2|0:0,0:0:0:0:
8,177,54822,2,0,P|35:181|59:169,1,56.25,2|2,0:0|1:2,0:0:0:0:
43,375,55084,6,0,L|47:318,1,56.25,2|0,0:0|0:0,0:0:0:0:
130,54,55258,2,0,L|134:110,1,56.25,2|2,1:2|0:0,0:0:0:0:
300,162,55433,2,0,P|245:151|196:204,1,112.5,0|2,0:0|1:2,0:0:0:0:
350,304,55781,6,0,L|356:226,1,56.25,2|0,0:0|0:0,0:0:0:0:
107,184,55956,2,0,L|113:260,1,56.25,2|2,1:2|0:0,0:0:0:0:
359,76,56217,5,2,0:0:0:0:
352,67,56305,2,0,L|358:12,1,56.25,2|2,1:2|0:0,0:0:0:0:
268,69,56479,2,0,L|274:125,1,56.25,2|0,0:2|0:0,0:0:0:0:
350,304,56653,6,0,L|360:179,1,112.5,2|0,1:2|0:0,0:0:0:0:
464,31,57002,2,0,B|442:83|442:83|464:146,1,112.5,2|2,1:2|0:0,0:0:0:0:
496,282,57351,6,0,P|465:270|421:277,1,56.25,2|2,1:2|0:0,0:0:0:0:
350,304,57526,2,0,P|319:316|275:309,1,56.25
226,252,57700,2,0,L|113:261,1,112.5,2|2,1:2|0:0,0:0:0:0:
226,252,58049,6,0,B|193:271|178:310|178:310|207:228|157:165|157:165|182:194|206:195,1,270,6|0,1:2|0:0,0:0:0:0:
229,126,58398,6,0,L|443:144,1,202.500007724762,4|0,1:2|0:0,0:0:0:0:
176,19,58746,6,0,P|176:52|83:61,1,135,4|0,1:2|0:0,0:0:0:0:
28,194,59095,6,0,B|54:154|54:154|67:317,1,202.500007724762,4|0,1:2|0:0,0:0:0:0:
186,190,59444,6,0,P|221:175|270:183,1,67.5000025749208,0|0,1:0|0:0,0:0:0:0:
318,134,59619,2,0,P|329:170|316:222,1,67.5000025749208
236,255,59793,1,8,0:0:0:0:
323,346,59967,5,0,0:0:0:0:
323,346,60055,1,0,0:0:0:0:
323,346,60142,2,0,L|312:254,1,67.5000025749208,0|0,1:0|0:0,0:0:0:0:
393,109,60316,2,0,L|399:42,1,67.5000025749208
484,206,60491,2,0,P|413:208|412:277,1,135.000005149842,8|0,0:0|0:0,0:0:0:0:
189,153,60840,5,0,1:0:0:0:
189,153,60927,1,0,0:0:0:0:
189,153,61014,2,0,L|265:159,1,67.5000025749208
136,221,61188,2,0,P|52:198|15:241,1,135.000005149842,8|0,0:0|0:0,0:0:0:0:
156,57,61537,5,0,1:0:0:0:
176,287,61712,2,0,L|181:353,1,67.5000025749208
256,158,61886,2,0,L|250:224,1,67.5000025749208,8|0,0:0|0:0,0:0:0:0:
156,57,62061,2,0,L|165:124,1,67.5000025749208
266,30,62235,6,0,P|319:67|383:51,1,135.000005149842,0|0,1:0|0:0,0:0:0:0:
475,4,62496,1,0,0:0:0:0:
475,4,62584,2,0,P|467:42|498:92,1,67.5000025749208,8|0,0:0|0:0,0:0:0:0:
439,263,62758,2,0,P|447:225|416:175,1,67.5000025749208
256,158,62933,2,0,L|334:151,1,67.5000025749208,0|0,1:0|0:0,0:0:0:0:
390,25,63107,2,0,B|377:51|377:51|394:103,1,67.5000025749208
438,198,63281,1,8,0:0:0:0:
193,223,63456,2,0,P|184:255|192:287,1,67.5000025749208
256,158,63630,2,0,L|268:24,1,135.000005149842,0|0,1:0|0:0,0:0:0:0:
44,90,63979,6,0,P|73:102|148:70,1,67.5000025749208,8|0,0:0|0:0,0:0:0:0:
185,63,64153,1,0,0:0:0:0:
368,134,64328,6,0,P|281:85|257:163,1,202.500007724762,0|0,1:0|0:0,0:0:0:0:
193,223,64677,6,0,B|167:322|167:322|78:264,1,202.500007724762,8|0,0:0|0:0,0:0:0:0:
44,90,65026,6,0,P|65:132|60:163,1,67.5000025749208,0|0,1:0|0:0,0:0:0:0:
27,320,65200,2,0,P|5:277|10:246,1,67.5000025749208
193,223,65374,2,0,L|337:211,1,135.000005149842,8|0,0:0|0:0,0:0:0:0:
441,105,65723,5,0,1:0:0:0:
441,105,65810,1,0,0:0:0:0:
441,105,65898,2,0,P|427:143|449:188,1,67.5000025749208
502,302,66072,2,0,P|469:270|426:267,1,67.5000025749208,8|0,0:0|0:0,0:0:0:0:
308,259,66246,2,0,P|351:246|375:210,1,67.5000025749208
500,83,66421,6,0,P|440:105|432:168,1,135,0|0,1:0|0:0,0:0:0:0:
375,360,66770,2,0,P|362:295|307:258,1,135.000005149842,8|0,0:0|0:0,0:0:0:0:
170,120,67119,2,0,P|232:141|291:112,1,135.000005149842,0|0,1:0|0:0,0:0:0:0:
438,33,67467,2,0,L|431:178,1,135.000005149842,8|0,0:0|0:0,0:0:0:0:
165,206,67816,5,0,1:0:0:0:
321,241,67991,2,0,L|404:260,1,67.5000025749208
262,154,68165,5,8,0:0:0:0:
245,299,68340,2,0,L|235:378,1,67.5000025749208
170,120,68514,5,0,1:0:0:0:
353,314,68688,2,0,L|413:374,1,67.5000025749208
336,107,68863,5,8,0:0:0:0:
161,325,69037,2,0,L|111:385,1,67.5000025749208
170,120,69212,6,0,P|183:182|224:98,1,202.500007724762,2|0,1:2|0:0,0:0:0:0:
349,192,69560,6,0,L|336:332,1,135,10|0,0:0|0:0,0:0:0:0:
242,348,69909,6,0,P|210:314|157:328,1,101.250003862381,2|0,1:2|0:0,0:0:0:0:
54,225,70258,6,0,B|89:254|89:254|71:74,1,202.500007724762,10|0,0:0|0:0,0:0:0:0:
102,17,70607,6,0,P|132:32|145:49,3,53.9999983520508,8|0|0|0,1:0|0:0|0:0|0:0,0:0:0:0:
227,71,72002,6,0,P|271:86|254:102,3,90
316,168,73398,6,0,P|365:170|317:204,3,135.000005149842
284,298,74793,6,0,P|243:329|244:254,3,161.999995056153
205,171,76188,6,0,P|262:169|294:188,1,90,0|0,1:0|0:0,0:0:0:0:
355,127,76537,2,0,P|374:180|366:216,1,90,0|0,1:0|0:0,0:0:0:0:
437,253,76886,2,0,P|392:288|355:291,1,90,0|0,1:0|0:0,0:0:0:0:
339,373,77235,2,0,P|291:341|276:306,1,90,0|0,1:0|0:0,0:0:0:0:
187,315,77584,6,0,P|202:260|230:235,1,90,0|0,1:0|0:0,0:0:0:0:
390,182,77933,2,0,P|334:195|299:183,1,90,0|0,1:0|0:0,0:0:0:0:
166,77,78281,2,0,P|205:118|212:154,1,90,0|0,1:0|0:0,0:0:0:0:
187,315,78630,2,0,P|202:260|230:235,1,90,0|0,1:0|0:0,0:0:0:0:
416,209,78979,5,0,1:0:0:0:
416,209,79153,1,0,0:0:0:0:
416,209,79328,1,0,1:0:0:0:
416,209,79502,1,0,0:0:0:0:
416,209,79677,1,0,1:0:0:0:
416,209,79851,1,0,0:0:0:0:
416,209,80026,1,0,1:0:0:0:
416,209,80200,1,0,0:0:0:0:
416,209,80374,5,0,1:0:0:0:
359,179,80549,1,0,0:0:0:0:
297,188,80723,1,0,1:0:0:0:
250,230,80898,1,0,0:0:0:0:
199,300,81072,5,0,1:0:0:0:
142,329,81247,1,0,0:0:0:0:
80,320,81421,1,0,1:0:0:0:
33,278,81596,1,0,0:0:0:0:
46,128,81770,6,0,P|116:106|200:150,1,135,8|0,1:0|0:0,0:0:0:0:
154,158,82119,2,0,P|195:173|255:158,1,90,8|0,0:0|0:0,0:0:0:0:
424,68,82467,5,0,1:0:0:0:
392,90,82554,1,0,0:0:0:0:
378,127,82641,1,0,0:0:0:0:
386,164,82728,1,0,0:0:0:0:
414,192,82816,2,8,L|315:200,1,90,8|0,0:0|0:0,0:0:0:0:
175,50,83165,5,8,1:0:0:0:
169,62,83252,2,0,P|188:103|167:161,1,90
119,297,83514,2,0,L|111:207,1,90,8|0,0:0|0:0,0:0:0:0:
382,170,83863,5,0,1:0:0:0:
339,147,83950,1,0,0:0:0:0:
293,154,84037,1,0,0:0:0:0:
258,185,84124,1,0,0:0:0:0:
233,223,84212,5,8,0:0:0:0:
192,245,84299,1,0,0:0:0:0:
146,239,84386,1,0,0:0:0:0:
111,207,84473,1,0,0:0:0:0:
99,115,84560,6,0,P|169:93|253:137,1,135,8|0,1:0|0:0,0:0:0:0:
207,145,84909,2,0,P|248:160|308:145,1,90,8|0,0:0|0:0,0:0:0:0:
471,62,85258,5,0,1:0:0:0:
439,84,85345,1,0,0:0:0:0:
425,121,85432,1,0,0:0:0:0:
433,158,85519,1,0,0:0:0:0:
461,186,85607,2,0,L|362:194,1,90,8|0,0:0|0:0,0:0:0:0:
175,50,85956,5,8,1:0:0:0:
169,62,86043,2,0,P|188:103|167:161,1,90
119,297,86305,2,0,L|111:207,1,90,8|0,0:0|0:0,0:0:0:0:
310,269,86653,5,2,1:2:0:0:
296,238,86741,1,0,0:0:0:0:
273,224,86828,2,0,L|208:227,1,45,2|0,0:0|0:0,0:0:0:0:
328,162,87002,1,10,0:0:0:0:
342,131,87090,1,2,0:0:0:0:
365,117,87177,2,0,L|409:119,1,45,2|2,0:0|0:0,0:0:0:0:
241,67,87351,5,0,1:0:0:0:
96,80,87526,1,0,0:0:0:0:
99,115,87613,1,0,0:0:0:0:
102,145,87700,2,0,L|104:172,2,22.5,8|0|0,0:0|0:0|0:0,0:0:0:0:
168,223,87874,2,0,L|162:288,1,45
56,374,88049,5,0,1:0:0:0:
74,352,88136,1,0,0:0:0:0:
99,340,88223,1,0,0:0:0:0:
127,339,88310,1,0,0:0:0:0:
153,350,88398,2,0,L|211:343,1,45,8|0,0:0|0:0,0:0:0:0:
282,370,88572,2,0,L|326:374,1,45
420,336,88746,6,0,L|423:366,2,22.5,0|0|0,1:0|0:0|0:0,0:0:0:0:
347,216,88921,1,0,0:0:0:0:
343,224,89008,1,0,0:0:0:0:
340,233,89095,6,0,L|338:264,4,22.5,8|0|0|0|0,0:0|0:0|0:0|0:0|0:0,0:0:0:0:
511,166,89444,6,0,L|513:198,2,22.5,0|0|0,1:0|0:0|0:0,0:0:0:0:
394,32,89619,1,0,0:0:0:0:
391,43,89706,1,0,0:0:0:0:
388,56,89793,6,0,L|382:104,1,45,8|0,0:0|0:0,0:0:0:0:
259,173,89967,2,0,L|255:128,1,45
122,25,90142,5,0,1:0:0:0:
120,58,90229,1,0,0:0:0:0:
117,92,90316,1,0,1:0:0:0:
114,125,90403,1,0,0:0:0:0:
111,159,90491,5,0,1:0:0:0:
45,159,90578,1,0,0:0:0:0:
0,208,90665,1,0,1:0:0:0:
5,273,90752,1,0,0:0:0:0:
56,314,90840,5,0,1:0:0:0:
121,306,90927,1,0,0:0:0:0:
167,258,91014,1,0,1:0:0:0:
199,199,91101,1,0,0:0:0:0:
259,173,91188,5,0,1:0:0:0:
320,199,91276,1,0,0:0:0:0:
341,261,91363,1,0,1:0:0:0:
314,322,91450,1,0,0:0:0:0:
252,342,91537,5,2,0:0:0:0:
252,342,91886,1,2,0:0:0:0:
252,342,92235,1,2,0:0:0:0:
132,267,92584,5,10,1:2:0:0:
71,210,92671,1,2,0:0:0:0:
106,134,92758,1,2,0:0:0:0:
188,144,92845,1,2,0:0:0:0:
204,226,92933,6,0,B|242:232|273:217|273:217,1,67.5,2|0,1:2|0:0,0:0:0:0:
204,226,93281,6,0,B|291:237|313:161|313:161|311:217|346:234,1,202.500007724762,8|0,0:0|0:0,0:0:0:0:
204,226,93630,6,0,B|290:238|313:161|313:161|304:242|420:270,1,270.000010299683,2|0,1:2|0:0,0:0:0:0:
442,83,93892,6,0,P|408:133|416:159,1,90,10|0,0:2|0:0,0:0:0:0:
415,157,94153,1,2,1:2:0:0:
446,270,94328,6,0,P|418:257|350:277,1,67.5000025749208,0|0,1:0|0:0,0:0:0:0:
231,304,94502,6,0,P|264:310|297:303,1,67.5000025749208,8|0,0:0|0:0,0:0:0:0:
59,260,94677,2,0,P|92:254|124:261,1,67.5000025749208,8|0,0:0|0:0,0:0:0:0:
262,362,94851,2,0,P|240:336|230:304,1,67.5000025749208
247,129,95026,6,0,P|240:186|211:214,1,90,0|0,1:0|0:0,0:0:0:0:
59,260,95287,2,0,P|92:254|153:282,1,90,10|0,0:2|0:0,0:0:0:0:
231,304,95549,6,0,P|264:310|339:282,1,67.5000025749208,0|0,1:0|0:0,0:0:0:0:
424,203,95723,6,0,P|396:236|393:260,1,67.5,2|0,1:2|0:0,0:0:0:0:
424,203,96072,6,0,P|393:253|501:284,1,202.500007724762,8|0,0:0|0:0,0:0:0:0:
424,203,96421,6,0,P|393:259|496:218,1,270.000010299683,2|0,1:2|0:0,0:0:0:0:
495,55,96683,6,0,P|471:95|481:138,1,90,10|0,0:2|0:0,0:0:0:0:
479,135,96944,1,2,1:2:0:0:
395,73,97119,6,0,P|341:67|307:79,1,67.5000025749208,0|0,1:0|0:0,0:0:0:0:
193,142,97293,6,0,L|265:138,1,67.5000025749208,8|0,0:0|0:0,0:0:0:0:
126,74,97468,2,0,L|37:69,1,90,8|0,0:0|0:0,0:0:0:0:
260,138,97816,6,0,L|193:142,1,67.5000025749208,0|0,1:0|0:0,0:0:0:0:
327,134,98078,2,0,L|259:137,1,67.5000025749208,10|0,0:2|0:0,0:0:0:0:
394,130,98340,6,0,L|326:133,1,67.5000025749208,0|0,1:0|0:0,0:0:0:0:
46,148,98514,6,0,B|39:111|60:88|96:85|115:110,1,101.250003862381,2|0,1:2|0:0,0:0:0:0:
46,148,98863,6,0,B|45:137|45:137|42:108|73:71|125:93|125:141|125:141|132:209,1,202.500007724762,8|0,0:0|0:0,0:0:0:0:
46,148,99212,6,0,B|45:138|45:138|42:98|84:79|123:93|125:140|125:140|142:325,1,270.000010299683,2|0,1:2|0:0,0:0:0:0:
255,48,99473,6,0,P|204:17|170:26,1,90,10|0,0:2|0:0,0:0:0:0:
177,22,99735,1,2,1:2:0:0:
77,150,99909,6,0,B|96:79,1,67.5,2|0,1:2|0:0,0:0:0:0:
77,150,100258,6,0,B|102:60|102:60|134:93,1,135.000005149842,8|0,0:0|0:0,0:0:0:0:
77,150,100607,6,0,B|102:60|102:60|176:135,1,180,2|0,1:2|0:0,0:0:0:0:
258,236,100869,2,0,B|318:297|318:297|343:207,1,180,10|0,0:2|0:0,0:0:0:0:
403,32,101130,6,0,P|446:114|468:100,1,90,2|0,1:2|0:0,0:0:0:0:
473,159,101305,6,0,L|470:227,1,67.5,2|0,1:2|0:0,0:0:0:0:
473,159,101653,6,0,L|468:271,1,101.250003862381,8|0,0:0|0:0,0:0:0:0:
473,159,102002,6,0,L|467:298,1,135,2|0,1:2|0:0,0:0:0:0:
343,206,102264,2,0,L|337:340,1,135,10|0,0:2|0:0,0:0:0:0:
208,250,102526,6,0,L|201:376,1,112.5,2|0,1:2|0:0,0:0:0:0:
135,112,102700,6,0,P|104:214|47:86,1,337.5,6|0,1:2|0:0,0:0:0:0:
391,36,103049,6,0,L|107:22,1,270,6|0,1:2|0:0,0:0:0:0:
403,209,103398,6,0,B|441:252|441:252|461:51,1,202.500007724762,6|0,1:2|0:0,0:0:0:0:
315,170,103746,6,0,P|241:121|246:248,1,270,6|0,1:2|0:0,0:0:0:0:
255,346,104095,6,0,L|323:341,1,67.5000025749208,0|0,1:0|0:0,0:0:0:0:
166,310,104270,1,0,0:0:0:0:
166,310,104357,1,0,0:0:0:0:
166,310,104444,2,0,P|91:314|84:265,1,135.000005149842,8|0,0:0|0:0,0:0:0:0:
112,39,104793,6,0,L|117:106,1,67.5000025749208,0|0,1:0|0:0,0:0:0:0:
65,163,104967,1,0,0:0:0:0:
173,183,105055,2,0,P|232:159|283:200,1,135.000005149842,0|0,1:0|0:0,0:0:0:0:
330,348,105316,2,0,P|325:314|339:284,1,67.5000025749208,8|0,0:0|0:0,0:0:0:0:
445,187,105491,6,0,P|418:207|385:210,1,67.5000025749208,0|0,1:0|0:0,0:0:0:0:
231,159,105665,2,0,P|262:172|282:199,1,67.5000025749208
203,237,105840,2,0,P|198:317|119:249,1,202.500007724762,8|0,0:0|0:0,0:0:0:0:
99,46,106188,6,0,L|112:204,1,135.000005149842,0|0,1:0|0:0,0:0:0:0:
102,301,106450,1,8,0:0:0:0:
113,282,106537,2,0,P|151:294|201:276,1,67.5000025749208
313,244,106712,2,0,L|246:238,1,67.5000025749208,0|0,1:0|0:0,0:0:0:0:
445,187,106886,6,0,P|415:252|447:291,1,67.5000025749208,0|0,1:0|0:0,0:0:0:0:
472,338,107060,1,0,0:0:0:0:
451,322,107148,1,0,0:0:0:0:
424,320,107235,2,0,L|265:330,1,135.000005149842,8|0,0:0|0:0,0:0:0:0:
161,366,107496,1,0,0:0:0:0:
173,357,107584,2,0,L|180:271,1,67.5000025749208,0|0,1:0|0:0,0:0:0:0:
256,204,107758,1,0,0:0:0:0:
244,195,107846,2,0,L|236:109,1,67.5000025749208,0|0,1:0|0:0,0:0:0:0:
289,328,108107,1,8,0:0:0:0:
4,137,108281,6,0,P|34:202|2:241,1,67.5000025749208,0|0,1:0|0:0,0:0:0:0:
2,300,108456,1,0,0:0:0:0:
22,281,108543,1,0,0:0:0:0:
45,277,108630,2,0,L|208:293,1,135.000005149842,8|0,0:0|0:0,0:0:0:0:
362,215,108979,6,0,P|280:179|217:237,1,135.000005149842,0|0,1:0|0:0,0:0:0:0:
179,290,109241,1,0,1:0:0:0:
165,274,109328,2,0,L|85:267,1,67.5000025749208,8|0,0:0|0:0,0:0:0:0:
4,137,109502,2,0,P|34:202|2:241,1,67.5000025749208,0|0,1:0|0:0,0:0:0:0:
87,81,109677,6,0,P|119:71|151:81,1,67.5000025749208,0|0,1:0|0:0,0:0:0:0:
263,128,109851,1,0,0:0:0:0:
263,128,109938,1,0,0:0:0:0:
263,128,110026,2,0,P|269:56|316:38,1,67.5000025749208,8|0,0:0|0:0,0:0:0:0:
365,192,110200,2,0,P|358:263|311:281,1,67.5000025749208
218,347,110374,6,0,P|237:269|315:309,1,135.000005149842,0|0,1:0|0:0,0:0:0:0:
463,327,110636,2,0,L|325:339,1,135.000005149842,8|0,0:0|0:0,0:0:0:0:
198,258,110898,1,0,1:0:0:0:
83,323,111072,6,0,B|113:358|113:358|98:189,1,202.500007724762,0|0,1:0|0:0,0:0:0:0:
57,65,111421,2,0,P|114:82|141:67,1,67.5000025749208,8|0,0:0|0:0,0:0:0:0:
259,63,111595,2,0,P|231:46|198:48,1,67.5000025749208
209,123,111770,2,0,L|196:263,1,135.000005149842,0|0,1:0|0:0,0:0:0:0:
222,346,112031,1,0,1:0:0:0:
239,331,112119,2,0,P|276:324|331:358,1,67.5000025749208,8|0,0:0|0:0,0:0:0:0:
396,368,112293,2,0,P|389:331|423:276,1,67.5000025749208,0|0,1:0|0:0,0:0:0:0:
443,191,112467,6,0,P|382:204|350:175,1,67.5000025749208,0|0,1:0|0:0,0:0:0:0:
312,96,112642,1,0,0:0:0:0:
316,134,112729,1,0,0:0:0:0:
295,159,112816,2,0,L|148:171,1,135.000005149842,8|0,0:0|0:0,0:0:0:0:
443,191,113165,6,0,L|435:281,1,67.5000025749208,0|0,1:0|0:0,0:0:0:0:
172,179,113427,5,8,0:0:0:0:
160,170,113515,2,0,L|152:84,1,67.5000025749208
249,261,113688,2,0,L|241:346,1,67.5000025749208,0|0,1:0|0:0,0:0:0:0:
24,293,113863,6,0,P|68:227|49:149,1,135.000005149842,6|0,1:2|0:0,0:0:0:0:
374,213,114212,2,0,P|332:160|335:94,1,135.000005149842,6|0,1:2|0:0,0:0:0:0:
62,174,114560,6,0,P|86:236|144:268,1,135.000005149842,6|0,1:2|0:0,0:0:0:0:
335,94,114909,2,0,P|310:154|251:186,1,135.000005149842,6|0,1:2|0:0,0:0:0:0:
30,347,115258,6,0,L|127:340,1,67.5000025749208,0|0,1:0|0:0,0:0:0:0:
261,286,115433,1,0,0:0:0:0:
261,286,115520,1,0,0:0:0:0:
261,286,115607,2,0,P|225:312|188:232,1,135.000005149842,8|0,0:0|0:0,0:0:0:0:
89,151,115869,1,0,0:0:0:0:
89,151,115956,6,0,L|141:160,1,45,0|0,1:0|0:0,0:0:0:0:
345,191,116130,2,0,L|284:181,1,45,0|0,0:0|1:0,0:0:0:0:
89,151,116305,6,0,L|171:147,1,45,8|0,0:0|0:0,0:0:0:0:
455,119,116479,2,0,L|389:123,1,45,0|0,1:0|0:0,0:0:0:0:
89,151,116653,6,0,L|158:127,1,45,0|0,1:0|0:0,0:0:0:0:
317,67,116828,2,0,L|261:85,1,45
89,151,117002,6,0,P|108:188|93:250,1,67.5000025749208,8|0,0:0|0:0,0:0:0:0:
87,324,117177,1,0,0:0:0:0:
108,305,117264,1,0,0:0:0:0:
140,299,117351,2,0,L|228:307,1,67.5000025749208,0|0,1:0|0:0,0:0:0:0:
343,318,117526,5,0,0:0:0:0:
333,170,117613,1,0,1:0:0:0:
319,180,117700,2,0,P|306:211|308:244,1,67.5000025749208,8|0,0:0|0:0,0:0:0:0:
459,181,117874,2,0,P|425:186|397:204,1,67.5000025749208,0|0,1:0|0:0,0:0:0:0:
225,344,118049,6,0,P|184:281|130:324,1,135.000005149842,0|0,1:0|0:0,0:0:0:0:
71,330,118310,1,0,0:0:0:0:
67,344,118398,2,0,B|44:309|44:309|68:199,1,135.000005149842,8|0,0:0|0:0,0:0:0:0:
139,171,118659,1,0,0:0:0:0:
139,171,118746,6,0,L|191:180,1,45,0|0,1:0|0:0,0:0:0:0:
395,211,118920,2,0,L|334:201,1,45,0|0,0:0|1:0,0:0:0:0:
139,171,119095,6,0,L|221:167,1,45,8|0,0:0|0:0,0:0:0:0:
505,139,119269,2,0,L|439:143,1,45,0|0,1:0|0:0,0:0:0:0:
139,171,119443,6,0,L|208:147,1,45,0|0,1:0|0:0,0:0:0:0:
367,87,119618,2,0,L|311:105,1,45
139,171,119793,6,0,P|154:212|139:250,1,67.5000025749208,8|0,0:0|0:0,0:0:0:0:
67,344,119967,1,0,0:0:0:0:
88,325,120054,1,0,0:0:0:0:
120,319,120141,2,0,L|208:327,1,67.5000025749208,0|0,1:0|0:0,0:0:0:0:
62,251,120316,5,0,0:0:0:0:
222,200,120403,1,0,1:0:0:0:
139,171,120491,2,0,L|206:177,1,67.5000025749208,8|0,0:0|0:0,0:0:0:0:
324,85,120665,2,0,L|256:91,1,67.5000025749208,0|0,1:0|0:0,0:0:0:0:
144,12,120840,6,0,P|108:80|45:27,1,135.000005149842,0|0,1:0|0:0,0:0:0:0:
27,167,121101,1,0,0:0:0:0:
31,180,121188,2,0,B|55:151|55:151|38:219|107:257,1,135.000005149842,8|0,0:0|0:0,0:0:0:0:
201,372,121450,1,0,0:0:0:0:
201,372,121537,6,0,L|192:320,1,45,0|0,1:0|0:0,0:0:0:0:
159,115,121711,2,0,L|169:176,1,45,0|0,0:0|1:0,0:0:0:0:
201,372,121886,6,0,L|204:289,1,45,8|0,0:0|0:0,0:0:0:0:
232,6,122060,2,0,L|227:71,1,45,0|0,1:0|0:0,0:0:0:0:
201,372,122234,6,0,L|225:303,1,45,0|0,1:0|0:0,0:0:0:0:
283,143,122409,2,0,L|264:198,1,45
201,372,122584,6,0,P|238:353|300:368,1,67.5000025749208,8|0,0:0|0:0,0:0:0:0:
385,367,122758,2,0,P|366:330|381:268,1,67.5000025749208
456,187,122933,5,0,1:0:0:0:
454,198,123020,1,0,0:0:0:0:
454,208,123107,2,0,L|376:201,1,67.5000025749208,0|0,0:0|1:0,0:0:0:0:
215,148,123281,2,0,L|292:141,1,67.5000025749208,8|0,0:0|0:0,0:0:0:0:
402,62,123456,2,0,L|334:56,1,67.5000025749208,0|0,1:0|0:0,0:0:0:0:
208,61,123630,6,0,P|115:77|136:155,1,135.000005149842,0|0,1:0|0:0,0:0:0:0:
48,190,123892,1,0,0:0:0:0:
48,190,123979,2,0,B|75:255|75:255|74:323,1,135.000005149842,8|0,0:0|0:0,0:0:0:0:
222,366,124241,1,0,0:0:0:0:
222,366,124328,6,0,L|195:311,1,45,0|0,1:0|0:0,0:0:0:0:
114,138,124502,2,0,L|139:197,1,45,0|0,0:0|1:0,0:0:0:0:
222,366,124677,6,0,L|226:284,1,45,8|0,0:0|0:0,0:0:0:0:
254,0,124851,2,0,L|250:66,1,45,0|0,1:0|0:0,0:0:0:0:
222,366,125025,6,0,L|265:309,1,45,0|0,1:0|0:0,0:0:0:0:
371,161,125200,2,0,L|334:212,1,45
356,310,125374,6,0,P|429:357|455:274,1,202.500007724762,12|0,0:0|0:0,0:0:0:0:
270,169,125723,6,0,L|371:161,1,101.250003862381,0|0,1:0|0:0,0:0:0:0:
127,291,126072,6,0,B|164:320|164:320|150:156,1,202.500007724762,12|0,0:0|0:0,0:0:0:0:
168,27,126421,6,0,P|198:83|314:51,1,202.500007724762,0|0,1:0|0:0,0:0:0:0:
484,114,126770,2,0,B|424:150|424:150|349:120,1,135.000005149842,8|0,0:0|0:0,0:0:0:0:
225,134,127031,1,0,0:0:0:0:
225,134,127119,6,0,P|245:202|229:239,1,67.5000025749208,0|0,1:0|0:0,0:0:0:0:
118,332,127293,2,0,P|98:264|114:227,1,67.5000025749208,0|0,0:0|1:0,0:0:0:0:
272,162,127467,6,0,P|267:232|239:262,1,67.5000025749208,8|0,0:0|0:0,0:0:0:0:
72,316,127642,2,0,P|76:245|104:215,1,67.5000025749208,0|0,1:0|0:0,0:0:0:0:
100,39,127816,2,0,P|95:109|67:139,1,67.5000025749208,0|0,1:0|0:0,0:0:0:0:
12,210,127991,2,0,P|75:178|114:187,1,67.5000025749208
206,198,128165,2,0,P|146:158|135:120,1,67.5000025749208,8|0,0:0|0:0,0:0:0:0:
247,87,128340,5,0,0:0:0:0:
247,87,128427,1,0,0:0:0:0:
247,87,128514,2,0,B|313:112|313:112|394:78,1,135.000005149842,0|0,1:0|0:0,0:0:0:0:
469,36,128776,1,0,1:0:0:0:
469,36,128863,2,0,P|480:73|456:127,1,67.5000025749208,8|0,0:0|0:0,0:0:0:0:
404,164,129037,2,0,L|411:253,1,67.5000025749208,0|0,1:0|0:0,0:0:0:0:
486,325,129212,6,0,P|423:316|391:372,1,135.000005149842,0|0,1:0|0:0,0:0:0:0:
310,324,129473,1,0,0:0:0:0:
299,318,129560,2,0,L|155:330,1,135.000005149842,8|0,0:0|0:0,0:0:0:0:
143,193,129821,1,0,0:0:0:0:
143,193,129909,6,0,P|123:261|139:298,1,67.5000025749208,0|0,1:0|0:0,0:0:0:0:
357,373,130084,2,0,P|377:305|361:268,1,67.5000025749208,0|0,0:0|1:0,0:0:0:0:
96,221,130258,6,0,P|101:291|129:321,1,67.5000025749208,8|0,0:0|0:0,0:0:0:0:
403,357,130433,2,0,P|399:286|371:256,1,67.5000025749208,0|0,1:0|0:0,0:0:0:0:
316,48,130607,6,0,P|320:119|348:149,1,67.5000025749208,0|0,1:0|0:0,0:0:0:0:
231,127,130781,2,0,P|269:186|309:198,1,67.5000025749208
201,233,130956,2,0,P|264:265|304:255,1,67.5000025749208,8|0,0:0|0:0,0:0:0:0:
465,245,131130,2,0,P|401:212|361:222,1,67.5000025749208
384,382,131305,6,0,P|415:311|326:328,1,202.500007724762,0|0,1:0|1:0,0:0:0:0:
254,373,131653,2,0,L|167:365,1,67.5000025749208,8|0,0:0|0:0,0:0:0:0:
60,303,131828,2,0,L|128:298,1,67.5000025749208
290,218,132002,6,0,P|227:227|195:171,1,135.000005149842,0|0,1:0|0:0,0:0:0:0:
211,24,132264,1,0,0:0:0:0:
211,24,132351,2,0,P|190:89|105:67,1,135.000005149842,8|0,0:0|0:0,0:0:0:0:
68,37,132613,1,0,0:0:0:0:
68,37,132701,6,0,P|48:105|64:142,1,67.5000025749208,0|0,1:0|0:0,0:0:0:0:
175,235,132875,2,0,P|195:167|179:130,1,67.5000025749208,0|0,0:0|1:0,0:0:0:0:
21,65,133049,6,0,P|26:135|54:165,1,67.5000025749208,8|0,0:0|0:0,0:0:0:0:
221,219,133224,2,0,P|217:148|189:118,1,67.5000025749208,0|0,1:0|0:0,0:0:0:0:
3,215,133398,6,0,P|72:203|99:173,1,67.5000025749208,0|0,1:0|0:0,0:0:0:0:
192,69,133572,2,0,P|262:74|292:102,1,67.5000025749208
313,178,133747,2,0,P|373:138|384:100,1,67.5000025749208,8|0,0:0|0:0,0:0:0:0:
457,22,133921,5,0,0:0:0:0:
460,55,134008,1,0,0:0:0:0:
464,85,134095,2,0,L|472:176,1,67.5000025749208,0|0,1:0|0:0,0:0:0:0:
406,229,134270,2,0,L|397:320,1,67.5000025749208,0|0,0:0|1:0,0:0:0:0:
512,376,134444,6,0,P|442:364|415:334,1,67.5000025749208,8|0,0:0|0:0,0:0:0:0:
320,271,134618,2,0,P|250:276|220:304,1,67.5000025749208,0|0,1:0|0:0,0:0:0:0:
163,349,134793,6,0,B|140:301|140:301|155:181,1,135.000005149842,0|0,1:0|0:0,0:0:0:0:
198,136,135055,1,0,0:0:0:0:
204,126,135142,2,0,P|245:175|334:164,1,135.000005149842,8|0,0:0|0:0,0:0:0:0:
375,117,135403,1,0,0:0:0:0:
375,117,135491,6,0,P|395:185|379:222,1,67.5000025749208,0|0,1:0|0:0,0:0:0:0:
163,349,135666,2,0,P|143:281|159:244,1,67.5000025749208,0|0,0:0|1:0,0:0:0:0:
422,145,135840,6,0,P|417:215|389:245,1,67.5000025749208,8|0,0:0|0:0,0:0:0:0:
117,333,136015,2,0,P|121:262|149:232,1,67.5000025749208,0|0,1:0|0:0,0:0:0:0:
187,41,136188,6,0,P|183:112|104:51,1,202.500007724762,0|0,1:0|0:0,0:0:0:0:
239,287,136537,2,0,P|243:216|322:277,1,202.500007724762,0|0,1:0|0:0,0:0:0:0:
325,81,136886,5,8,1:0:0:0:
491,152,137060,1,8,3:0:0:0:
489,166,137148,1,8,3:0:0:0:
408,226,137322,1,8,3:0:0:0:
410,240,137410,1,8,3:0:0:0:
256,192,137584,12,2,141770,1:2:0:0:
255,55,142119,6,0,P|206:84|184:124,1,101.250003862381,2|0,0:0|0:0,0:0:0:0:
117,62,142468,2,0,P|100:113|103:164,1,101.250003862381,2|0,0:0|0:0,0:0:0:0:
15,144,142817,2,0,P|26:197|54:239,1,101.250003862381,2|0,0:0|0:0,0:0:0:0:
271,327,143165,6,0,L|167:317,1,90,0|0,1:0|0:0,0:0:0:0:
255,55,143514,5,0,0:0:0:0:
246,159,143689,2,0,L|290:155,1,45
425,60,143863,2,0,P|388:94|337:86,1,90,8|0,0:0|0:0,0:0:0:0:
255,55,144124,2,0,L|262:-6,1,45
233,287,144386,1,0,0:0:0:0:
58,179,144560,6,0,P|140:206|92:231,1,180,0|0,1:0|0:0,0:0:0:0:
255,55,145083,6,0,L|257:118,1,45
262,181,145257,1,8,0:0:0:0:
156,67,145432,1,0,0:0:0:0:
407,120,145607,2,0,P|349:143|367:202,1,135,0|0,1:0|0:0,0:0:0:0:
479,218,145956,6,0,L|469:334,1,90
384,334,146217,1,0,0:0:0:0:
370,344,146304,2,0,P|321:325|263:357,1,90
206,382,146653,1,8,0:0:0:0:
253,202,146828,1,0,0:0:0:0:
286,334,147002,2,0,L|434:321,1,135
407,120,147351,6,0,P|409:213|500:194,1,180,0|0,1:0|0:0,0:0:0:0:
263,57,148049,2,0,B|308:20|308:20|177:44,1,180,8|0,0:0|0:0,0:0:0:0:
254,157,148746,6,0,L|250:221,1,45,0|0,1:0|0:0,0:0:0:0:
254,157,148921,5,0,0:0:0:0:
244,344,149095,1,0,0:0:0:0:
125,252,149270,2,0,L|201:259,1,45
312,264,149444,5,8,0:0:0:0:
125,252,149618,1,0,0:0:0:0:
244,344,149793,5,0,0:0:0:0:
254,157,149967,1,0,0:0:0:0:
47,286,150142,6,0,P|40:228|124:262,1,180,0|0,1:0|0:0,0:0:0:0:
282,104,150665,1,0,1:0:0:0:
282,104,150839,2,0,B|245:71|245:71|257:194,1,135,8|0,0:0|0:0,0:0:0:0:
379,220,151188,6,0,P|444:260|455:185,1,180,0|0,1:0|0:0,0:0:0:0:
253,156,152235,5,8,0:0:0:0:
180,73,152409,2,0,L|184:35,4,22.5,2|0|0|0|0,0:0|0:0|0:0|0:0|0:0,0:0:0:0:
160,229,152758,1,0,0:0:0:0:
448,183,152933,6,0,P|454:72|358:128,1,270,6|0,1:2|0:0,0:0:0:0:
298,240,153281,6,0,B|270:295|270:295|249:124,1,202.500007724762,6|0,1:2|0:0,0:0:0:0:
178,47,153630,6,0,P|141:100|59:61,1,135,6|0,1:2|0:0,0:0:0:0:
95,359,153979,6,0,B|34:280|34:280|50:179,1,202.500007724762,6|0,1:2|0:0,0:0:0:0:
78,90,154328,6,0,P|141:99|178:47,1,135,0|0,1:0|0:0,0:0:0:0:
242,260,154677,6,0,L|248:186,1,56.25,8|0,0:0|0:0,0:0:0:0:
253,122,154852,1,0,0:0:0:0:
382,81,155026,6,0,L|388:157,1,56.25,2|2,1:2|0:2,0:0:0:0:
400,284,155201,1,2,0:2:0:0:
383,259,155288,1,2,0:2:0:0:
353,249,155375,2,0,L|187:265,1,112.5,10|0,0:2|0:0,0:0:0:0:
83,309,155636,1,0,0:0:0:0:
91,321,155723,2,0,P|119:326|147:315,1,56.25,0|0,1:0|0:0,0:0:0:0:
162,188,155897,1,0,0:0:0:0:
166,200,155985,1,0,0:0:0:0:
170,212,156072,2,0,P|227:176|295:197,1,112.5,8|0,0:0|0:0,0:0:0:0:
396,346,156334,5,0,0:2:0:0:
384,335,156422,2,0,P|371:306|392:254,1,56.25,2|2,1:2|0:2,0:0:0:0:
415,184,156596,2,0,P|428:155|408:103,1,56.25,2|2,0:2|0:2,0:0:0:0:
374,19,156771,1,10,0:2:0:0:
344,66,156858,1,2,0:2:0:0:
292,86,156945,1,2,0:2:0:0:
238,72,157032,1,2,0:2:0:0:
202,31,157119,6,0,B|191:155|191:155|141:210,1,168.75,0|0,1:0|0:0,0:0:0:0:
22,269,157467,2,0,P|47:257|75:253,1,56.25,8|0,0:0|0:0,0:0:0:0:
208,264,157642,2,0,P|205:291|194:317,1,56.25
181,119,157816,6,0,P|202:192|200:203,1,56.25,2|2,1:2|0:2,0:0:0:0:
72,24,157990,1,2,0:2:0:0:
97,30,158077,1,2,0:2:0:0:
120,45,158164,1,10,0:2:0:0:
202,170,158339,1,0,0:0:0:0:
346,24,158514,5,2,1:2:0:0:
316,53,158601,1,0,0:0:0:0:
310,93,158688,1,0,0:0:0:0:
329,130,158775,1,0,0:0:0:0:
366,148,158863,2,0,L|354:282,1,112.5,10|0,0:2|0:0,0:0:0:0:
456,238,159212,6,0,P|461:220|476:229,1,40.4999987640381,2|0,0:2|0:0,0:0:0:0:
489,131,159560,6,0,P|435:81|456:30,1,135,2|0,0:2|0:0,0:0:0:0:
366,148,159909,6,0,B|313:197|313:197|252:176,1,135.000005149842,0|0,1:0|0:0,0:0:0:0:
120,146,160171,1,0,1:0:0:0:
120,146,160258,2,0,P|179:134|203:150,1,67.5000025749208,8|0,0:0|0:0,0:0:0:0:
293,270,160432,2,0,P|326:274|356:262,1,67.5000025749208,0|0,1:0|0:0,0:0:0:0:
442,190,160607,6,0,B|460:165|460:165|472:293,1,135.000005149842,0|0,1:0|0:0,0:0:0:0:
366,148,160868,1,0,1:0:0:0:
366,148,160956,2,0,L|372:77,1,67.5000025749208,8|0,0:0|0:0,0:0:0:0:
293,270,161130,2,0,L|286:199,1,67.5000025749208,0|0,1:0|0:0,0:0:0:0:
267,88,161304,6,0,P|197:93|187:32,1,135.000005149842,0|0,1:0|0:0,0:0:0:0:
101,1,161566,1,0,1:0:0:0:
101,1,161653,2,0,P|90:33|96:65,1,67.5000025749208,8|0,0:0|0:0,0:0:0:0:
156,226,161828,2,0,P|161:194|150:162,1,67.5000025749208,0|0,1:0|0:0,0:0:0:0:
34,182,162002,6,0,B|67:204|67:204|57:318,1,135.000005149842,0|0,1:0|0:0,0:0:0:0:
261,332,162264,6,0,P|189:308|138:365,1,135.000005149842,0|0,1:0|0:0,0:0:0:0:
405,295,162525,2,0,L|305:287,1,67.5000025749208,0|0,1:0|0:0,0:0:0:0:
261,332,162700,6,0,P|246:293|251:259,1,67.5000025749208,0|0,1:0|0:0,0:0:0:0:
177,281,162874,2,0,P|184:239|205:212,1,67.5000025749208,0|0,1:0|0:0,0:0:0:0:
283,161,163049,2,0,P|298:122|293:88,1,67.5000025749208,0|0,1:0|0:0,0:0:0:0:
366,111,163223,2,0,P|360:69|339:42,1,67.5000025749208,0|0,1:0|0:0,0:0:0:0:
225,12,163397,5,0,1:0:0:0:
169,34,163484,1,0,0:0:0:0:
144,77,163572,1,0,1:0:0:0:
160,131,163659,1,0,0:0:0:0:
200,203,163746,5,0,1:0:0:0:
177,281,163834,1,0,0:0:0:0:
105,319,163921,1,0,1:0:0:0:
27,294,164008,1,0,0:0:0:0:
0,221,164095,5,8,0:0:0:0:
0,221,164444,1,0,0:0:0:0:
400,131,164793,6,0,L|396:223,1,67.5000025749208,2|0,0:0|0:0,0:0:0:0:
393,284,164967,1,0,1:0:0:0:
405,31,165142,1,8,0:1:0:0:
159,175,165491,6,0,B|224:150|224:150|285:196,1,135.000005149842,2|0,0:0|0:0,0:0:0:0:
207,271,165840,1,0,0:0:0:0:
85,119,166014,6,0,P|66:157|78:215,1,67.5000025749208
53,299,166189,6,0,P|83:284|134:299,1,67.5000025749208,2|0,1:2|0:0,0:0:0:0:
207,271,166451,6,0,P|265:293|323:236,1,135.000005149842,2|0,1:2|0:0,0:0:0:0:
378,109,166712,6,0,P|369:152|420:214,1,90,0|0,1:0|0:0,0:0:0:0:
458,146,166887,1,0,0:0:0:0:
180,79,167060,5,0,1:0:0:0:
180,79,167147,1,0,0:0:0:0:
179,77,167235,2,0,P|206:95|240:97,1,67.5000025749208,8|0,0:0|0:0,0:0:0:0:
428,47,167409,1,0,1:0:0:0:
428,47,167496,1,0,0:0:0:0:
428,47,167584,2,0,P|398:31|365:32,1,67.5000025749208,0|0,1:0|0:0,0:0:0:0:
256,253,167758,2,0,P|258:219|243:189,1,67.5000025749208,0|0,1:0|0:0,0:0:0:0:
179,77,167933,2,0,P|206:95|240:97,1,67.5000025749208,8|0,0:0|0:0,0:0:0:0:
378,109,168107,2,0,P|348:123|329:151,1,67.5000025749208,0|0,1:0|0:0,0:0:0:0:
300,332,168281,6,0,L|218:340,1,67.5000025749208,0|0,1:0|0:0,0:0:0:0:
178,242,168456,1,0,0:0:0:0:
151,279,168543,1,0,0:0:0:0:
110,288,168630,2,0,L|24:280,1,67.5000025749208,8|0,0:0|0:0,0:0:0:0:
119,72,168804,2,0,L|111:157,1,67.5000025749208
236,55,168979,5,0,1:0:0:0:
241,65,169066,2,0,P|276:60|311:79,1,67.5000025749208
279,238,169241,1,0,1:0:0:0:
285,228,169328,2,0,P|263:200|262:160,1,67.5000025749208,8|0,0:0|0:0,0:0:0:0:
409,110,169502,2,0,P|395:142|361:163,1,67.5000025749208,0|0,1:0|3:0,3:0:0:0:
45,218,169676,6,0,L|192:231,1,135.000005149842,0|0,1:0|0:0,0:0:0:0:
291,328,169938,1,0,0:0:0:0:
283,340,170025,2,0,B|225:308|225:308|151:336,1,135.000005149842,8|0,0:0|0:0,0:0:0:0:
76,364,170287,1,0,0:0:0:0:
68,372,170374,2,0,L|60:288,1,67.5000025749208,0|0,1:0|0:0,0:0:0:0:
133,245,170549,2,0,L|141:161,1,67.5000025749208
49,127,170723,2,0,P|25:43|111:48,1,202.500007724762,8|0,0:0|0:0,0:0:0:0:
262,124,171072,5,0,1:0:0:0:
262,124,171159,1,0,0:0:0:0:
262,124,171246,2,0,L|362:133,2,67.5000025749208,0|0|8,0:0|0:0|0:0,0:0:0:0:
400,61,171595,5,0,0:0:0:0:
450,135,171682,1,0,0:0:0:0:
388,207,171770,1,0,1:0:0:0:
398,212,171857,2,0,P|393:247|412:282,1,67.5000025749208
512,374,172031,1,0,1:0:0:0:
500,379,172118,2,0,P|475:353|436:345,1,67.5000025749208,8|0,0:0|0:0,0:0:0:0:
240,324,172293,6,0,B|295:367|295:367|411:324,1,135.000005149842,0|0,1:0|0:0,0:0:0:0:
312,192,172555,2,0,L|307:282,2,67.5000025749208,0|0|0,0:0|1:0|0:0,0:0:0:0:
260,46,172816,5,8,0:0:0:0:
229,67,172903,1,0,0:0:0:0:
211,103,172990,1,0,0:0:0:0:
213,143,173078,1,0,0:0:0:0:
261,208,173165,5,0,1:0:0:0:
268,248,173252,1,0,0:0:0:0:
262,290,173339,1,0,0:0:0:0:
240,324,173426,1,0,0:0:0:0:
170,363,173514,6,0,L|9:348,1,135.000005149842,8|0,0:0|0:0,0:0:0:0:
60,76,173863,5,0,1:0:0:0:
63,121,173950,1,0,0:0:0:0:
66,157,174037,2,0,L|72:234,1,67.5000025749208
170,363,174212,2,0,L|176:286,1,67.5000025749208,8|0,0:0|0:0,0:0:0:0:
187,116,174386,1,0,0:0:0:0:
192,126,174473,1,0,0:0:0:0:
197,139,174560,5,0,1:0:0:0:
203,150,174647,2,0,P|237:141|273:157,1,67.5000025749208
335,264,174821,1,0,1:0:0:0:
341,274,174908,2,0,P|307:285|269:273,1,67.5000025749208,8|0,0:0|0:0,0:0:0:0:
436,207,175083,2,0,P|468:200|500:211,1,67.5000025749208,0|0,1:0|0:0,0:0:0:0:
406,377,175258,6,0,B|406:389|401:313|401:313|412:301|412:301|405:185|405:185|398:151|363:129,1,270.000010299683,6|0,1:2|0:0,1:0:0:0:
216,100,175607,6,0,B|184:80|172:31|203:-8|273:-27|310:36|290:85|290:85|261:138|297:186,1,337.5,6|0,1:2|0:0,0:0:0:0:
267,292,175956,6,0,B|331:253|331:253|231:279|231:279|183:313|183:313|71:337,1,337.5,6|0,1:2|0:0,0:0:0:0:
159,163,176305,6,0,P|161:216|81:235,1,135,6|0,1:2|0:0,0:0:0:0:
33,174,176653,6,0,L|32:158,1,13.5
221,94,177002,6,0,L|222:78,1,13.5
387,208,177351,5,0,1:0:0:0:
378,202,177438,2,0,L|385:129,1,67.5000025749208
242,255,177612,1,0,1:0:0:0:
249,265,177699,2,0,P|283:254|321:266,1,67.5000025749208,8|0,0:0|0:0,0:0:0:0:
395,311,177874,2,0,P|456:324|510:268,1,135.000005149842,0|0,1:0|0:0,0:0:0:0:
332,88,178223,5,0,1:0:0:0:
368,103,178310,1,0,0:0:0:0:
384,134,178397,2,0,L|376:217,1,67.5000025749208,8|0,0:0|0:0,0:0:0:0:
194,133,178572,2,0,P|228:147|270:133,1,67.5000025749208
91,45,178746,5,0,1:0:0:0:
121,95,178833,1,0,0:0:0:0:
112,144,178921,1,0,0:0:0:0:
68,175,179008,1,0,0:0:0:0:
12,213,179095,5,8,0:0:0:0:
37,187,179182,1,0,0:0:0:0:
68,175,179270,2,0,P|95:179|113:187,1,45
310,273,179444,2,0,L|175:261,1,135.000005149842,0|0,1:0|0:0,0:0:0:0:
475,338,179793,5,8,0:0:0:0:
450,315,179880,1,0,0:0:0:0:
440,283,179967,1,0,0:0:0:0:
448,251,180054,1,0,0:0:0:0:
471,227,180142,2,0,L|477:148,2,67.5000025749208,0|0|0,1:0|0:0|0:0,0:0:0:0:
378,81,180403,1,0,1:0:0:0:
378,81,180490,2,0,P|412:90|452:79,1,67.5000025749208,8|0,0:0|0:0,0:0:0:0:
294,167,180665,2,0,P|260:158|220:169,1,67.5000025749208,0|0,1:0|0:0,0:0:0:0:
139,108,180839,6,0,B|124:148|124:148|152:255,1,135.000005149842,0|0,1:0|0:0,0:0:0:0:
314,331,181101,1,0,0:0:0:0:
314,332,181188,6,0,P|264:292|198:313,1,135.000005149842,8|0,0:0|0:0,0:0:0:0:
130,362,181450,1,0,0:0:0:0:
123,371,181537,6,0,L|30:363,1,90,0|0,1:0|0:0,0:0:0:0:
139,108,181886,5,8,0:0:0:0:
184,254,182061,1,2,0:0:0:0:
191,246,182148,1,2,0:0:0:0:
201,238,182235,6,0,P|240:261|307:243,1,90,2|0,1:2|0:0,0:0:0:0:
479,209,182584,5,8,0:0:0:0:
437,194,182671,1,0,0:0:0:0:
398,213,182758,1,0,0:0:0:0:
384,255,182845,1,0,0:0:0:0:
404,294,182933,2,0,L|409:362,1,45,0|0,1:0|0:0,0:0:0:0:
256,187,183108,2,0,L|261:127,1,45,0|0,0:0|1:0,0:0:0:0:
256,187,183282,1,8,0:0:0:0:
313,77,183457,6,0,P|262:56|195:77,1,90,0|0,1:0|0:0,0:0:0:0:
89,251,183805,5,0,1:0:0:0:
79,222,183892,1,0,0:0:0:0:
61,198,183980,2,0,L|69:125,1,45,8|0,0:0|0:0,0:0:0:0:
144,3,184154,2,0,P|134:23|129:45,1,45
161,135,184329,5,0,1:0:0:0:
163,162,184416,1,0,0:0:0:0:
165,189,184503,1,0,0:0:0:0:
168,216,184590,1,0,0:0:0:0:
214,285,184677,5,8,0:0:0:0:
231,260,184764,1,0,0:0:0:0:
252,249,184851,1,0,0:0:0:0:
282,249,184938,1,0,0:0:0:0:
306,172,185026,6,0,P|354:195|400:154,1,90,0|0,1:0|0:0,0:0:0:0:
424,28,185375,2,0,L|429:82,1,45,8|0,0:0|0:0,0:0:0:0:
471,163,185550,2,0,L|466:217,1,45
414,344,185724,5,0,1:0:0:0:
421,337,185811,2,0,L|412:256,1,45
471,163,185986,1,0,1:0:0:0:
471,163,186073,2,0,L|466:217,1,45,8|0,0:0|0:0,0:0:0:0:
424,28,186247,1,0,1:0:0:0:
256,192,186421,12,0,187816,1:0:0:0:
157,66,188165,6,0,P|121:67|89:87,1,62.9999980773926
147,153,188514,2,0,P|117:172|99:205,1,62.9999980773926
182,236,188863,2,0,P|165:267|166:305,1,62.9999980773926
252,287,189212,6,0,P|287:285|314:271,1,62.9999980773926
269,211,189560,2,0,P|298:191|314:166,1,62.9999980773926
238,127,189909,1,2,0:0:0:0:
388,38,190084,6,0,B|370:62|370:62|382:136,1,94.499997116089,2|0,0:0|0:0,0:0:0:0:
453,234,190433,2,0,P|414:212|386:216,1,62.9999980773926,2|0,0:0|0:0,0:0:0:0:
326,278,190781,2,0,P|285:295|263:290,1,62.9999980773926,2|0,0:0|0:0,0:0:0:0:
176,245,191130,1,0,0:0:0:0:
259,106,191305,2,0,B|287:82|287:82|278:181,1,125.999996154785,2|0,0:0|0:0,0:0:0:0:
146,141,191828,1,0,0:0:0:0:
279,171,192002,6,0,L|348:164,1,62.9999980773926
140,78,192351,2,0,L|146:146,1,62.9999980773926
163,313,192700,2,0,P|172:272|270:276,1,157.499995193482,2|0,0:0|0:0,0:0:0:0:
329,347,193223,2,0,P|337:324|348:310,1,31.4999990386963
399,358,193398,6,0,B|368:303|368:303|378:208,1,157.499995193482,2|0,0:0|0:0,0:0:0:0:
286,122,193921,2,0,P|357:109|357:57,2,125.999996154785,2|0|0,0:0|0:0|0:0,0:0:0:0:
28,173,194793,5,0,0:0:0:0:
96,137,194967,1,0,0:0:0:0:
167,166,195141,1,0,0:0:0:0:
190,239,195316,1,0,0:0:0:0:
189,240,195490,5,2,0:0:0:0:
213,312,195664,1,0,0:0:0:0:
283,341,195840,1,0,0:0:0:0:
351,305,196013,1,0,0:0:0:0:
351,305,196188,5,0,0:0:0:0:
346,228,196363,1,0,0:0:0:0:
344,153,196537,1,0,0:0:0:0:
341,79,196712,1,0,0:0:0:0:
341,79,196886,5,2,0:0:0:0:
344,153,197060,1,0,0:0:0:0:
346,228,197235,1,0,0:0:0:0:
351,305,197409,1,0,0:0:0:0:
239,275,197584,6,0,P|224:310|211:327,3,45
145,258,198281,2,0,P|91:262|87:194,1,135,2|0,0:0|0:0,0:0:0:0:
252,110,198979,5,2,0:0:0:0:
233,223,199153,1,0,0:0:0:0:
317,184,199328,1,0,0:0:0:0:
161,153,199502,1,0,0:0:0:0:
100,242,199677,5,2,0:0:0:0:
68,103,199851,1,0,0:0:0:0:
161,153,200026,1,0,0:0:0:0:
13,184,200200,1,0,0:0:0:0:
129,384,200374,5,0,0:0:0:0:
149,306,200549,1,0,0:0:0:0:
236,331,200723,5,0,0:0:0:0:
242,250,200898,1,0,0:0:0:0:
327,244,201072,5,2,0:0:0:0:
316,167,201246,1,0,0:0:0:0:
402,160,201421,5,0,0:0:0:0:
377,86,201595,1,0,0:0:0:0:
327,244,201770,5,0,0:0:0:0:
259,280,201944,1,0,0:0:0:0:
188,251,202118,1,0,0:0:0:0:
165,178,202293,1,0,0:0:0:0:
166,177,202467,5,2,0:0:0:0:
142,105,202641,1,0,0:0:0:0:
72,76,202815,1,0,0:0:0:0:
4,112,202990,1,0,0:0:0:0:
0,200,203165,5,0,0:0:0:0:
0,200,203340,1,0,0:0:0:0:
0,200,203514,1,0,0:0:0:0:
0,200,203688,1,0,0:0:0:0:
108,239,203863,5,2,0:0:0:0:
104,244,204037,1,0,0:0:0:0:
100,249,204212,1,0,0:0:0:0:
96,254,204386,1,0,0:0:0:0:
184,185,204560,6,0,P|203:227|202:249,7,67.5000025749208,0|0|0|0|2|0|0|0,0:0|0:0|0:0|0:0|0:0|0:0|0:0|0:0,0:0:0:0:
292,245,205956,6,0,P|283:287|271:305,7,45,0|0|0|0|2|0|0|0,0:0|0:0|0:0|0:0|0:0|0:0|0:0|0:0,0:0:0:0:
342,357,207351,6,0,P|327:366|317:370,15,22.5,0|0|0|0|2|0|0|0|0|0|0|0|2|0|0|0,0:0|0:0|0:0|0:0|0:0|0:0|0:0|0:0|0:0|0:0|0:0|0:0|0:0|0:0|0:0|0:0,0:0:0:0:
256,192,210142,12,0,212933,0:0:0:0:
