osu file format v14

[General]
AudioFilename: audio.mp3
AudioLeadIn: 0
PreviewTime: 92875
Countdown: 0
SampleSet: Soft
StackLeniency: 0.7
Mode: 0
LetterboxInBreaks: 0
WidescreenStoryboard: 1

[Editor]
Bookmarks: 13428,25899,30346,35753,46916,59474,70637,81800,92963,104125,104649,115288,125056,126451,137614,141800,143195,165521,176683,187933,199009,210172,212963
DistanceSpacing: 0.3
BeatDivisor: 4
GridSize: 8
TimelineZoom: 2.799999

[Metadata]
Title:Still in my heart feat. Punipuni Denki
TitleUnicode:Still in my heart feat. ぷにぷに電機
Artist:PSYQUI
ArtistUnicode:PSYQUI
Creator:Livia
Version:Heart
Source:
Tags:psyqui FÜGENE3
BeatmapID:2058636
BeatmapSetID:983858

[Difficulty]
HPDrainRate:6
CircleSize:4
OverallDifficulty:8
ApproachRate:9.6
SliderMultiplier:3.1
SliderTickRate:1

[Events]
//Background and Video events
0,0,"74224289_p0.jpg",0,0
//Break Periods
2,70662,81291
2,188046,198500
//Storyboard Layer 0 (Background)
//Storyboard Layer 1 (Fail)
//Storyboard Layer 2 (Pass)
//Storyboard Layer 3 (Foreground)
//Storyboard Sound Samples

[TimingPoints]
870,348.837209302326,4,2,1,60,1,0
1218,-200,4,2,1,60,0,0
1567,-133.333333333333,4,2,1,60,0,0
2265,-79.9999999999999,4,2,1,60,0,0
2963,-200,4,2,1,60,0,0
3486,-133.333333333333,4,2,1,60,0,0
3660,-100,4,2,1,60,0,0
4707,-111.111111111111,4,2,1,60,0,0
5056,-200,4,2,1,60,0,0
6102,-79.9999999999999,4,2,1,60,0,0
6451,-133.333333333333,4,2,1,60,0,0
9765,-79.9999999999999,4,2,1,60,0,0
11335,-200,4,2,1,60,0,0
12032,-133.333333333333,4,2,1,60,0,0
12381,-79.9999999999999,4,2,1,60,0,0
12730,-100,4,2,1,60,0,0
13079,-57.1428571428571,4,2,1,60,0,0
13428,-133.333333333333,4,2,1,60,0,0
13776,-200,4,2,1,60,0,0
14125,-133.333333333333,4,2,1,60,0,0
14474,-200,4,2,1,60,0,0
14823,-133.333333333333,4,2,1,60,0,0
17963,-200,4,2,1,60,0,0
18311,-400,4,2,1,60,0,0
19009,-100,4,2,1,60,0,0
21800,-133.333333333333,4,2,1,60,0,0
22497,-100,4,2,1,60,0,0
23195,-399.999999999997,4,2,1,60,0,0
23544,-133.333333333333,4,2,1,60,0,0
24067,-200,4,2,1,60,0,0
24242,-100,4,2,1,60,0,0
24590,-200,4,2,1,60,0,0
24939,-100,4,2,1,60,0,0
25288,-79.9999999999999,4,2,1,60,0,0
25550,-200,4,2,1,60,0,0
25811,-100,4,2,1,60,0,0
26335,-79.9999999999999,4,2,1,60,0,0
27032,-100,4,2,1,60,0,0
27904,-79.9999999999999,4,2,1,60,0,0
28776,-100,4,2,1,60,0,0
31393,-79.9999999999999,4,2,1,60,0,0
32265,-79.9999999999999,4,2,1,60,0,0
32614,-100,4,2,1,60,0,0
33660,-79.9999999999999,4,2,1,60,0,0
34183,-133.333333333333,4,2,1,60,0,0
34358,-200,4,2,1,60,0,0
34707,-100,4,2,1,60,0,0
35056,-133.333333333333,4,2,1,60,0,0
35404,-79.9999999999999,4,2,1,60,0,0
38195,-100,4,2,1,60,0,0
40637,-200,4,2,1,60,0,0
41335,-100,4,2,1,60,0,0
44125,-133.333333333333,4,2,1,60,0,0
44823,-79.9999999999999,4,2,1,60,0,0
48311,-133.333333333333,4,2,1,60,0,0
49009,-200,4,2,1,60,0,0
49358,-133.333333333333,4,2,1,60,0,0
49881,-79.9999999999999,4,2,1,60,0,0
50056,-133.333333333333,4,2,1,60,0,0
53195,-200,4,2,1,60,0,0
53544,-133.333333333333,4,2,1,60,0,0
58428,-79.9999999999999,4,2,1,60,0,0
58776,-133.333333333333,4,2,1,60,0,0
59125,-79.9999999999999,4,2,1,60,0,0
59474,-133.333333333333,4,2,1,60,0,0
64358,-200,4,2,1,60,0,0
64707,-133.333333333333,4,2,1,60,0,0
69242,-200,4,2,1,60,0,0
69590,-100,4,2,1,60,0,0
69939,-200,4,2,1,60,0,0
70288,-100,4,2,1,60,0,0
81800,-133.333333333333,4,2,1,60,0,0
82149,-200,4,2,1,60,0,0
82497,-133.333333333333,4,2,1,60,0,0
91567,-200,4,2,1,60,0,0
92614,-66.6666666666667,4,2,1,60,0,0
92963,-133.333333333333,4,2,1,60,0,1
93660,-66.6666666666667,4,2,1,60,0,1
94707,-133.333333333333,4,2,1,60,0,1
95317,-66.6666666666667,4,2,1,60,0,1
95579,-133.333333333333,4,2,1,60,0,1
95753,-133.333333333333,4,2,1,60,0,1
96450,-66.6666666666667,4,2,1,60,0,1
96713,-133.333333333333,4,2,1,60,0,1
96974,-79.9999999999999,4,2,1,60,0,1
97149,-133.333333333333,4,2,1,60,0,1
97323,-79.9999999999999,4,2,1,60,0,1
97497,-200,4,2,1,60,0,1
98108,-100,4,2,1,60,0,1
98370,-133.333333333333,4,2,1,60,0,1
98544,-66.6666666666667,4,2,1,60,0,1
99503,-133.333333333333,4,2,1,60,0,1
99765,-79.9999999999999,4,2,1,60,0,1
99939,-133.333333333333,4,2,1,60,0,1
100637,-79.9999999999999,4,2,1,60,0,1
100899,-133.333333333333,4,2,1,60,0,1
101160,-79.9999999999999,4,2,1,60,0,1
101335,-133.333333333333,4,2,1,60,0,1
102032,-79.9999999999999,4,2,1,60,0,1
102294,-133.333333333333,4,2,1,60,0,1
102556,-79.9999999999999,4,2,1,60,0,1
102730,-133.333333333333,4,2,1,60,0,1
103079,-79.9999999999999,4,2,1,60,0,1
103428,-100,4,2,1,60,0,1
103777,-57.1428571428571,4,2,1,60,0,1
104125,-100,4,2,1,60,0,1
105521,-133.333333333333,4,2,1,60,0,1
106742,-100,4,2,1,60,0,1
107614,-133.333333333333,4,2,1,60,0,1
107875,-79.9999999999999,4,2,1,60,0,1
108311,-100,4,2,1,60,0,1
109707,-79.9999999999999,4,2,1,60,0,1
111102,-100,4,2,1,60,0,1
113893,-200,4,2,1,60,0,1
114242,-133.333333333333,4,2,1,60,0,1
114590,-79.9999999999999,4,2,1,60,0,1
114939,-100,4,2,1,60,0,1
115288,-66.6666666666667,4,2,1,60,0,1
115986,-100,4,2,1,60,0,1
118079,-66.6666666666667,4,2,1,60,0,1
118776,-100,4,2,1,60,0,1
120870,-66.6666666666667,4,2,1,60,0,1
121567,-100,4,2,1,60,0,1
123660,-66.6666666666667,4,2,1,60,0,1
124358,-100,4,2,1,60,0,1
125404,-133.333333333333,4,2,1,60,0,1
125753,-200,4,2,1,60,0,1
126102,-79.9999999999999,4,2,1,60,0,1
126451,-66.6666666666667,4,2,1,60,0,1
127149,-100,4,2,1,60,0,1
127323,-133.333333333333,4,2,1,60,0,1
127497,-100,4,2,1,60,0,1
127846,-66.6666666666667,4,2,1,60,0,1
128544,-100,4,2,1,60,0,1
129242,-66.6666666666667,4,2,1,60,0,1
129939,-100,4,2,1,60,0,1
130637,-66.6666666666667,4,2,1,60,0,1
131335,-100,4,2,1,60,0,1
132032,-66.6666666666667,4,2,1,60,0,1
132730,-100,4,2,1,60,0,1
133428,-66.6666666666667,4,2,1,60,0,1
134125,-100,4,2,1,60,0,1
134823,-66.6666666666667,4,2,1,60,0,1
135521,-100,4,2,1,60,0,1
136567,-133.333333333333,4,2,1,60,0,1
137614,-133.333333333333,4,2,1,60,0,0
143195,-79.9999999999999,4,2,1,60,0,0
143893,-200,4,2,1,60,0,0
144416,-133.333333333333,4,2,1,60,0,0
144590,-100,4,2,1,60,0,0
145986,-200,4,2,1,60,0,0
147032,-79.9999999999999,4,2,1,60,0,0
147381,-133.333333333333,4,2,1,60,0,0
150695,-79.9999999999999,4,2,1,60,0,0
152265,-200,4,2,1,60,0,0
152962,-133.333333333333,4,2,1,60,0,0
153311,-79.9999999999999,4,2,1,60,0,0
153660,-100,4,2,1,60,0,0
154009,-57.1428571428571,4,2,1,60,0,0
154358,-133.333333333333,4,2,1,60,0,0
154706,-200,4,2,1,60,0,0
155055,-133.333333333333,4,2,1,60,0,0
158893,-200,4,2,1,60,0,0
159241,-400,4,2,1,60,0,0
159939,-100,4,2,1,60,0,0
162730,-133.333333333333,4,2,1,60,0,0
164125,-399.999999999997,4,2,1,60,0,0
164474,-133.333333333333,4,2,1,60,0,0
164997,-200,4,2,1,60,0,0
165172,-100,4,2,1,60,0,0
165520,-200,4,2,1,60,0,0
165869,-100,4,2,1,60,0,0
166218,-79.9999999999999,4,2,1,60,0,0
166480,-200,4,2,1,60,0,0
166741,-100,4,2,1,60,0,0
167265,-79.9999999999999,4,2,1,60,0,0
167962,-100,4,2,1,60,0,0
168834,-79.9999999999999,4,2,1,60,0,0
169706,-100,4,2,1,60,0,0
172323,-79.9999999999999,4,2,1,60,0,0
173544,-100,4,2,1,60,0,0
174590,-79.9999999999999,4,2,1,60,0,0
175113,-133.333333333333,4,2,1,60,0,0
175288,-200,4,2,1,60,0,0
175637,-100,4,2,1,60,0,0
175986,-133.333333333333,4,2,1,60,0,0
176334,-79.9999999999999,4,2,1,60,0,0
179125,-100,4,2,1,60,0,0
181567,-200,4,2,1,60,0,0
182265,-100,4,2,1,60,0,0
185055,-133.333333333333,4,2,1,60,0,0
185753,-79.9999999999999,4,2,1,60,0,0
199009,-200,4,2,0,40,0,0
210172,-200,4,2,1,40,0,0

[HitObjects]
42,275,1044,5,0,0:0:0:0:
162,267,1218,2,0,P|193:222|162:150,1,116.25
49,145,1567,2,0,B|92:170|92:170|163:156,1,116.250004434586
321,33,1916,2,0,P|259:33|239:105,1,116.250004434586,0|0,0:0|0:0,0:0:0:0:
282,165,2265,6,0,B|307:182|311:212|311:212|374:146|387:177|435:175|481:117|476:35|394:7|345:62,1,387.5,2|0,0:0|0:0,0:0:0:0:
421,307,2788,2,0,P|432:262|385:275,1,96.875,0|0,0:0|0:0,0:0:0:0:
313,314,2963,2,0,B|224:348|246:271|141:319,1,155,8|0,0:0|0:0,0:0:0:0:
20,354,3486,2,0,B|53:358|53:358|89:344,1,58.1250022172929,0|0,0:0|0:0,0:0:0:0:
138,194,3660,6,0,P|63:162|1:201,1,155,2|0,0:0|0:0,0:0:0:0:
198,383,4009,1,8,0:0:0:0:
275,234,4183,6,0,P|350:202|412:241,1,155,2|0,0:0|0:0,0:0:0:0:
89,319,4532,1,8,0:0:0:0:
68,40,4707,6,0,B|41:131|41:131|81:269,1,209.249993614197,2|0,0:0|0:0,0:0:0:0:
181,365,5056,6,0,P|192:331|188:275,1,77.5,4|0,0:0|0:0,0:0:0:0:
286,246,5404,2,0,P|285:284|296:321,1,77.5,0|0,0:0|0:0,0:0:0:0:
440,331,5753,1,8,0:0:0:0:
372,275,5928,1,0,0:0:0:0:
487,246,6102,2,0,B|511:178|455:119|455:119|467:158|454:200,1,193.75,0|0,0:0|0:0,0:0:0:0:
233,223,6451,6,0,B|189:136|261:43|390:94|380:160|380:160|365:131|330:120,1,348.750013303757,2|0,0:0|0:0,0:0:0:0:
305,179,7149,2,0,B|287:223|237:201|233:132|290:87|358:105|387:175|373:225|329:260|303:230|292:300|307:353,1,348.750013303757,8|0,0:0|0:0,0:0:0:0:
495,308,7846,6,0,P|450:286|390:313,1,116.250004434586,2|0,0:0|0:0,0:0:0:0:
203,353,8195,1,0,0:0:0:0:
251,291,8370,1,0,0:0:0:0:
169,340,8544,2,0,B|146:337|114:352|114:352|147:332|162:293,1,116.250004434586,8|0,0:0|0:0,0:0:0:0:
59,213,8893,5,0,0:0:0:0:
106,126,9067,1,0,0:0:0:0:
70,239,9242,2,0,P|98:268|171:216,1,116.250004434586,2|0,0:0|0:0,0:0:0:0:
101,101,9590,1,8,0:0:0:0:
170,343,9765,6,0,P|236:290|209:168,1,193.75,2|0,0:0|0:0,0:0:0:0:
80,111,10114,1,8,0:0:0:0:
331,230,10288,6,0,B|332:87|213:28|111:101|126:185|169:218|219:216|238:174,1,387.5,2|0,0:0|0:0,0:0:0:0:
356,6,10811,5,0,0:0:0:0:
382,92,10986,1,0,0:0:0:0:
439,19,11160,1,0,0:0:0:0:
413,105,11335,2,0,P|405:147|420:196,1,77.5,8|0,0:0|0:0,0:0:0:0:
424,195,11596,1,0,0:0:0:0:
439,206,11683,1,0,0:0:0:0:
503,84,11858,1,0,0:0:0:0:
445,225,12032,6,0,P|404:157|328:195,1,174.375006651879,2|0,0:0|0:0,0:0:0:0:
312,204,12381,2,0,P|405:141|411:282,1,290.625,8|0,0:0|0:0,0:0:0:0:
421,284,12730,2,0,B|356:283|347:368|347:368|314:305|238:320,1,232.5,2|0,0:0|0:0,0:0:0:0:
231,313,13079,2,0,P|140:176|319:202,1,406.875003880262,8|0,0:0|0:0,0:0:0:0:
437,358,13428,6,0,B|456:319|456:319|444:229,1,116.250004434586,6|0,0:0|0:0,0:0:0:0:
360,148,13689,1,0,0:0:0:0:
346,156,13776,2,0,P|322:193|323:255,1,77.5,8|0,0:0|0:0,0:0:0:0:
260,317,14038,1,0,0:0:0:0:
260,317,14125,6,0,P|224:308|182:318,1,58.1250022172929
185,214,14300,2,0,P|149:224|117:253,1,58.1250022172929
206,325,14474,6,0,P|179:332|155:354,1,38.75,8|0,0:0|0:0,0:0:0:0:
118,286,14649,2,0,P|98:306|89:337,1,38.75
36,373,14823,6,0,B|11:335|11:335|27:231,1,116.250004434586,2|0,0:0|0:0,0:0:0:0:
151,169,15172,2,0,P|95:187|35:156,1,116.250004434586,8|0,0:0|0:0,0:0:0:0:
70,19,15433,1,0,0:0:0:0:
85,26,15521,6,0,P|99:56|98:95,1,58.1250022172929,2|0,0:0|0:0,0:0:0:0:
199,106,15695,2,0,P|184:136|185:175,1,58.1250022172929
130,78,15870,6,0,P|127:49|113:23,1,58.1250022172929,8|0,0:0|0:0,0:0:0:0:
211,158,16044,2,0,P|213:129|227:103,1,58.1250022172929
436,149,16218,6,0,B|395:168|395:168|308:155,1,116.250004434586
384,20,16567,2,0,P|393:50|385:90,1,58.1250022172929,8|0,0:0|0:0,0:0:0:0:
303,153,16742,2,0,P|294:183|302:223,1,58.1250022172929
441,288,16916,6,0,L|509:284,1,58.1250022172929,2|0,0:0|0:0,0:0:0:0:
366,371,17090,2,0,L|434:367,1,58.1250022172929
358,270,17265,2,0,L|426:266,1,58.1250022172929,8|0,0:0|0:0,0:0:0:0:
283,353,17439,2,0,L|351:349,1,58.1250022172929
271,240,17614,6,0,B|219:243|189:212|189:212|152:240|108:229,1,174.375006651879,2|0,0:0|0:0,0:0:0:0:
134,248,17963,2,0,B|159:252|187:233|187:233|210:254|242:255,1,116.25,8|0,0:0|0:0,0:0:0:0:
176,374,18311,2,0,L|180:321,1,38.75,2|0,0:0|0:0,0:0:0:0:
201,90,18660,2,0,L|198:128,1,38.75,4|0,0:0|0:0,0:0:0:0:
189,213,18922,1,0,0:0:0:0:
186,240,19009,6,0,P|128:187|50:230,1,155,2|0,0:0|0:0,0:0:0:0:
19,348,19271,1,2,0:0:0:0:
24,364,19358,2,0,B|36:331|36:331|26:271,1,77.5,8|0,0:0|0:0,0:0:0:0:
35,118,19532,2,0,B|28:159|28:159|40:192,1,77.5,2|0,0:0|0:0,0:0:0:0:
115,260,19707,6,0,P|173:207|251:250,1,155,2|0,0:0|0:0,0:0:0:0:
282,368,19968,1,2,0:0:0:0:
277,384,20056,2,0,B|265:351|265:351|275:291,1,77.5,8|0,0:0|0:0,0:0:0:0:
266,138,20230,2,0,B|273:179|273:179|261:212,1,77.5,2|0,0:0|0:0,0:0:0:0:
186,283,20404,6,0,B|262:303|262:303|364:271,1,155,2|0,0:0|0:0,0:0:0:0:
470,230,20666,1,2,0:0:0:0:
460,214,20753,2,0,P|414:200|367:220,1,77.5,8|0,0:0|0:0,0:0:0:0:
294,203,20928,2,0,P|340:189|387:209,1,77.5,2|0,0:0|0:0,0:0:0:0:
334,297,21102,6,0,B|258:317|258:317|156:285,1,155,2|0,0:0|0:0,0:0:0:0:
50,244,21364,1,2,0:0:0:0:
60,228,21451,2,0,P|106:214|153:234,1,77.5,8|0,0:0|0:0,0:0:0:0:
226,217,21625,2,0,P|180:203|133:223,1,77.5,2|0,0:0|0:0,0:0:0:0:
110,378,21800,6,0,P|104:344|114:306,1,58.1250022172929,2|0,0:0|0:0,0:0:0:0:
73,342,21974,2,0,P|84:309|112:281,1,58.1250022172929,2|0,0:0|0:0,0:0:0:0:
258,315,22149,6,0,P|252:280|229:248,1,58.1250022172929,2|0,0:0|0:0,0:0:0:0:
280,268,22323,2,0,P|257:241|222:224,1,58.1250022172929,2|0,0:0|0:0,0:0:0:0:
0,201,22497,6,0,P|30:173|71:162,1,77.5,2|0,0:0|0:0,0:0:0:0:
320,250,22672,2,0,P|308:210|278:180,1,77.5,2|0,0:0|0:0,0:0:0:0:
12,89,22846,6,0,P|49:72|92:76,1,77.5,2|0,0:0|0:0,0:0:0:0:
364,256,23021,2,0,P|366:215|348:176,1,77.5,2|0,0:0|0:0,0:0:0:0:
75,249,23195,6,0,P|73:285|89:319,1,58.125,4|0,0:0|0:0,0:0:0:0:
180,342,23544,2,0,P|221:307|217:231,1,116.250004434586,0|0,0:0|0:0,0:0:0:0:
148,137,23893,1,8,0:0:0:0:
151,268,24067,2,0,L|156:223,1,38.75,2|0,0:0|0:0,0:0:0:0:
79,16,24242,2,0,B|52:54|52:54|68:198,1,155,8|0,0:0|0:0,0:0:0:0:
312,305,24590,6,0,L|324:224,1,77.5,4|0,0:0|0:0,0:0:0:0:
245,26,24939,2,0,B|242:67|242:67|256:102,1,77.5
424,178,25114,1,0,0:0:0:0:
506,161,25201,1,0,0:0:0:0:
380,84,25288,6,0,B|347:160|347:160|403:220|403:220|426:176,1,193.75,2|0,0:0|0:0,0:0:0:0:
506,183,25550,2,0,B|482:238|482:238|491:265,1,77.5,8|0,0:0|0:0,0:0:0:0:
474,348,25811,6,0,B|431:343|408:309|408:309|373:286|324:303,1,155,2|0,0:0|0:0,0:0:0:0:
215,361,26160,5,2,0:0:0:0:
260,284,26247,1,0,0:0:0:0:
192,194,26335,2,0,B|167:234|167:234|171:304,1,96.875,8|0,0:0|0:0,0:0:0:0:
86,384,26509,2,0,P|99:336|79:271,1,96.875
0,156,26683,6,0,B|40:181|40:181|110:177,1,96.875,2|0,0:0|0:0,0:0:0:0:
373,102,26858,2,0,L|246:110,1,96.875
69,94,27032,2,0,P|113:92|147:116,1,77.5,8|0,0:0|0:0,0:0:0:0:
177,274,27207,2,0,B|171:228|171:228|188:177,1,77.5
362,20,27381,6,0,B|451:57|448:137|398:178|352:167|326:126,1,232.5,2|0,0:0|0:0,0:0:0:0:
180,198,27730,1,8,0:0:0:0:
257,154,27817,1,0,0:0:0:0:
256,243,27904,2,0,P|255:305|213:352,1,96.875,0|0,0:0|0:0,0:0:0:0:
28,269,28079,6,0,B|67:287|95:272|95:272|131:255|174:277|174:277|145:270|127:283,1,193.75,2|0,0:0|0:0,0:0:0:0:
155,367,28340,1,2,0:0:0:0:
132,179,28428,2,0,P|108:225|117:302,1,96.875,8|0,0:0|0:0,0:0:0:0:
350,358,28602,2,0,B|369:317|369:317|358:255,1,96.875,2|0,0:0|0:0,0:0:0:0:
253,65,28776,6,0,L|342:69,1,77.5,2|0,0:0|0:0,0:0:0:0:
415,92,28951,2,0,P|416:42|390:6,1,77.5
254,143,29125,6,0,L|165:147,1,77.5,2|0,0:0|0:0,0:0:0:0:
92,170,29300,2,0,P|91:120|117:84,1,77.5
256,230,29474,6,0,L|345:234,1,77.5,2|0,0:0|0:0,0:0:0:0:
418,257,29649,2,0,P|419:207|393:171,1,77.5
197,307,29823,6,0,B|182:317|179:335|179:335|141:295|133:314|105:312|77:278|84:226|131:212|160:239,1,232.5,8|0,0:0|0:0,0:0:0:0:
350,358,30172,6,0,P|311:346|253:360,1,77.5,2|0,0:0|0:0,0:0:0:0:
473,287,30346,2,0,P|461:248|475:190,1,77.5
483,200,30521,6,0,P|479:238|491:274,1,77.5,8|0,0:0|0:0,0:0:0:0:
266,365,30695,2,0,P|304:361|340:373,1,77.5
259,245,30870,6,0,B|250:208|250:208|259:152,1,77.5,2|0,0:0|0:0,0:0:0:0:
197,307,31044,1,0,0:0:0:0:
197,307,31131,1,0,0:0:0:0:
128,248,31218,2,0,P|87:244|45:263,1,77.5,8|0,0:0|0:0,0:0:0:0:
5,193,31393,6,0,B|78:152|150:174|150:174|162:149|190:135,1,193.75,2|0,0:0|0:0,0:0:0:0:
350,30,31742,1,2,0:0:0:0:
294,139,31829,1,0,0:0:0:0:
374,230,31916,2,0,P|386:283|380:342,1,96.875,8|0,0:0|0:0,0:0:0:0:
104,323,32090,2,0,B|94:279|94:279|113:227,1,96.875,0|0,0:0|0:0,0:0:0:0:
277,280,32265,6,0,P|231:297|186:285,1,96.875,2|0,0:0|0:0,0:0:0:0:
0,192,32439,2,0,P|46:180|90:197,1,96.875,0|0,0:0|0:0,0:0:0:0:
31,353,32614,2,0,B|24:316|24:316|43:260,1,77.5,8|0,0:0|0:0,0:0:0:0:
85,122,32788,2,0,B|97:159|97:159|90:196,1,77.5,0|0,0:0|0:0,0:0:0:0:
128,304,32963,6,0,B|180:338|228:315|210:303|268:277|306:311|306:311|279:303|256:312,1,232.5,2|0,0:0|0:0,0:0:0:0:
383,364,33311,1,0,0:0:0:0:
391,342,33399,1,0,0:0:0:0:
392,318,33486,2,0,P|384:278|346:244,1,77.5,0|0,0:0|0:0,0:0:0:0:
184,183,33660,6,0,B|243:170|277:204|277:204|307:158|374:158,1,193.75,2|0,0:0|0:0,0:0:0:0:
460,247,33922,1,2,0:0:0:0:
498,148,34009,2,0,P|459:181|453:236,1,96.875,8|0,0:0|0:0,0:0:0:0:
367,308,34183,2,0,P|366:271|352:238,1,58.1250022172929,2|0,0:0|0:0,0:0:0:0:
276,202,34358,6,0,B|240:207|226:235|226:235|201:217|157:217,1,116.25,2|0,0:0|0:0,0:0:0:0:
66,212,34707,2,0,B|146:174|224:209|224:209|251:172|311:163,1,232.5,8|0,0:0|0:0,0:0:0:0:
451,216,35056,2,0,P|362:169|278:192,1,174.375006651879,2|0,0:0|0:0,0:0:0:0:
219,271,35404,6,0,B|194:288|190:318|190:318|127:252|114:283|66:281|20:223|25:141|107:113|156:168,1,387.5,4|0,0:0|0:0,0:0:0:0:
361,316,36102,6,0,P|318:337|271:332,1,96.875,2|0,0:0|0:0,0:0:0:0:
164,195,36276,2,0,B|156:250|156:250|171:270|178:314,1,96.875,0|0,0:0|0:0,0:0:0:0:
86,384,36451,2,0,P|99:337|70:271,1,96.875,8|0,0:0|0:0,0:0:0:0:
0,165,36625,1,0,0:0:0:0:
79,212,36713,1,2,0:0:0:0:
107,105,36800,2,0,B|81:123|81:123|78:191,1,96.875
172,287,36974,6,0,B|173:204|173:204|185:187|185:187|190:74,1,193.75,2|0,0:0|0:0,0:0:0:0:
0,26,37323,1,2,0:0:0:0:
84,84,37410,1,0,0:0:0:0:
179,40,37497,2,0,L|170:148,1,96.875,8|0,0:0|0:0,0:0:0:0:
87,305,37672,2,0,B|72:265|72:265|78:208,1,96.875,0|0,0:0|0:0,0:0:0:0:
336,203,37846,6,0,P|293:233|234:222,1,96.875,2|0,0:0|0:0,0:0:0:0:
172,209,38021,2,0,P|219:231|239:287,1,96.875,0|0,0:0|0:0,0:0:0:0:
247,353,38195,2,0,L|248:264,1,77.5,8|0,0:0|0:0,0:0:0:0:
252,72,38370,2,0,B|251:149,1,77.5,0|0,0:0|0:0,0:0:0:0:
386,267,38544,6,0,P|419:196|354:123,1,155,2|0,0:0|0:0,0:0:0:0:
253,39,38893,1,8,0:0:0:0:
267,51,38980,1,0,0:0:0:0:
285,60,39067,1,0,0:0:0:0:
303,65,39154,1,0,0:0:0:0:
323,66,39242,2,0,B|366:66|398:24|398:24|378:61|396:117,1,155,2|0,0:0|0:0,0:0:0:0:
481,70,39503,1,2,0:0:0:0:
442,149,39590,2,0,B|427:187|427:187|441:245,1,77.5,8|0,0:0|0:0,0:0:0:0:
484,365,39765,2,0,B|492:329|492:329|477:291,1,77.5,2|0,0:0|0:0,0:0:0:0:
256,302,39939,6,0,P|330:331|399:281,1,155,2|0,0:0|0:0,0:0:0:0:
350,165,40201,1,0,0:0:0:0:
326,171,40288,2,0,B|311:209|311:209|325:267,1,77.5,8|0,0:0|0:0,0:0:0:0:
233,364,40463,2,0,P|245:324|226:266,1,77.5,0|0,0:0|0:0,0:0:0:0:
157,206,40637,6,0,L|66:218,1,77.5,4|0,0:0|0:0,0:0:0:0:
0,167,40986,2,0,P|37:185|91:179,1,77.5,4|0,0:0|0:0,0:0:0:0:
131,131,41247,1,0,0:0:0:0:
141,119,41335,6,0,B|149:83|149:83|134:19,1,77.5,2|0,0:0|0:0,0:0:0:0:
1,9,41509,2,0,B|-8:48|-8:48|0:84,1,77.5,0|0,0:0|0:0,0:0:0:0:
233,190,41683,6,0,B|225:154|225:154|240:90,1,77.5,8|0,0:0|0:0,0:0:0:0:
373,80,41857,2,0,B|382:119|382:119|374:155,1,77.5,0|0,0:0|0:0,0:0:0:0:
158,281,42032,6,0,B|166:245|166:245|151:181,1,77.5,2|0,0:0|0:0,0:0:0:0:
46,281,42207,1,0,0:0:0:0:
48,304,42294,1,2,0:0:0:0:
49,327,42381,2,0,P|82:351|130:348,1,77.5,8|0,0:0|0:0,0:0:0:0:
163,250,42556,2,0,P|223:209|281:259,1,155,2|0,0:0|0:0,0:0:0:0:
343,381,42904,5,2,0:0:0:0:
344,363,42992,1,0,0:0:0:0:
346,345,43079,2,0,B|387:336|387:336|446:348,1,77.5,8|0,0:0|0:0,0:0:0:0:
511,297,43253,2,0,P|473:315|426:296,1,77.5
470,158,43428,6,0,L|467:253,1,77.5,2|0,0:0|0:0,0:0:0:0:
370,257,43602,2,0,L|368:180,1,77.5
252,225,43776,2,0,L|250:303,1,77.5,8|0,0:0|0:0,0:0:0:0:
149,355,43950,2,0,L|146:277,1,77.5,0|0,0:0|0:0,0:0:0:0:
203,56,44125,6,0,B|254:92|254:92|253:205,1,174.375006651879,6|0,0:0|0:0,0:0:0:0:
74,239,44474,1,0,0:0:0:0:
75,221,44561,1,0,0:0:0:0:
79,203,44649,2,0,B|107:190|107:190|148:195,1,58.1250022172929,0|0,0:0|0:0,0:0:0:0:
326,311,44823,6,0,B|272:335|220:311|250:282|183:259|135:281,1,193.75,12|0,0:0|0:0,0:0:0:0:
173,363,45085,1,0,0:0:0:0:
291,234,45172,2,0,P|289:181|251:133,1,96.875,0|0,0:0|0:0,0:0:0:0:
74,239,45346,2,0,P|68:299|104:346,1,96.875,0|0,0:0|0:0,0:0:0:0:
380,243,45521,5,6,0:0:0:0:
256,192,45608,12,0,47090,0:0:0:0:
101,39,48311,6,0,B|80:85|80:85|98:178,1,116.250004434586,2|0,0:0|0:0,0:0:0:0:
226,221,48573,1,0,0:0:0:0:
206,205,48660,2,0,L|148:213,1,58.1250022172929,2|0,0:0|0:0,0:0:0:0:
4,222,48835,2,0,L|62:230,1,58.1250022172929,0|0,0:0|0:0,0:0:0:0:
113,363,49009,6,0,P|125:319|115:275,1,77.5,2|0,0:0|0:0,0:0:0:0:
8,191,49271,1,0,0:0:0:0:
14,207,49358,2,0,L|72:215,1,58.1250022172929,2|0,0:0|0:0,0:0:0:0:
216,190,49532,2,0,L|158:198,1,58.1250022172929
294,230,49707,6,0,P|301:204|296:168,1,58.1250022172929,2|0,0:0|0:0,0:0:0:0:
410,55,49881,2,0,P|410:109|437:166,1,96.875,8|0,0:0|0:0,0:0:0:0:
413,342,50056,2,0,B|404:293|404:293|394:282|394:282|387:222,1,116.250004434586,2|0,0:0|0:0,0:0:0:0:
435,70,50404,6,0,P|434:103|414:133,1,58.1250022172929,2|0,0:0|0:0,0:0:0:0:
503,178,50579,2,0,P|486:207|453:223,1,58.1250022172929,0|0,0:0|0:0,0:0:0:0:
297,173,50753,2,0,B|321:184|336:162|336:162|330:263,1,116.250004434586,2|0,0:0|0:0,0:0:0:0:
402,351,51015,1,0,0:0:0:0:
413,342,51102,6,0,P|365:309|296:317,1,116.250004434586,2|0,0:0|0:0,0:0:0:0:
152,383,51451,2,0,B|186:357|186:357|190:270,1,116.250004434586,8|0,0:0|0:0,0:0:0:0:
41,166,51713,1,0,0:0:0:0:
25,178,51800,2,0,L|26:236,1,58.1250022172929,2|0,0:0|0:0,0:0:0:0:
106,235,51974,2,0,L|107:293,1,58.1250022172929,0|0,0:0|0:0,0:0:0:0:
281,189,52149,2,0,B|284:114|284:114|255:41,1,116.250004434586,8|0,0:0|0:0,0:0:0:0:
146,141,52410,1,0,0:0:0:0:
146,141,52497,6,0,L|221:132,1,58.1250022172929,2|0,0:0|0:0,0:0:0:0:
310,197,52672,2,0,L|367:190,1,58.1250022172929,0|0,0:0|0:0,0:0:0:0:
440,38,52846,2,0,P|382:27|350:86,1,116.250004434586,8|0,0:0|0:0,0:0:0:0:
446,259,53195,6,0,B|459:218|459:218|439:120,1,116.250004434586,2|0,0:0|0:0,0:0:0:0:
420,117,53544,2,0,B|438:217|438:217|414:298,1,174.375006651879,8|0,0:0|0:0,0:0:0:0:
192,253,53893,6,0,P|235:213|297:223,1,116.250004434586,2|0,0:0|0:0,0:0:0:0:
345,336,54154,1,0,0:0:0:0:
338,354,54242,2,0,L|250:361,1,58.1250022172929,8|0,0:0|0:0,0:0:0:0:
140,339,54416,2,0,L|228:332,1,58.1250022172929,0|0,0:0|0:0,0:0:0:0:
288,207,54590,6,0,P|231:202|191:242,1,116.250004434586,2|0,0:0|0:0,0:0:0:0:
280,358,54851,1,0,0:0:0:0:
280,358,54939,2,0,L|338:354,1,58.1250022172929,8|0,0:0|0:0,0:0:0:0:
197,334,55113,2,0,L|140:339,1,58.1250022172929,0|0,0:0|0:0,0:0:0:0:
62,174,55288,6,0,P|122:182|146:248,1,116.250004434586,2|0,0:0|0:0,0:0:0:0:
45,352,55550,1,0,0:0:0:0:
28,343,55637,2,0,B|20:311|20:311|29:274,1,58.1250022172929,8|0,0:0|0:0,0:0:0:0:
225,204,55811,6,0,P|228:239|211:275,1,58.1250022172929,0|0,0:0|0:0,0:0:0:0:
45,352,55986,2,0,B|37:320|37:320|46:283,1,58.1250022172929,2|0,0:0|0:0,0:0:0:0:
147,226,56160,2,0,B|152:250|152:250|144:282,1,58.1250022172929,0|0,0:0|0:0,0:0:0:0:
0,206,56335,6,0,P|58:151|137:193,1,174.375006651879,8|0,0:0|0:0,0:0:0:0:
34,126,56683,6,0,L|31:67,1,58.1250022172929,2|0,0:0|0:0,0:0:0:0:
135,129,56858,2,0,L|133:188,1,58.1250022172929
204,58,57032,6,0,L|201:-1,1,58.1250022172929,8|0,0:0|0:0,0:0:0:0:
115,135,57207,2,0,L|113:194,1,58.1250022172929,0|0,0:0|0:0,0:0:0:0:
228,335,57381,6,0,B|249:302|249:302|241:185,1,116.250004434586,2|0,0:0|0:0,0:0:0:0:
224,143,57643,1,0,0:0:0:0:
215,155,57730,6,0,L|217:213,1,58.1250022172929,8|0,0:0|0:0,0:0:0:0:
321,271,57905,2,0,L|318:212,1,58.1250022172929,0|0,0:0|0:0,0:0:0:0:
456,51,58079,6,0,B|405:100|420:178|420:178|444:212,1,174.375006651879,2|0,0:0|0:0,0:0:0:0:
445,312,58428,2,0,B|360:298|330:186|330:186|348:257|299:296,1,290.625,8|0,0:0|0:0,0:0:0:0:
178,255,58776,2,0,P|199:180|249:237,1,174.375006651879,2|0,0:0|0:0,0:0:0:0:
94,258,59125,2,0,B|73:198|101:140|120:167|156:98|135:39|135:39|139:80|109:107,1,290.625,8|0,0:0|0:0,0:0:0:0:
1,53,59474,6,0,P|27:12|58:56,1,116.250004434586,6|0,0:0|0:0,0:0:0:0:
18,162,59736,1,0,0:0:0:0:
11,176,59823,2,0,P|6:205|13:249,1,58.1250022172929,8|0,0:0|0:0,0:0:0:0:
96,315,59997,2,0,P|98:286|93:257,1,58.1250022172929,0|0,0:0|0:0,0:0:0:0:
127,127,60172,6,0,P|161:138|215:131,1,58.1250022172929,2|0,0:0|0:0,0:0:0:0:
197,239,60346,2,0,P|232:237|281:212,1,58.1250022172929,0|0,0:0|0:0,0:0:0:0:
202,148,60521,6,0,P|236:140|280:107,1,58.1250022172929,8|0,0:0|0:0,0:0:0:0:
282,202,60695,2,0,P|312:183|341:137,1,58.1250022172929,0|0,0:0|0:0,0:0:0:0:
327,28,60870,6,0,B|316:61|316:61|324:111,1,58.1250022172929,2|0,0:0|0:0,0:0:0:0:
377,182,61044,2,0,P|386:153|383:106,1,58.1250022172929,0|0,0:0|0:0,0:0:0:0:
305,225,61218,2,0,P|355:265|415:258,1,116.250004434586,8|0,0:0|0:0,0:0:0:0:
498,179,61480,1,0,0:0:0:0:
487,200,61567,6,0,P|481:236|492:282,1,58.1250022172929,2|0,0:0|0:0,0:0:0:0:
377,267,61742,2,0,L|345:187,1,58.1250022172929,0|2,0:0|0:0,0:0:0:0:
252,290,61916,2,0,P|275:318|288:363,1,58.1250022172929,8|0,0:0|0:0,0:0:0:0:
348,199,62090,2,0,L|316:119,1,58.1250022172929,2|0,0:0|0:0,0:0:0:0:
391,1,62265,6,0,P|416:48|379:124,1,116.250004434586,2|0,0:0|0:0,0:0:0:0:
228,115,62526,1,0,0:0:0:0:
241,103,62614,2,0,L|316:112,1,58.1250022172929,8|0,0:0|0:0,0:0:0:0:
348,199,62788,2,0,L|290:192,1,58.1250022172929,0|0,0:0|0:0,0:0:0:0:
434,239,62963,6,0,P|442:212|433:169,1,58.1250022172929,2|0,0:0|0:0,0:0:0:0:
258,180,63137,2,0,P|254:208|262:236,1,58.1250022172929,0|0,0:0|0:0,0:0:0:0:
424,223,63311,6,0,P|427:194|419:166,1,58.1250022172929,8|0,0:0|0:0,0:0:0:0:
272,191,63486,2,0,P|273:219|286:245,1,58.1250022172929,0|0,0:0|0:0,0:0:0:0:
406,60,63660,6,0,B|389:53|382:32|382:32|393:140,1,116.250004434586,2|0,0:0|0:0,0:0:0:0:
331,149,63922,1,2,0:0:0:0:
331,149,64009,2,0,B|348:142|355:121|355:121|344:229,1,116.250004434586,8|0,0:0|0:0,0:0:0:0:
446,293,64358,6,0,P|386:274|333:307,1,116.25,2|0,0:0|0:0,0:0:0:0:
271,300,64707,2,0,P|300:287|335:292,1,58.1250022172929,8|0,0:0|0:0,0:0:0:0:
311,365,64881,1,0,0:0:0:0:
314,380,64968,1,0,0:0:0:0:
233,322,65056,6,0,B|246:283|246:283|221:192,1,116.250004434586,2|0,0:0|0:0,0:0:0:0:
80,275,65317,1,0,0:0:0:0:
90,289,65404,2,0,L|173:280,1,58.1250022172929,8|0,0:0|0:0,0:0:0:0:
283,216,65579,2,0,L|200:207,1,58.1250022172929
111,99,65753,6,0,P|132:125|139:158,1,58.1250022172929,2|0,0:0|0:0,0:0:0:0:
10,193,65928,2,0,P|0:166|0:137,1,58.1250022172929,0|0,0:0|0:0,0:0:0:0:
144,108,66102,6,0,P|159:139|157:173,1,58.1250022172929,8|0,0:0|0:0,0:0:0:0:
24,175,66277,2,0,P|20:146|27:118,1,58.1250022172929,0|0,0:0|0:0,0:0:0:0:
244,130,66451,6,0,B|245:199|245:199|206:247,1,116.250004434586,2|0,0:0|0:0,0:0:0:0:
90,289,66713,1,0,0:0:0:0:
100,269,66800,2,0,P|153:247|209:274,1,116.250004434586,8|0,0:0|0:0,0:0:0:0:
270,349,67061,1,0,0:0:0:0:
285,367,67149,6,0,B|344:376|344:376|410:338,1,116.250004434586,2|0,0:0|0:0,0:0:0:0:
320,231,67410,1,0,0:0:0:0:
320,231,67497,2,0,L|328:302,1,58.1250022172929,8|0,0:0|0:0,0:0:0:0:
480,354,67672,2,0,L|486:296,1,58.1250022172929,0|0,0:0|0:0,0:0:0:0:
422,107,67846,6,0,P|406:137|407:178,3,58.1250022172929,2|0|0|0,0:0|0:0|0:0|0:0,0:0:0:0:
301,177,68195,2,0,P|317:207|316:248,3,58.1250022172929,2|0|0|0,0:0|0:0|0:0|0:0,0:0:0:0:
426,314,68544,6,0,P|424:277|393:236,1,58.1250022172929,2|0,0:0|0:0,0:0:0:0:
216,189,68718,2,0,P|239:217|288:232,1,58.1250022172929
460,167,68893,2,0,P|424:157|375:174,1,58.1250022172929,2|0,0:0|0:0,0:0:0:0:
275,329,69067,2,0,P|309:315|338:273,1,58.1250022172929
330,90,69242,6,0,P|309:121|317:195,1,77.5,6|0,0:0|0:0,0:0:0:0:
415,258,69590,2,0,B|436:248|459:254|459:254|406:219|351:245|373:263|323:282|268:255,1,232.5,8|0,0:0|0:0,0:0:0:0:
178,175,69939,2,0,P|201:211|194:261,1,77.5,2|0,0:0|0:0,0:0:0:0:
84,361,70288,2,0,B|57:306|88:247|88:247|130:224,1,155,8|0,0:0|0:0,0:0:0:0:
394,68,81800,6,0,P|364:123|380:195,1,116.250004434586,2|0,0:0|0:0,0:0:0:0:
474,231,82061,1,0,0:0:0:0:
474,231,82149,2,0,B|485:198|485:198|465:125,1,77.5,2|0,0:0|0:0,0:0:0:0:
386,197,82410,1,0,0:0:0:0:
386,197,82497,6,0,L|311:195,1,58.1250022172929,2|0,0:0|0:0,0:0:0:0:
239,193,82672,2,0,L|164:191,1,58.1250022172929,0|0,0:0|0:0,0:0:0:0:
309,223,82846,6,0,L|234:221,1,58.1250022172929,2|0,0:0|0:0,0:0:0:0:
162,219,83021,2,0,L|87:217,1,58.1250022172929,0|0,0:0|0:0,0:0:0:0:
154,80,83195,5,2,0:0:0:0:
174,63,83282,2,0,B|207:121|207:121|191:185,1,116.250004434586,0|0,0:0|0:0,0:0:0:0:
89,279,83544,2,0,P|82:250|89:215,1,58.1250022172929,2|0,0:0|0:0,0:0:0:0:
106,160,83718,2,0,P|110:188|103:216,1,58.1250022172929,0|0,0:0|0:0,0:0:0:0:
27,187,83893,6,0,L|102:188,1,58.1250022172929,2|0,0:0|0:0,0:0:0:0:
174,190,84068,2,0,L|249:191,1,58.1250022172929,0|0,0:0|0:0,0:0:0:0:
103,217,84242,6,0,L|178:218,1,58.1250022172929,2|0,0:0|0:0,0:0:0:0:
250,220,84417,2,0,L|325:221,1,58.1250022172929,0|0,0:0|0:0,0:0:0:0:
496,218,84590,6,0,B|463:196|463:196|359:193,1,116.250004434586,2|0,0:0|0:0,0:0:0:0:
320,259,84852,1,0,0:0:0:0:
320,259,84939,2,0,L|321:342,1,58.1250022172929,2|0,0:0|0:0,0:0:0:0:
402,295,85114,2,0,L|401:378,1,58.1250022172929,0|0,0:0|0:0,0:0:0:0:
499,249,85288,6,0,L|424:247,1,58.1250022172929,2|0,0:0|0:0,0:0:0:0:
352,245,85463,2,0,L|277:243,1,58.1250022172929,0|0,0:0|0:0,0:0:0:0:
422,275,85637,6,0,L|347:273,1,58.1250022172929,2|0,0:0|0:0,0:0:0:0:
275,271,85812,2,0,L|200:269,1,58.1250022172929,0|0,0:0|0:0,0:0:0:0:
332,108,85986,6,0,P|356:166|336:220,1,116.250004434586,2|0,0:0|0:0,0:0:0:0:
78,259,86335,2,0,B|119:243|119:243|216:256,1,116.250004434586,2|0,0:0|0:0,0:0:0:0:
140,379,86683,6,0,P|128:348|131:315,1,58.1250022172929,2|0,0:0|0:0,0:0:0:0:
35,296,86858,2,0,P|55:270|85:256,1,58.1250022172929,0|0,0:0|0:0,0:0:0:0:
54,163,87032,2,0,P|86:168|113:187,1,58.1250022172929,2|0,0:0|0:0,0:0:0:0:
178,112,87207,2,0,P|189:143|187:175,1,58.1250022172929,0|0,0:0|0:0,0:0:0:0:
35,296,87381,6,0,P|79:260|152:272,1,116.250004434586,2|0,0:0|0:0,0:0:0:0:
258,355,87643,1,0,0:0:0:0:
278,343,87730,2,0,L|271:267,1,58.1250022172929,2|0,0:0|0:0,0:0:0:0:
111,272,87904,2,0,L|105:329,1,58.1250022172929,0|0,0:0|0:0,0:0:0:0:
356,309,88079,2,0,L|349:233,1,58.1250022172929,2|0,0:0|0:0,0:0:0:0:
434,275,88253,2,0,L|427:199,1,58.1250022172929,0|0,0:0|0:0,0:0:0:0:
288,17,88428,2,0,B|266:54|266:54|272:151,1,116.250004434586,2|0,0:0|0:0,0:0:0:0:
364,170,88689,1,0,0:0:0:0:
348,100,88776,6,0,L|352:173,1,58.1250022172929,2|0,0:0|0:0,0:0:0:0:
281,266,88951,2,0,L|277:207,1,58.1250022172929,0|0,0:0|0:0,0:0:0:0:
190,75,89125,2,0,P|133:52|82:78,1,116.250004434586,2|0,0:0|0:0,0:0:0:0:
63,213,89387,1,0,0:0:0:0:
0,178,89474,6,0,P|35:176|69:191,1,58.1250022172929,2|0,0:0|0:0,0:0:0:0:
134,325,89649,2,0,L|120:258,1,58.1250022172929,0|0,0:0|0:0,0:0:0:0:
187,130,89823,2,0,P|155:145|133:175,1,58.1250022172929,2|0,0:0|0:0,0:0:0:0:
139,352,89997,2,0,L|125:285,1,58.1250022172929,0|0,0:0|0:0,0:0:0:0:
281,266,90172,6,0,P|270:296|269:322,1,58.1250022172929,2|0,0:0|0:0,0:0:0:0:
395,348,90346,2,0,P|406:318|406:291,1,58.1250022172929,2|0,0:0|0:0,0:0:0:0:
299,257,90521,6,0,P|296:288|302:315,1,58.1250022172929,2|0,0:0|0:0,0:0:0:0:
442,298,90695,2,0,P|444:266|438:239,1,58.1250022172929,2|0,0:0|0:0,0:0:0:0:
314,243,90870,6,0,P|320:275|332:298,1,58.1250022172929,2|0,0:0|0:0,0:0:0:0:
484,238,91044,2,0,P|478:206|465:182,1,58.1250022172929,2|0,0:0|0:0,0:0:0:0:
326,226,91218,6,0,P|339:255|357:275,1,58.1250022172929,2|0,0:0|0:0,0:0:0:0:
493,163,91392,2,0,P|479:134|461:114,1,58.1250022172929,2|0,0:0|0:0,0:0:0:0:
257,182,91567,6,0,B|340:134|300:37|300:37|329:92|396:80,1,271.25,4|0,0:0|0:0,0:0:0:0:
478,45,92265,2,0,P|433:42|399:71,1,77.5,8|0,1:0|0:0,0:0:0:0:
435,280,92614,2,0,B|371:254|341:174|404:119|470:148|459:206,1,232.500008869171,8|0,0:0|0:0,0:0:0:0:
365,332,92963,6,0,P|321:292|256:295,1,116.250004434586,2|0,0:0|0:0,0:0:0:0:
8,371,93311,2,0,P|44:324|108:316,1,116.250004434586,8|0,0:0|0:0,0:0:0:0:
283,155,93660,2,0,B|256:209|256:209|262:264,1,116.250004434586,2|0,0:0|0:0,0:0:0:0:
192,371,93922,2,0,L|177:235,1,116.250004434586,8|0,0:0|0:0,0:0:0:0:
55,180,94183,2,0,B|92:227|92:227|100:308,1,116.250004434586,2|0,0:0|0:0,0:0:0:0:
177,235,94358,6,0,L|162:99,1,116.250004434586,2|0,0:0|0:0,0:0:0:0:
278,20,94532,2,0,P|311:64|271:131,1,116.250004434586,0|0,0:0|0:0,0:0:0:0:
114,152,94707,2,0,B|151:149|163:119|163:119|185:143|231:137,1,116.250004434586,8|0,0:0|0:0,0:0:0:0:
388,150,94968,1,0,0:0:0:0:
407,163,95056,6,0,P|354:140|282:185,1,116.250004434586,2|0,0:0|0:0,0:0:0:0:
231,330,95317,2,0,B|220:172|220:172|230:224|278:238,1,232.500008869171,8|0,0:0|0:0,0:0:0:0:
351,223,95579,2,0,P|321:241|271:232,1,58.1250022172929,2|0,0:0|0:0,0:0:0:0:
291,56,95753,6,0,B|294:90|318:103|318:103|298:128|302:177,1,116.250004434586,2|0,0:0|0:0,0:0:0:0:
125,77,96102,2,0,B|130:111|111:130|111:130|138:148|147:196,1,116.250004434586,8|0,0:0|0:0,0:0:0:0:
480,214,96451,6,0,B|470:174|423:151|368:166|353:222|353:222|314:254|259:235,1,232.500008869171,2|0,0:0|0:0,0:0:0:0:
47,224,96713,2,0,P|97:192|166:224,1,116.250004434586,8|0,0:0|0:0,0:0:0:0:
224,376,96974,2,0,B|238:342|238:342|229:259,1,96.875,2|0,0:0|0:0,0:0:0:0:
214,127,97149,2,0,L|226:225,1,58.1250022172929,2|0,0:0|0:0,0:0:0:0:
323,355,97323,2,0,L|305:240,1,96.875
204,50,97497,2,0,L|216:148,1,77.5,8|0,0:0|0:0,0:0:0:0:
312,163,97759,1,0,0:0:0:0:
299,145,97846,6,0,P|260:133|212:162,1,77.5,2|0,0:0|0:0,0:0:0:0:
154,285,98108,2,0,B|177:253|163:206|163:206|136:180|138:129,1,155,8|0,0:0|0:0,0:0:0:0:
186,21,98370,2,0,P|193:55|183:98,1,58.1250022172929,2|0,0:0|0:0,0:0:0:0:
39,55,98544,6,0,L|120:54,1,58.1250022172929,2|0,0:0|0:0,0:0:0:0:
299,145,98893,2,0,L|218:144,1,58.1250022172929,8|0,0:0|0:0,0:0:0:0:
0,272,99242,2,0,B|71:264|71:264|130:287|130:287|204:280,1,193.75,2|0,0:0|0:0,0:0:0:0:
393,219,99503,2,0,L|261:225,1,116.250004434586,8|0,0:0|0:0,0:0:0:0:
107,312,99765,2,0,B|127:319|127:319|203:312,1,96.875,2|0,0:0|0:0,0:0:0:0:
322,143,99939,6,0,P|291:193|302:270,1,116.250004434586,2|0,0:0|0:0,0:0:0:0:
463,297,100288,2,0,P|494:247|483:170,1,116.250004434586,8|0,0:0|0:0,0:0:0:0:
303,132,100637,6,0,B|246:194|276:272|276:272|257:248|226:242,1,193.75,2|0,0:0|0:0,0:0:0:0:
111,359,100899,2,0,P|156:320|237:329,1,116.250004434586,8|0,0:0|0:0,0:0:0:0:
378,352,101160,2,0,P|332:367|284:346,1,96.875,2|0,0:0|0:0,0:0:0:0:
157,226,101335,6,0,B|161:176|161:176|171:165|171:165|175:97,1,116.250004434586,2|0,0:0|0:0,0:0:0:0:
74,3,101683,2,0,L|83:120,1,116.250004434586,8|0,0:0|0:0,0:0:0:0:
17,284,102032,6,0,P|62:210|173:248,1,193.75,2|0,0:0|0:0,0:0:0:0:
251,332,102294,2,0,B|258:308|246:281|246:281|271:246|256:202,1,116.250004434586,8|0,0:0|0:0,0:0:0:0:
210,43,102556,2,0,B|197:80|197:80|204:162,1,96.875,2|0,0:0|0:0,0:0:0:0:
421,177,102730,6,0,P|396:123|327:151,1,116.250004434586,2|0,0:0|0:0,0:0:0:0:
330,129,102992,1,0,0:0:0:0:
311,134,103079,2,0,P|401:105|426:206,1,193.75,8|0,0:0|0:0,0:0:0:0:
383,276,103428,6,0,B|341:290|335:349|335:349|315:310|270:302,1,155,2|0,0:0|0:0,0:0:0:0:
264,300,103689,1,0,0:0:0:0:
232,292,103777,2,0,P|160:248|165:170,1,135.625001293421,8|0,0:0|0:0,0:0:0:0:
294,123,103951,2,0,P|225:97|169:150,1,135.625001293421,0|0,0:0|0:0,0:0:0:0:
415,346,104125,6,0,B|402:315|402:315|408:269,1,77.5,2|0,0:0|0:0,0:0:0:0:
481,131,104300,1,0,0:0:0:0:
494,138,104387,1,0,0:0:0:0:
506,146,104474,6,0,L|497:223,1,77.5,8|0,0:0|0:0,0:0:0:0:
329,341,104649,2,0,L|320:263,1,77.5,0|0,0:0|0:0,0:0:0:0:
393,47,104823,2,0,P|420:122|388:206,1,155,2|0,0:0|0:0,0:0:0:0:
225,218,105085,1,0,0:0:0:0:
309,164,105172,2,0,L|412:175,1,77.5,8|0,0:0|0:0,0:0:0:0:
236,310,105346,2,0,L|133:321,1,77.5,2|0,0:0|0:0,0:0:0:0:
73,213,105521,6,0,P|85:244|80:283,1,58.1250022172929,2|0,0:0|0:0,0:0:0:0:
8,384,105695,2,0,P|8:355|19:328,1,58.1250022172929,0|0,0:0|0:0,0:0:0:0:
109,194,105870,2,0,P|132:245|116:307,1,116.250004434586,8|0,0:0|0:0,0:0:0:0:
0,252,106131,1,0,0:0:0:0:
96,316,106218,2,0,L|218:307,1,116.250004434586,2|0,0:0|0:0,0:0:0:0:
375,248,106480,1,2,0:0:0:0:
359,262,106567,2,0,L|285:268,1,58.1250022172929,8|0,0:0|0:0,0:0:0:0:
147,224,106742,2,0,L|228:217,1,77.5,2|0,0:0|0:0,0:0:0:0:
450,178,106916,6,0,P|374:140|298:185,1,155,2|0,0:0|0:0,0:0:0:0:
286,355,107178,1,0,0:0:0:0:
310,343,107265,2,0,L|295:226,1,77.5,8|0,0:0|0:0,0:0:0:0:
204,112,107439,2,0,P|191:152|196:188,1,77.5
117,337,107614,6,0,L|107:231,1,58.1250022172929,2|0,0:0|0:0,0:0:0:0:
23,213,107788,1,0,0:0:0:0:
35,232,107875,2,0,B|107:248|107:248|251:206,1,193.75,8|0,0:0|0:0,0:0:0:0:
121,45,108137,2,0,P|97:92|101:145,1,96.875,2|0,0:0|0:0,0:0:0:0:
375,248,108311,6,0,P|394:165|336:99,1,155,2|0,0:0|0:0,0:0:0:0:
181,199,108573,1,0,0:0:0:0:
98,135,108660,2,0,P|138:130|176:159,1,77.5,8|0,0:0|0:0,0:0:0:0:
134,316,108835,2,0,P|109:283|115:236,1,77.5,0|0,0:0|0:0,0:0:0:0:
268,55,109009,6,0,B|296:105|296:105|283:222,1,155,2|0,0:0|0:0,0:0:0:0:
328,340,109271,1,8,0:0:0:0:
358,334,109358,2,0,L|350:256,1,77.5,0|0,0:0|0:0,0:0:0:0:
394,103,109532,2,0,L|386:183,1,77.5,2|0,0:0|0:0,0:0:0:0:
500,301,109707,6,0,P|422:229|329:292,1,193.75,2|0,0:0|0:0,0:0:0:0:
292,346,109968,1,0,0:0:0:0:
201,337,110056,2,0,P|242:310|289:321,1,96.875,8|0,0:0|0:0,0:0:0:0:
372,299,110230,2,0,P|326:279|281:298,1,96.875,0|0,0:0|0:0,0:0:0:0:
170,219,110404,2,0,B|190:202|198:176|198:176|206:342,1,193.75,2|0,0:0|0:0,0:0:0:0:
279,192,110666,1,2,0:0:0:0:
292,172,110753,2,0,L|299:288,1,96.875,8|0,0:0|0:0,0:0:0:0:
118,378,110928,2,0,B|109:340|109:340|120:273,1,96.875,2|0,0:0|0:0,0:0:0:0:
348,252,111102,6,0,P|281:299|181:249,1,155,2|0,0:0|0:0,0:0:0:0:
124,154,111364,1,0,0:0:0:0:
143,237,111451,2,0,L|130:335,1,77.5,8|0,0:0|0:0,0:0:0:0:
15,372,111625,2,0,L|4:295,1,77.5,0|0,0:0|0:0,0:0:0:0:
92,53,111800,6,0,B|117:103|117:103|104:240,1,155,2|0,0:0|0:0,0:0:0:0:
0,124,112061,1,2,0:0:0:0:
32,227,112149,2,0,P|76:235|124:203,1,77.5,8|0,0:0|0:0,0:0:0:0:
187,72,112323,2,0,P|158:106|161:163,1,77.5,2|0,0:0|0:0,0:0:0:0:
244,319,112497,6,0,B|269:269|269:269|256:132,1,155,2|0,0:0|0:0,0:0:0:0:
229,134,112759,1,0,0:0:0:0:
271,327,112846,6,0,B|296:277|296:277|283:140,1,155,8|0,0:0|0:0,0:0:0:0:
256,142,113108,1,0,0:0:0:0:
298,335,113195,6,0,B|323:285|323:285|310:148,1,155,2|0,0:0|0:0,0:0:0:0:
283,150,113457,1,2,0:0:0:0:
409,215,113544,2,0,L|488:205,1,77.5,8|0,0:0|0:0,0:0:0:0:
229,188,113718,2,0,L|150:198,1,77.5,2|0,0:0|0:0,0:0:0:0:
296,57,113893,6,0,P|324:103|316:174,1,116.25,4|0,0:0|0:0,0:0:0:0:
270,257,114242,2,0,P|338:196|401:233,1,174.375006651879,4|0,0:0|0:0,0:0:0:0:
509,149,114590,2,0,P|384:81|324:201,1,290.625,4|0,0:0|0:0,0:0:0:0:
151,384,114939,2,0,B|135:346|134:298|150:253|180:227|180:227|167:267|183:301,1,232.5,4|0,0:0|0:0,0:0:0:0:
458,257,115288,6,0,B|482:240|482:240|412:226|412:226|357:269|357:269|234:254,1,232.500008869171,2|0,0:0|0:0,0:0:0:0:
66,174,115550,1,0,0:0:0:0:
195,185,115637,2,0,P|136:267|60:194,1,232.500008869171,8|0,0:0|0:0,0:0:0:0:
273,103,115899,1,0,0:0:0:0:
332,164,115986,6,0,L|327:256,1,77.5,2|0,0:0|0:0,0:0:0:0:
266,371,116160,2,0,L|262:294,1,77.5,0|8,0:0|0:0,0:0:0:0:
414,135,116335,2,0,L|409:213,1,77.5
185,343,116509,2,0,L|180:265,1,77.5,2|0,0:0|0:0,0:0:0:0:
226,0,116683,6,0,B|250:78|250:78|223:178,1,155,2|0,0:0|0:0,0:0:0:0:
6,71,117032,2,0,P|76:38|148:107,1,155,8|0,0:0|0:0,0:0:0:0:
140,188,117294,1,0,0:0:0:0:
67,127,117381,2,0,B|46:185|46:185|66:286,1,155,2|0,0:0|0:0,0:0:0:0:
11,374,117643,1,8,0:0:0:0:
86,294,117730,2,0,P|127:286|183:321,1,77.5
301,351,117904,2,0,P|264:362|227:354,1,77.5,2|0,0:0|0:0,0:0:0:0:
199,201,118079,6,0,B|240:178|252:125|252:125|234:221|278:280,1,232.500008869171,2|0,0:0|0:0,0:0:0:0:
456,244,118340,1,0,0:0:0:0:
349,123,118428,2,0,P|366:244|458:242,1,232.500008869171,8|0,0:0|0:0,0:0:0:0:
493,56,118689,1,0,0:0:0:0:
417,15,118776,6,0,L|303:37,1,77.5,2|0,0:0|0:0,0:0:0:0:
242,49,118951,2,0,L|128:71,1,77.5,0|8,0:0|0:0,0:0:0:0:
349,123,119125,2,0,L|235:145,1,77.5
174,157,119300,2,0,L|60:179,1,77.5,2|0,0:0|0:0,0:0:0:0:
0,5,119474,6,0,B|48:43|48:106|48:106|29:121|22:143,1,155,2|0,0:0|0:0,0:0:0:0:
160,269,119823,2,0,P|173:215|55:218,1,155,8|0,0:0|0:0,0:0:0:0:
10,272,120085,1,0,0:0:0:0:
85,318,120172,2,0,B|142:326|142:326|191:301|191:301|260:307,1,155,2|0,0:0|0:0,0:0:0:0:
389,360,120433,1,8,0:0:0:0:
312,346,120521,2,0,P|306:307|330:263,1,77.5,0|0,0:0|0:0,0:0:0:0:
479,255,120695,2,0,B|449:271|449:271|390:261,1,77.5,2|0,0:0|0:0,0:0:0:0:
323,140,120870,6,0,P|394:83|437:188,1,232.5,2|0,0:0|0:0,0:0:0:0:
247,208,121131,1,0,0:0:0:0:
205,86,121218,2,0,B|241:91|270:59|270:59|212:141|251:217,1,232.500008869171,8|0,0:0|0:0,0:0:0:0:
372,295,121480,1,0,0:0:0:0:
312,346,121567,6,0,B|270:333|270:333|213:347,1,77.5,2|0,0:0|0:0,0:0:0:0:
65,354,121742,2,0,L|159:330,1,77.5,0|8,0:0|0:0,0:0:0:0:
310,314,121916,6,0,B|268:301|268:301|211:315,1,77.5
63,322,122091,2,0,L|157:298,1,77.5,2|0,0:0|0:0,0:0:0:0:
308,282,122265,6,0,B|266:269|266:269|147:301,1,155,2|0,0:0|0:0,0:0:0:0:
0,209,122614,2,0,B|58:235|58:235|165:209,1,155,8|0,0:0|0:0,0:0:0:0:
221,88,122875,1,0,0:0:0:0:
135,84,122963,2,0,P|106:161|171:221,1,155,2|0,0:0|0:0,0:0:0:0:
308,195,123224,1,8,0:0:0:0:
324,176,123311,2,0,L|234:173,1,77.5,0|0,0:0|0:0,0:0:0:0:
380,114,123486,2,0,L|470:111,1,77.5,2|0,0:0|0:0,0:0:0:0:
482,290,123660,6,0,B|441:267|429:214|429:214|447:310|403:369,1,232.500008869171,2|0,0:0|0:0,0:0:0:0:
225,333,123921,1,0,0:0:0:0:
332,212,124009,2,0,P|315:333|223:331,1,232.500008869171,8|0,0:0|0:0,0:0:0:0:
188,145,124270,1,0,0:0:0:0:
124,214,124358,6,0,B|115:252|115:252|132:309,1,77.5,2|0,0:0|0:0,0:0:0:0:
72,383,124532,2,0,L|42:282,1,77.5,0|8,0:0|0:0,0:0:0:0:
63,162,124707,2,0,P|95:139|155:147,1,77.5,0|0,0:0|0:0,0:0:0:0:
182,336,124881,2,0,P|146:319|123:263,1,77.5,2|0,0:0|0:0,0:0:0:0:
203,35,125056,6,0,B|246:96|246:96|227:161|227:161|215:168|215:168|207:284,1,232.5,2|0,0:0|0:0,0:0:0:0:
272,322,125404,2,0,B|301:349|301:349|301:283|301:283|295:273|295:273|301:189,1,174.375006651879,8|0,0:0|0:0,0:0:0:0:
331,140,125753,2,0,B|327:202|327:202|332:213|332:213|328:265,1,116.25,2|0,0:0|0:0,0:0:0:0:
401,336,126102,2,0,B|407:257|407:257|423:233|423:233|427:171|427:171|412:145|412:145|416:40,1,290.625,8|0,0:0|0:0,0:0:0:0:
512,21,126451,6,0,B|477:62|477:62|256:49,1,232.500008869171,2|0,0:0|0:0,0:0:0:0:
164,0,126713,1,0,0:0:0:0:
0,47,126800,2,0,B|106:54|106:54|126:74|126:74|245:81,1,232.500008869171,8|0,0:0|0:0,0:0:0:0:
353,139,127061,1,0,0:0:0:0:
297,268,127149,6,0,P|284:229|301:172,1,77.5,2|0,0:0|0:0,0:0:0:0:
220,158,127323,2,0,P|247:127|305:113,1,58.1250022172929,0|8,0:0|0:0,0:0:0:0:
446,212,127497,2,0,B|413:226|413:226|314:213,1,77.5,0|0,0:0|0:0,0:0:0:0:
244,93,127672,2,0,L|114:110,1,77.5,2|0,0:0|0:0,0:0:0:0:
0,177,127846,6,0,P|84:151|129:269,1,232.500008869171,2|0,0:0|0:0,0:0:0:0:
33,357,128108,1,0,0:0:0:0:
127,295,128195,2,0,B|214:289|214:289|250:321|250:321|348:311,1,232.500008869171,8|0,0:0|0:0,0:0:0:0:
487,140,128544,2,0,B|434:163|434:163|401:202|413:257,1,155,2|0,0:0|0:0,0:0:0:0:
491,348,128806,1,2,0:0:0:0:
421,270,128893,2,0,L|317:280,1,77.5,8|0,0:0|0:0,0:0:0:0:
243,258,129067,2,0,L|320:250,1,77.5,2|0,0:0|0:0,0:0:0:0:
469,203,129242,6,0,B|491:174|491:174|412:181|412:181|389:204|389:204|252:214,1,232.500008869171,2|0,0:0|0:0,0:0:0:0:
159,118,129503,1,0,0:0:0:0:
59,178,129590,2,0,B|145:172|145:172|169:145|169:145|286:137,1,232.500008869171,8|0,0:0|0:0,0:0:0:0:
413,183,129852,1,0,0:0:0:0:
414,38,129939,6,0,P|379:65|370:123,1,77.5,2|0,0:0|0:0,0:0:0:0:
324,235,130114,2,0,L|309:138,1,77.5,0|8,0:0|0:0,0:0:0:0:
180,73,130288,2,0,P|221:88|247:141,1,77.5,0|0,0:0|0:0,0:0:0:0:
327,262,130463,2,0,L|312:165,1,77.5,2|0,0:0|0:0,0:0:0:0:
444,43,130637,6,0,B|480:0|480:0|518:90|518:90|473:184,1,232.500008869171,2|0,0:0|0:0,0:0:0:0:
222,236,130986,2,0,B|177:242|153:182|206:126|297:145|327:226,1,232.500008869171,8|0,0:0|0:0,0:0:0:0:
376,359,131247,1,0,0:0:0:0:
512,256,131335,2,0,P|436:232|371:299,1,155,2|0,0:0|0:0,0:0:0:0:
285,352,131596,1,2,0:0:0:0:
174,330,131683,2,0,B|214:316|214:316|260:321,1,77.5,8|0,0:0|0:0,0:0:0:0:
355,293,131858,2,0,B|315:307|315:307|269:302,1,77.5,2|0,0:0|0:0,0:0:0:0:
237,108,132032,6,0,P|327:110|272:224,1,232.500008869171,2|0,0:0|0:0,0:0:0:0:
125,162,132294,1,0,0:0:0:0:
61,69,132381,2,0,B|101:71|139:27|139:27|88:102|145:210,1,232.500008869171,8|0,0:0|0:0,0:0:0:0:
222,236,132643,1,0,0:0:0:0:
102,284,132730,2,0,L|22:277,1,77.5,2|0,0:0|0:0,0:0:0:0:
178,255,132904,2,0,P|184:301|161:345,1,77.5,0|8,0:0|0:0,0:0:0:0:
284,377,133079,2,0,P|272:340|279:302,1,77.5,0|0,0:0|0:0,0:0:0:0:
432,324,133253,2,0,L|354:330,1,77.5,2|0,0:0|0:0,0:0:0:0:
178,255,133428,6,0,B|236:253|236:253|252:267|252:267|335:261|335:261|353:245|353:245|431:238,1,232.500008869171,2|0,0:0|0:0,0:0:0:0:
288,179,133689,1,0,0:0:0:0:
469,121,133776,2,0,B|497:160|497:160|425:165|425:165|412:157|412:157|301:167,1,232.500008869171,8|0,0:0|0:0,0:0:0:0:
172,125,134038,1,0,0:0:0:0:
270,52,134125,2,0,B|297:87|297:87|155:94,1,155,2|0,0:0|0:0,0:0:0:0:
45,62,134387,1,2,0:0:0:0:
130,4,134474,2,0,P|146:38|135:105,1,77.5,8|0,0:0|0:0,0:0:0:0:
6,142,134649,2,0,P|6:103|22:68,1,77.5,2|0,0:0|0:0,0:0:0:0:
194,198,134823,6,0,P|166:85|98:139,1,232.500008869171,2|0,0:0|0:0,0:0:0:0:
147,291,135085,1,0,0:0:0:0:
69,228,135172,2,0,B|150:202|150:202|214:228|214:228|297:206,1,232.500008869171,8|0,0:0|0:0,0:0:0:0:
442,129,135433,1,0,0:0:0:0:
384,204,135521,2,0,P|380:253|400:302,1,77.5,2|0,0:0|0:0,0:0:0:0:
329,379,135695,2,0,P|317:342|294:311,1,77.5,0|8,0:0|0:0,0:0:0:0:
173,243,135870,2,0,B|218:252|218:252|276:238,1,77.5,0|0,0:0|0:0,0:0:0:0:
409,163,136044,2,0,B|364:154|364:154|306:168,1,77.5,0|0,0:0|0:0,0:0:0:0:
205,140,136218,6,0,P|233:38|339:102,1,232.5,2|0,0:0|0:0,0:0:0:0:
357,189,136567,2,0,B|358:270|358:270|349:285|349:285|351:363,1,174.375006651879,8|0,0:0|0:0,0:0:0:0:
447,315,136916,5,2,0:0:0:0:
267,222,137090,1,8,3:0:0:0:
244,330,137178,1,4,3:0:0:0:
111,264,137352,1,8,3:0:0:0:
134,337,137440,1,4,3:0:0:0:
33,345,137614,5,2,0:0:0:0:
256,192,137701,12,0,141800,0:0:0:0:
329,140,143195,6,0,B|304:157|300:187|300:187|237:121|224:152|176:150|130:92|135:10|217:-18|266:37,1,387.5,2|0,0:0|0:0,0:0:0:0:
219,225,143718,2,0,P|172:223|141:258,1,96.875,0|0,0:0|0:0,0:0:0:0:
24,328,143893,2,0,B|113:294|91:371|196:323,1,155,8|0,0:0|0:0,0:0:0:0:
342,321,144416,2,0,P|317:310|273:311,1,58.1250022172929,0|0,0:0|0:0,0:0:0:0:
404,144,144590,6,0,B|437:188|437:188|419:322,1,155,2|0,0:0|0:0,0:0:0:0:
242,373,144939,1,8,0:0:0:0:
340,216,145113,6,0,P|265:184|203:223,1,155,2|0,0:0|0:0,0:0:0:0:
416,374,145462,1,8,0:0:0:0:
375,130,145637,6,0,B|409:95|468:92|506:124|516:171|516:171|501:139|469:131,1,232.5,2|0,0:0|0:0,0:0:0:0:
446,203,145986,6,0,P|445:242|457:279,1,77.5,4|0,0:0|0:0,0:0:0:0:
331,341,146334,2,0,P|342:304|341:265,1,77.5,0|0,0:0|0:0,0:0:0:0:
204,177,146683,1,8,0:0:0:0:
249,288,146858,1,0,0:0:0:0:
24,224,147032,2,0,B|0:156|56:97|56:97|44:136|57:178,1,193.75,0|0,0:0|0:0,0:0:0:0:
278,201,147381,6,0,B|322:114|250:21|121:72|131:138|131:138|146:109|181:98,1,348.750013303757,6|0,0:0|0:0,0:0:0:0:
360,117,148079,2,0,B|379:168|352:230|352:230|389:158|425:128|470:117|513:140|519:181|492:197|463:183|463:155,1,348.750013303757,12|0,0:0|0:0,0:0:0:0:
132,137,148776,6,0,P|177:115|237:142,1,116.250004434586,2|0,0:0|0:0,0:0:0:0:
222,307,149125,1,0,0:0:0:0:
174,245,149300,1,0,0:0:0:0:
256,294,149474,2,0,B|279:291|311:306|311:306|278:286|263:247,1,116.250004434586,8|0,0:0|0:0,0:0:0:0:
458,195,149823,5,0,0:0:0:0:
411,108,149997,1,0,0:0:0:0:
447,221,150172,2,0,P|419:250|346:198,1,116.250004434586,2|0,0:0|0:0,0:0:0:0:
416,83,150520,1,8,0:0:0:0:
347,325,150695,6,0,P|281:272|308:150,1,193.75,2|0,0:0|0:0,0:0:0:0:
437,93,151044,1,8,0:0:0:0:
186,212,151218,6,0,B|185:69|304:10|406:83|391:167|348:200|298:198|279:156,1,387.5,2|0,0:0|0:0,0:0:0:0:
156,6,151741,5,0,0:0:0:0:
130,92,151916,1,0,0:0:0:0:
73,19,152090,1,0,0:0:0:0:
99,105,152265,2,0,P|107:147|92:196,1,77.5,4|0,0:0|0:0,0:0:0:0:
88,195,152526,1,0,0:0:0:0:
73,206,152613,1,0,0:0:0:0:
9,84,152788,1,0,0:0:0:0:
67,225,152962,6,0,P|108:157|184:195,1,174.375006651879,2|0,0:0|0:0,0:0:0:0:
200,204,153311,2,0,P|107:141|101:282,1,290.625,12|0,0:0|0:0,0:0:0:0:
91,284,153660,2,0,B|156:283|165:368|165:368|198:305|274:320,1,232.5,2|0,0:0|0:0,0:0:0:0:
281,313,154009,2,0,P|372:176|193:202,1,406.875003880262,12|0,0:0|0:0,0:0:0:0:
78,359,154358,6,0,B|108:301|76:242,1,116.250004434586,6|0,0:0|0:0,0:0:0:0:
0,152,154619,1,0,0:0:0:0:
14,164,154706,2,0,B|46:171|46:171|108:152,1,77.5,8|0,0:0|0:0,0:0:0:0:
172,74,154968,1,0,0:0:0:0:
172,74,155055,6,0,L|174:132,1,58.1250022172929,2|0,0:0|0:0,0:0:0:0:
223,253,155230,2,0,P|232:220|223:178,1,58.1250022172929,0|0,0:0|0:0,0:0:0:0:
292,89,155404,2,0,B|286:122|286:122|289:147,1,58.1250022172929,8|0,0:0|0:0,0:0:0:0:
326,225,155579,2,0,L|323:148,1,58.1250022172929,0|0,0:0|0:0,0:0:0:0:
443,102,155753,6,0,P|411:96|371:118,1,58.1250022172929,2|0,0:0|0:0,0:0:0:0:
363,215,155927,2,0,L|366:292,1,58.1250022172929,0|0,0:0|0:0,0:0:0:0:
474,369,156102,2,0,B|494:328|494:328|479:237,1,116.250004434586,8|0,0:0|0:0,0:0:0:0:
365,302,156363,1,0,0:0:0:0:
356,317,156451,6,0,P|322:325|283:311,1,58.1250022172929,2|0,0:0|0:0,0:0:0:0:
249,382,156625,2,0,P|225:356|217:315,1,58.1250022172929,0|0,0:0|0:0,0:0:0:0:
354,193,156800,2,0,P|343:226|312:253,1,58.1250022172929,8|0,0:0|0:0,0:0:0:0:
356,317,156974,2,0,P|322:325|283:311,1,58.1250022172929,0|0,0:0|0:0,0:0:0:0:
154,189,157148,6,0,P|188:139|279:197,1,174.375006651879,2|0,0:0|0:0,0:0:0:0:
301,262,157497,2,0,L|299:331,1,58.1250022172929,8|0,0:0|0:0,0:0:0:0:
371,209,157672,2,0,L|369:150,1,58.1250022172929,0|0,0:0|0:0,0:0:0:0:
313,17,157846,2,0,L|311:86,1,58.1250022172929,2|0,0:0|0:0,0:0:0:0:
440,106,158021,2,0,L|441:164,1,58.1250022172929
268,198,158195,2,0,L|266:267,1,58.1250022172929,8|0,0:0|0:0,0:0:0:0:
485,287,158370,2,0,L|487:356,1,58.1250022172929,0|0,0:0|0:0,0:0:0:0:
412,188,158544,6,0,P|326:142|262:197,1,174.375006651879,2|0,0:0|0:0,0:0:0:0:
291,190,158893,6,0,P|342:163|390:195,1,116.25,8|0,0:0|0:0,0:0:0:0:
402,312,159241,2,0,L|402:258,1,38.75,4|0,0:0|0:0,0:0:0:0:
500,188,159590,2,0,L|500:149,1,38.75,4|0,0:0|0:0,0:0:0:0:
417,21,159852,1,0,0:0:0:0:
387,13,159939,6,0,B|356:81|356:81|386:189,1,155,2|0,0:0|0:0,0:0:0:0:
402,312,160201,1,8,0:0:0:0:
402,312,160288,2,0,B|414:279|414:279|392:218,1,77.5
333,58,160463,2,0,B|326:99|326:99|338:132,1,77.5,2|0,0:0|0:0,0:0:0:0:
500,188,160637,6,0,P|442:135|364:178,1,155,2|0,0:0|0:0,0:0:0:0:
283,317,160898,1,8,0:0:0:0:
283,317,160986,2,0,B|295:284|295:284|285:224,1,77.5,0|0,0:0|0:0,0:0:0:0:
294,71,161160,2,0,B|287:112|287:112|299:145,1,77.5,2|0,0:0|0:0,0:0:0:0:
399,239,161334,6,0,B|323:259|323:259|221:227,1,155,2|0,0:0|0:0,0:0:0:0:
82,164,161596,1,8,0:0:0:0:
82,164,161683,2,0,P|128:150|175:170,1,77.5,0|0,0:0|0:0,0:0:0:0:
210,265,161858,2,0,L|208:342,1,77.5,2|0,0:0|0:0,0:0:0:0:
113,383,162032,6,0,B|115:314|115:314|125:301|125:301|126:195,1,155,2|0,0:0|0:0,0:0:0:0:
133,51,162294,1,8,0:0:0:0:
7,115,162381,2,0,P|53:129|100:109,1,77.5
145,33,162556,2,0,P|191:19|238:39,1,77.5,2|0,0:0|0:0,0:0:0:0:
326,158,162730,6,0,P|328:129|321:101,1,58.1250022172929,2|0,0:0|0:0,0:0:0:0:
184,159,162904,2,0,P|181:130|188:102,1,58.1250022172929,2|0,0:0|0:0,0:0:0:0:
354,175,163079,6,0,P|354:146|344:118,1,58.1250022172929,2|0,0:0|0:0,0:0:0:0:
156,176,163253,2,0,P|155:147|165:119,1,58.1250022172929,2|0,0:0|0:0,0:0:0:0:
383,189,163428,6,0,P|380:160|368:134,1,58.1250022172929,2|0,0:0|0:0,0:0:0:0:
127,190,163602,2,0,P|129:161|141:135,1,58.1250022172929,2|0,0:0|0:0,0:0:0:0:
413,200,163776,6,0,P|408:171|393:146,1,58.1250022172929,2|0,0:0|0:0,0:0:0:0:
97,201,163950,2,0,P|101:172|116:147,1,58.1250022172929,2|0,0:0|0:0,0:0:0:0:
259,302,164125,6,0,L|261:367,1,58.125,4|0,0:0|0:0,0:0:0:0:
308,236,164474,2,0,P|255:217|194:253,1,116.250004434586,8|0,1:0|0:0,0:0:0:0:
149,364,164823,1,0,0:0:0:0:
50,289,164997,2,0,L|45:244,1,38.75,2|0,0:0|0:0,0:0:0:0:
111,44,165172,2,0,B|138:82|138:82|122:226,1,155,8|0,0:0|0:0,0:0:0:0:
45,307,165520,6,0,B|82:286|82:286|142:291,1,77.5,2|0,1:0|0:0,0:0:0:0:
287,270,165869,2,0,B|203:264,1,77.5,4|0,0:0|0:0,0:0:0:0:
69,168,166044,1,0,0:0:0:0:
147,203,166131,1,0,0:0:0:0:
186,95,166218,6,0,B|139:65|139:65|149:249,1,193.75,2|0,0:0|0:0,0:0:0:0:
119,366,166480,2,0,B|116:262,1,77.5,8|0,0:0|0:0,0:0:0:0:
0,197,166741,6,0,B|95:158|57:227|178:196,1,155,2|0,0:0|0:0,0:0:0:0:
215,43,167090,5,2,0:0:0:0:
189,130,167177,1,0,0:0:0:0:
258,198,167265,2,0,B|280:170|280:170|270:90,1,96.875,8|0,0:0|0:0,0:0:0:0:
364,0,167439,2,0,P|351:48|371:113,1,96.875
512,178,167613,6,0,B|472:153|472:153|402:157,1,96.875,2|0,0:0|0:0,0:0:0:0:
234,231,167788,2,0,L|361:223,1,96.875,0|0,0:0|0:0,0:0:0:0:
462,310,167962,2,0,P|464:266|440:232,1,77.5,8|0,0:0|0:0,0:0:0:0:
264,256,168137,2,0,B|359:251,1,77.5,0|0,0:0|0:0,0:0:0:0:
422,155,168311,6,0,B|343:161|343:161|302:145|302:145|266:165|266:165|188:170,1,232.5,2|0,0:0|0:0,0:0:0:0:
25,148,168660,1,8,0:0:0:0:
24,179,168747,1,0,0:0:0:0:
23,208,168834,2,0,L|13:323,1,96.875,0|0,0:0|0:0,0:0:0:0:
120,265,169009,6,0,B|147:236|192:219|236:232|259:256|259:256|233:244|204:256,1,193.75,2|0,0:0|0:0,0:0:0:0:
231,339,169270,1,2,0:0:0:0:
326,298,169358,2,0,P|339:258|319:204,1,96.875,8|0,0:0|0:0,0:0:0:0:
399,351,169532,2,0,P|431:322|449:267,1,96.875,2|0,0:0|0:0,0:0:0:0:
259,65,169706,6,0,L|170:69,1,77.5,2|0,0:0|0:0,0:0:0:0:
97,92,169881,2,0,P|93:53|108:18,1,77.5,0|0,0:0|0:0,0:0:0:0:
258,143,170055,6,0,L|347:147,1,77.5,8|0,0:0|0:0,0:0:0:0:
419,170,170230,2,0,P|423:131|408:96,1,77.5,0|0,0:0|0:0,0:0:0:0:
256,230,170404,6,0,L|167:234,1,77.5,2|0,0:0|0:0,0:0:0:0:
94,257,170579,2,0,P|90:218|105:183,1,77.5,0|0,0:0|0:0,0:0:0:0:
315,307,170753,6,0,B|330:317|333:335|333:335|371:295|379:314|407:312|435:278|428:226|381:212|352:239,1,232.5,8|0,0:0|0:0,0:0:0:0:
228,337,171102,6,0,P|224:299|236:262,1,77.5,2|0,0:0|0:0,0:0:0:0:
143,324,171276,2,0,B|119:340|119:340|60:332,1,77.5
82,182,171451,6,0,P|95:217|93:256,1,77.5,8|0,0:0|0:0,0:0:0:0:
186,197,171625,2,0,B|210:181|210:181|269:189,1,77.5
432,172,171800,6,0,B|333:160,1,77.5,2|0,0:0|0:0,0:0:0:0:
277,105,171974,1,0,0:0:0:0:
277,105,172061,1,8,0:0:0:0:
364,0,172148,2,0,P|372:42|349:83,1,77.5
277,105,172323,6,0,B|213:97|213:97|189:76|189:76|159:90|159:90|80:81,1,193.75,2|0,0:0|0:0,0:0:0:0:
274,15,172672,1,2,0:0:0:0:
277,105,172759,1,0,0:0:0:0:
278,194,172846,2,0,B|182:180,1,96.875,8|0,0:0|0:0,0:0:0:0:
9,101,173020,2,0,L|116:115,1,96.875
194,205,173195,6,0,P|204:251|187:296,1,96.875,2|0,0:0|0:0,0:0:0:0:
24,235,173369,2,0,P|70:223|114:240,1,96.875
58,384,173544,2,0,B|51:347|51:347|70:291,1,77.5,8|0,0:0|0:0,0:0:0:0:
109,165,173718,2,0,B|121:202|121:202|114:239,1,77.5
163,319,173893,6,0,B|215:285|263:308|245:320|303:346|341:312|341:312|314:320|291:311,1,232.5,2|0,0:0|0:0,0:0:0:0:
420,262,174241,1,8,0:0:0:0:
429,283,174329,1,0,0:0:0:0:
432,307,174416,2,0,P|427:347|392:384,1,77.5,0|0,0:0|0:0,0:0:0:0:
317,213,174590,6,0,B|302:180|300:143|313:109|347:83|347:83|336:110|343:138,1,193.75,2|0,0:0|0:0,0:0:0:0:
462,195,174852,1,2,0:0:0:0:
512,126,174939,2,0,P|466:108|406:129,1,96.875,8|0,0:0|0:0,0:0:0:0:
289,289,175113,2,0,P|319:294|347:286,1,58.1250022172929,2|0,0:0|0:0,0:0:0:0:
224,224,175288,6,0,P|197:278|212:339,1,116.25,2|0,0:0|0:0,0:0:0:0:
289,289,175637,2,0,P|205:179|105:273,1,310,8|0,0:0|0:0,0:0:0:0:
0,318,175986,2,0,P|25:249|111:283,1,174.375006651879,2|0,0:0|0:0,0:0:0:0:
168,340,176335,6,0,B|193:357|197:387|197:387|260:321|273:352|319:351|365:284|350:192|261:177|219:229,1,387.5,4|0,0:0|0:0,0:0:0:0:
137,257,177381,6,0,P|132:205|167:152,1,96.875,2|0,0:0|0:0,0:0:0:0:
282,131,177555,1,0,0:0:0:0:
277,151,177643,1,8,0:0:0:0:
273,168,177730,2,0,L|157:159,1,96.875
12,106,177904,6,0,B|106:112|106:112|115:120|115:120|204:127,1,193.75,2|0,0:0|0:0,0:0:0:0:
466,35,178253,1,2,0:0:0:0:
364,72,178340,1,0,0:0:0:0:
357,179,178427,2,0,L|366:287,1,96.875,8|0,0:0|0:0,0:0:0:0:
437,368,178602,2,0,B|452:328|452:328|446:271,1,96.875
176,203,178776,6,0,P|219:233|278:222,1,96.875,2|0,0:0|0:0,0:0:0:0:
340,209,178951,2,0,P|293:231|273:287,1,96.875,0|0,0:0|0:0,0:0:0:0:
265,353,179125,2,0,L|264:264,1,77.5,8|0,0:0|0:0,0:0:0:0:
260,72,179300,2,0,B|261:149,1,77.5,0|0,0:0|0:0,0:0:0:0:
126,267,179474,6,0,P|93:196|158:123,1,155,2|0,0:0|0:0,0:0:0:0:
259,39,179823,1,8,0:0:0:0:
245,51,179910,1,0,0:0:0:0:
227,60,179997,1,0,0:0:0:0:
209,65,180084,1,0,0:0:0:0:
189,66,180172,2,0,B|146:66|114:24|114:24|134:61|116:117,1,155,2|0,0:0|0:0,0:0:0:0:
31,70,180433,1,2,0:0:0:0:
70,149,180520,2,0,B|85:187|85:187|71:245,1,77.5,8|0,0:0|0:0,0:0:0:0:
28,365,180695,2,0,B|20:329|20:329|35:291,1,77.5,0|0,0:0|0:0,0:0:0:0:
256,302,180869,6,0,P|182:331|113:281,1,155,2|0,0:0|0:0,0:0:0:0:
162,165,181131,1,0,0:0:0:0:
186,171,181218,2,0,B|201:209|201:209|187:267,1,77.5,8|0,0:0|0:0,0:0:0:0:
279,364,181393,2,0,P|267:324|286:266,1,77.5,0|0,0:0|0:0,0:0:0:0:
355,206,181567,6,0,L|446:218,1,77.5,4|0,0:0|0:0,0:0:0:0:
512,167,181916,2,0,P|475:185|421:179,1,77.5,4|0,0:0|0:0,0:0:0:0:
381,131,182177,1,0,0:0:0:0:
371,119,182265,6,0,B|363:83|363:83|378:19,1,77.5,2|0,0:0|0:0,0:0:0:0:
511,9,182439,2,0,B|520:48|520:48|512:84,1,77.5,0|0,0:0|0:0,0:0:0:0:
279,190,182613,6,0,B|287:154|287:154|272:90,1,77.5,8|0,0:0|0:0,0:0:0:0:
139,80,182787,2,0,B|130:119|130:119|138:155,1,77.5,0|0,0:0|0:0,0:0:0:0:
354,281,182962,6,0,B|346:245|346:245|361:181,1,77.5,2|0,0:0|0:0,0:0:0:0:
498,267,183137,1,0,0:0:0:0:
496,290,183224,1,8,0:0:0:0:
495,313,183311,2,0,P|462:337|414:334,1,77.5,0|0,0:0|0:0,0:0:0:0:
332,262,183486,2,0,P|272:221|214:271,1,155,2|0,0:0|0:0,0:0:0:0:
162,378,183834,5,2,0:0:0:0:
159,360,183922,1,0,0:0:0:0:
157,342,184009,2,0,B|119:330|119:330|71:347,1,77.5,8|0,0:0|0:0,0:0:0:0:
0,365,184183,2,0,B|38:377|38:377|86:360,1,77.5
40,211,184358,6,0,P|26:259|43:306,1,77.5,2|0,0:0|0:0,0:0:0:0:
186,302,184532,2,0,P|200:254|183:207,1,77.5
208,132,184707,6,0,P|203:170|216:206,1,77.5,8|0,0:0|0:0,0:0:0:0:
370,187,184881,2,0,P|374:148|361:112,1,77.5
268,52,185055,6,0,P|345:95|416:50,1,174.375006651879,6|0,0:0|0:0,0:0:0:0:
512,1,185404,1,0,0:0:0:0:
502,15,185491,1,0,0:0:0:0:
496,31,185579,2,0,P|488:67|500:111,1,58.1250022172929
463,219,185753,6,0,B|434:235|428:275|428:275|425:192|379:151,1,193.75,12|0,0:0|0:0,0:0:0:0:
512,286,186015,1,0,0:0:0:0:
417,357,186102,2,0,P|370:346|318:379,1,96.875
135,332,186276,2,0,B|182:343|182:343|245:323,1,96.875
256,192,186451,5,6,0:0:0:0:
256,192,186538,12,2,187846,0:0:0:0:
410,52,199009,6,0,P|372:101|391:176,1,116.25,0|0,0:0|0:0,0:0:0:0:
455,242,199358,2,0,B|416:231|416:231|371:242,1,77.5,0|0,0:0|0:0,0:0:0:0:
339,332,199707,1,8,0:0:0:0:
256,194,199881,1,0,0:0:0:0:
192,330,200056,1,0,0:0:0:0:
182,243,200230,1,0,0:0:0:0:
45,280,200404,6,0,B|65:237|107:237|107:237|205:244,1,155,0|0,0:0|0:0,0:0:0:0:
268,282,200928,1,0,0:0:0:0:
274,123,201102,2,0,P|253:161|259:204,1,77.5,8|0,0:0|0:0,0:0:0:0:
411,233,201451,2,0,P|432:195|426:152,1,77.5,0|0,0:0|0:0,0:0:0:0:
195,77,201800,6,0,B|162:149|162:149|176:235,1,155,0|0,0:0|0:0,0:0:0:0:
115,310,202323,1,0,0:0:0:0:
9,194,202497,2,0,P|48:190|82:208,1,77.5,8|0,0:0|0:0,0:0:0:0:
29,348,202846,2,0,B|21:306|21:306|35:254,1,77.5,0|0,0:0|0:0,0:0:0:0:
224,357,203195,6,0,P|235:282|191:217,1,155,0|0,0:0|0:0,0:0:0:0:
30,272,203718,1,0,0:0:0:0:
106,95,203893,2,0,L|206:103,1,77.5,8|0,0:0|0:0,0:0:0:0:
278,186,204242,2,0,L|378:178,1,77.5,0|0,0:0|0:0,0:0:0:0:
464,3,204590,6,0,B|405:42|412:106|412:106|427:144,1,155,0|0,0:0|0:0,0:0:0:0:
512,262,205114,1,0,0:0:0:0:
409,368,205288,2,0,P|402:324|420:283,1,77.5,8|0,0:0|0:0,0:0:0:0:
323,279,205637,2,0,P|338:237|375:210,1,77.5,0|0,0:0|0:0,0:0:0:0:
497,89,205986,6,0,B|441:112|441:112|322:88,1,155,0|0,0:0|0:0,0:0:0:0:
200,7,206509,1,0,0:0:0:0:
262,92,206683,2,0,P|270:133|253:175,1,77.5,8|0,0:0|0:0,0:0:0:0:
83,150,207032,2,0,P|75:109|92:67,1,77.5,0|0,0:0|0:0,0:0:0:0:
162,224,207381,6,0,B|87:249|87:249|-11:228,1,155,0|0,0:0|0:0,0:0:0:0:
175,120,207904,1,0,0:0:0:0:
267,186,208079,2,0,P|276:227|267:270,1,77.5,8|0,0:0|0:0,0:0:0:0:
123,326,208428,2,0,B|162:310|162:310|218:317,1,77.5,0|0,0:0|0:0,0:0:0:0:
313,363,208776,5,0,0:0:0:0:
354,263,208951,1,0,0:0:0:0:
390,352,209125,5,0,0:0:0:0:
378,266,209300,1,0,0:0:0:0:
440,321,209474,5,8,0:0:0:0:
396,258,209649,1,0,0:0:0:0:
464,297,209823,5,0,0:0:0:0:
407,242,209997,1,0,0:0:0:0:
473,277,210172,5,2,0:0:0:0:
256,192,210259,12,0,212963,0:0:0:0:
