osu file format v14

[General]
AudioFilename: audio.ogg
AudioLeadIn: 0
PreviewTime:164069
Countdown: 0
SampleSet: Soft
StackLeniency: 0.7
Mode: 0
LetterboxInBreaks: 0
WidescreenStoryboard: 1
EpilepsyWarning: 1

[Editor]
Bookmarks: 863,70631,81794,124352,137608,143189,163945,187840
DistanceSpacing: 0.5
BeatDivisor: 4
GridSize: 32
TimelineZoom: 4.3

[Metadata]
Title:Still in my heart feat. Punipuni Denki
TitleUnicode:Still in my heart feat. ぷにぷに電機
Artist:PSYQUI
ArtistUnicode:PSYQUI
Creator:Kyuuchie
Version:Shiwakaze was "Normal" before he met you.
Source:
Tags:japanese electronic hardcore future core bass j-core jcore megarex fugene3 FÜGENE 03 fugene puniden shiwakaze wen koldnoodl cjstmdals pile ayamemymommy jiysea moecho amateurre liyuu rielle onegai lecandy midorijeon lowgraphics
BeatmapID:3527782
BeatmapSetID:1698303

[Difficulty]
HPDrainRate:3.2
CircleSize:3
OverallDifficulty:4
ApproachRate:5
SliderMultiplier:1.05
SliderTickRate:1

[Events]
//Background and Video events
0,0,"aolid_bg.jpg",0,0
//Break Periods
2,70831,80594
2,137808,140594
//Storyboard Layer 0 (Background)
//Storyboard Layer 1 (Fail)
//Storyboard Layer 2 (Pass)
//Storyboard Layer 3 (Foreground)
Sprite,Foreground,Centre,"sb\credits\shiwakaze.png",320,240 F,0,73085,73434,0,1 S,0,74829,,0.4 F,0,75527,75876,1,0
//Storyboard Layer 4 (Overlay)
//Storyboard Sound Samples

[TimingPoints]
864,348.837209302326,4,2,1,60,1,0
2259,-111.111111111111,4,2,1,60,0,0
11329,-111.111111111111,4,2,2,60,0,0
12026,-111.111111111111,4,2,2,65,0,0
13422,-100,4,2,2,70,0,0
18305,-100,4,2,3,70,0,0
18654,-100,4,2,3,70,0,0
18829,-100,4,2,2,70,0,0
23538,-100,4,2,2,65,0,0
24236,-100,4,2,1,65,0,0
24584,-100,4,2,1,65,0,0
25108,-100,4,2,2,65,0,0
25282,-90.9090909090909,4,2,4,80,0,0
35398,-90.9090909090909,4,2,1,80,0,0
36096,-90.9090909090909,4,2,4,80,0,0
40805,-90.9090909090909,4,2,1,80,0,0
41154,-90.9090909090909,4,2,2,80,0,0
41329,-90.9090909090909,4,2,4,80,0,0
47084,-90.9090909090909,4,2,3,65,0,0
47259,-90.9090909090909,4,2,3,65,0,0
48305,-111.111111111111,4,2,3,65,0,0
48393,-111.111111111111,4,2,2,65,0,0
59468,-100,4,2,2,70,0,0
59730,-100,4,2,2,70,0,0
59816,-100,4,2,1,70,0,0
59991,-100,4,2,2,70,0,0
60515,-100,4,2,1,70,0,0
60689,-100,4,2,2,70,0,0
61212,-100,4,2,1,70,0,0
61387,-100,4,2,2,70,0,0
61910,-100,4,2,1,70,0,0
62084,-100,4,2,2,70,0,0
62608,-100,4,2,1,70,0,0
62782,-100,4,2,2,70,0,0
63305,-100,4,2,1,70,0,0
63480,-100,4,2,2,70,0,0
64002,-100,4,2,1,70,0,0
64177,-100,4,2,2,70,0,0
64701,-100,4,2,1,70,0,0
64875,-100,4,2,2,70,0,0
65398,-100,4,2,1,70,0,0
65573,-100,4,2,2,70,0,0
66096,-100,4,2,1,70,0,0
66270,-100,4,2,2,70,0,0
66793,-100,4,2,1,70,0,0
66968,-100,4,2,2,70,0,0
67491,-100,4,2,1,70,0,0
67666,-100,4,2,2,70,0,0
68189,-100,4,2,1,70,0,0
68364,-100,4,2,2,70,0,0
68887,-100,4,2,1,70,0,0
69061,-100,4,2,2,70,0,0
69584,-100,4,2,1,70,0,0
69759,-100,4,2,2,70,0,0
70282,-100,4,2,1,70,0,0
70631,-100,4,2,1,55,0,0
81794,-100,4,2,5,65,0,0
82055,-100,4,2,2,65,0,0
82143,-100,4,2,5,65,0,0
82317,-100,4,2,2,65,0,0
82491,-100,4,2,5,65,0,0
82579,-100,4,2,2,65,0,0
82840,-100,4,2,5,65,0,0
83015,-100,4,2,2,65,0,0
83189,-100,4,2,5,65,0,0
83276,-100,4,2,2,65,0,0
83538,-100,4,2,5,65,0,0
83712,-100,4,2,2,65,0,0
83887,-100,4,2,5,65,0,0
83974,-100,4,2,2,65,0,0
84236,-100,4,2,5,65,0,0
84323,-100,4,2,2,65,0,0
84584,-100,4,2,5,65,0,0
84845,-100,4,2,2,65,0,0
84933,-100,4,2,5,65,0,0
85107,-100,4,2,2,65,0,0
85282,-100,4,2,5,65,0,0
85369,-100,4,2,2,65,0,0
85631,-100,4,2,5,65,0,0
85805,-100,4,2,2,65,0,0
85980,-100,4,2,5,65,0,0
86066,-100,4,2,2,65,0,0
86329,-100,4,2,5,65,0,0
86502,-100,4,2,2,65,0,0
86677,-100,4,2,5,65,0,0
86764,-100,4,2,2,65,0,0
87026,-100,4,2,5,65,0,0
87113,-100,4,2,2,65,0,0
87375,-100,4,2,5,65,0,0
87636,-100,4,2,2,65,0,0
87724,-100,4,2,5,65,0,0
87898,-100,4,2,2,65,0,0
88073,-100,4,2,5,65,0,0
88160,-100,4,2,2,65,0,0
88422,-100,4,2,5,65,0,0
88509,-100,4,2,2,65,0,0
88770,-100,4,2,5,65,0,0
88858,-100,4,2,2,65,0,0
89119,-100,4,2,5,65,0,0
89207,-100,4,2,2,65,0,0
89468,-100,4,2,5,65,0,0
89556,-100,4,2,2,65,0,0
89817,-100,4,2,5,65,0,0
89905,-100,4,2,2,65,0,0
90166,-100,4,2,5,65,0,0
90254,-100,4,2,2,65,0,0
90515,-100,4,2,5,65,0,0
90603,-100,4,2,2,65,0,0
90864,-100,4,2,5,65,0,0
90952,-100,4,2,2,65,0,0
91212,-100,4,2,5,65,0,0
91300,-100,4,2,2,65,0,0
91910,-100,4,2,2,65,0,0
92608,-90.9090909090909,4,2,2,75,0,0
92957,-90.9090909090909,4,2,4,75,0,0
94875,-90.9090909090909,4,2,1,75,0,0
95050,-90.9090909090909,4,2,4,75,0,0
95573,-90.9090909090909,4,2,1,75,0,0
95747,-90.9090909090909,4,2,4,75,0,0
98101,-90.9090909090909,4,2,1,75,0,0
98189,-90.9090909090909,4,2,4,75,0,0
98363,-90.9090909090909,4,2,1,75,0,0
98538,-90.9090909090909,4,2,4,75,0,0
100457,-90.9090909090909,4,2,1,75,0,0
100631,-90.9090909090909,4,2,4,75,0,0
102724,-90.9090909090909,4,2,2,75,0,0
104119,-90.9090909090909,4,2,6,80,0,0
113887,-90.9090909090909,4,2,2,80,0,0
114236,-90.9090909090909,4,2,1,80,0,0
114584,-90.9090909090909,4,2,7,80,0,0
114933,-90.9090909090909,4,2,8,80,0,0
115282,-90.9090909090909,4,2,9,80,0,0
115630,-90.9090909090909,4,2,10,80,0,0
115980,-90.9090909090909,4,2,9,80,0,0
116154,-90.9090909090909,4,2,10,80,0,0
116241,-90.9090909090909,4,2,1,80,0,0
116329,-90.9090909090909,4,2,11,80,0,0
116503,-90.9090909090909,4,2,7,80,0,0
116677,-90.9090909090909,4,2,12,80,0,0
116851,-90.9090909090909,4,2,10,80,0,0
117026,-90.9090909090909,4,2,13,80,0,0
117375,-90.9090909090909,4,2,12,80,0,0
117637,-90.9090909090909,4,2,4,80,0,0
117724,-90.9090909090909,4,2,14,80,0,0
117898,-90.9090909090909,4,2,8,80,0,0
118073,-90.9090909090909,4,2,9,80,0,0
118421,-90.9090909090909,4,2,10,80,0,0
118770,-90.9090909090909,4,2,9,80,0,0
118944,-90.9090909090909,4,2,10,80,0,0
119032,-90.9090909090909,4,2,1,80,0,0
119119,-90.9090909090909,4,2,11,80,0,0
119293,-90.9090909090909,4,2,7,80,0,0
119468,-90.9090909090909,4,2,12,80,0,0
119642,-90.9090909090909,4,2,10,80,0,0
119816,-90.9090909090909,4,2,15,80,0,0
120166,-90.9090909090909,4,2,9,80,0,0
120427,-90.9090909090909,4,2,4,80,0,0
120515,-90.9090909090909,4,2,14,80,0,0
120689,-90.9090909090909,4,2,8,80,0,0
120864,-90.9090909090909,4,2,9,80,0,0
121212,-90.9090909090909,4,2,10,80,0,0
121561,-90.9090909090909,4,2,9,80,0,0
121735,-90.9090909090909,4,2,10,80,0,0
121823,-90.9090909090909,4,2,12,80,0,0
121910,-90.9090909090909,4,2,12,80,0,0
122084,-90.9090909090909,4,2,7,80,0,0
122259,-90.9090909090909,4,2,12,80,0,0
122433,-90.9090909090909,4,2,10,80,0,0
122608,-90.9090909090909,4,2,13,80,0,0
122957,-90.9090909090909,4,2,12,80,0,0
123218,-90.9090909090909,4,2,4,80,0,0
123305,-90.9090909090909,4,2,14,80,0,0
123479,-90.9090909090909,4,2,8,80,0,0
123654,-90.9090909090909,4,2,9,80,0,0
124002,-90.9090909090909,4,2,10,80,0,0
124352,-90.9090909090909,4,2,9,80,0,0
124526,-90.9090909090909,4,2,10,80,0,0
124614,-90.9090909090909,4,2,1,80,0,0
124701,-90.9090909090909,4,2,11,80,0,0
124875,-90.9090909090909,4,2,7,80,0,0
125050,-90.9090909090909,4,2,12,80,0,0
125224,-90.9090909090909,4,2,10,80,0,0
125398,-90.9090909090909,4,2,15,80,0,0
125747,-90.9090909090909,4,2,9,80,0,0
126096,-90.9090909090909,4,2,7,80,0,0
126270,-90.9090909090909,4,2,8,80,0,0
126445,-90.9090909090909,4,2,16,80,0,0
126793,-90.9090909090909,4,2,17,80,0,0
127143,-90.9090909090909,4,2,16,80,0,0
127317,-90.9090909090909,4,2,17,80,0,0
127491,-90.9090909090909,4,2,18,80,0,0
127665,-90.9090909090909,4,2,19,80,0,0
127840,-90.9090909090909,4,2,20,80,0,0
128014,-90.9090909090909,4,2,17,80,0,0
128189,-90.9090909090909,4,2,21,80,0,0
128538,-90.9090909090909,4,2,20,80,0,0
128800,-90.9090909090909,4,2,4,80,0,0
128887,-90.9090909090909,4,2,19,80,0,0
129061,-90.9090909090909,4,2,22,80,0,0
129236,-90.9090909090909,4,2,16,80,0,0
129584,-90.9090909090909,4,2,17,80,0,0
129933,-90.9090909090909,4,2,16,80,0,0
130107,-90.9090909090909,4,2,17,80,0,0
130282,-90.9090909090909,4,2,18,80,0,0
130456,-90.9090909090909,4,2,19,80,0,0
130631,-90.9090909090909,4,2,22,80,0,0
130805,-90.9090909090909,4,2,19,80,0,0
130979,-90.9090909090909,4,2,20,80,0,0
131329,-90.9090909090909,4,2,17,80,0,0
131590,-90.9090909090909,4,2,4,80,0,0
131677,-90.9090909090909,4,2,23,80,0,0
131851,-90.9090909090909,4,2,24,80,0,0
132026,-90.9090909090909,4,2,16,80,0,0
132374,-90.9090909090909,4,2,17,80,0,0
132724,-90.9090909090909,4,2,16,80,0,0
132898,-90.9090909090909,4,2,17,80,0,0
133073,-90.9090909090909,4,2,20,80,0,0
133247,-90.9090909090909,4,2,19,80,0,0
133422,-90.9090909090909,4,2,20,80,0,0
133596,-90.9090909090909,4,2,17,80,0,0
133770,-90.9090909090909,4,2,21,80,0,0
134119,-90.9090909090909,4,2,20,80,0,0
134381,-90.9090909090909,4,2,4,80,0,0
134468,-90.9090909090909,4,2,19,80,0,0
134642,-90.9090909090909,4,2,22,80,0,0
134817,-90.9090909090909,4,2,16,80,0,0
135165,-90.9090909090909,4,2,17,80,0,0
135515,-90.9090909090909,4,2,16,80,0,0
135689,-90.9090909090909,4,2,17,80,0,0
135864,-90.9090909090909,4,2,18,80,0,0
136038,-90.9090909090909,4,2,19,80,0,0
136212,-90.9090909090909,4,2,22,80,0,0
136386,-90.9090909090909,4,2,19,80,0,0
136561,-90.9090909090909,4,2,20,80,0,0
136735,-90.9090909090909,4,2,17,80,0,0
136910,-90.9090909090909,4,2,1,80,0,0
137608,-90.9090909090909,4,2,1,60,0,0
143189,-111.111111111111,4,2,1,60,0,0
152259,-100,4,2,2,70,0,0
154352,-100,4,2,2,75,0,0
159236,-100,4,2,3,75,0,0
159584,-100,4,2,3,75,0,0
159759,-100,4,2,2,75,0,0
164294,-100,4,2,2,65,0,0
165166,-100,4,2,1,65,0,0
165515,-100,4,2,1,65,0,0
166038,-100,4,2,2,65,0,0
166212,-90.9090909090909,4,2,4,80,0,0
176329,-90.9090909090909,4,2,1,80,0,0
177375,-90.9090909090909,4,2,4,80,0,0
181736,-90.9090909090909,4,2,1,80,0,0
182084,-90.9090909090909,4,2,2,80,0,0
182259,-90.9090909090909,4,2,4,80,0,0
186794,-90.9090909090909,4,2,1,60,0,0
187840,-90.9090909090909,4,2,1,60,0,0
197608,-90.9090909090909,4,2,1,55,0,0
204584,-90.9090909090909,4,2,1,50,0,0
210166,-90.9090909090909,4,2,1,40,0,0
212957,-90.9090909090909,4,2,1,40,0,0

[Colours]
Combo1 : 240,175,254
Combo2 : 191,167,254

[HitObjects]
27,125,2259,6,0,P|98:141|160:110,1,141.749995674133,4|2,1:2|0:0,0:0:0:0:
195,76,2957,1,8,0:0:0:0:
348,34,3480,1,2,0:0:0:0:
348,34,3654,2,0,P|339:97|334:175,1,141.749995674133,2|2,1:2|1:2,0:0:0:0:
333,227,4352,1,8,0:0:0:0:
280,316,4701,1,2,1:2:0:0:
185,273,5050,6,0,P|139:267|101:295,1,94.499997116089,2|2,0:0|0:0,0:0:0:0:
13,239,5747,2,0,L|6:185,1,47.2499985580445,10|2,0:0|0:0,0:0:0:0:
0,141,6096,1,2,0:0:0:0:
102,157,6445,2,0,B|165:149|165:149|229:177|229:177|298:165,1,188.999994232178,6|14,1:2|1:2,0:0:0:0:
469,260,7840,2,0,P|500:209|472:116,1,141.749995674133,2|2,1:2|0:0,0:0:0:0:
458,86,8538,1,8,0:0:0:0:
306,97,9061,1,2,0:0:0:0:
306,97,9236,2,0,P|262:91|206:83,1,94.499997116089,2|0,1:2|0:0,0:0:0:0:
198,33,9759,2,0,P|148:41|104:48,1,94.499997116089,2|0,1:2|0:0,0:0:0:0:
62,78,10282,6,0,P|44:148|96:211,1,141.749995674133,2|2,1:2|0:0,0:0:0:0:
122,232,10980,1,2,0:0:0:0:
101,333,11329,2,0,P|54:342|2:355,2,94.499997116089,10|10|6,0:0|0:0|1:2,0:0:0:0:
199,365,12375,1,6,1:2:0:0:
298,335,12724,1,6,1:2:0:0:
398,363,13073,1,6,1:2:0:0:
475,276,13422,6,0,B|496:227|496:227|473:170,1,105,6|2,1:2|1:2,0:0:0:0:
411,86,14119,2,0,P|354:91|297:99,1,105,10|10,1:2|1:2,0:0:0:0:
258,128,14643,1,10,0:0:0:0:
258,128,14817,2,0,P|209:121|143:110,1,105,10|10,1:2|1:2,0:0:0:0:
51,59,15515,2,0,B|32:108|32:108|55:163,1,105,10|10,1:2|1:2,0:0:0:0:
12,264,16212,6,0,L|126:256,1,105,10|2,1:2|1:2,0:0:0:0:
232,261,16910,2,0,P|217:208|238:161,1,105,10|10,1:2|1:2,0:0:0:0:
280,126,17433,1,10,0:0:0:0:
280,126,17608,2,0,P|336:131|388:155,1,105,10|10,1:2|1:2,0:0:0:0:
481,206,18305,1,10,1:2:0:0:
464,320,18654,1,2,0:0:0:0:
349,338,19003,6,0,P|302:327|237:318,1,105,14|2,1:2|0:0,0:0:0:0:
145,360,19701,2,0,P|139:314|128:254,1,105,10|2,1:2|0:0,0:0:0:0:
100,212,20224,1,10,1:2:0:0:
100,212,20398,2,0,P|109:150|116:99,1,105,10|2,1:2|0:0,0:0:0:0:
196,25,21096,1,10,1:2:0:0:
286,96,21445,1,2,0:0:0:0:
246,204,21794,1,10,1:2:0:0:
256,192,21968,12,2,23189,1:2:0:0:
416,147,24584,5,2,0:0:0:0:
490,235,24933,1,2,0:0:0:0:
423,343,25282,2,0,P|471:351|511:353,2,86.6250026435853,2|2|6,1:2|1:2|1:2,0:0:0:0:
304,312,26154,1,2,1:2:0:0:
304,312,26329,2,0,P|252:343|183:349,1,115.50000352478,2|2,1:2|1:2,0:0:0:0:
147,322,26852,1,2,0:0:0:0:
147,322,27026,1,2,1:2:0:0:
210,209,27375,6,0,P|239:152|213:113,1,115.50000352478,2|2,1:2|1:2,0:0:0:0:
169,76,27898,1,2,0:0:0:0:
169,76,28073,1,2,1:2:0:0:
53,23,28422,2,0,P|43:53|39:80,1,57.7500017623902,2|2,0:0|1:2,0:0:0:0:
11,135,28770,2,0,P|29:185|41:249,1,115.50000352478,0|2,1:2|1:2,0:0:0:0:
58,312,29294,1,2,0:0:0:0:
58,312,29468,1,2,1:2:0:0:
168,253,29817,1,2,1:2:0:0:
249,350,30166,6,0,P|310:336|372:322,1,115.50000352478,6|2,1:2|1:2,0:0:0:0:
407,280,30689,1,2,0:0:0:0:
407,280,30864,2,0,P|450:284|506:293,2,86.6250026435853,2|2|2,1:2|1:2|1:2,0:0:0:0:
362,234,31561,1,0,0:0:0:0:
423,122,31910,2,0,P|388:111|362:103,1,57.7500017623902,2|2,1:2|0:0,0:0:0:0:
319,62,32259,2,0,L|257:76,1,57.7500017623902,2|2,1:2|0:0,0:0:0:0:
208,40,32608,1,2,1:2:0:0:
91,93,32957,6,0,B|65:154|65:154|94:205,1,115.50000352478,6|2,1:2|0:0,0:0:0:0:
144,239,33480,1,2,0:0:0:0:
144,239,33654,2,0,P|176:228|220:219,1,57.7500017623902,2|2,1:2|0:0,0:0:0:0:
262,212,34003,2,0,P|288:235|307:246,1,57.7500017623902,2|2,0:0|1:2,0:0:0:0:
365,274,34352,1,6,1:2:0:0:
484,230,34701,1,2,1:2:0:0:
487,102,35050,1,6,1:2:0:0:
387,23,35398,1,2,1:1:0:0:
96,16,36096,6,0,P|87:54|84:79,1,57.7500017623902,14|2,1:2|0:0,0:0:0:0:
46,123,36445,2,0,P|57:157|60:192,1,57.7500017623902,2|2,1:2|0:0,0:0:0:0:
50,245,36794,1,10,0:0:0:0:
50,245,36968,2,0,B|108:250|108:250|162:212,1,115.50000352478,2|2,1:2|1:2,0:0:0:0:
192,165,37491,1,10,1:2:0:0:
274,261,37840,2,0,P|307:255|338:250,1,57.7500017623902,2|2,1:2|0:0,0:0:0:0:
394,242,38189,1,10,1:2:0:0:
507,299,38538,6,0,P|503:247|494:183,1,115.50000352478,2|10,1:2|1:2,0:0:0:0:
462,135,39061,1,2,0:0:0:0:
462,135,39236,2,0,P|469:91|481:33,2,86.6250026435853,2|2|2,1:2|1:2|1:2,0:0:0:0:
405,164,39933,1,0,1:2:0:0:
285,120,40282,1,10,1:2:0:0:
196,210,40631,2,0,P|205:256|208:280,1,57.7500017623902,0|8,1:2|0:1,0:0:0:0:
217,329,40980,1,8,0:1:0:0:
90,318,41329,6,0,P|82:263|74:202,1,115.50000352478,6|8,1:2|1:2,0:0:0:0:
67,144,41852,1,2,0:0:0:0:
67,144,42026,2,0,P|35:150|3:153,2,57.7500017623902,0|2|10,1:2|0:0|0:0,0:0:0:0:
114,101,42550,1,2,1:2:0:0:
205,196,42898,1,2,1:2:0:0:
205,196,43073,2,0,B|236:201|269:207|335:230,1,115.50000352478,10|2,1:2|1:2,0:0:0:0:
383,242,43596,1,2,0:0:0:0:
383,242,43770,1,10,1:2:0:0:
488,171,44119,6,0,P|495:115|510:54,1,115.50000352478,2|10,1:2|0:0,0:0:0:0:
459,27,44643,1,2,0:0:0:0:
459,27,44817,2,0,P|409:60|348:53,1,115.50000352478,2|10,1:2|0:0,0:0:0:0:
302,31,45340,1,2,0:0:0:0:
302,31,45515,1,4,1:2:0:0:
256,192,45689,12,4,47084,0:0:0:0:
218,371,48305,6,0,P|168:363|122:356,1,94.499997116089,2|0,1:2|1:2,0:0:0:0:
84,332,48829,1,10,0:0:0:0:
84,332,49003,2,0,P|65:284|87:237,1,94.499997116089,2|0,1:2|1:2,0:0:0:0:
172,199,49701,1,2,1:2:0:0:
263,248,50050,1,0,1:2:0:0:
341,180,50398,2,0,L|395:192,2,47.2499985580445,2|2|2,1:2|0:0|1:2,0:0:0:0:
281,94,51096,6,0,P|236:73|192:68,1,94.499997116089,2|2,1:2|1:2,0:0:0:0:
88,77,51794,2,0,P|95:104|100:136,1,47.2499985580445,2|2,1:2|0:0,0:0:0:0:
109,174,52143,1,2,1:2:0:0:
26,237,52491,2,0,P|23:283|15:341,1,94.499997116089,2|0,1:2|1:2,0:0:0:0:
112,371,53189,1,2,1:2:0:0:
200,317,53538,1,2,1:2:0:0:
291,365,53887,6,0,P|346:355|395:346,1,94.499997116089,2|0,1:2|1:2,0:0:0:0:
438,337,54410,1,10,0:0:0:0:
438,337,54584,1,2,1:2:0:0:
468,237,54933,2,0,P|436:229|419:224,1,47.2499985580445,0|10,1:2|0:0,0:0:0:0:
387,186,55282,1,2,1:2:0:0:
306,250,55631,1,0,1:2:0:0:
306,250,55805,2,0,P|257:242|195:230,1,94.499997116089,10|0,0:0|0:0,0:0:0:0:
165,210,56329,5,2,1:2:0:0:
125,113,56677,1,0,1:2:0:0:
191,32,57026,2,0,P|220:40|244:47,1,47.2499985580445,2|10,1:2|0:0,0:0:0:0:
285,27,57375,2,0,P|312:60|309:118,1,94.499997116089,2|0,1:2|1:2,0:0:0:0:
285,153,57898,1,10,0:0:0:0:
285,153,58073,1,6,1:2:0:0:
365,218,58422,1,6,1:2:0:0:
324,313,58770,1,6,1:2:0:0:
228,272,59119,1,6,1:2:0:0:
139,346,59468,6,0,B|90:354|90:354|40:317,1,105,6|10,1:2|0:0,0:0:0:0:
33,205,60166,2,0,P|24:170|17:152,1,52.5,2|2,1:2|0:0,0:0:0:0:
31,98,60515,2,0,P|62:103|87:106,1,52.5,10|10,0:0|0:0,0:0:0:0:
138,122,60864,2,0,P|187:117|247:99,1,105,2|10,1:2|0:0,0:0:0:0:
354,122,61561,1,2,1:2:0:0:
444,49,61910,1,10,0:0:0:0:
510,143,62259,6,0,P|502:202|499:256,1,105,2|10,1:2|0:0,0:0:0:0:
495,308,62782,1,10,0:0:0:0:
495,308,62957,2,0,P|471:302|430:294,1,52.5,2|2,1:2|0:0,0:0:0:0:
401,335,63305,2,0,P|377:341|336:349,1,52.5,10|10,0:0|0:0,0:0:0:0:
297,321,63654,1,2,1:2:0:0:
190,378,64003,1,10,0:0:0:0:
91,318,64352,2,0,P|77:249|63:201,1,105,2|10,1:2|0:0,0:0:0:0:
47,101,65050,6,0,B|110:128|110:128|150:108,1,105,2|10,1:2|0:0,0:0:0:0:
245,59,65747,2,0,P|305:74|369:84,1,105,2|10,1:2|0:0,0:0:0:0:
399,53,66270,1,10,0:0:0:0:
399,53,66445,2,0,P|411:111|417:165,1,105,2|10,1:2|0:0,0:0:0:0:
498,237,67143,1,2,1:2:0:0:
413,315,67491,1,10,0:0:0:0:
309,263,67840,6,0,P|259:240|209:241,1,105,2|10,1:2|0:0,0:0:0:0:
116,309,68538,2,0,B|97:188,1,105,0|10,1:2|0:0,0:0:0:0:
94,89,69236,2,0,P|121:102|147:108,1,52.5,4|0,1:2|0:0,0:0:0:0:
197,124,69584,2,0,P|224:111|250:105,1,52.5,8|8,0:0|0:0,0:0:0:0:
300,124,69933,1,2,0:0:0:0:
407,80,70282,1,10,0:0:0:0:
504,150,70631,1,6,1:2:0:0:
485,248,81794,6,0,P|432:249|368:252,1,105,14|10,1:2|1:2,0:0:0:0:
282,189,82491,2,0,P|277:136|266:70,1,105,10|10,1:2|1:2,0:0:0:0:
240,40,83015,1,8,0:0:0:0:
240,40,83189,2,0,L|133:53,1,105,10|10,1:2|1:2,0:0:0:0:
50,131,83887,1,10,1:2:0:0:
134,210,84236,1,10,1:2:0:0:
232,150,84584,6,0,P|283:161|346:172,1,105,10|10,1:2|1:2,0:0:0:0:
396,184,85108,1,8,0:0:0:0:
396,184,85282,2,0,P|388:233|379:289,1,105,10|10,1:2|1:2,0:0:0:0:
290,360,85980,2,0,P|276:307|261:253,1,105,10|10,1:2|1:2,0:0:0:0:
156,305,86677,1,10,1:2:0:0:
76,221,87026,1,10,1:2:0:0:
119,114,87375,6,0,P|179:103|229:89,1,105,14|10,1:2|1:2,0:0:0:0:
317,17,88073,2,0,P|352:69|343:125,1,105,10|10,1:2|1:2,0:0:0:0:
318,159,88596,1,8,0:0:0:0:
318,159,88770,2,0,P|326:220|332:264,1,105,10|10,1:2|1:2,0:0:0:0:
411,347,89468,1,10,1:2:0:0:
496,268,89817,1,10,1:2:0:0:
463,157,90166,6,0,P|434:162|399:171,1,52.5,10|10,1:2|1:2,0:0:0:0:
361,196,90515,2,0,P|332:191|297:182,1,52.5,10|10,1:2|1:2,0:0:0:0:
259,156,90864,2,0,P|230:161|195:170,1,52.5,10|10,1:2|1:2,0:0:0:0:
155,192,91212,2,0,P|126:187|91:178,1,52.5,10|10,1:2|1:2,0:0:0:0:
59,144,91561,1,6,1:2:0:0:
417,13,92608,2,0,P|421:51|426:73,1,57.7500017623902,10|2,0:0|0:0,0:0:0:0:
461,122,92957,5,6,1:2:0:0:
359,197,93305,1,2,1:2:0:0:
239,155,93654,2,0,P|233:111|223:65,2,86.6250026435853,2|2|2,1:2|1:2|1:2,0:0:0:0:
265,212,94352,2,0,P|258:248|254:281,1,57.7500017623902,2|2,1:2|0:0,0:0:0:0:
248,332,94701,1,2,1:2:0:0:
136,270,95050,6,0,P|93:279|43:290,2,86.6250026435853,2|0|2,1:2|1:2|1:2,0:0:0:0:
160,211,95747,2,0,P|166:157|175:89,1,115.50000352478,2|2,1:2|1:2,0:0:0:0:
283,160,96445,2,0,P|286:110|294:56,2,86.6250026435853,2|2|2,1:2|1:2|1:2,0:0:0:0:
256,217,97143,2,0,P|266:252|270:291,1,57.7500017623902,2|2,1:2|0:0,0:0:0:0:
284,334,97491,1,2,1:2:0:0:
401,286,97840,2,0,L|494:308,2,86.6250026435853,2|2|2,1:2|1:2|1:2,0:0:0:0:
373,228,98538,5,2,1:2:0:0:
256,177,98887,1,2,1:2:0:0:
173,273,99236,2,0,P|181:327|189:380,2,86.6250026435853,2|2|2,1:2|1:2|1:2,0:0:0:0:
121,236,99933,1,2,1:2:0:0:
95,111,100282,2,0,P|122:123|155:129,1,57.7500017623902,2|2,1:2|0:0,0:0:0:0:
202,92,100631,2,0,L|184:-14,2,86.6250026435853,2|2|2,1:2|1:2|1:2,0:0:0:0:
245,138,101329,5,2,1:2:0:0:
354,74,101677,1,2,1:2:0:0:
461,142,102026,2,0,L|474:35,2,86.6250026435853,2|2|2,1:2|1:2|1:2,0:0:0:0:
454,205,102724,1,6,1:2:0:0:
434,330,103073,1,6,1:2:0:0:
308,307,103422,1,6,1:2:0:0:
324,181,103770,1,6,1:2:0:0:
336,54,104119,6,0,P|273:67|217:74,1,115.50000352478,2|10,1:2|0:0,0:0:0:0:
97,97,104817,2,0,P|91:59|79:8,2,86.6250026435853,2|2|2,1:2|1:2|1:2,0:0:0:0:
135,147,105515,2,0,P|130:174|123:206,1,57.7500017623902,2|2,1:2|0:0,0:0:0:0:
82,252,105864,1,10,0:0:0:0:
202,289,106212,6,0,P|207:337|213:391,2,86.6250026435853,2|2|2,1:2|1:2|1:2,0:0:0:0:
239,237,106910,1,2,1:2:0:0:
162,135,107259,1,10,0:0:0:0:
281,91,107608,2,0,L|263:-9,2,86.6250026435853,2|2|2,1:2|1:2|1:2,0:0:0:0:
330,130,108305,2,0,P|339:183|351:250,1,115.50000352478,2|10,1:2|0:0,0:0:0:0:
323,368,109003,6,0,P|388:356|442:343,1,115.50000352478,2|10,1:2|0:0,0:0:0:0:
484,306,109526,1,2,1:2:0:0:
484,306,109701,2,0,P|511:245|476:197,1,115.50000352478,2|10,1:2|0:0,0:0:0:0:
424,97,110398,2,0,P|430:53|441:3,2,86.6250026435853,2|2|2,1:2|1:2|1:2,0:0:0:0:
386,148,111096,1,2,1:2:0:0:
263,114,111445,1,10,0:0:0:0:
190,218,111794,6,0,P|141:213|75:202,1,115.50000352478,2|10,1:2|0:0,0:0:0:0:
21,179,112317,1,2,1:2:0:0:
21,179,112491,2,0,P|1:117|35:71,1,115.50000352478,2|10,1:2|0:0,0:0:0:0:
152,86,113189,2,0,L|142:-10,2,86.6250026435853,2|2|2,1:2|1:2|1:2,0:0:0:0:
158,149,113887,1,2,1:1:0:0:
81,250,114236,1,8,0:1:0:0:
165,344,114584,1,10,0:0:0:0:
258,257,114933,1,10,0:0:0:0:
351,343,115282,6,0,P|416:326|464:322,1,115.50000352478,2|10,1:2|0:0,0:0:0:0:
510,203,115980,2,0,P|505:165|496:128,1,57.7500017623902,2|2,1:2|0:0,0:0:0:0:
448,109,116329,2,0,P|415:122|383:133,1,57.7500017623902,10|2,0:0|1:2,0:0:0:0:
333,149,116677,2,0,P|304:139|274:133,1,57.7500017623902,2|2,1:2|0:0,0:0:0:0:
238,83,117026,1,10,0:0:0:0:
165,187,117375,1,2,1:2:0:0:
39,164,117724,6,0,P|32:125|26:90,1,57.7500017623902,10|2,0:0|1:2,0:0:0:0:
21,43,118073,2,0,P|77:16|132:36,1,115.50000352478,2|10,1:2|0:0,0:0:0:0:
223,111,118770,2,0,P|259:105|285:99,1,57.7500017623902,2|2,1:2|0:0,0:0:0:0:
338,76,119119,2,0,P|377:82|404:84,1,57.7500017623902,10|2,0:0|1:2,0:0:0:0:
458,94,119468,2,0,P|455:62|448:31,2,57.7500017623902,2|2|10,1:2|0:0|0:0,0:0:0:0:
512,207,120166,1,2,1:2:0:0:
440,312,120515,6,0,L|381:302,1,57.7500017623902,10|2,0:0|1:2,0:0:0:0:
337,257,120864,2,0,P|278:243|229:284,1,115.50000352478,2|10,1:2|0:0,0:0:0:0:
146,362,121561,2,0,P|115:355|85:349,1,57.7500017623902,2|2,1:2|0:0,0:0:0:0:
37,314,121910,2,0,P|30:278|25:241,1,57.7500017623902,10|2,0:0|1:2,0:0:0:0:
58,201,122259,2,0,P|63:167|68:137,1,57.7500017623902,2|2,1:2|0:0,0:0:0:0:
33,89,122608,1,10,0:0:0:0:
105,15,122957,1,2,1:2:0:0:
218,70,123305,6,0,P|214:100|210:136,1,57.7500017623902,10|2,0:0|1:2,0:0:0:0:
166,173,123654,2,0,P|174:228|184:297,1,115.50000352478,2|10,1:2|0:0,0:0:0:0:
289,356,124352,2,0,P|326:347|361:339,1,57.7500017623902,2|2,1:2|0:0,0:0:0:0:
407,355,124701,2,0,P|440:348|474:335,1,57.7500017623902,10|2,0:0|1:2,0:0:0:0:
509,296,125050,5,2,1:2:0:0:
435,195,125398,1,2,1:2:0:0:
313,232,125747,1,2,1:2:0:0:
217,315,126096,6,0,L|151:307,1,57.7500017623902,2|2,1:2|0:0,0:0:0:0:
103,277,126445,2,0,P|81:222|113:156,1,115.50000352478,2|10,1:2|0:0,0:0:0:0:
221,203,127143,2,0,P|258:199|287:196,1,57.7500017623902,2|2,1:2|0:0,0:0:0:0:
333,165,127491,2,0,P|336:127|340:96,1,57.7500017623902,10|2,0:0|1:2,0:0:0:0:
296,60,127840,2,0,P|264:50|235:45,1,57.7500017623902,2|2,1:2|0:0,0:0:0:0:
177,34,128189,1,10,0:0:0:0:
67,98,128538,1,2,1:2:0:0:
131,207,128887,6,0,P|137:237|145:267,1,57.7500017623902,10|2,0:0|1:2,0:0:0:0:
159,325,129236,2,0,P|206:294|284:312,1,115.5,2|10,1:2|0:0,0:0:0:0:
378,352,129933,2,0,P|384:315|387:281,1,57.7500017623902,2|2,1:2|0:0,0:0:0:0:
372,232,130282,2,0,P|369:199|368:169,1,57.7500017623902,10|2,0:0|1:2,0:0:0:0:
394,116,130631,2,0,L|465:140,2,57.7500017623902,2|2|10,1:2|0:0|0:0,0:0:0:0:
302,26,131329,1,2,1:2:0:0:
189,83,131677,6,0,L|116:76,1,57.7500017623902,10|2,0:0|1:2,0:0:0:0:
68,86,132026,2,0,P|41:139|79:201,1,115.50000352478,2|10,1:2|0:0,0:0:0:0:
111,305,132724,2,0,P|146:300|169:290,1,57.7500017623902,2|2,1:2|0:0,0:0:0:0:
224,318,133073,2,0,P|263:318|291:328,1,57.7500017623902,10|2,0:0|1:2,0:0:0:0:
343,331,133422,2,0,P|347:297|352:268,1,57.7500017623902,2|2,1:2|0:0,0:0:0:0:
354,210,133770,1,10,0:0:0:0:
273,111,134119,1,2,1:2:0:0:
367,25,134468,6,0,L|433:21,1,57.75,10|2,0:0|1:2,0:0:0:0:
479,53,134817,2,0,P|511:109|480:171,1,115.50000352478,2|10,1:2|0:0,0:0:0:0:
412,250,135515,2,0,P|376:240|343:235,1,57.7500017623902,2|2,1:2|0:0,0:0:0:0:
295,216,135864,2,0,P|289:180|285:148,1,57.7500017623902,10|2,0:0|1:2,0:0:0:0:
331,114,136212,2,0,L|389:122,2,57.7500017623902,2|2|2,1:2|0:0|1:2,0:0:0:0:
290,72,136736,1,2,0:0:0:0:
290,72,136910,6,0,L|194:85,2,86.6250026435853,6|8|4,1:2|1:3|1:3,0:0:0:0:
331,23,137608,1,6,1:2:0:0:
256,192,141794,5,0,0:0:0:0:
238,30,143189,6,0,P|168:20|128:74,1,141.749995674133,4|2,1:2|0:0,0:0:0:0:
114,115,143887,1,8,0:0:0:0:
82,320,144584,2,0,P|131:269|200:289,1,141.749995674133,2|2,1:2|1:2,0:0:0:0:
234,315,145282,1,8,0:0:0:0:
325,364,145631,1,2,1:2:0:0:
412,307,145980,2,0,P|401:241|396:193,1,94.499997116089,2|2,0:0|0:0,0:0:0:0:
296,235,146677,2,0,P|272:230|246:224,1,47.2499985580445,10|2,0:0|0:0,0:0:0:0:
208,193,147026,1,2,0:0:0:0:
122,252,147375,6,0,B|107:181|107:181|124:140|124:140|108:59,1,188.999994232178,6|14,1:2|1:2,0:0:0:0:
317,54,148770,2,0,B|404:41|404:41|446:76,1,141.749995674133,2|2,1:2|0:0,0:0:0:0:
476,117,149468,1,8,0:0:0:0:
453,274,149991,1,2,0:0:0:0:
453,274,150166,2,0,P|403:275|357:306,1,94.499997116089,2|0,1:2|0:0,0:0:0:0:
331,336,150689,2,0,P|286:330|232:319,1,94.499997116089,2|0,1:2|0:0,0:0:0:0:
186,314,151212,2,0,B|154:251|154:251|187:179,1,141.749995674133,2|2,1:2|0:0,0:0:0:0:
210,141,151910,1,2,0:0:0:0:
114,76,152259,6,0,L|-2:94,2,105,14|10|6,0:0|0:0|1:2,0:0:0:0:
212,15,153305,1,6,1:2:0:0:
298,91,153654,1,6,1:2:0:0:
404,45,154003,1,6,1:2:0:0:
480,132,154352,6,0,B|501:181|501:181|473:234,1,105,6|2,1:2|1:2,0:0:0:0:
421,326,155050,2,0,P|375:333|314:352,1,105,10|10,1:2|1:2,0:0:0:0:
267,364,155573,1,10,0:0:0:0:
267,364,155747,2,0,P|216:363|154:353,1,105,10|10,1:2|1:2,0:0:0:0:
89,265,156445,1,10,1:2:0:0:
142,162,156794,1,10,1:2:0:0:
239,223,157143,6,0,P|294:252|343:242,1,105,10|2,1:2|1:2,0:0:0:0:
449,252,157840,2,0,P|441:198|434:136,1,105,10|10,1:2|1:2,0:0:0:0:
429,94,158364,1,10,0:0:0:0:
429,94,158538,2,0,P|382:67|327:82,1,105,10|10,1:2|1:2,0:0:0:0:
259,165,159236,1,10,1:2:0:0:
163,100,159584,1,2,0:0:0:0:
75,175,159933,6,0,P|84:231|92:287,1,105,14|2,1:2|0:0,0:0:0:0:
176,357,160631,2,0,P|229:349|282:337,1,105,10|2,1:2|0:0,0:0:0:0:
339,356,161154,1,10,1:2:0:0:
339,356,161329,2,0,P|385:357|447:335,1,105,10|2,1:2|0:0,0:0:0:0:
491,235,162026,1,10,1:2:0:0:
422,141,162375,1,2,0:0:0:0:
475,38,162724,1,10,1:2:0:0:
256,192,162898,12,2,164119,1:2:0:0:
65,338,165515,5,2,0:0:0:0:
111,232,165864,1,2,0:0:0:0:
85,107,166213,2,0,P|37:99|-3:97,2,86.6250026435853,2|2|6,1:2|1:2|1:2,0:0:0:0:
185,28,167085,1,2,1:2:0:0:
185,28,167260,2,0,P|234:69|284:63,1,115.50000352478,2|2,1:2|1:2,0:0:0:0:
343,40,167783,1,2,0:0:0:0:
343,40,167957,1,2,1:2:0:0:
467,16,168306,6,0,P|449:71|461:134,1,115.50000352478,2|2,1:2|1:2,0:0:0:0:
504,178,168829,1,2,0:0:0:0:
504,178,169004,1,2,1:2:0:0:
416,269,169353,2,0,L|358:259,1,57.7500017623902,2|2,0:0|1:2,0:0:0:0:
298,278,169701,2,0,P|247:315|181:307,1,115.50000352478,0|2,1:2|1:2,0:0:0:0:
143,288,170225,1,2,0:0:0:0:
143,288,170399,1,2,1:2:0:0:
75,180,170748,1,2,1:2:0:0:
196,142,171097,6,0,P|257:128|319:114,1,115.50000352478,6|2,1:2|1:2,0:0:0:0:
369,148,171620,1,2,0:0:0:0:
369,148,171794,2,0,P|377:190|385:246,2,86.6250026435853,2|2|2,1:2|1:2|1:2,0:0:0:0:
399,91,172492,1,0,0:0:0:0:
277,53,172840,2,0,P|261:97|257:114,1,57.7500017623902,2|2,1:2|0:0,0:0:0:0:
232,166,173190,2,0,P|243:206|251:238,1,57.7500017623902,2|2,1:2|0:0,0:0:0:0:
284,273,173539,1,2,1:2:0:0:
175,339,173888,6,0,B|121:368|121:368|61:350,1,115.50000352478,6|2,1:2|0:0,0:0:0:0:
18,323,174411,1,2,0:0:0:0:
18,323,174585,2,0,P|19:287|28:250,1,57.7500017623902,2|2,1:2|0:0,0:0:0:0:
39,204,174933,2,0,P|37:168|27:127,1,57.7500017623902,2|2,0:0|1:2,0:0:0:0:
2,90,175283,1,6,1:2:0:0:
117,36,175632,1,2,1:2:0:0:
212,119,175981,1,6,1:2:0:0:
335,77,176329,1,10,0:0:0:0:
65,345,177375,6,0,P|54:311|51:276,1,57.7500017623902,2|2,1:2|0:0,0:0:0:0:
22,231,177724,1,10,0:0:0:0:
22,231,177898,2,0,B|80:236|80:236|126:184,1,115.50000352478,2|2,1:2|1:2,0:0:0:0:
162,148,178421,1,10,1:2:0:0:
176,22,178770,2,0,L|241:32,1,57.7500017623902,2|2,1:2|0:0,0:0:0:0:
282,72,179119,1,10,1:2:0:0:
402,31,179468,6,0,P|424:82|397:144,1,115.50000352478,2|10,1:2|1:2,0:0:0:0:
368,181,179991,1,2,0:0:0:0:
368,181,180166,2,0,P|373:227|381:277,2,86.6250026435853,2|2|2,1:2|1:2|1:2,0:0:0:0:
318,142,180863,1,0,1:2:0:0:
211,74,181212,1,10,1:2:0:0:
105,146,181561,2,0,P|99:184|93:216,1,57.7500017623902,0|8,1:2|0:1,0:0:0:0:
83,266,181910,1,8,0:1:0:0:
195,326,182259,6,0,P|244:278|294:280,1,115.50000352478,6|8,1:2|1:2,0:0:0:0:
353,290,182782,1,2,0:0:0:0:
353,290,182956,2,0,P|351:324|347:355,2,57.7500017623902,0|2|10,1:2|0:0|0:0,0:0:0:0:
409,259,183480,1,2,1:2:0:0:
346,148,183828,1,2,1:2:0:0:
346,148,184003,2,0,P|288:156|222:167,1,115.50000352478,10|2,1:2|1:2,0:0:0:0:
185,200,184526,1,2,0:0:0:0:
185,200,184700,1,10,1:2:0:0:
61,169,185049,6,0,P|54:225|39:286,1,115.50000352478,2|10,1:2|0:0,0:0:0:0:
75,335,185573,1,2,0:0:0:0:
75,335,185747,2,0,P|125:302|186:309,1,115.50000352478,2|10,1:2|0:0,0:0:0:0:
239,331,186270,1,2,0:0:0:0:
239,331,186445,1,4,1:2:0:0:
252,183,187840,5,6,1:2:0:0:
