osu file format v14

[General]
AudioFilename: audio.ogg
AudioLeadIn: 0
PreviewTime:164069
Countdown: 0
SampleSet: Soft
StackLeniency: 0.7
Mode: 0
LetterboxInBreaks: 0
WidescreenStoryboard: 1
EpilepsyWarning: 1

[Editor]
Bookmarks: 864,13422,23364,36096,48305,59468,70631,81794,92957,104119,115282,126445,137608,154352,166736,177375,187840,210166,212957
DistanceSpacing: 0.5
BeatDivisor: 4
GridSize: 8
TimelineZoom: 4.6

[Metadata]
Title:Still in my heart feat. Punipuni Denki
TitleUnicode:Still in my heart feat. ぷにぷに電機
Artist:PSYQUI
ArtistUnicode:PSYQUI
Creator:Kyuuchie
Version:Onliyuu's down bad.
Source:
Tags:japanese electronic hardcore future core bass j-core jcore megarex fugene3 FÜGENE 03 fugene puniden shiwakaze wen koldnoodl cjstmdals pile ayamemymommy jiysea moecho amateurre liyuu rielle onegai lecandy midorijeon lowgraphics
BeatmapID:3506732
BeatmapSetID:1698303

[Difficulty]
HPDrainRate:6
CircleSize:4
OverallDifficulty:8.8
ApproachRate:9.4
SliderMultiplier:3.2
SliderTickRate:1

[Events]
//Background and Video events
0,0,"aolid_bg.jpg",0,0
//Break Periods
//Storyboard Layer 0 (Background)
//Storyboard Layer 1 (Fail)
//Storyboard Layer 2 (Pass)
//Storyboard Layer 3 (Foreground)
Sprite,Foreground,Centre,"sb\credits\onliyuu.png",320,240 F,0,73085,73434,0,1 S,0,74829,,0.4 F,0,75527,75876,1,0
//Storyboard Layer 4 (Overlay)
//Storyboard Sound Samples

[TimingPoints]
864,348.837209302326,4,2,1,60,1,0
1212,-200,4,2,1,60,0,0
2259,-83.3333333333333,4,2,1,60,0,0
2608,-125,4,2,1,60,0,0
2957,-181.818181818181,4,2,1,60,0,0
3480,-142.857142857143,4,2,1,60,0,0
3654,-90.9090909090908,4,2,1,60,0,0
4701,-111.111111111111,4,2,1,60,0,0
5050,-90.9090909090908,4,2,1,60,0,0
5398,-181.818181818181,4,2,1,60,0,0
6445,-222.222222222221,4,2,1,60,0,0
7143,-181.818181818181,4,2,1,60,0,0
8189,-133.333333333334,4,2,1,60,0,0
9236,-86.9565217391303,4,2,1,60,0,0
9759,-117.64705882353,4,2,1,60,0,0
10282,-181.818181818181,4,2,1,60,0,0
11329,-117.647058823529,4,2,2,60,0,0
12026,-111.111111111111,4,2,2,65,0,0
12375,-76.9230769230768,4,2,2,65,0,0
12724,-111.111111111111,4,2,2,65,0,0
13073,-83.3333333333338,4,2,2,65,0,0
13422,-99.9999999999999,4,2,2,70,0,0
13770,-76.9230769230766,4,2,2,70,0,0
14643,-111.11111111111,4,2,2,70,0,0
14817,-83.3333333333326,4,2,2,70,0,0
15166,-111.111111111111,4,2,2,70,0,0
16212,-83.3333333333335,4,2,2,70,0,0
17433,-111.111111111112,4,2,2,70,0,0
17608,-83.3333333333319,4,2,2,70,0,0
17957,-111.111111111113,4,2,2,70,0,0
18305,-500,4,2,3,70,0,0
18654,-500,4,2,3,70,0,0
18829,-500,4,2,2,70,0,0
19003,-83.3333333333309,4,2,2,70,0,0
19265,-100.000000000001,4,2,2,70,0,0
19701,-76.9230769230788,4,2,2,70,0,0
19962,-125.000000000003,4,2,2,70,0,0
20398,-166.666666666665,4,2,2,70,0,0
20660,-76.9230769230774,4,2,2,70,0,0
21096,-66.666666666666,4,2,2,70,0,0
21358,-111.111111111108,4,2,2,70,0,0
22491,-99.9999999999985,4,2,2,70,0,0
22840,-142.857142857144,4,2,2,70,0,0
23538,-250.000000000008,4,2,2,65,0,0
23887,-111.111111111109,4,2,2,65,0,0
24236,-90.9090909090908,4,2,1,65,0,0
24584,-249.999999999996,4,2,1,65,0,0
25108,-249.999999999996,4,2,2,65,0,0
25282,-99.9999999999985,4,2,4,80,0,0
25544,-200,4,2,4,80,0,0
25762,-200,4,2,4,80,0,0
25805,-83.3333333333333,4,2,4,80,0,0
26329,-142.857142857135,4,2,4,80,0,0
26503,-83.3333333333321,4,2,4,80,0,0
26852,-199.999999999997,4,2,4,80,0,0
27026,-76.9230769230774,4,2,4,80,0,0
27375,-66.6666666666666,4,2,4,80,0,0
27724,-90.9090909090858,4,2,4,80,0,0
28073,-66.6666666666685,4,2,4,80,0,0
28422,-90.9090909090896,4,2,4,80,0,0
28596,-125.000000000003,4,2,4,80,0,0
28770,-99.9999999999985,4,2,4,80,0,0
29817,-83.3333333333338,4,2,4,80,0,0
30166,-100.000000000003,4,2,4,80,0,0
30515,-83.3333333333321,4,2,4,80,0,0
31910,-99.9999999999985,4,2,4,80,0,0
32608,-66.6666666666643,4,2,4,80,0,0
32957,-90.9090909090921,4,2,4,80,0,0
33305,-125.000000000009,4,2,4,80,0,0
34003,-76.9230769230758,4,2,4,80,0,0
34352,-66.6666666666657,4,2,4,80,0,0
34526,-124.999999999998,4,2,4,80,0,0
34701,-62.4999999999991,4,2,4,80,0,0
34875,-124.999999999998,4,2,4,80,0,0
35050,-66.6666666666657,4,2,4,80,0,0
35398,-142.857142857141,4,2,1,80,0,0
36096,-99.9999999999985,4,2,4,80,0,0
36445,-76.9230769230756,4,2,4,80,0,0
36794,-83.3333333333343,4,2,4,80,0,0
36968,-76.9230769230766,4,2,4,80,0,0
37491,-83.3333333333343,4,2,4,80,0,0
37840,-99.9999999999985,4,2,4,80,0,0
38189,-83.3333333333344,4,2,4,80,0,0
38887,-124.999999999998,4,2,4,80,0,0
39236,-90.9090909090945,4,2,4,80,0,0
39497,-76.9230769230756,4,2,4,80,0,0
39759,-90.9090909090945,4,2,4,80,0,0
39933,-66.666666666666,4,2,4,80,0,0
40108,-124.999999999998,4,2,4,80,0,0
40282,-66.666666666666,4,2,4,80,0,0
40457,-124.999999999998,4,2,4,80,0,0
40631,-83.3333333333319,4,2,4,80,0,0
40762,-83.3333333333319,4,2,4,80,0,0
40805,-83.3333333333319,4,2,1,80,0,0
41154,-83.3333333333319,4,2,2,80,0,0
41329,-99.9999999999985,4,2,4,80,0,0
41677,-76.9230769230756,4,2,4,80,0,0
42550,-66.666666666666,4,2,4,80,0,0
43073,-99.9999999999985,4,2,4,80,0,0
43770,-71.4285714285723,4,2,4,80,0,0
44119,-76.9230769230756,4,2,4,80,0,0
44468,-99.9999999999985,4,2,4,80,0,0
45166,-66.666666666666,4,2,4,80,0,0
47084,-66.666666666666,4,2,3,65,0,0
47259,-76.3358778625943,4,2,3,65,0,0
47608,-78.1249999999998,4,2,3,65,0,0
47913,-78.1249999999998,4,2,3,65,0,0
47957,-999.999999999985,4,2,3,65,0,0
48305,-76.9230769230726,4,2,3,65,0,0
48393,-76.9230769230726,4,2,2,65,0,0
48829,-99.9999999999985,4,2,2,65,0,0
53538,-142.857142857149,4,2,2,65,0,0
53887,-99.9999999999985,4,2,2,65,0,0
58073,-71.4285714285704,4,2,2,65,0,0
58770,-62.4999999999939,4,2,2,65,0,0
59119,-55.5555555555608,4,2,2,65,0,0
59468,-100.000000000004,4,2,2,70,0,0
59729,-100.000000000004,4,2,2,70,0,0
59817,-100.000000000004,4,2,1,70,0,0
59991,-100.000000000004,4,2,2,70,0,0
60515,-100.000000000004,4,2,1,70,0,0
60689,-100.000000000004,4,2,2,70,0,0
61212,-100.000000000004,4,2,1,70,0,0
61387,-100.000000000004,4,2,2,70,0,0
61561,-117.647058823528,4,2,2,70,0,0
61910,-117.647058823528,4,2,1,70,0,0
62084,-117.647058823528,4,2,2,70,0,0
62259,-90.9090909090946,4,2,2,70,0,0
62608,-99.9999999999985,4,2,1,70,0,0
62782,-99.9999999999985,4,2,2,70,0,0
63305,-99.9999999999985,4,2,1,70,0,0
63480,-99.9999999999985,4,2,2,70,0,0
64003,-117.647058823533,4,2,1,70,0,0
64177,-117.647058823533,4,2,2,70,0,0
64352,-133.333333333332,4,2,2,70,0,0
64701,-117.647058823528,4,2,1,70,0,0
64875,-117.647058823528,4,2,2,70,0,0
65050,-86.9565217391293,4,2,2,70,0,0
65398,-117.647058823533,4,2,1,70,0,0
65572,-117.647058823533,4,2,2,70,0,0
65747,-90.9090909090895,4,2,2,70,0,0
66096,-111.111111111103,4,2,1,70,0,0
66270,-111.111111111103,4,2,2,70,0,0
66445,-90.9090909090895,4,2,2,70,0,0
66794,-111.111111111106,4,2,1,70,0,0
66968,-111.111111111106,4,2,2,70,0,0
67491,-100.000000000007,4,2,1,70,0,0
67666,-100.000000000007,4,2,2,70,0,0
67840,-117.647058823518,4,2,2,70,0,0
68189,-117.647058823518,4,2,1,70,0,0
68364,-100.000000000007,4,2,2,70,0,0
68538,-117.64705882353,4,2,2,70,0,0
68887,-117.64705882353,4,2,1,70,0,0
69061,-117.64705882353,4,2,2,70,0,0
69236,-142.857142857145,4,2,2,70,0,0
69584,-99.9999999999985,4,2,1,70,0,0
69758,-99.9999999999985,4,2,2,70,0,0
69933,-166.666666666669,4,2,2,70,0,0
70282,-500.00000000001,4,2,1,70,0,0
70587,-500.00000000001,4,2,1,70,0,0
70631,-500.00000000001,4,2,1,55,0,0
81794,-166.666666666654,4,2,5,65,0,0
82055,-166.666666666654,4,2,2,65,0,0
82143,-166.666666666654,4,2,5,65,0,0
82317,-166.666666666654,4,2,2,65,0,0
82491,-166.666666666654,4,2,5,65,0,0
82579,-166.666666666654,4,2,2,65,0,0
82840,-166.666666666654,4,2,5,65,0,0
83015,-166.666666666654,4,2,2,65,0,0
83189,-166.666666666654,4,2,5,65,0,0
83276,-166.666666666654,4,2,2,65,0,0
83538,-166.666666666654,4,2,5,65,0,0
83712,-166.666666666654,4,2,2,65,0,0
83887,-166.666666666654,4,2,5,65,0,0
83974,-166.666666666654,4,2,2,65,0,0
84236,-166.666666666654,4,2,5,65,0,0
84323,-166.666666666654,4,2,2,65,0,0
84584,-166.666666666654,4,2,5,65,0,0
84845,-166.666666666654,4,2,2,65,0,0
84933,-166.666666666654,4,2,5,65,0,0
85107,-166.666666666654,4,2,2,65,0,0
85282,-166.666666666654,4,2,5,65,0,0
85369,-166.666666666654,4,2,2,65,0,0
85631,-166.666666666654,4,2,5,65,0,0
85805,-166.666666666654,4,2,2,65,0,0
85980,-166.666666666654,4,2,5,65,0,0
86066,-166.666666666654,4,2,2,65,0,0
86329,-166.666666666654,4,2,5,65,0,0
86502,-166.666666666654,4,2,2,65,0,0
86677,-166.666666666654,4,2,5,65,0,0
86764,-166.666666666654,4,2,2,65,0,0
87026,-166.666666666654,4,2,5,65,0,0
87113,-166.666666666654,4,2,2,65,0,0
87375,-166.666666666654,4,2,5,65,0,0
87636,-166.666666666654,4,2,2,65,0,0
87724,-166.666666666654,4,2,5,65,0,0
87898,-166.666666666654,4,2,2,65,0,0
88073,-166.666666666654,4,2,5,65,0,0
88160,-166.666666666654,4,2,2,65,0,0
88422,-133.333333333342,4,2,5,65,0,0
88509,-133.333333333342,4,2,2,65,0,0
88770,-133.333333333342,4,2,5,65,0,0
88858,-133.333333333342,4,2,2,65,0,0
89119,-133.333333333342,4,2,5,65,0,0
89207,-133.333333333342,4,2,2,65,0,0
89468,-133.333333333342,4,2,5,65,0,0
89556,-133.333333333342,4,2,2,65,0,0
89817,-133.333333333342,4,2,5,65,0,0
89905,-133.333333333342,4,2,2,65,0,0
90166,-133.333333333342,4,2,5,65,0,0
90254,-133.333333333342,4,2,2,65,0,0
90515,-111.111111111119,4,2,5,65,0,0
90603,-111.111111111119,4,2,2,65,0,0
90864,-95.2380952380859,4,2,5,65,0,0
90952,-95.2380952380859,4,2,2,65,0,0
91212,-83.3333333333391,4,2,5,65,0,0
91300,-83.3333333333391,4,2,2,65,0,0
91736,-133.33333333332,4,2,2,65,0,0
91910,-125.000000000009,4,2,2,65,0,0
92259,-142.857142857141,4,2,2,65,0,0
92608,-55.5555555555501,4,2,2,75,0,0
92957,-62.5000000000008,4,2,4,75,0,1
93218,-62.5000000000008,4,2,4,75,0,0
93305,-55.5555555555532,4,2,4,75,0,1
93567,-55.5555555555532,4,2,4,75,0,0
93654,-66.6666666666657,4,2,4,75,0,1
93829,-66.6666666666657,4,2,4,75,0,0
93916,-55.5555555555594,4,2,4,75,0,1
94090,-55.5555555555594,4,2,4,75,0,0
94177,-55.5555555555594,4,2,4,75,0,1
94265,-55.5555555555594,4,2,4,75,0,0
94352,-50.0000000000034,4,2,4,75,0,1
94526,-99.9999999999902,4,2,4,75,0,1
94614,-99.9999999999902,4,2,4,75,0,0
94701,-66.6666666666657,4,2,4,75,0,1
94875,-66.6666666666657,4,2,1,75,0,0
95050,-66.6666666666657,4,2,4,75,0,1
95224,-66.6666666666657,4,2,4,75,0,0
95311,-166.666666666651,4,2,4,75,0,1
95486,-166.666666666651,4,2,4,75,0,0
95573,-55.5555555555501,4,2,1,75,0,1
95660,-55.5555555555501,4,2,1,75,0,0
95747,-83.3333333333344,4,2,4,75,0,1
96009,-83.3333333333344,4,2,4,75,0,0
96096,-43.4782608695646,4,2,4,75,0,1
96270,-43.4782608695646,4,2,4,75,0,0
96445,-76.9230769230822,4,2,4,75,0,1
96619,-76.9230769230822,4,2,4,75,0,0
96707,-62.4999999999991,4,2,4,75,0,1
96881,-62.4999999999991,4,2,4,75,0,0
96968,-83.333333333353,4,2,4,75,0,1
97055,-83.333333333353,4,2,4,75,0,0
97143,-55.5555555555547,4,2,4,75,0,1
97317,-55.5555555555547,4,2,4,75,0,0
97491,-90.9090909090896,4,2,4,75,0,1
97666,-90.9090909090896,4,2,4,75,0,0
97840,-111.111111111109,4,2,4,75,0,1
98015,-111.111111111109,4,2,4,75,0,0
98102,-76.9230769230758,4,2,1,75,0,1
98189,-76.9230769230758,4,2,4,75,0,1
98276,-76.9230769230758,4,2,4,75,0,0
98364,-100.000000000007,4,2,1,75,0,1
98451,-100.000000000007,4,2,1,75,0,0
98538,-66.6666666666638,4,2,4,75,0,1
98800,-66.6666666666638,4,2,4,75,0,0
98887,-66.6666666666675,4,2,4,75,0,1
99148,-66.6666666666675,4,2,4,75,0,0
99236,-66.6666666666657,4,2,4,75,0,1
99410,-66.6666666666657,4,2,4,75,0,0
99497,-58.8235294117638,4,2,4,75,0,1
99672,-58.8235294117638,4,2,4,75,0,0
99759,-99.9999999999902,4,2,4,75,0,1
99846,-99.9999999999902,4,2,4,75,0,0
99933,-62.5000000000043,4,2,4,75,0,1
100195,-62.5000000000043,4,2,4,75,0,0
100282,-153.846153846163,4,2,4,75,0,1
100456,-153.846153846163,4,2,1,75,0,0
100631,-66.6666666666657,4,2,4,75,0,1
100805,-66.6666666666657,4,2,4,75,0,0
100893,-76.9230769230758,4,2,4,75,0,1
101067,-76.9230769230758,4,2,4,75,0,0
101154,-76.9230769230822,4,2,4,75,0,1
101241,-76.9230769230822,4,2,4,75,0,0
101329,-76.9230769230758,4,2,4,75,0,1
101503,-76.9230769230758,4,2,4,75,0,0
101677,-76.9230769230694,4,2,4,75,0,1
101852,-76.9230769230694,4,2,4,75,0,0
102026,-66.6666666666657,4,2,4,75,0,1
102201,-66.6666666666657,4,2,4,75,0,0
102288,-58.8235294117638,4,2,4,75,0,1
102462,-58.8235294117638,4,2,4,75,0,0
102550,-100.000000000007,4,2,4,75,0,0
102724,-49.9999999999951,4,2,2,75,0,1
102986,-49.9999999999951,4,2,2,75,0,0
103073,-50.0000000000118,4,2,2,75,0,1
103334,-50.0000000000118,4,2,2,75,0,0
103422,-71.4285714285763,4,2,2,75,0,1
103683,-71.4285714285763,4,2,2,75,0,0
103770,-71.4285714285763,4,2,2,75,0,1
104032,-71.4285714285763,4,2,2,75,0,0
104119,-71.4285714285781,4,2,6,80,0,1
104468,-83.3333333333273,4,2,6,80,0,1
106997,-99.9999999999902,4,2,6,80,0,1
107259,-83.3333333333365,4,2,6,80,0,1
107608,-71.4285714285721,4,2,6,80,0,1
107957,-125.000000000009,4,2,6,80,0,1
108305,-83.3333333333365,4,2,6,80,0,1
108654,-100.000000000001,4,2,6,80,0,1
109003,-83.3333333333344,4,2,6,80,0,1
109701,-71.4285714285662,4,2,6,80,0,1
110050,-83.3333333333134,4,2,6,80,0,1
110224,-125.000000000029,4,2,6,80,0,1
110398,-71.4285714285721,4,2,6,80,0,1
110747,-125.000000000009,4,2,6,80,0,1
111096,-83.3333333333365,4,2,6,80,0,1
111445,-500.000000000006,4,2,6,80,0,1
111794,-83.3333333333274,4,2,6,80,0,1
112143,-125.000000000029,4,2,6,80,0,1
112491,-71.4285714285663,4,2,6,80,0,1
112840,-83.3333333333273,4,2,6,80,0,1
113189,-71.4285714285781,4,2,6,80,0,1
113538,-83.3333333333273,4,2,6,80,0,1
113712,-125.000000000009,4,2,6,80,0,1
113887,-125.000000000009,4,2,2,80,0,0
114236,-125.000000000009,4,2,1,80,0,0
114584,-500.000000000006,4,2,7,80,0,0
114933,-500.000000000006,4,2,8,80,0,0
115282,-83.3333333333344,4,2,9,80,0,0
115631,-71.4285714285704,4,2,10,80,0,0
115980,-100.000000000007,4,2,9,80,0,0
116154,-100.000000000007,4,2,10,80,0,0
116241,-100.000000000007,4,2,1,80,0,0
116329,-100.000000000007,4,2,11,80,0,0
116503,-100.000000000007,4,2,7,80,0,0
116677,-100.000000000007,4,2,12,80,0,0
116852,-100.000000000007,4,2,10,80,0,0
117026,-71.4285714285763,4,2,13,80,0,0
117375,-100.000000000007,4,2,12,80,0,0
117637,-100.000000000007,4,2,4,80,0,0
117724,-83.3333333333252,4,2,14,80,0,0
117898,-83.3333333333252,4,2,8,80,0,0
118073,-71.4285714285763,4,2,9,80,0,0
118422,-71.4285714285763,4,2,10,80,0,0
118770,-90.9090909090971,4,2,9,80,0,0
118945,-90.9090909090971,4,2,10,80,0,0
119032,-90.9090909090971,4,2,1,80,0,0
119119,-90.9090909090971,4,2,11,80,0,0
119294,-90.9090909090971,4,2,7,80,0,0
119468,-83.3333333333252,4,2,12,80,0,0
119643,-90.9090909090971,4,2,10,80,0,0
119817,-83.3333333333344,4,2,15,80,0,0
120166,-76.9230769230758,4,2,9,80,0,0
120427,-76.9230769230758,4,2,4,80,0,0
120515,-90.9090909090971,4,2,14,80,0,0
120689,-90.9090909090971,4,2,8,80,0,0
120864,-76.9230769230779,4,2,9,80,0,0
121212,-76.9230769230779,4,2,10,80,0,0
121561,-99.9999999999902,4,2,9,80,0,0
121736,-99.9999999999902,4,2,10,80,0,0
121823,-99.9999999999902,4,2,12,80,0,0
122084,-99.9999999999902,4,2,7,80,0,0
122259,-83.333333333353,4,2,12,80,0,0
122433,-83.333333333353,4,2,10,80,0,0
122608,-83.333333333353,4,2,13,80,0,0
122957,-76.9230769230758,4,2,12,80,0,0
123218,-76.9230769230758,4,2,4,80,0,0
123305,-76.9230769230758,4,2,14,80,0,0
123480,-76.9230769230758,4,2,8,80,0,0
123654,-76.9230769230758,4,2,9,80,0,0
124003,-83.3333333333321,4,2,10,80,0,0
124352,-100.000000000007,4,2,9,80,0,0
124526,-83.3333333333252,4,2,10,80,0,0
124613,-83.3333333333252,4,2,1,80,0,0
124701,-99.9999999999902,4,2,11,80,0,0
124875,-99.9999999999902,4,2,7,80,0,0
125050,-58.8235294117687,4,2,12,80,0,0
125224,-58.8235294117687,4,2,10,80,0,0
125398,-71.4285714285763,4,2,15,80,0,0
125747,-83.3333333333252,4,2,9,80,0,0
126096,-222.222222222273,4,2,7,80,0,0
126270,-222.222222222273,4,2,8,80,0,0
126445,-71.4285714285742,4,2,16,80,0,0
126794,-66.6666666666605,4,2,17,80,0,0
127143,-83.3333333333273,4,2,16,80,0,0
127317,-83.3333333333273,4,2,17,80,0,0
127491,-83.3333333333273,4,2,18,80,0,0
127666,-83.3333333333273,4,2,19,80,0,0
127840,-83.3333333333273,4,2,20,80,0,0
128015,-83.3333333333273,4,2,17,80,0,0
128189,-71.4285714285742,4,2,21,80,0,0
128538,-71.4285714285742,4,2,20,80,0,0
128799,-71.4285714285742,4,2,4,80,0,0
128887,-83.3333333333273,4,2,19,80,0,0
129061,-83.3333333333273,4,2,22,80,0,0
129236,-83.3333333333273,4,2,16,80,0,0
129584,-83.3333333333273,4,2,17,80,0,0
129933,-83.3333333333273,4,2,16,80,0,0
130108,-83.3333333333273,4,2,17,80,0,0
130282,-83.3333333333273,4,2,18,80,0,0
130457,-83.3333333333273,4,2,19,80,0,0
130631,-83.3333333333273,4,2,22,80,0,0
130805,-83.3333333333273,4,2,19,80,0,0
130980,-62.4999999999939,4,2,20,80,0,0
131329,-83.3333333333274,4,2,17,80,0,0
131590,-83.3333333333274,4,2,4,80,0,0
131677,-83.3333333333274,4,2,23,80,0,0
131852,-83.3333333333274,4,2,24,80,0,0
132026,-76.9230769230734,4,2,16,80,0,0
132375,-55.5555555555515,4,2,17,80,0,0
132724,-83.3333333333273,4,2,16,80,0,0
132898,-83.3333333333273,4,2,17,80,0,0
133073,-83.3333333333273,4,2,20,80,0,0
133247,-83.3333333333273,4,2,19,80,0,0
133422,-83.3333333333273,4,2,20,80,0,0
133596,-83.3333333333273,4,2,17,80,0,0
133770,-71.4285714285742,4,2,21,80,0,0
134119,-83.3333333333274,4,2,20,80,0,0
134381,-83.3333333333274,4,2,4,80,0,0
134468,-83.3333333333274,4,2,19,80,0,0
134643,-83.3333333333274,4,2,22,80,0,0
134817,-83.3333333333274,4,2,16,80,0,0
135166,-66.6666666666716,4,2,17,80,0,0
135515,-83.3333333333273,4,2,16,80,0,0
135689,-83.3333333333273,4,2,17,80,0,0
135864,-83.3333333333273,4,2,18,80,0,0
136038,-83.3333333333273,4,2,19,80,0,0
136212,-66.6666666666642,4,2,22,80,0,0
136387,-66.6666666666642,4,2,19,80,0,0
136561,-83.3333333333365,4,2,20,80,0,0
136736,-83.3333333333365,4,2,17,80,0,0
136910,-83.3333333333365,4,2,1,80,0,0
137608,-83.3333333333365,4,2,1,60,0,0
142143,-76.9230769230651,4,2,1,60,0,0
142491,-99.9999999999957,4,2,1,60,0,0
142840,-999.999999999957,4,2,1,60,0,0
143189,-124.999999999995,4,2,1,60,0,0
143887,-166.666666666664,4,2,1,60,0,0
144584,-125.000000000009,4,2,1,60,0,0
145980,-99.9999999999957,4,2,1,60,0,0
146329,-133.333333333342,4,2,1,60,0,0
147375,-222.222222222226,4,2,1,60,0,0
148073,-181.818181818173,4,2,1,60,0,0
148770,-133.333333333342,4,2,1,60,0,0
150166,-99.9999999999985,4,2,1,60,0,0
150689,-133.333333333342,4,2,1,60,0,0
150864,-117.647058823537,4,2,1,60,0,0
151212,-181.818181818178,4,2,1,60,0,0
152259,-100.000000000007,4,2,2,70,0,0
152491,-166.666666666686,4,2,2,70,0,0
152957,-90.909090909087,4,2,2,70,0,0
153305,-76.9230769230736,4,2,2,70,0,0
153654,-99.9999999999957,4,2,2,70,0,0
154352,-99.9999999999957,4,2,2,75,0,0
154701,-200.000000000014,4,2,2,75,0,0
155050,-100.000000000007,4,2,2,75,0,0
156445,-117.647058823538,4,2,2,75,0,0
157143,-90.9090909090895,4,2,2,75,0,0
157491,-100.000000000007,4,2,2,75,0,0
157840,-83.3333333333273,4,2,2,75,0,0
158189,-100.000000000007,4,2,2,75,0,0
158887,-117.647058823538,4,2,2,75,0,0
159236,-499.999999999867,4,2,3,75,0,0
159584,-499.999999999867,4,2,3,75,0,0
159759,-499.999999999867,4,2,2,75,0,0
159933,-71.4285714285781,4,2,2,75,0,0
160195,-90.9090909090945,4,2,2,75,0,0
160631,-71.4285714285662,4,2,2,75,0,0
160893,-83.3333333333274,4,2,2,75,0,0
161329,-125.000000000009,4,2,2,75,0,0
161765,-100.000000000007,4,2,2,75,0,0
162026,-76.9230769230788,4,2,2,75,0,0
162288,-71.4285714285665,4,2,2,75,0,0
162550,-83.3333333333273,4,2,2,75,0,0
164294,-83.3333333333273,4,2,2,65,0,0
164468,-250.000000000017,4,2,2,65,0,0
164817,-111.111111111119,4,2,2,65,0,0
165166,-90.9090909090769,4,2,1,65,0,0
165515,-249.999999999996,4,2,1,65,0,0
166038,-249.999999999996,4,2,2,65,0,0
166212,-83.3333333333391,4,2,4,80,0,0
166474,-222.222222222221,4,2,4,80,0,0
166736,-62.4999999999973,4,2,4,80,0,0
167259,-83.3333333333391,4,2,4,80,0,0
167957,-71.4285714285763,4,2,4,80,0,0
168305,-66.6666666666638,4,2,4,80,0,0
168654,-71.4285714285882,4,2,4,80,0,0
169003,-58.8235294117687,4,2,4,80,0,0
169352,-83.3333333333391,4,2,4,80,0,0
170050,-66.6666666666638,4,2,4,80,0,0
170747,-100.000000000007,4,2,4,80,0,0
171445,-83.3333333333391,4,2,4,80,0,0
172317,-66.6666666666638,4,2,4,80,0,0
172840,-76.9230769230822,4,2,4,80,0,0
173015,-90.9090909090971,4,2,4,80,0,0
173364,-76.9230769230822,4,2,4,80,0,0
173538,-66.6666666666638,4,2,4,80,0,0
173887,-76.9230769230822,4,2,4,80,0,0
174933,-71.4285714285763,4,2,4,80,0,0
175282,-62.5000000000043,4,2,4,80,0,0
175457,-133.333333333342,4,2,4,80,0,0
175631,-62.5000000000043,4,2,4,80,0,0
175805,-133.333333333342,4,2,4,80,0,0
175980,-66.6666666666712,4,2,4,80,0,0
176329,-133.333333333342,4,2,1,80,0,0
177375,-66.6666666666716,4,2,4,80,0,0
177724,-100.000000000007,4,2,4,80,0,0
177898,-76.9230769230745,4,2,4,80,0,0
179817,-99.9999999999735,4,2,4,80,0,0
180166,-76.9230769230916,4,2,4,80,0,0
180864,-66.6666666666642,4,2,4,80,0,0
181212,-83.3333333333273,4,2,4,80,0,0
181692,-83.3333333333273,4,2,4,80,0,0
181736,-83.3333333333273,4,2,1,80,0,0
182084,-83.3333333333273,4,2,2,80,0,0
182259,-90.909090909049,4,2,4,80,0,0
182608,-66.6666666666827,4,2,4,80,0,0
182957,-76.9230769230916,4,2,4,80,0,0
184003,-83.3333333333273,4,2,4,80,0,0
185050,-71.4285714285742,4,2,4,80,0,0
185398,-83.3333333333273,4,2,4,80,0,0
185747,-66.6666666666605,4,2,4,80,0,0
186794,-66.6666666666605,4,2,1,60,0,0
187840,-222.22222222222,4,2,1,60,0,0
197608,-333.333333333332,4,2,1,55,0,0
199003,-222.222222222219,4,2,1,55,0,0
201794,-285.714285714287,4,2,1,55,0,0
204584,-400.000000000001,4,2,1,50,0,0
210166,-380.228136882127,4,2,1,40,0,0
212956,-380.228136882127,4,2,1,5,0,0

[Colours]
Combo1 : 240,175,254
Combo2 : 191,167,254

[HitObjects]
249,86,1038,5,0,0:0:0:0:
246,0,1212,2,0,P|253:43|262:88,1,80,2|0,0:0|0:0,0:0:0:0:
176,154,1561,2,0,P|168:114|161:75,1,80,2|0,0:0|0:0,0:0:0:0:
267,178,1910,1,2,0:0:0:0:
512,142,2259,6,0,B|442:149|412:234|412:234|433:145|385:100,1,288,4|0,1:2|0:0,0:0:0:0:
373,99,2608,2,0,P|394:121|405:170,1,64
251,352,2782,6,0,P|220:310|226:275,1,64,2|0,0:0|0:0,0:0:0:0:
439,367,2957,2,0,P|327:288|289:291,1,176.000000000001,8|0,0:0|0:0,0:0:0:0:
94,193,3480,2,0,L|79:136,1,55.9999999999999,2|0,0:0|0:0,0:0:0:0:
147,72,3654,6,0,B|99:41|45:-22|45:-22|84:112|106:203,1,352.000000000001,2|0,1:2|0:0,0:0:0:0:
61,380,4177,2,0,P|31:343|40:295,1,88.0000000000004,2|0,1:2|0:0,0:0:0:0:
39,298,4352,1,8,0:0:0:0:
118,323,4526,1,2,0:0:0:0:
307,215,4701,6,0,B|381:202|398:277|392:279|403:333|468:331,1,216,2|0,1:2|0:0,0:0:0:0:
512,226,5050,2,0,P|394:269|255:352,1,264,2|0,0:0|0:0,0:0:0:0:
211,273,5398,6,0,P|189:212|206:177,1,88.0000000000003,2|0,0:0|0:0,0:0:0:0:
325,32,5747,1,10,0:0:0:0:
376,94,5922,1,2,0:0:0:0:
319,142,6096,1,2,0:0:0:0:
313,140,6270,1,0,0:0:0:0:
24,139,6445,6,0,P|-2:41|94:11,1,216.000000000001,6|0,1:2|0:0,0:0:0:0:
143,95,7143,2,0,P|104:229|76:365,1,264.000000000002,14|0,1:2|0:0,0:0:0:0:
90,253,7840,2,0,P|100:211|113:169,1,88.0000000000003,2|0,1:2|0:0,0:0:0:0:
238,2,8189,6,0,P|279:40|264:96,1,119.999999999999,0|2,0:0|0:0,0:0:0:0:
363,203,8538,2,0,P|394:187|426:183,1,59.9999999999997,8|0,0:0|0:0,0:0:0:0:
368,108,8712,1,2,0:0:0:0:
368,108,8887,1,0,0:0:0:0:
277,297,9061,1,2,0:0:0:0:
401,370,9236,6,0,B|420:321|448:265|448:265|327:305|189:349,1,368.000000000001,2|0,1:2|0:0,0:0:0:0:
197,174,9759,2,0,L|272:193,1,67.9999999999998,2|0,1:2|0:0,0:0:0:0:
116,370,9933,6,0,P|114:277|192:253,1,136.000000000001,8|0,0:0|0:0,0:0:0:0:
340,131,10282,6,0,P|342:38|246:28,1,176.000000000001,2|0,1:2|0:0,0:0:0:0:
46,181,10805,5,2,0:0:0:0:
23,154,10980,1,2,0:0:0:0:
28,119,11154,1,2,0:0:0:0:
68,54,11329,6,0,L|203:88,1,136.000000000001,10|10,0:0|0:0,0:0:0:0:
204,101,11590,2,0,L|246:112,2,33.9999999999999,8|8|10,0:0|0:0|0:0,0:0:0:0:
462,48,11852,1,8,0:0:0:0:
349,220,12026,6,0,B|338:164|400:146|404:147|409:148|475:121|459:49,1,216,6|8,1:2|0:0,0:0:0:0:
385,0,12375,2,0,B|309:79|395:142|402:144|408:145|491:203|429:277,1,312,6|0,1:2|0:0,0:0:0:0:
368,369,12724,6,0,P|276:316|170:296,1,216,6|8,1:2|0:0,0:0:0:0:
52,373,13073,2,0,P|-21:287|38:225,1,191.999999999999,6|8,1:2|0:0,0:0:0:0:
166,63,13422,6,0,P|123:175|79:303,1,240,6|8,1:2|0:0,0:0:0:0:
177,310,13770,6,0,B|205:260|189:209|129:177|124:187|115:198|53:168|34:115|72:63,1,312.000000000001,2|0,1:2|0:0,0:0:0:0:
251,22,14119,5,10,1:2:0:0:
264,51,14207,1,8,0:0:0:0:
264,82,14294,1,10,0:0:0:0:
252,110,14381,1,8,0:0:0:0:
230,132,14468,1,10,1:2:0:0:
16,263,14643,6,0,P|50:274|83:287,1,72.0000000000006,10|0,0:0|0:0,0:0:0:0:
295,314,14817,2,0,P|197:349|94:388,1,192.000000000002,10|2,1:2|0:0,0:0:0:0:
118,158,15166,6,0,P|194:141|219:269,1,216,10|0,1:2|0:0,0:0:0:0:
44,186,15515,5,10,1:2:0:0:
38,168,15602,1,8,0:0:0:0:
31,152,15689,1,8,0:0:0:0:
199,19,15864,5,10,1:2:0:0:
192,35,15951,1,8,0:0:0:0:
186,53,16038,1,8,0:0:0:0:
147,232,16212,6,0,P|244:195|348:159,1,192,10|0,1:2|0:0,0:0:0:0:
360,244,16474,1,8,0:0:0:0:
375,243,16561,2,0,P|410:213|411:155,1,95.9999999999989,2|0,1:2|0:0,0:0:0:0:
502,163,16736,2,0,P|494:116|444:86,1,95.9999999999989,10|0,0:0|0:0,0:0:0:0:
213,186,16910,5,10,1:2:0:0:
223,187,16997,1,8,0:0:0:0:
233,186,17084,2,0,P|277:170|323:154,1,95.9999999999989,10|8,0:0|0:0,0:0:0:0:
472,0,17259,2,0,P|427:15|382:32,1,95.9999999999949,10|0,1:2|0:0,0:0:0:0:
284,8,17433,6,0,P|256:30|252:65,1,71.9999999999991,10|0,0:0|0:0,0:0:0:0:
414,165,17608,6,0,P|288:120|124:66,1,288.000000000005,10|8,1:2|0:0,0:0:0:0:
0,117,17957,6,0,P|5:17|103:0,1,215.999999999997,10|0,1:2|0:0,0:0:0:0:
117,151,18305,6,0,P|75:164|61:161,1,48,10|0,1:2|0:0,0:0:0:0:
4,110,18654,1,2,0:0:0:0:
0,320,18829,5,10,0:0:0:0:
4,313,18916,1,10,0:0:0:0:
8,319,19003,2,0,P|83:268|195:265,1,192.000000000006,14|0,1:2|0:0,0:0:0:0:
331,123,19265,2,0,P|294:215|224:176,1,159.999999999999,0|0,1:2|0:0,0:0:0:0:
186,129,19526,5,10,1:2:0:0:
192,129,19614,1,8,0:0:0:0:
194,138,19701,2,0,P|228:286|239:383,1,207.999999999995,10|2,1:2|0:0,0:0:0:0:
355,384,19962,6,0,P|364:321|379:259,1,127.999999999997,0|0,1:2|0:0,0:0:0:0:
502,115,20224,5,10,1:2:0:0:
499,109,20311,1,8,0:0:0:0:
506,109,20398,2,0,P|508:97|509:85,4,24.0000000000002,10|2|2|2|2,1:2|0:0|0:0|0:0|0:0,0:0:0:0:
511,194,20660,6,0,B|441:207|427:143|431:139|433:133|409:82|353:83,1,207.999999999999,0|0,1:2|0:0,0:0:0:0:
162,79,20922,5,8,1:2:0:0:
167,76,21009,1,8,0:0:0:0:
173,82,21096,2,0,B|211:111|252:95|276:48|267:40|259:37|284:-9|323:-21|362:0,1,240.000000000002,10|0,1:2|0:0,0:0:0:0:
349,170,21358,6,0,P|296:157|273:74,1,144.000000000004,0|0,1:2|0:0,0:0:0:0:
267,70,21619,2,0,P|260:123|271:147,1,71.9999999999961,8|8,1:2|0:0,0:0:0:0:
479,233,21794,5,10,1:2:0:0:
443,226,21881,1,8,0:0:0:0:
409,237,21968,1,8,1:2:0:0:
386,265,22055,1,8,0:0:0:0:
342,335,22143,5,8,1:2:0:0:
300,364,22230,1,8,0:0:0:0:
250,355,22317,1,8,1:2:0:0:
217,316,22404,1,8,0:0:0:0:
224,308,22491,6,0,P|233:272|246:223,1,80.0000000000012,8|8,1:2|0:0,0:0:0:0:
287,77,22666,2,0,P|276:115|267:154,1,80.0000000000012,8|8,1:2|0:0,0:0:0:0:
147,370,22840,6,0,P|139:342|133:315,1,55.9999999999994,8|8,1:2|0:0,0:0:0:0:
355,21,23015,2,0,P|362:47|369:74,1,56.0000000000017,8|8,1:2|0:0,0:0:0:0:
256,192,23189,5,2,1:2:0:0:
326,371,23364,5,2,0:0:0:0:
326,371,23538,2,0,P|319:333|311:306,1,63.999999999998,10|0,0:0|0:0,0:0:0:0:
246,192,23887,6,0,P|225:178|242:199,1,72.0000000000011,10|0,0:0|0:0,0:0:0:0:
468,331,24061,2,0,P|431:353|391:348,1,71.9999999999982,0|0,1:2|0:0,0:0:0:0:
195,372,24236,6,0,P|314:263|406:273,1,264,10|0,0:0|0:0,0:0:0:0:
469,225,24584,2,0,L|494:154,2,64.000000000001,2|0|2,0:0|0:0|0:0,0:0:0:0:
218,189,25108,5,10,0:0:0:0:
201,183,25195,1,10,0:0:0:0:
190,179,25282,6,0,P|201:141|214:92,1,80.0000000000012,2|0,1:2|0:0,0:0:0:0:
4,332,25544,6,0,P|19:367|87:375,1,99.9999999999998,2|0,1:2|0:0,0:0:0:0:
124,320,25805,6,0,P|84:170|40:41,1,288,6|0,1:2|0:0,0:0:0:0:
155,11,26154,5,2,1:2:0:0:
155,11,26241,1,2,0:0:0:0:
155,11,26329,2,0,P|148:34|138:66,1,56.0000000000031,2|0,1:2|0:0,0:0:0:0:
289,295,26503,6,0,P|246:274|201:260,1,96.0000000000014,2|0,0:0|0:0,0:0:0:0:
289,128,26677,1,2,1:2:0:0:
58,275,26852,6,0,P|84:262|111:253,1,40.0000000000006,2|0,0:0|0:0,0:0:0:0:
307,125,27026,2,0,B|377:112|391:176|387:180|385:186|409:237|465:236,1,207.999999999999,2|0,1:2|0:0,0:0:0:0:
498,31,27288,5,0,0:0:0:0:
488,38,27375,2,0,P|413:146|393:378,1,360,2|0,1:2|0:0,0:0:0:0:
387,374,27724,6,0,P|375:323|378:272,1,88.000000000005,2|0,1:2|0:0,0:0:0:0:
307,26,27898,1,2,0:0:0:0:
307,26,27986,1,0,0:0:0:0:
307,26,28073,2,0,P|200:41|221:146,1,239.999999999994,2|2,1:2|0:0,0:0:0:0:
197,229,28334,1,2,1:2:0:0:
221,156,28422,6,0,P|186:114|183:57,1,88.0000000000013,2|0,0:0|0:0,0:0:0:0:
368,107,28596,2,0,P|338:113|300:127,1,63.9999999999983,2|0,1:2|0:0,0:0:0:0:
168,324,28770,6,0,P|203:332|247:345,1,80.0000000000012,0|0,1:2|0:0,0:0:0:0:
376,270,28945,2,0,P|337:260|298:249,1,80.0000000000012,2|0,0:0|0:0,0:0:0:0:
99,384,29119,6,0,P|71:359|67:315,1,80.0000000000045,2|0,1:2|0:0,0:0:0:0:
11,270,29294,2,0,P|27:236|69:221,1,80.0000000000045,2|0,0:0|0:0,0:0:0:0:
319,358,29468,2,0,P|242:333|162:312,1,159.999999999996,2|2,1:2|0:0,0:0:0:0:
42,131,29730,5,0,0:0:0:0:
53,111,29817,2,0,B|107:85|143:143|141:149|140:156|166:197|223:192,1,191.999999999999,2|0,1:2|0:0,0:0:0:0:
322,79,30166,6,0,P|313:33|300:-10,1,79.9999999999979,6|0,1:2|0:0,0:0:0:0:
512,134,30340,2,0,P|496:168|454:183,1,80.0000000000012,2|0,0:0|0:0,0:0:0:0:
396,19,30515,6,0,P|489:36|497:145,1,192.000000000003,2|2,1:2|0:0,0:0:0:0:
481,312,30776,1,0,0:0:0:0:
472,305,30864,2,0,P|371:235|242:233,1,192.000000000003,2|2,1:2|0:0,0:0:0:0:
278,137,31125,1,2,1:2:0:0:
275,145,31212,1,2,0:0:0:0:
79,352,31387,6,0,B|27:308|75:227|83:226|91:226|168:182|100:85,1,288,2|0,1:2|0:0,0:0:0:0:
18,76,31736,5,2,1:2:0:0:
18,76,31823,1,2,0:0:0:0:
18,76,31910,2,0,P|14:115|39:153,1,80.0000000000012,2|0,1:2|0:0,0:0:0:0:
152,314,32084,2,0,P|189:319|238:347,1,80.0000000000045,2|0,0:0|0:0,0:0:0:0:
213,239,32259,1,2,1:2:0:0:
74,363,32433,5,2,0:0:0:0:
214,158,32608,2,0,B|291:154|305:225|300:229|299:236|325:301|386:299,1,240.000000000009,2|0,1:2|0:0,0:0:0:0:
465,350,32869,1,0,0:0:0:0:
474,347,32957,2,0,P|504:235|388:220,1,263.999999999997,6|0,1:2|0:0,0:0:0:0:
378,216,33305,2,0,P|403:197|436:193,1,63.9999999999956,2|0,0:0|0:0,0:0:0:0:
488,117,33480,1,2,0:0:0:0:
493,105,33567,1,0,0:0:0:0:
493,92,33654,1,2,1:2:0:0:
395,35,33829,5,2,0:0:0:0:
322,69,33916,1,2,1:2:0:0:
282,0,34003,2,0,B|215:-10|197:49|201:53|201:59|177:113|120:106,1,208.000000000003,2|2,0:0|1:2,0:0:0:0:
13,64,34265,1,0,0:0:0:0:
13,64,34352,6,0,P|33:122|49:187,1,120.000000000002,6|0,1:2|0:0,0:0:0:0:
108,236,34526,2,0,P|96:268|87:305,1,64.0000000000009,2|0,0:0|0:0,0:0:0:0:
163,363,34701,6,0,P|179:301|200:240,1,128.000000000002,2|0,1:2|0:0,0:0:0:0:
267,182,34875,2,0,P|258:151|248:120,1,64.0000000000009,2|0,0:0|0:0,0:0:0:0:
477,262,35050,6,0,P|468:145|342:160,1,240.000000000004,6|2,1:2|0:0,0:0:0:0:
311,60,35311,1,0,0:0:0:0:
353,137,35398,6,0,P|388:119|420:120,1,56.0000000000007,2|0,1:1|0:0,0:0:0:0:
29,114,36096,6,0,P|74:103|109:85,1,80.0000000000012,14|0,1:2|0:0,0:0:0:0:
305,220,36270,2,0,P|260:209|225:191,1,80.0000000000012,2|0,0:0|0:0,0:0:0:0:
85,0,36445,6,0,P|167:17|173:144,1,208.000000000004,2|2,1:2|0:0,0:0:0:0:
144,286,36707,5,2,1:2:0:0:
148,276,36794,2,0,P|137:229|116:185,1,95.9999999999989,10|0,0:0|0:0,0:0:0:0:
334,65,36968,6,0,P|267:205|233:357,1,312.000000000001,2|0,1:2|0:0,0:0:0:0:
8,324,37317,5,2,1:2:0:0:
0,329,37404,1,2,0:0:0:0:
0,321,37491,2,0,P|17:277|59:257,1,95.9999999999989,10|0,1:2|0:0,0:0:0:0:
31,166,37666,2,0,P|77:158|115:185,1,95.9999999999989,2|0,0:0|0:0,0:0:0:0:
329,320,37840,6,0,P|365:302|404:294,1,80.0000000000012,2|0,1:2|0:0,0:0:0:0:
148,276,38015,2,0,P|184:258|223:250,1,80.0000000000012,2|0,0:0|0:0,0:0:0:0:
447,77,38189,2,0,P|462:165|385:212,1,191.999999999998,10|0,1:2|0:0,0:0:0:0:
293,106,38451,5,0,0:0:0:0:
300,111,38538,2,0,P|334:196|390:388,1,287.999999999997,2|0,1:2|0:0,0:0:0:0:
329,320,38887,2,0,P|311:260|301:240,1,64.0000000000009,10|0,1:2|0:0,0:0:0:0:
447,77,39061,5,2,0:0:0:0:
445,66,39148,1,0,0:0:0:0:
456,69,39236,2,0,P|483:113|470:166,1,87.9999999999965,2|0,1:2|0:0,0:0:0:0:
439,284,39410,1,2,0:0:0:0:
434,277,39497,6,0,P|374:247|215:200,1,208.000000000004,2|0,1:2|0:0,0:0:0:0:
172,115,39759,2,0,P|214:102|254:84,1,87.9999999999965,2|0,1:2|0:0,0:0:0:0:
24,3,39933,6,0,P|48:57|66:114,1,120.000000000001,0|0,1:2|0:0,0:0:0:0:
111,183,40108,2,0,P|97:211|88:242,1,64.0000000000009,2|0,0:0|0:0,0:0:0:0:
183,370,40282,6,0,P|207:315|225:258,1,120.000000000001,10|0,1:2|0:0,0:0:0:0:
270,190,40457,2,0,P|256:161|247:130,1,64.0000000000009,2|0,0:0|0:0,0:0:0:0:
4,243,40631,6,0,P|30:309|116:321,1,144.000000000002,0|0,1:2|0:0,0:0:0:0:
121,318,40805,1,8,0:1:0:0:
225,257,40980,1,8,0:1:0:0:
318,88,41329,6,0,P|306:44|291:0,1,80.0000000000012,6|0,1:2|0:0,0:0:0:0:
501,150,41503,2,0,P|485:184|443:199,1,80.0000000000012,2|0,0:0|0:0,0:0:0:0:
385,25,41677,6,0,P|480:42|488:151,1,208.000000000004,8|2,1:2|0:0,0:0:0:0:
512,294,41939,1,0,0:0:0:0:
507,283,42026,2,0,P|405:211|256:223,1,208.000000000004,0|2,1:2|0:0,0:0:0:0:
249,237,42288,1,2,1:2:0:0:
242,243,42375,1,10,0:0:0:0:
76,63,42550,6,0,B|204:13|204:13|126:234,1,360.000000000003,2|0,1:2|0:0,0:0:0:0:
7,316,42898,5,2,1:2:0:0:
0,317,42986,1,2,0:0:0:0:
0,310,43073,2,0,P|16:276|58:261,1,80.0000000000012,10|0,1:2|0:0,0:0:0:0:
176,151,43247,2,0,P|187:112|200:75,1,80.0000000000012,2|0,0:0|0:0,0:0:0:0:
129,222,43422,1,2,1:2:0:0:
264,300,43596,2,0,P|227:303|193:274,1,80.0000000000012,2|0,0:0|0:0,0:0:0:0:
16,0,43770,6,0,P|72:158|117:320,1,335.999999999996,10|0,1:2|0:0,0:0:0:0:
254,384,44119,6,0,P|350:319|311:226,1,208.000000000004,2|0,1:2|0:0,0:0:0:0:
67,64,44468,6,0,P|80:101|91:140,1,80.0000000000012,10|0,0:0|0:0,0:0:0:0:
306,147,44643,1,2,0:0:0:0:
287,140,44730,1,0,0:0:0:0:
267,134,44817,1,2,1:2:0:0:
117,320,44991,5,2,0:0:0:0:
113,312,45079,1,2,0:0:0:0:
109,319,45166,2,0,P|222:278|337:246,1,240.000000000002,10|2,0:0|0:0,0:0:0:0:
512,211,45515,5,4,1:2:0:0:
256,192,45602,12,4,47084,0:0:0:0:
119,107,47259,70,0,B|89:7|-49:34|-43:148|27:177|31:175|35:171|62:194|70:230,1,314.400000000005,2|0,0:0|0:0,0:0:0:0:
119,107,47608,70,0,B|209:32|310:140|237:232|161:215|159:210|158:204|104:212|84:268,1,358.400000000001,2|0,0:0|0:0,0:0:0:0:
0,329,47957,6,0,L|23:324,1,24.0000000000004,2|0,0:0|0:0,0:0:0:0:
84,266,48305,6,0,B|186:285|277:339,1,208.000000000012,2|0,1:2|0:0,0:0:0:0:
349,294,48567,1,8,0:0:0:0:
345,305,48654,1,0,1:2:0:0:
501,181,48829,6,0,P|511:150|488:108,1,80.0000000000012,10|0,0:0|0:0,0:0:0:0:
482,35,49003,1,2,1:2:0:0:
483,28,49090,2,0,P|377:46|381:130,1,159.999999999996,8|8,0:0|0:0,0:0:0:0:
370,91,49352,1,0,1:2:0:0:
441,336,49526,2,0,P|431:305|454:263,1,80.0000000000012,10|0,0:0|0:0,0:0:0:0:
373,188,49701,5,2,1:2:0:0:
367,195,49788,2,0,P|289:170|207:150,1,160.000000000002,8|8,0:0|0:0,0:0:0:0:
66,104,50050,2,0,P|57:62|43:21,1,80.0000000000078,0|0,1:2|0:0,0:0:0:0:
141,1,50224,2,0,P|150:43|164:84,1,80.0000000000012,10|0,0:0|0:0,0:0:0:0:
35,267,50398,1,2,1:2:0:0:
194,227,50573,1,2,0:0:0:0:
11,188,50747,6,0,B|85:164|110:232|110:235|109:239|123:313|207:306,1,240.000000000004,2|0,1:2|0:0,0:0:0:0:
266,365,51096,2,0,P|332:292|402:296,1,159.999999999996,2|0,1:2|0:0,0:0:0:0:
456,260,51358,1,8,0:0:0:0:
458,252,51445,1,2,1:2:0:0:
352,73,51619,1,8,0:0:0:0:
429,21,51794,6,0,P|449:60|435:103,1,79.9999999999945,2|8,1:2|0:0,0:0:0:0:
501,144,51968,2,0,P|468:173|423:171,1,80.0000000000012,2|8,0:0|0:0,0:0:0:0:
274,18,52143,6,0,P|250:95|313:153,1,160.000000000002,2|8,1:2|0:0,0:0:0:0:
506,294,52491,5,2,1:2:0:0:
509,287,52579,2,0,L|356:239,1,160.000000000009,8|8,0:0|0:0,0:0:0:0:
171,331,52840,2,0,L|93:354,1,80.0000000000078,0|0,1:2|0:0,0:0:0:0:
64,277,53015,2,0,L|140:254,1,80.0000000000078,8|0,0:0|0:0,0:0:0:0:
310,369,53189,5,2,1:2:0:0:
298,148,53364,6,0,P|322:136|300:153,1,79.9999999999945,0|8,0:0|0:0,0:0:0:0:
237,273,53538,2,0,P|220:195|117:171,1,167.999999999993,2|0,1:2|0:0,0:0:0:0:
45,172,53887,6,0,B|30:150|2:132|2:132|63:31,1,160.000000000002,2|0,1:2|0:0,0:0:0:0:
50,26,54148,1,8,0:0:0:0:
50,26,54236,1,0,1:2:0:0:
210,80,54410,2,0,L|293:64,1,80.0000000000078,10|0,0:0|0:0,0:0:0:0:
488,27,54584,5,2,1:2:0:0:
488,27,54672,2,0,P|403:39|388:108,1,160.000000000002,8|8,0:0|0:0,0:0:0:0:
457,162,54933,2,0,P|465:198|478:245,1,80.0000000000012,0|0,1:2|0:0,0:0:0:0:
340,274,55108,2,0,P|350:235|359:196,1,80.0000000000012,10|0,0:0|0:0,0:0:0:0:
485,376,55282,5,2,1:2:0:0:
475,375,55369,2,0,P|384:311|242:303,1,239.99999999999,8|0,0:0|1:2,0:0:0:0:
94,187,55805,6,0,P|60:205|18:210,1,80.0000000000078,10|0,0:0|0:0,0:0:0:0:
172,342,55980,2,0,P|177:247|255:218,1,160.000000000009,0|0,1:2|0:0,0:0:0:0:
233,219,56241,1,8,0:0:0:0:
232,219,56329,1,2,1:2:0:0:
426,54,56503,2,0,P|430:98|414:135,1,80.0000000000012,8|0,0:0|0:0,0:0:0:0:
409,129,56677,2,0,P|404:34|326:5,1,160.000000000002,0|2,1:2|0:0,0:0:0:0:
309,240,57026,6,0,P|352:256|392:275,1,80.0000000000012,2|0,1:2|0:0,0:0:0:0:
505,237,57201,2,0,P|468:220|431:206,1,80.0000000000012,10|0,0:0|0:0,0:0:0:0:
314,84,57375,5,2,1:2:0:0:
311,93,57462,2,0,L|148:128,1,160.000000000002,8|8,0:0|0:0,0:0:0:0:
72,83,57724,2,0,P|57:46|82:4,1,79.9999999999945,0|0,1:2|0:0,0:0:0:0:
85,4,57898,1,10,0:0:0:0:
145,215,58073,6,0,L|27:187,1,112.000000000002,6|8,1:2|0:0,0:0:0:0:
32,185,58247,1,8,0:0:0:0:
77,358,58422,6,0,L|194:330,1,112.000000000002,6|8,1:2|0:0,0:0:0:0:
192,319,58596,1,8,0:0:0:0:
447,301,58770,6,0,P|495:264|463:197,1,128.000000000013,6|8,1:2|0:0,0:0:0:0:
466,199,58945,1,8,0:0:0:0:
281,55,59119,6,0,P|300:140|356:133,1,143.999999999986,6|8,1:2|0:0,0:0:0:0:
362,127,59294,1,8,0:0:0:0:
485,19,59468,6,0,P|453:53|379:255,1,239.99999999999,6|8,1:2|0:0,0:0:0:0:
396,384,59817,6,0,P|467:362|463:288,1,160.000000000002,10|10,0:0|0:0,0:0:0:0:
276,241,60079,5,0,0:0:0:0:
286,242,60166,2,0,P|306:275|321:316,1,80.0000000000012,2|0,1:2|0:0,0:0:0:0:
380,229,60340,2,0,P|360:196|345:155,1,80.0000000000012,2|8,0:0|0:0,0:0:0:0:
152,351,60515,6,0,P|185:331|226:316,1,80.0000000000012,10|0,0:0|0:0,0:0:0:0:
506,119,60689,2,0,P|469:133|435:154,1,79.9999999999945,10|0,0:0|0:0,0:0:0:0:
77,55,60864,5,2,1:2:0:0:
211,170,61038,1,2,0:0:0:0:
77,55,61212,2,0,P|144:36|221:162,1,240.000000000004,10|0,0:0|0:0,0:0:0:0:
331,266,61561,2,0,P|286:318|218:314,1,136.000000000001,2|0,1:2|0:0,0:0:0:0:
155,266,61823,5,8,0:0:0:0:
146,258,61910,1,10,0:0:0:0:
350,96,62084,1,8,0:0:0:0:
128,130,62259,6,0,P|249:152|390:197,1,263.999999999989,2|8,1:2|0:0,0:0:0:0:
298,180,62608,2,0,P|254:167|205:157,1,80.0000000000012,10|0,0:0|0:0,0:0:0:0:
124,34,62782,2,0,P|168:47|217:57,1,80.0000000000012,10|0,0:0|0:0,0:0:0:0:
394,28,62957,6,0,P|429:60|415:118,1,80.0000000000012,2|0,1:2|0:0,0:0:0:0:
512,130,63131,2,0,P|501:177|444:193,1,80.0000000000012,2|8,0:0|0:0,0:0:0:0:
321,339,63305,6,0,P|281:347|243:359,1,80.0000000000012,10|0,0:0|0:0,0:0:0:0:
310,192,63480,1,10,0:0:0:0:
434,325,63654,6,0,P|395:246|252:266,1,239.999999999997,2|8,1:2|0:0,0:0:0:0:
162,243,64003,2,0,P|121:203|130:126,1,135.999999999996,10|8,0:0|0:0,0:0:0:0:
275,0,64352,6,0,P|244:90|213:194,1,180.000000000001,2|8,1:2|0:0,0:0:0:0:
51,296,64701,2,0,P|32:201|10:94,1,204.000000000002,10|0,0:0|0:0,0:0:0:0:
297,204,65050,6,0,P|225:129|124:134,1,184.000000000003,2|0,1:2|0:0,0:0:0:0:
4,89,65311,1,8,0:0:0:0:
0,81,65398,2,0,P|25:10|96:6,1,135.999999999996,10|8,0:0|0:0,0:0:0:0:
160,37,65660,5,0,0:0:0:0:
150,45,65747,2,0,P|104:168|75:297,1,264.000000000004,2|8,1:2|0:0,0:0:0:0:
109,198,66096,2,0,P|118:163|132:130,1,72.0000000000051,10|0,0:0|0:0,0:0:0:0:
87,310,66270,1,10,0:0:0:0:
7,98,66445,6,0,B|50:74|93:88|120:139|112:143|102:151|128:203|173:220|217:187,1,264.000000000004,2|8,1:2|0:0,0:0:0:0:
227,277,66794,2,0,B|282:279|305:220|304:214|300:210|312:146|381:149,1,216.000000000009,10|0,0:0|0:0,0:0:0:0:
380,148,67143,1,2,1:2:0:0:
471,250,67317,5,0,0:0:0:0:
480,251,67404,1,8,0:0:0:0:
469,256,67491,2,0,P|430:244|391:234,1,79.9999999999945,10|0,0:0|0:0,0:0:0:0:
323,78,67666,2,0,P|335:39|345:0,1,79.9999999999945,8|0,0:0|0:0,0:0:0:0:
512,113,67840,6,0,P|446:130|381:149,1,136.000000000013,2|0,1:2|0:0,0:0:0:0:
308,188,68102,1,8,0:0:0:0:
300,193,68189,1,10,0:0:0:0:
229,71,68364,6,0,P|205:59|227:76,1,79.9999999999945,8|0,0:0|0:0,0:0:0:0:
205,200,68538,2,0,P|224:111|341:84,1,203.999999999998,0|8,1:2|0:0,0:0:0:0:
380,149,68887,1,10,0:0:0:0:
358,343,69061,6,0,P|348:310|338:278,1,67.9999999999955,8|0,0:0|0:0,0:0:0:0:
300,193,69236,2,0,P|325:273|347:354,1,167.999999999998,4|8,1:2|0:0,0:0:0:0:
468,266,69584,6,0,P|488:188|512:112,1,160.000000000002,8|8,0:0|0:0,0:0:0:0:
424,55,69846,1,0,0:0:0:0:
414,51,69933,2,0,P|359:65|306:82,1,95.9999999999989,2|8,0:0|0:0,0:0:0:0:
158,124,70282,6,0,P|184:115|211:108,1,55.9999999999988,10|0,0:0|0:0,0:0:0:0:
246,100,70631,5,6,1:2:0:0:
250,290,70980,1,0,1:2:0:0:
251,273,71329,1,0,1:2:0:0:
251,256,71677,1,0,1:2:0:0:
14,268,72026,5,0,1:2:0:0:
83,246,72375,1,0,1:2:0:0:
144,286,72724,1,0,1:2:0:0:
158,356,73073,1,0,1:2:0:0:
438,82,73422,5,2,1:2:0:0:
368,61,73770,1,0,1:2:0:0:
297,45,74119,1,0,1:2:0:0:
225,31,74468,1,0,1:2:0:0:
370,272,74817,5,0,1:2:0:0:
400,251,75166,1,0,1:2:0:0:
415,217,75515,1,0,1:2:0:0:
410,180,75864,1,0,1:2:0:0:
213,25,76212,5,2,1:2:0:0:
227,97,76561,1,0,1:2:0:0:
243,168,76910,1,0,1:2:0:0:
261,240,77259,1,0,1:2:0:0:
477,367,77608,5,2,1:2:0:0:
410,317,77957,1,0,1:2:0:0:
382,239,78305,1,0,1:2:0:0:
402,158,78654,1,0,1:2:0:0:
259,247,79003,5,2,1:2:0:0:
187,229,79352,1,0,1:2:0:0:
116,213,79701,1,0,1:2:0:0:
44,199,80050,1,0,1:2:0:0:
297,364,80398,5,2,1:2:0:0:
289,331,80747,1,0,1:2:0:0:
280,298,81096,1,0,1:2:0:0:
271,265,81445,1,0,1:2:0:0:
5,202,81794,6,0,P|72:204|109:270,1,144.000000000011,14|8,1:2|0:0,0:0:0:0:
197,312,82143,2,0,P|240:304|273:254,1,95.9999999999989,10|8,1:2|0:0,0:0:0:0:
204,169,82491,1,10,1:2:0:0:
204,169,82579,1,8,0:0:0:0:
204,169,82666,2,0,P|197:191|192:215,1,47.9999999999886,8|8,0:0|0:0,0:0:0:0:
42,328,82840,2,0,P|37:304|29:281,1,48.0000000000046,10|0,1:2|0:0,0:0:0:0:
126,381,83015,1,8,0:0:0:0:
362,288,83189,5,10,1:2:0:0:
362,288,83276,2,0,P|316:274|269:263,1,96.0000000000012,8|8,0:0|0:0,0:0:0:0:
136,114,83538,2,0,P|150:69|160:22,1,96.0000000000093,10|8,1:2|0:0,0:0:0:0:
311,49,83887,5,10,1:2:0:0:
324,84,83974,1,8,0:0:0:0:
317,121,84061,1,8,0:0:0:0:
288,146,84148,1,8,0:0:0:0:
277,156,84236,2,0,P|255:163|231:168,1,47.9999999999886,10|8,1:2|0:0,0:0:0:0:
114,106,84410,2,0,P|92:113|68:118,1,48.0000000000046,8|8,0:0|0:0,0:0:0:0:
14,280,84584,6,0,P|51:232|139:238,1,144.000000000011,10|8,1:2|0:0,0:0:0:0:
194,174,84933,2,0,P|219:200|214:261,1,95.9999999999989,10|8,1:2|0:0,0:0:0:0:
124,378,85282,1,10,1:2:0:0:
158,366,85369,1,8,0:0:0:0:
192,355,85457,1,8,0:0:0:0:
227,347,85544,1,8,0:0:0:0:
263,341,85631,5,10,1:2:0:0:
347,283,85805,1,8,0:0:0:0:
129,231,85980,1,10,1:2:0:0:
133,242,86067,1,8,0:0:0:0:
249,159,86241,1,8,0:0:0:0:
245,170,86328,1,10,1:2:0:0:
331,32,86677,5,10,1:2:0:0:
295,22,86765,1,8,0:0:0:0:
262,42,86852,1,8,0:0:0:0:
251,74,86939,1,8,0:0:0:0:
321,116,87026,2,0,P|344:109|368:104,1,47.9999999999886,10|8,1:2|0:0,0:0:0:0:
451,12,87201,2,0,P|428:8|405:0,1,47.9999999999886,8|8,0:0|0:0,0:0:0:0:
487,211,87375,5,14,1:2:0:0:
333,243,87550,1,0,0:0:0:0:
333,243,87637,1,8,0:0:0:0:
333,243,87724,2,0,P|328:219|321:196,1,47.9999999999966,10|0,1:2|0:0,0:0:0:0:
428,280,87898,1,8,0:0:0:0:
254,370,88073,5,10,1:2:0:0:
209,383,88160,1,8,0:0:0:0:
167,358,88247,1,8,0:0:0:0:
154,318,88334,1,8,0:0:0:0:
227,291,88422,2,0,P|233:262|244:234,1,59.999999999996,10|8,1:2|0:0,0:0:0:0:
177,183,88596,1,8,0:0:0:0:
17,60,88770,5,10,1:2:0:0:
49,26,88858,1,8,0:0:0:0:
98,26,88945,1,8,0:0:0:0:
129,55,89032,1,8,0:0:0:0:
78,114,89119,2,0,P|87:142|93:172,1,59.999999999996,10|8,1:2|0:0,0:0:0:0:
177,183,89294,1,8,0:0:0:0:
277,0,89468,5,10,1:2:0:0:
238,38,89555,1,8,0:0:0:0:
230,90,89643,1,8,0:0:0:0:
254,137,89730,1,8,0:0:0:0:
269,142,89817,5,10,1:2:0:0:
317,165,89904,1,8,0:0:0:0:
342,213,89991,1,8,0:0:0:0:
334,264,90079,1,0,0:0:0:0:
230,309,90166,6,0,P|201:298|172:292,1,59.999999999986,10|8,1:2|0:0,0:0:0:0:
194,214,90340,2,0,P|222:224|252:231,1,60.000000000006,10|8,1:2|0:0,0:0:0:0:
323,353,90515,6,0,P|356:340|391:332,1,71.9999999999952,10|8,1:2|0:0,0:0:0:0:
444,189,90689,2,0,P|477:176|512:168,1,71.9999999999952,10|8,1:2|0:0,0:0:0:0:
245,61,90864,6,0,P|259:100|268:141,1,84.0000000000082,10|8,1:2|0:0,0:0:0:0:
350,117,91038,2,0,P|335:77|326:36,1,83.9999999999802,10|8,1:2|0:0,0:0:0:0:
167,375,91212,6,0,P|122:358|75:347,1,95.9999999999934,10|8,1:2|0:0,0:0:0:0:
91,207,91387,2,0,P|46:190|-1:179,1,95.9999999999934,10|8,1:2|0:0,0:0:0:0:
323,352,91561,5,6,1:2:0:0:
171,270,91736,6,0,P|176:238|189:207,1,60.000000000006,2|0,0:0|0:0,0:0:0:0:
0,91,91910,6,0,P|103:139|90:209,1,191.999999999987,10|0,0:0|0:0,0:0:0:0:
242,323,92259,2,0,P|306:313|328:273,1,112.000000000002,10|0,0:0|1:2,0:0:0:0:
280,96,92608,6,0,P|259:75|228:64,3,48.0000000000047,10|0|0|2,0:0|0:0|0:0|0:0,0:0:0:0:
463,142,92782,2,0,P|481:120|498:103,3,47.9999999999967,2|0|0|2,0:0|0:0|0:0|0:0,0:0:0:0:
436,258,92957,6,0,B|433:216|406:170|348:160|352:218|255:168|239:63|272:3|363:-1|421:19|419:101|419:101,1,383.999999999995,6|0,1:2|0:0,0:0:0:0:
420,73,93305,2,0,B|426:92|417:-4|326:-41|223:35|220:136|332:229|326:161|399:180|431:210|431:270,1,432.000000000018,2|0,1:2|0:0,0:0:0:0:
357,278,93654,6,0,P|398:185|496:84,1,240.000000000004,2|0,1:2|0:0,0:0:0:0:
505,65,93916,2,0,P|403:164|341:294,1,287.99999999998,2|0,1:2|0:0,0:0:0:0:
304,371,94177,1,2,1:2:0:0:
103,224,94352,6,0,P|27:190|50:112,1,159.999999999989,2|0,1:2|0:0,0:0:0:0:
34,110,94526,2,0,P|13:163|17:195,1,80.0000000000078,2|0,0:0|0:0,0:0:0:0:
147,299,94701,2,0,P|251:252|219:144,1,240.000000000004,2|2,1:2|0:0,0:0:0:0:
137,111,94962,1,0,0:0:0:0:
137,111,95050,1,2,1:2:0:0:
303,343,95224,5,2,0:0:0:0:
303,352,95311,2,0,P|354:361|402:388,1,96.0000000000093,0|0,1:2|0:0,0:0:0:0:
488,349,95573,2,0,P|497:284|439:231,1,144.000000000014,2|0,1:2|0:0,0:0:0:0:
358,219,95747,6,0,B|331:168|285:188|282:190|278:192|161:185|211:65|281:40|322:94|324:127,1,287.999999999996,2|0,1:2|0:0,0:0:0:0:
361,220,96096,2,0,B|363:152|426:153|431:155|438:155|531:64|438:-32|306:-9|313:95|328:125,1,368.000000000005,2|0,1:2|0:0,0:0:0:0:
60,363,96445,6,0,P|29:251|-12:161,1,207.999999999986,2|0,1:2|0:0,0:0:0:0:
0,27,96707,2,0,P|94:45|107:190,1,256.000000000004,2|0,1:2|0:0,0:0:0:0:
115,194,96968,2,0,P|137:153|138:105,1,95.9999999999774,2|0,1:2|0:0,0:0:0:0:
0,285,97143,2,0,P|122:287|264:371,1,288.000000000004,2|2,1:2|0:0,0:0:0:0:
111,275,97491,2,0,P|177:296|275:372,1,176.000000000003,2|0,1:2|0:0,0:0:0:0:
456,342,97753,5,0,0:0:0:0:
456,342,97840,2,0,P|511:303|493:227,1,144.000000000002,2|0,1:2|0:0,0:0:0:0:
331,313,98102,2,0,P|311:235|435:169,1,208.000000000003,2|0,1:2|0:0,0:0:0:0:
477,116,98364,2,0,P|506:118|477:128,1,79.9999999999945,2|0,1:2|0:0,0:0:0:0:
323,315,98538,6,0,B|250:212|354:159|358:163|364:166|455:88|369:-11,1,360.000000000015,2|0,1:2|0:0,0:0:0:0:
368,6,98887,2,0,B|443:95|345:169|339:165|335:162|238:219|311:322,1,359.999999999995,2|0,1:2|0:0,0:0:0:0:
205,134,99236,6,0,P|311:190|410:257,1,240.000000000004,2|0,1:2|0:0,0:0:0:0:
423,256,99497,2,0,P|312:182|178:110,1,272.000000000004,2|0,1:2|0:0,0:0:0:0:
20,91,99759,6,0,P|52:69|91:65,1,80.0000000000078,2|0,1:2|0:0,0:0:0:0:
161,229,99933,2,0,P|9:215|110:74,1,383.999999999974,2|0,1:2|0:0,0:0:0:0:
162,7,100282,6,0,P|176:66|189:114,1,103.999999999994,2|2,1:2|0:0,0:0:0:0:
417,373,100631,6,0,P|501:303|442:211,1,240.000000000004,2|0,1:2|0:0,0:0:0:0:
355,311,100893,2,0,P|243:330|145:364,1,208.000000000003,2|0,1:2|0:0,0:0:0:0:
259,238,101154,2,0,P|310:228|359:212,1,103.999999999993,2|0,1:2|0:0,0:0:0:0:
91,30,101329,6,0,P|206:56|229:149,1,208.000000000003,2|0,1:2|0:0,0:0:0:0:
93,19,101677,2,0,P|192:31|239:120,1,208.00000000002,2|0,1:2|0:0,0:0:0:0:
111,340,102026,6,0,P|30:243|56:140,1,240.000009155274,2|0,1:2|0:0,0:0:0:0:
50,129,102288,2,0,P|32:292|128:359,1,272.000005187988,2|0,1:2|0:0,0:0:0:0:
135,207,102550,6,0,P|155:227|130:215,1,79.9999999999945,2|0,1:2|0:0,0:0:0:0:
449,45,102724,6,0,P|469:117|394:154,1,160.000000000016,6|0,1:2|0:0,0:0:0:0:
403,149,102898,1,0,0:0:0:0:
197,3,103073,6,0,P|177:75|252:112,1,159.999999999962,6|0,1:2|0:0,0:0:0:0:
247,103,103247,1,8,0:0:0:0:
389,361,103422,6,0,P|399:314|417:250,1,111.999996582031,6|0,1:2|0:0,0:0:0:0:
416,252,103596,1,0,0:0:0:0:
345,32,103770,6,0,P|306:195|267:359,1,335.999999999977,6|0,1:2|0:0,0:0:0:0:
69,332,104119,6,0,P|43:222|17:113,1,223.999999999979,2|0,1:2|0:0,0:0:0:0:
137,236,104381,1,0,0:0:0:0:
145,225,104468,2,0,P|159:160|175:95,1,96.0000000000069,10|0,0:0|0:0,0:0:0:0:
24,259,104643,1,0,0:0:0:0:
256,12,104817,6,0,P|281:121|307:230,1,192.000000000014,2|0,1:2|0:0,0:0:0:0:
407,165,105079,1,2,1:2:0:0:
399,176,105166,2,0,P|384:240|368:305,1,96.0000000000069,8|0,0:0|0:0,0:0:0:0:
272,12,105340,2,0,P|286:76|302:141,1,96.0000000000069,2|0,1:2|0:0,0:0:0:0:
512,169,105515,5,2,1:2:0:0:
500,164,105602,1,0,0:0:0:0:
504,178,105689,2,0,P|493:224|482:271,1,96.0000000000069,2|0,0:0|0:0,0:0:0:0:
424,86,105864,6,0,P|457:227|491:369,1,288.000000000021,10|0,0:0|0:0,0:0:0:0:
293,105,106212,6,0,P|268:214|242:323,1,191.999999999982,2|0,1:2|0:0,0:0:0:0:
394,375,106474,5,2,1:2:0:0:
399,362,106561,2,0,P|384:298|368:233,1,96.0000000000069,8|0,0:0|0:0,0:0:0:0:
296,373,106736,1,2,1:2:0:0:
211,119,106910,5,2,1:2:0:0:
209,131,106997,2,0,P|220:178|231:224,1,80.0000000000078
293,105,107172,1,0,0:0:0:0:
138,280,107259,6,0,P|172:140|204:0,1,287.999999999989,10|0,0:0|0:0,0:0:0:0:
72,164,107608,6,0,P|102:290|132:416,1,223.999999999998,2|0,1:2|0:0,0:0:0:0:
249,292,107869,5,2,1:2:0:0:
251,304,107957,2,0,P|241:349|230:394,1,63.9999999999956,8|0,0:0|0:0,0:0:0:0:
49,250,108131,2,0,P|56:281|64:312,1,63.9999999999849,2|0,1:2|0:0,0:0:0:0:
512,258,108305,6,0,P|385:252|341:401,1,287.999999999989,2|0,1:2|0:0,0:0:0:0:
0,148,108654,6,0,P|104:163|135:289,1,239.999999999997,10|0,0:0|0:0,0:0:0:0:
216,384,109003,6,0,P|239:286|262:188,1,191.999999999998,2|0,1:2|0:0,0:0:0:0:
344,111,109265,1,2,1:2:0:0:
339,124,109352,2,0,P|354:188|370:253,1,96.0000000000069,10|0,0:0|0:0,0:0:0:0:
225,297,109526,2,0,P|236:250|247:204,1,96.0000000000069,2|0,1:2|0:0,0:0:0:0:
100,32,109701,6,0,P|74:141|48:250,1,224.000000000016,2|0,1:2|0:0,0:0:0:0:
15,58,109962,1,0,0:0:0:0:
10,71,110050,2,0,P|25:135|41:200,1,96.0000000000229,10|0,0:0|0:0,0:0:0:0:
205,17,110224,2,0,P|195:62|184:107,1,63.9999999999849
155,334,110398,6,0,P|129:225|103:116,1,223.999999999998,2|0,1:2|0:0,0:0:0:0:
247,203,110660,1,2,1:2:0:0:
245,191,110747,2,0,P|255:146|266:101,1,63.9999999999956,8|0,0:0|0:0,0:0:0:0:
148,344,110922,2,0,P|138:299|127:254,1,63.9999999999956,2|0,1:2|0:0,0:0:0:0:
444,61,111096,6,0,P|411:202|377:344,1,287.999999999989,2|0,1:2|0:0,0:0:0:0:
421,222,111445,6,0,P|427:199|432:175,1,47.9999999999994,10|0,0:0|0:0,0:0:0:0:
319,234,111794,6,0,P|292:122|266:10,1,192.000000000014,2|0,1:2|0:0,0:0:0:0:
425,246,112055,1,2,1:2:0:0:
423,234,112143,2,0,P|433:189|444:144,1,63.9999999999849,10|0,0:0|0:0,0:0:0:0:
270,57,112317,2,0,P|278:88|285:119,1,63.9999999999956,2|0,1:2|0:0,0:0:0:0:
414,385,112491,6,0,P|453:222|491:58,1,336.000000000024,2|0,1:2|0:0,0:0:0:0:
280,280,112840,6,0,P|245:133|210:-14,1,288.000000000021,10|0,0:0|0:0,0:0:0:0:
147,318,113189,6,0,P|179:186|210:53,1,223.999999999979,2|0,1:2|0:0,0:0:0:0:
17,134,113451,1,2,1:2:0:0:
22,121,113538,2,0,P|7:57|-9:-8,1,96.0000000000069,8|0,0:0|0:0,0:0:0:0:
141,237,113712,2,0,P|151:194|160:152,1,63.9999999999956,2|0,1:2|0:0,0:0:0:0:
370,36,113887,5,2,1:1:0:0:
32,119,114236,1,8,0:1:0:0:
157,86,114584,6,0,P|130:92|106:99,1,47.9999999999994,10|0,0:0|0:0,0:0:0:0:
288,54,114933,2,0,P|264:59|241:65,1,47.9999999999967,10|0,0:0|0:0,0:0:0:0:
0,120,115282,6,0,P|138:158|261:244,1,287.999999999996,2|0,1:2|0:0,0:0:0:0:
355,260,115631,2,0,P|455:237|452:134,1,224.000000000003,10|0,0:0|0:0,0:0:0:0:
259,27,115893,5,2,0:0:0:0:
269,30,115980,2,0,P|279:71|290:119,1,79.9999999999945,2|0,1:2|0:0,0:0:0:0:
371,92,116154,2,0,P|360:51|350:3,1,79.9999999999812,2|0,0:0|1:2,0:0:0:0:
192,291,116329,6,0,P|147:305|106:321,1,79.9999999999812,10|0,0:0|0:0,0:0:0:0:
266,200,116503,2,0,P|303:185|341:174,1,80.0000000000078,2|0,1:2|0:0,0:0:0:0:
102,197,116677,5,2,1:2:0:0:
287,345,116852,1,2,0:0:0:0:
81,108,117026,6,0,B|101:66|125:-16|125:-16|153:90|184:184,1,335.999999999977,10|0,0:0|0:0,0:0:0:0:
42,384,117375,2,0,P|-11:326|25:250,1,159.999999999989,2|0,1:2|0:0,0:0:0:0:
166,351,117637,1,2,1:2:0:0:
170,342,117724,2,0,P|181:288|153:250,1,96.0000000000094,10|0,0:0|0:0,0:0:0:0:
86,315,117898,1,2,1:2:0:0:
231,46,118073,6,0,B|289:-11|359:22|363:91|363:96|362:103|342:175|431:207|477:165,1,335.999999999977,2|0,1:2|0:0,0:0:0:0:
469,61,118422,2,0,P|365:93|248:134,1,224.000000000003,10|0,0:0|0:0,0:0:0:0:
368,256,118683,5,2,0:0:0:0:
368,262,118770,2,0,P|315:244|268:234,1,87.999999999994,2|0,1:2|0:0,0:0:0:0:
21,128,118945,6,0,P|37:82|80:64,1,87.999999999994,2|0,0:0|1:2,0:0:0:0:
121,0,119119,2,0,P|169:3|196:43,1,87.9999999999793,10|0,0:0|0:0,0:0:0:0:
61,219,119294,1,2,1:2:0:0:
216,335,119468,6,0,P|262:345|308:361,1,96.0000000000094,2|0,1:2|0:0,0:0:0:0:
198,166,119643,2,0,P|151:155|105:139,1,87.999999999994,2|0,0:0|0:0,0:0:0:0:
28,356,119817,6,0,P|146:274|284:236,1,287.999999999996,10|0,0:0|0:0,0:0:0:0:
428,342,120166,2,0,P|508:312|447:242,1,208.000000000003,2|0,1:2|0:0,0:0:0:0:
329,95,120427,1,2,1:2:0:0:
331,105,120515,2,0,P|339:151|351:203,1,87.999999999994,10|0,0:0|0:0,0:0:0:0:
439,353,120689,6,0,P|481:352|512:322,1,88.0000000000086,2|0,1:2|0:0,0:0:0:0:
309,370,120864,2,0,P|194:344|288:237,1,311.999999999996,2|0,1:2|0:0,0:0:0:0:
408,37,121212,2,0,L|449:247,1,208.000000000003,10|0,0:0|0:0,0:0:0:0:
260,143,121474,5,2,0:0:0:0:
260,143,121561,2,0,P|243:100|265:57,1,80.0000000000078,2|0,1:2|0:0,0:0:0:0:
328,24,121736,2,0,P|368:31|407:36,1,80.0000000000078,2|0,0:0|1:2,0:0:0:0:
180,178,121910,6,0,P|140:171|101:166,1,79.9999999999945,10|0,0:0|0:0,0:0:0:0:
287,302,122084,2,0,P|296:264|280:228,1,79.9999999999812,2|0,1:2|0:0,0:0:0:0:
12,173,122259,6,0,P|10:142|55:99,1,95.9999999999774,2|0,1:2|0:0,0:0:0:0:
65,22,122433,2,0,P|95:14|145:51,1,95.9999999999934,2|0,0:0|0:0,0:0:0:0:
167,338,122608,6,0,P|122:367|155:262,1,287.999999999996,10|0,0:0|0:0,0:0:0:0:
266,363,122957,2,0,P|388:289|455:280,1,208.000000000003,2|0,1:2|0:0,0:0:0:0:
493,155,123218,1,2,1:2:0:0:
498,159,123305,2,0,P|509:111|478:71,1,103.999999999993,10|0,0:0|0:0,0:0:0:0:
401,88,123480,2,0,P|390:140|434:181,1,103.999999999993,2|0,1:2|0:0,0:0:0:0:
485,361,123654,6,0,B|380:388|366:292|369:290|372:289|329:177|228:247,1,311.999999999996,2|0,1:2|0:0,0:0:0:0:
151,111,124003,2,0,B|206:36|206:36|236:139,1,192.000000000003,10|0,0:0|0:0,0:0:0:0:
74,201,124265,5,2,0:0:0:0:
74,201,124352,2,0,P|40:182|-13:176,1,79.9999999999945,2|0,1:2|0:0,0:0:0:0:
154,334,124526,2,0,B|176:297|176:297|150:241,1,96.0000000000094,2|0,0:0|1:2,0:0:0:0:
0,384,124701,2,0,P|34:365|87:359,1,80.0000000000078,10|0,0:0|0:0,0:0:0:0:
286,303,124875,1,2,1:2:0:0:
475,9,125050,6,0,L|506:146,1,135.999999999991,2|0,1:2|0:0,0:0:0:0:
512,149,125224,1,2,0:0:0:0:
404,345,125398,6,0,L|429:235,1,111.999999999992,2|0,1:2|0:0,0:0:0:0:
424,230,125573,1,0,0:0:0:0:
301,47,125747,6,0,L|323:143,1,96.0000000000094,2|0,1:2|0:0,0:0:0:0:
327,145,125922,1,0,0:0:0:0:
237,275,126096,6,0,L|248:230,1,35.9999999999917,2|0,1:2|0:0,0:0:0:0:
253,234,126270,2,0,L|244:269,1,35.9999999999977,2|0,0:0|0:0,0:0:0:0:
297,384,126445,6,0,B|336:328|316:268|250:240|243:253|235:263|174:237|151:188|182:119,1,335.999999999987,2|0,1:2|0:0,0:0:0:0:
360,236,126794,2,0,P|231:264|120:291,1,240.000000000022,10|0,0:0|0:0,0:0:0:0:
33,365,127055,5,2,0:0:0:0:
23,359,127143,2,0,P|-8:312|9:271,1,96.0000000000069,2|0,1:2|0:0,0:0:0:0:
181,120,127317,2,0,P|189:75|160:39,1,96.0000000000069,2|0,0:0|1:2,0:0:0:0:
32,180,127491,6,0,P|78:189|125:200,1,96.0000000000069,10|0,0:0|0:0,0:0:0:0:
5,78,127666,2,0,P|51:87|98:98,1,96.0000000000069,2|0,1:2|0:0,0:0:0:0:
471,286,127840,6,0,P|425:275|378:266,1,96.0000000000069,2|0,1:2|0:0,0:0:0:0:
444,184,128015,2,0,P|398:173|351:164,1,96.0000000000069,2|0,0:0|0:0,0:0:0:0:
160,39,128189,6,0,B|129:105|152:154|213:180|221:170|228:157|294:185|314:245|275:301,1,335.999999999987,10|0,0:0|0:0,0:0:0:0:
213,360,128538,6,0,P|247:195|284:31,1,335.999999999987,2|2,1:2|1:2,0:0:0:0:
469,25,128887,6,0,P|443:75|399:81,1,96.0000000000069,10|0,0:0|0:0,0:0:0:0:
351,164,129061,2,0,P|294:167|267:132,1,96.0000000000069,2|0,1:2|0:0,0:0:0:0:
33,230,129236,6,0,P|170:207|273:299,1,288.000000000005,2|0,1:2|0:0,0:0:0:0:
408,82,129584,2,0,P|325:63|271:149,1,192.000000000014,10|0,0:0|0:0,0:0:0:0:
359,280,129846,5,2,0:0:0:0:
366,273,129933,2,0,P|413:262|459:252,1,96.0000000000069,2|0,1:2|0:0,0:0:0:0:
512,323,130108,2,0,P|465:333|418:344,1,96.0000000000069,2|0,0:0|1:2,0:0:0:0:
350,20,130282,6,0,P|400:46|406:90,1,96.0000000000069,10|0,0:0|0:0,0:0:0:0:
491,65,130457,2,0,P|494:122|459:149,1,96.0000000000069,2|0,1:2|0:0,0:0:0:0:
249,381,130631,6,0,P|246:324|281:297,1,96.0000000000069,2|0,1:2|0:0,0:0:0:0:
217,236,130805,2,0,P|264:204|305:221,1,96.0000000000069,2|0,0:0|0:0,0:0:0:0:
512,323,130980,6,0,P|325:279|137:238,1,384.000000000038,10|0,0:0|0:0,0:0:0:0:
0,92,131329,2,0,P|112:118|225:143,1,192.000000000014,2|0,1:2|0:0,0:0:0:0:
59,300,131590,5,2,1:2:0:0:
64,289,131677,2,0,P|53:242|42:195,1,95.9999999999749,10|0,0:0|0:0,0:0:0:0:
294,32,131852,2,0,P|283:78|272:125,1,96.0000000000069,2|0,1:2|0:0,0:0:0:0:
352,377,132026,6,0,P|489:282|405:200,1,311.999985717774,2|0,1:2|0:0,0:0:0:0:
208,19,132375,2,0,P|243:171|277:324,1,288.000000000021,10|0,0:0|0:0,0:0:0:0:
417,205,132637,5,2,0:0:0:0:
413,209,132724,2,0,P|366:198|319:187,1,96.0000000000069,2|0,1:2|0:0,0:0:0:0:
124,168,132898,2,0,P|77:157|30:146,1,96.0000000000069,2|0,0:0|1:2,0:0:0:0:
392,49,133073,6,0,P|346:59|299:70,1,96.000000000039,10|0,0:0|0:0,0:0:0:0:
93,255,133247,2,0,P|47:265|0:276,1,96.0000000000069,2|0,1:2|0:0,0:0:0:0:
197,0,133422,6,0,P|207:46|218:93,1,96.0000000000069,2|0,1:2|0:0,0:0:0:0:
284,383,133596,2,0,P|273:336|263:289,1,96.0000000000069,2|0,0:0|0:0,0:0:0:0:
298,70,133770,6,0,B|329:136|306:185|245:211|237:201|230:188|164:216|144:276|183:332,1,335.999999999987,10|0,0:0|0:0,0:0:0:0:
340,316,134119,2,0,P|327:233|230:215,1,192.000000000014,2|0,1:2|0:0,0:0:0:0:
3,136,134381,5,2,1:2:0:0:
11,142,134468,2,0,P|67:144|94:109,1,96.0000000000069,10|0,0:0|0:0,0:0:0:0:
174,129,134643,2,0,P|205:81|188:40,1,96.0000000000069,2|0,1:2|0:0,0:0:0:0:
106,0,134817,6,0,P|256:34|407:69,1,287.999999999989,2|0,1:2|0:0,0:0:0:0:
425,376,135166,2,0,P|303:348|181:320,1,239.999999999982,10|0,0:0|0:0,0:0:0:0:
0,235,135427,5,2,0:0:0:0:
8,229,135515,2,0,P|64:227|91:262,1,96.0000000000069,2|0,1:2|0:0,0:0:0:0:
171,242,135689,2,0,P|202:290|185:331,1,96.0000000000069,2|0,0:0|1:2,0:0:0:0:
94,363,135864,6,0,P|47:373|0:383,1,96.0000000000069,10|0,0:0|0:0,0:0:0:0:
338,314,136038,2,0,P|385:304|432:294,1,96.000000000039,2|0,1:2|0:0,0:0:0:0:
202,110,136212,6,0,B|96:28|96:28|173:247,1,360.000000000013,2|0,1:2|0:0,0:0:0:0:
191,323,136561,6,0,P|222:182|251:41,1,287.999999999989,2|0,1:2|0:0,0:0:0:0:
259,11,136910,5,6,1:2:0:0:
170,241,137084,5,8,1:3:0:0:
173,250,137172,1,8,1:3:0:0:
321,105,137346,5,4,1:3:0:0:
318,114,137433,1,4,1:3:0:0:
256,192,137608,5,6,1:2:0:0:
256,192,137695,12,0,141794,0:0:0:0:
332,68,142143,70,0,B|362:-32|500:-5|494:109|424:138|420:136|416:132|389:155|381:191,1,312.000000000048,2|0,0:0|0:0,0:0:0:0:
338,80,142491,2,0,B|269:39|212:123|274:184|321:158|322:154|322:150|359:150|379:186,1,240.00000000001,2|0,0:0|0:0,0:0:0:0:
484,204,142840,6,0,L|461:209,1,24.000000000001,2|0,0:0|0:0,0:0:0:0:
417,291,143189,6,0,P|311:317|219:353,1,192.000000000008,4|0,1:2|0:0,0:0:0:0:
220,344,143538,2,0,P|246:330|287:317,1,63.9999999999956
286,238,143712,5,2,0:0:0:0:
120,349,143887,2,0,P|81:280|181:212,1,192.000000000003,8|0,0:0|0:0,0:0:0:0:
327,37,144410,2,0,L|313:104,1,47.9999999999966,2|0,0:0|0:0,0:0:0:0:
255,137,144584,6,0,B|192:165|148:100|152:97|155:94|129:-1|28:55,1,255.999999999982,2|0,1:2|0:0,0:0:0:0:
213,247,145108,6,0,L|302:224,1,64.000000000017,2|0,1:2|0:0,0:0:0:0:
278,222,145282,1,8,0:0:0:0:
347,269,145457,1,2,0:0:0:0:
512,232,145631,6,0,P|528:321|449:364,1,192.000000000008,2|0,1:2|0:0,0:0:0:0:
354,262,145980,2,0,L|411:21,1,240.00000000001,2|0,0:0|0:0,0:0:0:0:
324,3,146329,2,0,B|286:52|286:52|314:107,1,119.999999999992,2|0,0:0|0:0,0:0:0:0:
505,160,146677,5,10,0:0:0:0:
430,123,146852,1,2,0:0:0:0:
397,195,147026,1,2,0:0:0:0:
397,195,147201,1,0,0:0:0:0:
299,372,147375,6,0,P|216:316|61:282,1,251.999999999996,6|0,1:2|0:0,0:0:0:0:
19,206,148073,2,0,P|-3:82|117:79,1,264.000000000012,14|0,1:2|0:0,0:0:0:0:
3,67,148770,6,0,P|63:47|125:79,1,119.999999999992,2|0,1:2|0:0,0:0:0:0:
306,252,149119,6,0,P|320:207|352:121,1,119.999999999992,0|2,0:0|0:0,0:0:0:0:
202,85,149468,2,0,P|193:56|183:28,1,59.999999999996,8|0,0:0|0:0,0:0:0:0:
281,37,149643,1,2,0:0:0:0:
281,37,149817,1,0,0:0:0:0:
200,192,149991,1,2,0:0:0:0:
476,29,150166,6,0,P|430:184|386:348,1,320.000000000005,2|0,1:2|0:0,0:0:0:0:
212,255,150689,2,0,P|205:224|188:175,1,59.999999999996,2|0,1:2|0:0,0:0:0:0:
383,353,150864,6,0,P|314:363|272:310,1,135.999999999991,8|0,0:0|0:0,0:0:0:0:
139,146,151212,6,0,P|70:136|27:226,1,176.000000000004,2|0,1:2|0:0,0:0:0:0:
271,138,151736,1,2,0:0:0:0:
273,129,151910,1,2,0:0:0:0:
276,120,152084,1,2,0:0:0:0:
282,98,152259,6,0,P|364:118|441:138,1,159.999999999989,14|10,0:0|0:0,0:0:0:0:
481,71,152491,2,0,L|529:59,2,31.9999990234375,8|8|10,0:0|0:0|0:0,0:0:0:0:
380,240,152782,5,8,0:0:0:0:
380,240,152957,2,0,B|293:188|265:289|267:293|269:294|239:358|168:337,1,264.000000000011,6|8,1:2|0:0,0:0:0:0:
67,245,153305,2,0,B|-33:199|-34:111|25:53|98:79|111:132|101:178,1,312.000000000013,6|0,1:2|0:0,0:0:0:0:
74,377,153654,6,0,P|72:278|200:261,1,240.00000000001,6|8,1:2|0:0,0:0:0:0:
347,346,154003,2,0,P|436:315|512:304,1,159.999999999989,6|8,1:2|0:0,0:0:0:0:
490,119,154352,6,0,P|377:160|259:180,1,240.00000000001,6|8,1:2|0:0,0:0:0:0:
333,144,154701,2,0,P|389:132|420:120,1,79.9999999999945,2|8,1:2|0:0,0:0:0:0:
137,97,154962,5,0,0:0:0:0:
147,105,155050,2,0,P|159:142|166:182,1,79.9999999999945,10|8,1:2|0:0,0:0:0:0:
241,85,155224,2,0,P|228:47|221:7,1,79.9999999999945,10|8,0:0|0:0,0:0:0:0:
76,169,155398,6,0,P|36:176|-1:190,1,79.9999999999945,10|0,1:2|0:0,0:0:0:0:
313,27,155573,2,0,P|352:21|391:9,1,79.9999999999945,10|0,0:0|0:0,0:0:0:0:
414,215,155747,6,0,P|337:191|258:179,1,159.999999999989,10|2,1:2|0:0,0:0:0:0:
63,75,156096,2,0,P|131:93|135:240,1,240.00000000001,10|0,1:2|0:0,0:0:0:0:
201,356,156445,2,0,P|137:378|80:342,1,135.99999999999,10|8,1:2|0:0,0:0:0:0:
56,263,156707,5,8,0:0:0:0:
45,256,156794,1,10,1:2:0:0:
258,179,156968,1,8,0:0:0:0:
390,308,157143,6,0,P|258:271|119:234,1,264.000000000004,10|8,1:2|0:0,0:0:0:0:
211,345,157491,2,0,P|253:331|306:317,1,79.9999999999945,2|0,1:2|0:0,0:0:0:0:
512,190,157666,2,0,L|435:212,1,79.9999999999945,10|0,0:0|0:0,0:0:0:0:
460,384,157840,6,0,P|473:333|489:282,1,96.0000000000069,10|8,1:2|0:0,0:0:0:0:
331,120,158015,2,0,P|344:165|356:212,1,96.0000000000069,10|8,0:0|0:0,0:0:0:0:
279,333,158189,6,0,P|241:344|203:357,1,79.9999999999945,10|0,1:2|0:0,0:0:0:0:
396,297,158364,1,10,0:0:0:0:
83,325,158538,6,0,P|33:275|103:146,1,239.999999999984,10|8,1:2|0:0,0:0:0:0:
114,6,158887,2,0,P|180:18|211:78,1,135.99999999999,10|8,1:2|0:0,0:0:0:0:
165,247,159236,6,0,P|161:258|158:270,1,16.0000000000042,10|0,1:2|0:0,0:0:0:0:
164,273,159584,6,0,P|166:265|168:257,1,15.9999999999989,2|0,0:0|0:0,0:0:0:0:
1,6,159759,5,10,0:0:0:0:
5,0,159846,1,10,0:0:0:0:
0,0,159933,2,0,P|95:34|229:81,1,223.999999999979,14|0,1:2|0:0,0:0:0:0:
343,174,160195,2,0,P|420:95|375:1,1,175.999999999993,0|0,1:2|0:0,0:0:0:0:
99,150,160457,5,10,1:2:0:0:
102,158,160544,1,8,0:0:0:0:
106,151,160631,2,0,P|201:116|335:70,1,224.000000000016,10|2,1:2|0:0,0:0:0:0:
471,176,160893,2,0,P|381:207|291:241,1,192.000000000014,0|0,1:2|0:0,0:0:0:0:
35,283,161154,5,10,1:2:0:0:
46,286,161241,1,8,0:0:0:0:
56,289,161329,2,0,P|71:283|86:278,4,31.9999999999978,10|2|2|2|2,1:2|0:0|0:0|0:0|0:0,0:0:0:0:
192,267,161590,5,0,1:2:0:0:
182,256,161677,1,2,0:0:0:0:
173,243,161765,2,0,P|186:205|200:168,1,79.9999999999945,0|8,0:0|1:2,0:0:0:0:
181,39,161939,5,8,0:0:0:0:
181,39,162026,2,0,P|102:65|98:181,1,207.999999999995,10|0,1:2|0:0,0:0:0:0:
280,228,162288,6,0,P|331:209|385:190,1,112.000000000008,0|2,1:2|0:0,0:0:0:0:
90,289,162462,1,0,0:0:0:0:
90,289,162550,2,0,P|43:305|0:321,1,96.0000000000069,8|8,1:2|0:0,0:0:0:0:
157,366,162724,5,10,1:2:0:0:
196,339,162811,1,8,0:0:0:0:
207,292,162898,1,8,1:2:0:0:
183,248,162986,1,8,0:0:0:0:
109,196,163073,5,8,1:2:0:0:
84,143,163160,1,8,0:0:0:0:
106,89,163247,1,8,1:2:0:0:
162,79,163334,1,8,0:0:0:0:
241,107,163422,5,8,1:2:0:0:
303,132,163509,1,8,0:0:0:0:
366,154,163596,2,0,P|436:182|486:208,1,96.0000000000069,8|8,1:2|0:0,0:0:0:0:
213,288,163770,6,0,P|143:316|93:342,1,96.0000000000069,8|8,1:2|0:0,0:0:0:0:
380,204,163945,2,0,P|424:184|469:168,1,96.0000000000069,8|8,1:2|0:0,0:0:0:0:
294,250,164119,5,2,1:2:0:0:
421,94,164294,5,2,0:0:0:0:
421,94,164468,2,0,P|414:56|406:29,1,63.9999999999956,2|0,0:0|0:0,0:0:0:0:
89,44,164817,6,0,P|68:30|85:51,1,71.9999999999952,10|0,0:0|0:0,0:0:0:0:
223,286,164991,2,0,B|234:250|244:218,1,72.0000000000192,0|0,1:2|0:0,0:0:0:0:
129,126,165166,6,0,B|162:113|201:93|201:93|173:176|144:271,1,264.000000000041,10|0,0:0|0:0,0:0:0:0:
22,211,165515,2,0,B|54:202|83:193,2,64.000000000001,2|0|2,0:0|0:0|0:0,0:0:0:0:
81,364,166038,5,10,0:0:0:0:
81,364,166125,1,10,0:0:0:0:
81,364,166212,2,0,P|52:329|64:281,1,95.9999999999934,2|0,1:2|0:0,0:0:0:0:
317,128,166474,6,0,P|330:92|351:32,1,90.0000000000003,2|0,1:2|0:0,0:0:0:0:
242,35,166736,6,0,B|381:-20|381:-20|302:204,1,384.000000000016,6|0,1:2|0:0,0:0:0:0:
414,354,167084,5,2,1:2:0:0:
430,333,167172,1,2,0:0:0:0:
434,314,167259,2,0,P|398:271|345:285,1,95.9999999999934,2|0,1:2|0:0,0:0:0:0:
110,361,167433,2,0,P|98:307|73:247,1,95.9999999999934,2|0,0:0|0:0,0:0:0:0:
232,378,167608,1,2,1:2:0:0:
16,221,167782,6,0,P|-12:180|25:127,1,95.9999999999934,2|0,0:0|0:0,0:0:0:0:
240,375,167957,2,0,P|278:283|188:205,1,223.999999999985,2|0,1:2|0:0,0:0:0:0:
79,112,168218,5,0,0:0:0:0:
84,118,168305,2,0,B|186:177|246:72|242:67|237:64|269:-48|386:3,1,360.000000000015,2|0,1:2|0:0,0:0:0:0:
341,86,168654,2,0,B|282:124|235:73|237:69|239:66|197:7|141:52,1,223.999999999947,2|2,1:2|0:0,0:0:0:0:
188,306,168916,5,0,0:0:0:0:
189,296,169003,2,0,P|306:237|464:226,1,271.999999999981,2|2,1:2|0:0,0:0:0:0:
500,161,169265,1,2,1:2:0:0:
500,161,169352,2,0,P|504:102|454:75,1,95.9999999999934,2|0,0:0|0:0,0:0:0:0:
299,210,169526,1,2,1:2:0:0:
138,373,169701,6,0,P|91:322|111:274,1,95.9999999999934,0|0,1:2|0:0,0:0:0:0:
25,259,169875,2,0,P|62:200|113:207,1,95.9999999999934,2|0,0:0|0:0,0:0:0:0:
343,371,170050,6,0,P|295:193|239:14,1,360.000000000015,2|0,1:2|0:0,0:0:0:0:
358,52,170398,2,0,B|416:155|305:216|300:212|297:207|181:237|236:356,1,359.999999999975,2|0,1:2|0:0,0:0:0:0:
417,339,170747,6,0,P|429:294|442:249,1,79.9999999999945,2|0,1:2|0:0,0:0:0:0:
349,379,170922,1,0,0:0:0:0:
224,103,171096,6,0,P|233:57|246:14,1,80.0000000000212,6|0,1:2|0:0,0:0:0:0:
34,158,171270,2,0,P|50:192|92:207,1,79.9999999999678,2|0,0:0|0:0,0:0:0:0:
150,43,171445,6,0,P|57:60|49:169,1,191.999999999987,2|2,1:2|0:0,0:0:0:0:
231,256,171707,1,0,0:0:0:0:
231,250,171794,2,0,P|131:272|49:343,1,191.999999999955,2|2,1:2|0:0,0:0:0:0:
6,257,172055,1,2,1:2:0:0:
6,257,172143,1,2,0:0:0:0:
305,337,172317,6,0,B|366:346|411:384|411:384|525:267|400:158,1,360.000000000015,2|0,1:2|0:0,0:0:0:0:
264,34,172666,1,2,1:2:0:0:
305,15,172753,1,2,0:0:0:0:
342,38,172840,2,0,P|362:84|318:144,1,103.999999999993,2|0,1:2|0:0,0:0:0:0:
231,250,173015,2,0,P|197:225|145:212,1,87.999999999994,2|0,0:0|0:0,0:0:0:0:
245,152,173189,1,2,1:2:0:0:
52,261,173364,6,0,P|27:216|45:169,1,103.999999999993,2|0,0:0|0:0,0:0:0:0:
79,0,173538,2,0,P|129:171|174:377,1,360.000000000015,2|0,1:2|0:0,0:0:0:0:
268,381,173887,6,0,P|326:353|310:223,1,207.999999999986,6|0,1:2|0:0,0:0:0:0:
94,9,174236,2,0,P|110:60|127:133,1,104.000000000028,2|0,0:0|0:0,0:0:0:0:
274,47,174410,1,2,0:0:0:0:
255,38,174497,1,0,0:0:0:0:
235,30,174584,1,2,1:2:0:0:
134,210,174759,5,2,0:0:0:0:
131,199,174846,1,2,1:2:0:0:
130,187,174933,2,0,P|234:161|363:135,1,223.999999999985,2|2,0:0|1:2,0:0:0:0:
497,201,175282,6,0,P|498:148|432:108,1,127.999999999991,6|0,1:2|0:0,0:0:0:0:
430,33,175457,2,0,P|399:31|370:59,1,59.999999999996,2|0,0:0|0:0,0:0:0:0:
269,275,175631,6,0,P|375:316|408:343,1,127.999999999991,2|0,1:2|0:0,0:0:0:0:
476,345,175805,2,0,P|489:312|502:286,1,59.999999999996,2|0,0:0|0:0,0:0:0:0:
216,357,175980,6,0,B|289:372|315:295|311:293|308:290|351:212|423:253,1,239.999999999984,6|2,1:2|0:0,0:0:0:0:
476,345,176241,5,0,0:0:0:0:
476,345,176329,2,0,P|489:312|502:286,1,59.999999999996,10|0,0:0|0:0,0:0:0:0:
366,94,177375,6,0,B|326:65|283:80|263:127|272:132|279:138|261:182|225:199|177:177,1,239.999999999982,2|2,1:2|0:0,0:0:0:0:
126,252,177637,1,2,1:2:0:0:
126,252,177724,2,0,P|92:212|101:159,1,79.9999999999945,10|0,0:0|0:0,0:0:0:0:
227,0,177898,6,0,P|269:150|305:302,1,312.00000000001,2|0,1:2|0:0,0:0:0:0:
427,384,178247,5,2,1:2:0:0:
451,359,178334,1,2,0:0:0:0:
453,333,178422,2,0,P|431:279|363:271,1,104.000000000015,10|0,1:2|0:0,0:0:0:0:
391,181,178596,2,0,P|334:174|293:228,1,104.000000000015,2|0,0:0|0:0,0:0:0:0:
13,359,178770,6,0,P|62:368|103:338,1,103.99999999998,2|0,1:2|0:0,0:0:0:0:
176,380,178945,2,0,P|208:342|203:292,1,104.000000000015,2|0,0:0|0:0,0:0:0:0:
92,98,179119,5,10,1:2:0:0:
73,38,179207,1,0,0:0:0:0:
123,1,179294,1,0,0:0:0:0:
138,5,179381,1,0,0:0:0:0:
154,10,179468,6,0,P|305:45|456:88,1,312.00000000001,2|0,1:2|0:0,0:0:0:0:
338,71,179817,2,0,P|299:59|260:51,1,80.0000000000212,10|0,1:2|0:0,0:0:0:0:
463,105,179991,1,2,0:0:0:0:
21,223,180166,6,0,P|121:195|222:172,1,207.99999999996,2|2,1:2|0:0,0:0:0:0:
328,367,180427,5,2,1:2:0:0:
328,367,180515,2,0,P|374:350|395:303,1,104.00000000005,10|0,0:0|0:0,0:0:0:0:
479,303,180689,2,0,P|487:254|458:213,1,104.00000000005,2|0,1:2|0:0,0:0:0:0:
189,0,180864,6,0,B|147:59|168:124|239:154|246:140|255:129|320:157|345:209|313:281,1,360.000000000013,0|0,1:2|0:0,0:0:0:0:
188,329,181212,6,0,P|222:191|259:50,1,288.000000000021,10|0,1:2|0:0,0:0:0:0:
383,50,181561,6,0,P|374:120|295:154,1,143.999999999962,0|0,1:2|0:0,0:0:0:0:
289,151,181736,1,8,0:1:0:0:
189,0,181910,1,8,0:1:0:0:
161,268,182084,5,8,0:0:0:0:
161,268,182172,1,8,0:0:0:0:
161,268,182259,2,0,P|203:256|245:244,1,88.0000000000405,6|0,1:2|0:0,0:0:0:0:
9,137,182433,2,0,P|5:185|37:218,1,87.9999999999818,2|0,0:0|0:0,0:0:0:0:
162,158,182608,6,0,P|118:79|-2:132,1,239.999999999942,8|2,1:2|0:0,0:0:0:0:
124,355,182869,5,0,0:0:0:0:
124,355,182957,2,0,P|242:310|232:219,1,207.99999999996,0|2,1:2|0:0,0:0:0:0:
162,158,183218,1,2,1:2:0:0:
172,166,183305,1,10,0:0:0:0:
39,372,183480,6,0,P|162:321|337:336,1,312.00000000001,2|0,1:2|0:0,0:0:0:0:
465,320,183829,1,2,1:2:0:0:
465,320,183916,1,2,0:0:0:0:
465,320,184003,2,0,P|496:273|479:232,1,96.0000000000069,10|0,1:2|0:0,0:0:0:0:
296,63,184177,2,0,P|266:99|274:145,1,96.0000000000069,2|0,0:0|0:0,0:0:0:0:
436,174,184352,6,0,P|388:183|342:194,1,96.0000000000069,2|0,1:2|0:0,0:0:0:0:
134,239,184526,2,0,P|180:228|227:218,1,96.0000000000069,2|0,0:0|0:0,0:0:0:0:
512,33,184701,5,10,1:2:0:0:
467,26,184788,1,0,0:0:0:0:
426,53,184875,1,0,0:0:0:0:
417,95,184962,1,0,0:0:0:0:
512,154,185050,6,0,P|348:117|183:84,1,335.999999999987,2|0,1:2|0:0,0:0:0:0:
168,2,185398,2,0,P|122:12|74:22,1,96.0000000000069,10|0,0:0|0:0,0:0:0:0:
258,121,185573,2,0,P|304:131|351:141,1,96.0000000000069,2|0,0:0|0:0,0:0:0:0:
194,322,185747,6,0,P|61:284|90:174,1,240.000000000022,2|2,1:2|0:0,0:0:0:0:
162,160,186009,1,2,0:0:0:0:
179,166,186096,1,10,0:0:0:0:
274,264,186270,1,2,0:0:0:0:
444,76,186445,5,4,1:2:0:0:
431,231,186794,5,2,0:0:0:0:
397,154,187143,1,2,0:0:0:0:
316,183,187491,1,2,0:0:0:0:
259,281,187840,6,0,P|224:269|189:265,7,72.0000000000006,6|0|0|0|8|0|0|0,1:2|0:0|0:0|0:0|0:1|0:0|0:0|0:0,0:0:0:0:
49,186,189236,2,0,P|41:156|71:115,4,72.0000000000015,2|0|0|0|8,0:0|0:0|0:0|0:0|0:1,0:0:0:0:
108,291,190108,6,0,P|116:253|127:220,1,72.0000000000075
210,104,190457,2,0,P|202:69|192:35,1,71.9999999999835,0|2,0:0|0:0,0:0:0:0:
275,143,190805,1,0,0:0:0:0:
334,0,190980,6,0,P|324:33|316:69,8,72.0000000000015,0|0|8|0|0|0|0|0|0,0:0|0:0|0:1|0:0|0:0|0:0|0:0|0:0|0:0,0:0:0:0:
437,177,192550,5,0,0:0:0:0:
509,153,192724,2,0,L|417:172,1,72.0000000000075,8|0,0:1|0:0,0:0:0:0:
384,108,193073,1,0,0:0:0:0:
307,210,193247,6,0,P|323:243|335:294,3,71.9999999999995,2|2|0|0,0:0|0:0|0:0|0:0,0:0:0:0:
428,311,193945,2,0,P|412:344|400:395,1,71.9999999999835,2|8,0:0|0:1,0:0:0:0:
491,237,194294,2,0,P|460:206|415:206,1,72.0000000000075,2|0,0:0|0:0,0:0:0:0:
428,205,194643,1,0,0:0:0:0:
302,364,194817,6,0,P|251:336|218:329,4,72.0000000000015,2|0|0|0|8,0:0|0:0|0:0|0:0|0:1,0:0:0:0:
239,255,195689,6,0,P|197:261|171:294,1,71.9999999999955
85,351,196038,2,0,P|43:345|17:312,1,72.0000000000075,0|2,0:0|0:0,0:0:0:0:
92,174,196387,6,0,P|104:212|112:247,6,71.9999999999975,0|0|0|8|0|0|0,0:0|0:0|0:0|0:1|0:0|0:0|0:0,0:0:0:0:
156,119,197608,2,0,P|168:157|174:179,7,48.0000000000002,2|0|0|0|8|0|0|0,0:0|0:0|0:0|0:0|0:1|0:0|0:0|0:0,0:0:0:0:
182,29,199003,6,0,B|233:27|241:69|239:73|258:108|296:110,1,144.000000000002,6|0,0:0|0:0,0:0:0:0:
387,151,199526,1,0,0:0:0:0:
340,4,199701,2,0,P|361:78|378:166,1,143.99999999999,8|0,0:1|0:0,0:0:0:0:
466,97,200224,1,0,0:0:0:0:
468,187,200398,6,0,P|457:224|449:268,7,72.0000000000003,2|0|0|0|8|0|0|0,0:0|0:0|0:0|0:0|0:1|0:0|0:0|0:0,0:0:0:0:
386,346,201794,6,0,P|354:336|321:329,5,55.9999999999998,2|0|0|0|8|0,0:0|0:0|0:0|0:0|0:1|0:0,0:0:0:0:
261,290,202840,2,0,P|247:262|252:236,1,56.0000000000054
307,167,203189,2,0,P|288:70|283:44,1,112.000000000002,2|0,0:0|0:0,0:0:0:0:
346,7,203712,1,0,0:0:0:0:
210,102,203887,2,0,L|149:87,2,56.0000000000007,8|0|0,0:1|0:0|0:0,0:0:0:0:
241,172,204410,1,0,0:0:0:0:
132,273,204584,6,0,P|123:247|113:223,5,39.9999999999999,2|0|0|0|8|0,0:0|0:0|0:0|0:0|0:1|0:0,0:0:0:0:
216,306,205631,6,0,P|208:324|202:343,1,39.9999999999973
124,377,205980,2,0,P|97:370|77:352,1,39.9999999999906,2|0,0:0|0:0,0:0:0:0:
33,294,206329,2,0,P|24:260|8:207,1,80.0000000000012,0|8,0:0|0:1,0:0:0:0:
51,144,206852,2,0,L|102:156,1,39.9999999999906
200,104,207201,1,0,0:0:0:0:
126,68,207375,1,2,0:0:0:0:
132,62,207550,6,0,L|144:11,6,39.9999999999984,0|0|0|8|0|0|0,0:0|0:0|0:0|0:1|0:0|0:0|0:0,0:0:0:0:
204,97,208770,6,0,L|216:46,5,39.9999999999999,2|0|0|0|8|2,0:0|0:0|0:0|0:0|0:1|0:0,0:0:0:0:
298,25,209817,1,2,0:0:0:0:
298,25,209991,1,2,0:0:0:0:
427,276,210166,70,0,B|412:218|452:181|456:185|461:189|533:160|542:43|398:10|365:122|365:122|285:56|185:156|254:247|328:232|331:228|332:222|367:226|391:250,1,673.280000000004,2|0,1:2|0:0,0:0:0:0:
