osu file format v14

[General]
AudioFilename: audio.ogg
AudioLeadIn: 0
PreviewTime:164069
Countdown: 0
SampleSet: Soft
StackLeniency: 0.3
Mode: 0
LetterboxInBreaks: 0
WidescreenStoryboard: 1
EpilepsyWarning: 1

[Editor]
Bookmarks: 863,13422,23364,36096,48305,59468,70631,81794,92957,104119,115282,126445,137608,143189,154352,177375,187840,210166,212957
DistanceSpacing: 0.5
BeatDivisor: 6
GridSize: 4
TimelineZoom: 5

[Metadata]
Title:Still in my heart feat. Punipuni Denki
TitleUnicode:Still in my heart feat. ぷにぷに電機
Artist:PSYQUI
ArtistUnicode:PSYQUI
Creator:Kyuuchie
Version:Jiysea's just an "Extra" for her.
Source:
Tags:japanese electronic hardcore future core bass j-core jcore megarex fugene3 FÜGENE 03 fugene puniden shiwakaze wen koldnoodl cjstmdals pile ayamemymommy jiysea moecho amateurre liyuu rielle onegai lecandy midorijeon lowgraphics
BeatmapID:3492481
BeatmapSetID:1698303

[Difficulty]
HPDrainRate:5
CircleSize:3.8
OverallDifficulty:8.5
ApproachRate:9.2
SliderMultiplier:1.7
SliderTickRate:1

[Events]
//Background and Video events
0,0,"aolid_bg.jpg",0,0
//Break Periods
//Storyboard Layer 0 (Background)
//Storyboard Layer 1 (Fail)
//Storyboard Layer 2 (Pass)
//Storyboard Layer 3 (Foreground)
Sprite,Foreground,Centre,"sb\credits\jiysea.png",320,240 F,0,73085,73434,0,1 S,0,74829,,0.4 F,0,75527,75876,1,0
//Storyboard Layer 4 (Overlay)
//Storyboard Sound Samples

[TimingPoints]
864,348.837209302326,4,2,1,60,1,0
1212,-200,4,2,1,60,0,0
1474,-200,4,2,1,60,0,0
1561,-133.333333333333,4,2,1,60,0,0
1823,-133.333333333333,4,2,1,60,0,0
1910,-100,4,2,1,60,0,0
2172,-100,4,2,1,60,0,0
2259,-80,4,2,1,60,0,0
2957,-133.333333333333,4,2,1,60,0,0
3654,-80,4,2,1,60,0,0
4003,-80,4,2,1,60,0,0
4177,-80,4,2,1,60,0,0
4439,-80,4,2,1,60,0,0
4526,-80,4,2,1,60,0,0
4614,-80,4,2,1,60,0,0
4701,-80,4,2,1,60,0,0
5398,-133.333333333333,4,2,1,60,0,0
6445,-80,4,2,1,60,0,0
7055,-80,4,2,1,60,0,0
7143,-133.333333333333,4,2,1,60,0,0
7840,-80,4,2,1,60,0,0
8102,-80,4,2,1,60,0,0
8189,-80,4,2,1,60,0,0
9584,-80,4,2,1,60,0,0
9759,-80,4,2,1,60,0,0
9846,-80,4,2,1,60,0,0
9933,-80,4,2,1,60,0,0
10282,-100,4,2,1,60,0,0
10631,-100,4,2,1,60,0,0
10805,-100,4,2,1,60,0,0
11329,-100,4,2,2,60,0,0
12026,-66.6666666666667,4,2,2,65,0,0
12375,-80,4,2,2,65,0,0
12724,-100,4,2,2,65,0,0
13073,-133.333333333333,4,2,2,65,0,0
13422,-66.6666666666667,4,2,2,70,0,0
13683,-66.6666666666667,4,2,2,70,0,0
13770,-66.6666666666667,4,2,2,70,0,0
16474,-66.6666666666667,4,2,2,70,0,0
16561,-66.6666666666667,4,2,2,70,0,0
17869,-66.6666666666667,4,2,2,70,0,0
17957,-66.6666666666667,4,2,2,70,0,0
18305,-133.333333333333,4,2,3,70,0,0
18567,-133.333333333333,4,2,3,70,0,0
18654,-133.333333333333,4,2,3,70,0,0
18829,-133.333333333333,4,2,2,70,0,0
19003,-66.6666666666667,4,2,2,70,0,0
19177,-66.6666666666667,4,2,2,70,0,0
19265,-66.6666666666667,4,2,2,70,0,0
19439,-66.6666666666667,4,2,2,70,0,0
19526,-66.6666666666667,4,2,2,70,0,0
19875,-66.6666666666667,4,2,2,70,0,0
19962,-66.6666666666667,4,2,2,70,0,0
20137,-66.6666666666667,4,2,2,70,0,0
20224,-66.6666666666667,4,2,2,70,0,0
20573,-66.6666666666667,4,2,2,70,0,0
20660,-66.6666666666667,4,2,2,70,0,0
20834,-66.6666666666667,4,2,2,70,0,0
20922,-66.6666666666667,4,2,2,70,0,0
21270,-66.6666666666667,4,2,2,70,0,0
21358,-66.6666666666667,4,2,2,70,0,0
21532,-66.6666666666667,4,2,2,70,0,0
21619,-66.6666666666667,4,2,2,70,0,0
23538,-66.6666666666667,4,2,2,65,0,0
23974,-66.6666666666667,4,2,2,65,0,0
24061,-66.6666666666667,4,2,2,65,0,0
24148,-66.6666666666667,4,2,2,65,0,0
24236,-100,4,2,1,65,0,0
24497,-100,4,2,1,65,0,0
24584,-333.333333333333,4,2,1,65,0,0
25108,-333.333333333333,4,2,2,65,0,0
25282,-50,4,2,4,80,0,0
25457,-50,4,2,4,80,0,0
25544,-50,4,2,4,80,0,0
25718,-50,4,2,4,80,0,0
25805,-62.5,4,2,4,80,0,0
27637,-62.5,4,2,4,80,0,0
27724,-62.5,4,2,4,80,0,0
28770,-62.5,4,2,4,80,0,0
28858,-62.5,4,2,4,80,0,0
28945,-62.5,4,2,4,80,0,0
29207,-62.5,4,2,4,80,0,0
29294,-62.5,4,2,4,80,0,0
29730,-62.5,4,2,4,80,0,0
29817,-62.5,4,2,4,80,0,0
30079,-62.5,4,2,4,80,0,0
30166,-62.5,4,2,4,80,0,0
30427,-62.5,4,2,4,80,0,0
30515,-62.5,4,2,4,80,0,0
33218,-62.5,4,2,4,80,0,0
33305,-62.5,4,2,4,80,0,0
34352,-50,4,2,4,80,0,0
34614,-50,4,2,4,80,0,0
34701,-55.5555555555556,4,2,4,80,0,0
34962,-55.5555555555556,4,2,4,80,0,0
35050,-62.5,4,2,4,80,0,0
35311,-62.5,4,2,4,80,0,0
35398,-147.058823529412,4,2,1,80,0,0
36009,-147.058823529412,4,2,1,80,0,0
36096,-62.5,4,2,4,80,0,0
38800,-62.5,4,2,4,80,0,0
38887,-62.5,4,2,4,80,0,0
40020,-62.5,4,2,4,80,0,0
40108,-62.5,4,2,4,80,0,0
40369,-62.5,4,2,4,80,0,0
40457,-62.5,4,2,4,80,0,0
40631,-133.333333333333,4,2,4,80,0,0
40805,-133.333333333333,4,2,1,80,0,0
41154,-133.333333333333,4,2,2,80,0,0
41329,-62.5,4,2,4,80,0,0
44381,-62.5,4,2,4,80,0,0
44468,-62.5,4,2,4,80,0,0
47084,-133.333333333333,4,2,3,65,0,0
47259,-133.333333333333,4,2,3,65,0,0
48305,-200,4,2,3,65,0,0
48393,-200,4,2,2,65,0,0
48567,-200,4,2,2,65,0,0
48654,-200,4,2,2,65,0,0
48916,-200,4,2,2,65,0,0
49003,-200,4,2,2,65,0,0
49614,-200,4,2,2,65,0,0
49701,-200,4,2,2,65,0,0
51009,-200,4,2,2,65,0,0
51096,-200,4,2,2,65,0,0
53451,-200,4,2,2,65,0,0
53538,-200,4,2,2,65,0,0
53800,-200,4,2,2,65,0,0
53887,-200,4,2,2,65,0,0
55195,-200,4,2,2,65,0,0
55282,-200,4,2,2,65,0,0
57986,-200,4,2,2,65,0,0
58073,-55.5555555555556,4,2,2,65,0,0
58422,-62.5,4,2,2,65,0,0
58770,-71.4285714285714,4,2,2,65,0,0
59119,-83.3333333333333,4,2,2,65,0,0
59468,-71.4285714285714,4,2,2,70,0,0
59730,-71.4285714285714,4,2,2,70,0,0
59817,-71.4285714285714,4,2,1,70,0,0
59991,-71.4285714285714,4,2,2,70,0,0
60515,-71.4285714285714,4,2,1,70,0,0
60689,-71.4285714285714,4,2,2,70,0,0
61212,-71.4285714285714,4,2,1,70,0,0
61387,-71.4285714285714,4,2,2,70,0,0
61910,-71.4285714285714,4,2,1,70,0,0
62084,-71.4285714285714,4,2,2,70,0,0
62608,-71.4285714285714,4,2,1,70,0,0
62782,-71.4285714285714,4,2,2,70,0,0
63305,-71.4285714285714,4,2,1,70,0,0
63480,-71.4285714285714,4,2,2,70,0,0
64003,-71.4285714285714,4,2,1,70,0,0
64177,-71.4285714285714,4,2,2,70,0,0
64701,-71.4285714285714,4,2,1,70,0,0
64875,-71.4285714285714,4,2,2,70,0,0
65398,-71.4285714285714,4,2,1,70,0,0
65573,-71.4285714285714,4,2,2,70,0,0
66096,-71.4285714285714,4,2,1,70,0,0
66270,-71.4285714285714,4,2,2,70,0,0
66794,-71.4285714285714,4,2,1,70,0,0
66968,-71.4285714285714,4,2,2,70,0,0
67491,-71.4285714285714,4,2,1,70,0,0
67666,-71.4285714285714,4,2,2,70,0,0
68189,-71.4285714285714,4,2,1,70,0,0
68364,-71.4285714285714,4,2,2,70,0,0
68887,-71.4285714285714,4,2,1,70,0,0
69061,-71.4285714285714,4,2,2,70,0,0
69236,-71.4285714285714,4,2,2,70,0,0
69584,-83.3333333333333,4,2,1,70,0,0
69759,-83.3333333333333,4,2,2,70,0,0
69933,-100,4,2,2,70,0,0
70282,-133.333333333333,4,2,1,70,0,0
70631,-133.333333333333,4,2,1,55,0,0
81794,-83.3333333333333,4,2,5,65,0,0
82055,-83.3333333333333,4,2,2,65,0,0
82143,-83.3333333333333,4,2,5,65,0,0
82317,-83.3333333333333,4,2,2,65,0,0
82491,-83.3333333333333,4,2,5,65,0,0
82579,-83.3333333333333,4,2,2,65,0,0
82840,-83.3333333333333,4,2,5,65,0,0
83015,-83.3333333333333,4,2,2,65,0,0
83189,-83.3333333333333,4,2,5,65,0,0
83276,-83.3333333333333,4,2,2,65,0,0
83538,-83.3333333333333,4,2,5,65,0,0
83712,-83.3333333333333,4,2,2,65,0,0
83887,-83.3333333333333,4,2,5,65,0,0
83974,-83.3333333333333,4,2,2,65,0,0
84236,-83.3333333333333,4,2,5,65,0,0
84323,-83.3333333333333,4,2,2,65,0,0
84584,-83.3333333333333,4,2,5,65,0,0
84845,-83.3333333333333,4,2,2,65,0,0
84933,-83.3333333333333,4,2,5,65,0,0
85107,-83.3333333333333,4,2,2,65,0,0
85282,-83.3333333333333,4,2,5,65,0,0
85369,-83.3333333333333,4,2,2,65,0,0
85631,-83.3333333333333,4,2,5,65,0,0
85805,-83.3333333333333,4,2,2,65,0,0
85980,-83.3333333333333,4,2,5,65,0,0
86066,-83.3333333333333,4,2,2,65,0,0
86329,-83.3333333333333,4,2,5,65,0,0
86502,-83.3333333333333,4,2,2,65,0,0
86677,-83.3333333333333,4,2,5,65,0,0
86764,-83.3333333333333,4,2,2,65,0,0
87026,-83.3333333333333,4,2,5,65,0,0
87113,-83.3333333333333,4,2,2,65,0,0
87375,-100,4,2,5,65,0,0
87636,-100,4,2,2,65,0,0
87724,-100,4,2,5,65,0,0
87898,-100,4,2,2,65,0,0
88073,-83.3333333333333,4,2,5,65,0,0
88160,-83.3333333333333,4,2,2,65,0,0
88422,-83.3333333333333,4,2,5,65,0,0
88509,-83.3333333333333,4,2,2,65,0,0
88770,-71.4285714285714,4,2,5,65,0,0
88858,-71.4285714285714,4,2,2,65,0,0
89119,-71.4285714285714,4,2,5,65,0,0
89207,-71.4285714285714,4,2,2,65,0,0
89468,-71.4285714285714,4,2,5,65,0,0
89556,-71.4285714285714,4,2,2,65,0,0
89817,-71.4285714285714,4,2,5,65,0,0
89905,-71.4285714285714,4,2,2,65,0,0
90166,-62.5,4,2,5,65,0,0
90254,-62.5,4,2,2,65,0,0
90515,-62.5,4,2,5,65,0,0
90603,-62.5,4,2,2,65,0,0
90864,-62.5,4,2,5,65,0,0
90952,-62.5,4,2,2,65,0,0
91212,-62.5,4,2,5,65,0,0
91300,-62.5,4,2,2,65,0,0
91910,-133.333333333333,4,2,2,65,0,0
92608,-133.333333333333,4,2,2,75,0,0
92957,-55.5555555555556,4,2,4,75,0,0
93131,-55.5555555555556,4,2,4,75,0,0
93305,-55.5555555555556,4,2,4,75,0,0
93480,-55.5555555555556,4,2,4,75,0,0
93654,-55.5555555555556,4,2,4,75,0,0
93829,-55.5555555555556,4,2,4,75,0,0
93916,-55.5555555555556,4,2,4,75,0,0
94090,-55.5555555555556,4,2,4,75,0,0
94177,-55.5555555555556,4,2,4,75,0,0
94265,-55.5555555555556,4,2,4,75,0,0
94352,-55.5555555555556,4,2,4,75,0,0
94614,-55.5555555555556,4,2,4,75,0,0
94701,-55.5555555555556,4,2,4,75,0,0
94875,-55.5555555555556,4,2,1,75,0,0
95050,-55.5555555555556,4,2,4,75,0,0
95224,-55.5555555555556,4,2,4,75,0,0
95311,-55.5555555555556,4,2,4,75,0,0
95486,-55.5555555555556,4,2,4,75,0,0
95573,-55.5555555555556,4,2,1,75,0,0
95660,-55.5555555555556,4,2,1,75,0,0
95747,-55.5555555555556,4,2,4,75,0,0
95922,-55.5555555555556,4,2,4,75,0,0
96096,-55.5555555555556,4,2,4,75,0,0
96270,-55.5555555555556,4,2,4,75,0,0
96445,-55.5555555555556,4,2,4,75,0,0
96619,-55.5555555555556,4,2,4,75,0,0
96707,-55.5555555555556,4,2,4,75,0,0
96881,-55.5555555555556,4,2,4,75,0,0
96968,-55.5555555555556,4,2,4,75,0,0
97055,-55.5555555555556,4,2,4,75,0,0
97143,-55.5555555555556,4,2,4,75,0,0
97404,-55.5555555555556,4,2,4,75,0,0
97491,-55.5555555555556,4,2,4,75,0,0
97666,-55.5555555555556,4,2,4,75,0,0
97840,-55.5555555555556,4,2,4,75,0,0
98015,-55.5555555555556,4,2,4,75,0,0
98102,-55.5555555555556,4,2,1,75,0,0
98189,-55.5555555555556,4,2,4,75,0,0
98276,-55.5555555555556,4,2,4,75,0,0
98364,-55.5555555555556,4,2,1,75,0,0
98451,-55.5555555555556,4,2,1,75,0,0
98538,-55.5555555555556,4,2,4,75,0,0
98712,-55.5555555555556,4,2,4,75,0,0
98887,-55.5555555555556,4,2,4,75,0,0
99061,-55.5555555555556,4,2,4,75,0,0
99236,-55.5555555555556,4,2,4,75,0,0
99410,-55.5555555555556,4,2,4,75,0,0
99497,-55.5555555555556,4,2,4,75,0,0
99672,-55.5555555555556,4,2,4,75,0,0
99759,-55.5555555555556,4,2,4,75,0,0
99846,-55.5555555555556,4,2,4,75,0,0
99933,-55.5555555555556,4,2,4,75,0,0
100108,-55.5555555555556,4,2,4,75,0,0
100282,-55.5555555555556,4,2,4,75,0,0
100457,-55.5555555555556,4,2,1,75,0,0
100544,-55.5555555555556,4,2,1,75,0,0
100631,-55.5555555555556,4,2,4,75,0,0
100805,-55.5555555555556,4,2,4,75,0,0
100893,-55.5555555555556,4,2,4,75,0,0
101067,-55.5555555555556,4,2,4,75,0,0
101154,-55.5555555555556,4,2,4,75,0,0
101241,-55.5555555555556,4,2,4,75,0,0
101329,-55.5555555555556,4,2,4,75,0,0
101503,-55.5555555555556,4,2,4,75,0,0
101677,-55.5555555555556,4,2,4,75,0,0
101852,-55.5555555555556,4,2,4,75,0,0
102026,-55.5555555555556,4,2,4,75,0,0
102201,-55.5555555555556,4,2,4,75,0,0
102288,-55.5555555555556,4,2,4,75,0,0
102462,-55.5555555555556,4,2,4,75,0,0
102550,-55.5555555555556,4,2,4,75,0,0
102637,-55.5555555555556,4,2,4,75,0,0
102724,-55.5555555555556,4,2,2,75,0,0
103073,-66.6666666666667,4,2,2,75,0,0
103422,-83.3333333333333,4,2,2,75,0,0
103770,-125,4,2,2,75,0,0
104119,-55.5555555555556,4,2,6,80,0,0
104468,-125,4,2,6,80,0,0
104817,-55.5555555555556,4,2,6,80,0,0
105515,-125,4,2,6,80,0,0
105864,-55.5555555555556,4,2,6,80,0,0
106561,-125,4,2,6,80,0,0
106910,-55.5555555555556,4,2,6,80,0,0
107259,-125,4,2,6,80,0,0
107608,-55.5555555555556,4,2,6,80,0,0
108305,-125,4,2,6,80,0,0
108654,-55.5555555555556,4,2,6,80,0,0
109003,-55.5555555555556,4,2,6,80,0,0
109352,-125,4,2,6,80,0,0
109526,-55.5555555555556,4,2,6,80,0,0
109701,-55.5555555555556,4,2,6,80,0,0
110050,-125,4,2,6,80,0,0
110398,-55.5555555555556,4,2,6,80,0,0
111096,-125,4,2,6,80,0,0
111445,-55.5555555555556,4,2,6,80,0,0
112143,-125,4,2,6,80,0,0
112491,-55.5555555555556,4,2,6,80,0,0
112840,-125,4,2,6,80,0,0
113189,-55.5555555555556,4,2,6,80,0,0
113887,-133.333333333333,4,2,2,80,0,0
114236,-133.333333333333,4,2,1,80,0,0
114584,-133.333333333333,4,2,7,80,0,0
114933,-133.333333333333,4,2,8,80,0,0
115282,-55.5555555555556,4,2,9,80,0,0
115631,-55.5555555555556,4,2,10,80,0,0
115980,-55.5555555555556,4,2,9,80,0,0
116154,-55.5555555555556,4,2,10,80,0,0
116241,-55.5555555555556,4,2,1,80,0,0
116329,-55.5555555555556,4,2,11,80,0,0
116503,-55.5555555555556,4,2,7,80,0,0
116677,-55.5555555555556,4,2,12,80,0,0
116852,-55.5555555555556,4,2,10,80,0,0
117026,-125,4,2,13,80,0,0
117288,-125,4,2,13,80,0,0
117375,-100,4,2,12,80,0,0
117637,-100,4,2,4,80,0,0
117724,-71.4285714285714,4,2,14,80,0,0
117898,-55.5555555555556,4,2,8,80,0,0
118073,-55.5555555555556,4,2,9,80,0,0
118422,-55.5555555555556,4,2,10,80,0,0
118770,-55.5555555555556,4,2,9,80,0,0
118945,-55.5555555555556,4,2,10,80,0,0
119032,-55.5555555555556,4,2,1,80,0,0
119119,-55.5555555555556,4,2,11,80,0,0
119294,-55.5555555555556,4,2,7,80,0,0
119468,-55.5555555555556,4,2,12,80,0,0
119643,-55.5555555555556,4,2,10,80,0,0
119817,-125,4,2,15,80,0,0
120079,-125,4,2,15,80,0,0
120166,-100,4,2,9,80,0,0
120427,-100,4,2,4,80,0,0
120515,-71.4285714285714,4,2,14,80,0,0
120689,-55.5555555555556,4,2,8,80,0,0
120864,-55.5555555555556,4,2,9,80,0,0
121212,-55.5555555555556,4,2,10,80,0,0
121561,-55.5555555555556,4,2,9,80,0,0
121736,-55.5555555555556,4,2,10,80,0,0
121823,-55.5555555555556,4,2,12,80,0,0
122084,-55.5555555555556,4,2,7,80,0,0
122259,-55.5555555555556,4,2,12,80,0,0
122433,-55.5555555555556,4,2,10,80,0,0
122608,-125,4,2,13,80,0,0
122869,-125,4,2,13,80,0,0
122957,-100,4,2,12,80,0,0
123218,-100,4,2,4,80,0,0
123305,-71.4285714285714,4,2,14,80,0,0
123480,-55.5555555555556,4,2,8,80,0,0
123654,-55.5555555555556,4,2,9,80,0,0
124003,-55.5555555555556,4,2,10,80,0,0
124352,-55.5555555555556,4,2,9,80,0,0
124526,-55.5555555555556,4,2,10,80,0,0
124614,-55.5555555555556,4,2,1,80,0,0
124701,-55.5555555555556,4,2,11,80,0,0
124875,-55.5555555555556,4,2,7,80,0,0
125050,-55.5555555555556,4,2,12,80,0,0
125224,-55.5555555555556,4,2,10,80,0,0
125398,-62.5,4,2,15,80,0,0
125747,-71.4285714285714,4,2,9,80,0,0
126096,-83.3333333333333,4,2,7,80,0,0
126270,-83.3333333333333,4,2,8,80,0,0
126445,-55.5555555555556,4,2,16,80,0,0
126794,-55.5555555555556,4,2,17,80,0,0
127143,-55.5555555555556,4,2,16,80,0,0
127317,-55.5555555555556,4,2,17,80,0,0
127491,-55.5555555555556,4,2,18,80,0,0
127666,-55.5555555555556,4,2,19,80,0,0
127840,-55.5555555555556,4,2,20,80,0,0
128015,-55.5555555555556,4,2,17,80,0,0
128189,-125,4,2,21,80,0,0
128451,-125,4,2,21,80,0,0
128538,-100,4,2,20,80,0,0
128800,-100,4,2,4,80,0,0
128887,-71.4285714285714,4,2,19,80,0,0
129061,-55.5555555555556,4,2,22,80,0,0
129236,-55.5555555555556,4,2,16,80,0,0
129584,-55.5555555555556,4,2,17,80,0,0
129933,-55.5555555555556,4,2,16,80,0,0
130108,-55.5555555555556,4,2,17,80,0,0
130282,-55.5555555555556,4,2,18,80,0,0
130457,-55.5555555555556,4,2,19,80,0,0
130631,-55.5555555555556,4,2,22,80,0,0
130805,-55.5555555555556,4,2,19,80,0,0
130980,-125,4,2,20,80,0,0
131241,-125,4,2,20,80,0,0
131329,-100,4,2,17,80,0,0
131590,-100,4,2,4,80,0,0
131677,-71.4285714285714,4,2,23,80,0,0
131852,-55.5555555555556,4,2,24,80,0,0
132026,-55.5555555555556,4,2,16,80,0,0
132375,-55.5555555555556,4,2,17,80,0,0
132724,-55.5555555555556,4,2,16,80,0,0
132898,-55.5555555555556,4,2,17,80,0,0
133073,-55.5555555555556,4,2,20,80,0,0
133247,-55.5555555555556,4,2,19,80,0,0
133422,-55.5555555555556,4,2,20,80,0,0
133596,-55.5555555555556,4,2,17,80,0,0
133770,-125,4,2,21,80,0,0
134032,-125,4,2,21,80,0,0
134119,-100,4,2,20,80,0,0
134381,-100,4,2,4,80,0,0
134468,-71.4285714285714,4,2,19,80,0,0
134643,-55.5555555555556,4,2,22,80,0,0
134817,-55.5555555555556,4,2,16,80,0,0
135166,-55.5555555555556,4,2,17,80,0,0
135515,-55.5555555555556,4,2,16,80,0,0
135689,-55.5555555555556,4,2,17,80,0,0
135864,-55.5555555555556,4,2,18,80,0,0
136038,-55.5555555555556,4,2,19,80,0,0
136212,-55.5555555555556,4,2,22,80,0,0
136387,-55.5555555555556,4,2,19,80,0,0
136474,-55.5555555555556,4,2,19,80,0,0
136561,-55.5555555555556,4,2,20,80,0,0
136736,-55.5555555555556,4,2,17,80,0,0
136823,-55.5555555555556,4,2,17,80,0,0
136910,-55.5555555555556,4,2,1,80,0,0
137608,-55.5555555555556,4,2,1,60,0,0
142143,-200,4,2,1,60,0,0
142404,-200,4,2,1,60,0,0
142491,-133.333333333333,4,2,1,60,0,0
142753,-133.333333333333,4,2,1,60,0,0
142840,-100,4,2,1,60,0,0
143102,-100,4,2,1,60,0,0
143189,-80,4,2,1,60,0,0
143887,-133.333333333333,4,2,1,60,0,0
144584,-79.9999999999999,4,2,1,60,0,0
144933,-79.9999999999999,4,2,1,60,0,0
145108,-79.9999999999999,4,2,1,60,0,0
145369,-79.9999999999999,4,2,1,60,0,0
145457,-79.9999999999999,4,2,1,60,0,0
145544,-79.9999999999999,4,2,1,60,0,0
145631,-79.9999999999999,4,2,1,60,0,0
146329,-133.333333333333,4,2,1,60,0,0
147375,-80,4,2,1,60,0,0
147986,-80,4,2,1,60,0,0
148073,-133.333333333333,4,2,1,60,0,0
148770,-80,4,2,1,60,0,0
149032,-80,4,2,1,60,0,0
149119,-80,4,2,1,60,0,0
150515,-80,4,2,1,60,0,0
150689,-80,4,2,1,60,0,0
150776,-80,4,2,1,60,0,0
150864,-80,4,2,1,60,0,0
151212,-100,4,2,1,60,0,0
151561,-100,4,2,1,60,0,0
152259,-100,4,2,2,70,0,0
152433,-100,4,2,2,70,0,0
152957,-66.6666666666667,4,2,2,70,0,0
153305,-80,4,2,2,70,0,0
153654,-100,4,2,2,70,0,0
154003,-133.333333333333,4,2,2,70,0,0
154352,-66.6666666666667,4,2,2,75,0,0
154614,-66.6666666666667,4,2,2,75,0,0
154701,-66.6666666666667,4,2,2,75,0,0
157404,-66.6666666666667,4,2,2,75,0,0
157491,-66.6666666666667,4,2,2,75,0,0
158800,-66.6666666666667,4,2,2,75,0,0
158887,-66.6666666666667,4,2,2,75,0,0
159236,-133.333333333333,4,2,3,75,0,0
159497,-133.333333333333,4,2,3,75,0,0
159584,-133.333333333333,4,2,3,75,0,0
159759,-133.333333333333,4,2,2,75,0,0
159933,-66.6666666666667,4,2,2,75,0,0
160108,-66.6666666666667,4,2,2,75,0,0
160195,-66.6666666666667,4,2,2,75,0,0
160369,-66.6666666666667,4,2,2,75,0,0
160457,-66.6666666666667,4,2,2,75,0,0
160805,-66.6666666666667,4,2,2,75,0,0
160893,-66.6666666666667,4,2,2,75,0,0
161067,-66.6666666666667,4,2,2,75,0,0
161154,-66.6666666666667,4,2,2,75,0,0
161503,-66.6666666666667,4,2,2,75,0,0
161590,-66.6666666666667,4,2,2,75,0,0
161765,-66.6666666666667,4,2,2,75,0,0
161852,-66.6666666666667,4,2,2,75,0,0
162201,-66.6666666666667,4,2,2,75,0,0
162288,-66.6666666666667,4,2,2,75,0,0
162462,-66.6666666666667,4,2,2,75,0,0
162550,-66.6666666666667,4,2,2,75,0,0
164119,-66.6666666666667,4,2,2,75,0,0
164294,-66.6666666666667,4,2,2,65,0,0
164904,-66.6666666666667,4,2,2,65,0,0
164991,-66.6666666666667,4,2,2,65,0,0
165079,-66.6666666666667,4,2,2,65,0,0
165166,-100,4,2,1,65,0,0
165427,-100,4,2,1,65,0,0
165515,-333.333333333333,4,2,1,65,0,0
166038,-333.333333333333,4,2,2,65,0,0
166212,-50,4,2,4,80,0,0
166387,-50,4,2,4,80,0,0
166474,-50,4,2,4,80,0,0
166648,-50,4,2,4,80,0,0
166736,-62.5,4,2,4,80,0,0
168567,-62.5,4,2,4,80,0,0
168654,-62.5,4,2,4,80,0,0
169788,-62.5,4,2,4,80,0,0
169875,-62.5,4,2,4,80,0,0
170137,-62.5,4,2,4,80,0,0
170224,-62.5,4,2,4,80,0,0
170660,-62.5,4,2,4,80,0,0
170747,-62.5,4,2,4,80,0,0
171009,-62.5,4,2,4,80,0,0
171096,-62.5,4,2,4,80,0,0
174148,-62.5,4,2,4,80,0,0
174236,-62.5,4,2,4,80,0,0
175282,-50,4,2,4,80,0,0
175544,-50,4,2,4,80,0,0
175631,-55.5555555555556,4,2,4,80,0,0
175893,-55.5555555555556,4,2,4,80,0,0
175980,-62.5,4,2,4,80,0,0
176241,-62.5,4,2,4,80,0,0
176329,-200,4,2,1,80,0,0
177201,-200,4,2,1,80,0,0
177375,-62.5,4,2,4,80,0,0
179730,-62.5,4,2,4,80,0,0
179817,-62.5,4,2,4,80,0,0
180951,-62.5,4,2,4,80,0,0
181038,-62.5,4,2,4,80,0,0
181300,-62.5,4,2,4,80,0,0
181387,-62.5,4,2,4,80,0,0
181561,-133.333333333333,4,2,4,80,0,0
181736,-133.333333333333,4,2,1,80,0,0
182084,-133.333333333333,4,2,2,80,0,0
182259,-62.5,4,2,4,80,0,0
185311,-62.5,4,2,4,80,0,0
185398,-62.5,4,2,4,80,0,0
186794,-133.333333333333,4,2,1,60,0,0
187840,-133.333333333333,4,2,1,60,0,0
193247,-153.846153846153,4,2,1,60,0,0
197608,-153.846153846154,4,2,1,55,0,0
199003,-181.818181818182,4,2,1,55,0,0
204584,-222.222222222222,4,2,1,50,0,0
207550,-285.714285714286,4,2,1,50,0,0
210166,-144.927536231884,4,2,1,40,0,0

[Colours]
Combo1 : 240,175,254
Combo2 : 191,167,254

[HitObjects]
87,337,1212,6,0,P|60:319|49:289,1,63.75,2|0,0:0|0:0,0:0:0:0:
49,290,1561,2,0,P|76:252|122:240,1,95.6250036478044,2|0,0:0|0:0,0:0:0:0:
122,240,1910,2,0,B|179:250|179:250|182:252|182:252|246:263,1,127.5,2|0,0:0|0:0,0:0:0:0:
247,263,2259,6,0,B|281:214|354:211|398:244|398:244|377:231|372:207,1,212.5,4|0,1:2|0:0,0:0:0:0:
451,176,2782,1,2,0:0:0:0:
332,307,2957,2,0,B|354:255|307:215|305:226|264:195|282:122,1,191.250007295609,8|2,0:0|0:0,0:0:0:0:
224,79,3654,6,0,B|59:49|59:49|80:65|86:85,1,212.5,2|0,1:2|0:0,0:0:0:0:
136,148,4177,1,2,1:2:0:0:
50,228,4352,2,0,L|60:175,1,53.125,8|0,0:0|0:0,0:0:0:0:
134,231,4526,2,0,L|123:283,1,53.125,2|0,0:0|0:0,0:0:0:0:
23,334,4701,6,0,P|123:305|222:338,1,212.5,2|2,1:2|0:0,0:0:0:0:
222,338,5398,2,0,P|250:324|269:299,1,63.7500024318696,2|0,0:0|0:0,0:0:0:0:
285,219,5747,1,10,0:0:0:0:
368,199,5922,1,2,0:0:0:0:
436,241,6096,2,0,L|447:303,1,63.7500024318696,2|0,0:0|0:0,0:0:0:0:
479,142,6445,6,0,B|495:138|517:146|517:146|458:70|382:124|382:124|333:112|304:48|326:23|326:23|351:37|394:28,1,371.875,6|0,1:2|0:0,0:0:0:0:
385,28,7143,6,0,L|447:16,1,63.7500024318696,14|0,1:2|0:0,0:0:0:0:
314,113,7491,2,0,L|251:101,1,63.7500024318696,2|0,0:0|0:0,0:0:0:0:
143,34,7840,6,0,P|68:15|9:64,1,159.375,2|0,1:2|0:0,0:0:0:0:
14,77,8189,1,0,0:0:0:0:
123,141,8364,1,2,0:0:0:0:
37,204,8538,1,8,0:0:0:0:
93,260,8712,1,2,0:0:0:0:
50,326,8887,1,0,0:0:0:0:
50,326,9061,1,2,0:0:0:0:
178,364,9236,6,0,B|204:302|264:286|316:304|316:304|286:288|276:253,1,212.5,2|0,1:2|0:0,0:0:0:0:
361,228,9759,2,0,L|413:237,1,53.125,2|0,1:2|0:0,0:0:0:0:
512,66,9933,1,8,0:0:0:0:
511,66,10282,6,0,B|472:75|444:41|444:41|412:3|358:19,1,170,2|0,1:2|0:0,0:0:0:0:
50,326,11329,1,10,0:0:0:0:
49,326,11561,2,0,L|55:355,2,28.3333333333333,8|8|10,0:0|0:0|0:0,0:0:0:0:
123,295,11852,1,8,0:0:0:0:
289,362,12026,6,0,B|351:351|351:351|354:352|354:352|415:342,1,127.500004863739,6|0,1:2|0:0,0:0:0:0:
472,290,12288,1,8,0:0:0:0:
480,283,12375,2,0,P|498:234|477:187,1,106.25,6|8,1:2|0:0,0:0:0:0:
321,41,12724,6,0,B|274:33|274:33|272:35|272:35|237:29,1,85,6|0,1:2|0:0,0:0:0:0:
164,62,12986,1,8,0:0:0:0:
152,59,13073,2,0,P|125:41|109:14,1,63.7500024318696,6|8,1:2|0:0,0:0:0:0:
0,180,13422,6,0,B|16:273|16:273|15:276|15:276|32:368,1,191.250007295609,6|8,1:2|0:0,0:0:0:0:
43,373,13770,2,0,P|85:326|147:316,1,127.500004863739,2|8,1:2|0:0,0:0:0:0:
300,200,14119,2,0,P|320:224|324:255,1,63.7500024318696,10|8,1:2|0:0,0:0:0:0:
381,326,14294,2,0,P|401:301|405:270,1,63.7500024318696,10|8,0:0|0:0,0:0:0:0:
253,380,14468,2,0,B|242:323|242:323|242:320|242:320|230:253,1,127.500004863739,10|10,1:2|0:0,0:0:0:0:
424,58,14817,5,10,1:2:0:0:
437,55,14904,1,8,0:0:0:0:
450,53,14991,2,0,P|481:49|509:62,1,63.7500024318696,2|8,0:0|0:0,0:0:0:0:
410,135,15166,2,0,B|353:123|353:123|350:123|350:123|283:111,1,127.500004863739,10|8,1:2|0:0,0:0:0:0:
121,37,15515,5,10,1:2:0:0:
92,42,15602,1,8,0:0:0:0:
71,64,15689,1,8,0:0:0:0:
68,94,15776,1,8,0:0:0:0:
137,130,15864,5,10,1:2:0:0:
156,153,15951,1,8,0:0:0:0:
156,183,16038,1,8,0:0:0:0:
139,207,16125,1,0,0:0:0:0:
42,234,16212,6,0,B|98:221|132:258|132:258|168:299|227:283,1,191.250007295609,10|8,1:2|0:0,0:0:0:0:
228,276,16561,2,0,P|250:253|258:223,1,63.7500024318696,2|0,1:2|0:0,0:0:0:0:
110,299,16736,2,0,P|117:329|140:351,1,63.7500024318696,10|0,0:0|0:0,0:0:0:0:
156,183,16910,2,0,P|125:175|95:183,1,63.7500024318696,10|8,1:2|0:0,0:0:0:0:
262,363,17085,2,0,P|293:363|320:347,1,63.7500024318696,10|8,0:0|0:0,0:0:0:0:
487,296,17259,2,0,B|421:284|421:284|418:284|418:284|361:273,1,127.500004863739,10|10,1:2|0:0,0:0:0:0:
241,136,17608,6,0,B|252:86|311:65|364:79|364:79|333:65|320:31,1,191.250007295609,10|8,1:2|0:0,0:0:0:0:
396,1,17957,2,0,L|418:126,1,127.500004863739,10|8,1:2|0:0,0:0:0:0:
487,296,18305,6,0,B|504:318|531:315|531:315|509:307|487:279,1,95.6250036478044,10|0,1:2|0:0,0:0:0:0:
488,215,18654,1,2,0:0:0:0:
373,339,18829,1,10,0:0:0:0:
359,342,18916,1,10,0:0:0:0:
345,344,19003,6,0,B|291:334|291:334|288:331|288:331|218:319,1,127.500004863739,14|0,1:2|0:0,0:0:0:0:
166,257,19265,2,0,P|105:258|74:311,1,127.500004863739,0|0,1:2|0:0,0:0:0:0:
243,240,19526,2,0,P|260:214|256:183,1,63.7500024318696,10|8,1:2|0:0,0:0:0:0:
62,161,19701,6,0,B|116:151|116:151|119:148|119:148|189:136,1,127.500004863739,10|2,1:2|0:0,0:0:0:0:
241,75,19963,2,0,P|302:76|333:129,1,127.500004863739,0|0,1:2|0:0,0:0:0:0:
164,57,20224,2,0,P|147:31|151:0,1,63.7500024318696,10|8,1:2|0:0,0:0:0:0:
62,161,20398,6,0,P|10:193|8:254,1,127.500004863739,10|2,1:2|0:0,0:0:0:0:
0,330,20660,2,0,P|64:331|125:347,1,127.500004863739,0|0,1:2|0:0,0:0:0:0:
193,304,20922,2,0,P|222:301|256:293,1,63.7500024318696,8|8,1:2|0:0,0:0:0:0:
450,161,21096,6,0,P|502:193|504:254,1,127.500004863739,10|0,1:2|0:0,0:0:0:0:
512,330,21358,2,0,P|448:331|387:347,1,127.500004863739,0|0,1:2|0:0,0:0:0:0:
319,304,21620,2,0,P|290:301|256:293,1,63.7500024318696,8|8,1:2|0:0,0:0:0:0:
98,244,21794,5,10,1:2:0:0:
108,236,21881,1,8,0:0:0:0:
117,220,21968,1,8,1:2:0:0:
117,199,22055,1,8,0:0:0:0:
102,175,22143,1,8,1:2:0:0:
70,160,22230,1,8,0:0:0:0:
31,121,22317,1,8,1:2:0:0:
31,59,22404,1,8,0:0:0:0:
88,10,22491,6,0,P|121:4|150:-1,1,63.7500024318696,8|8,1:2|0:0,0:0:0:0:
123,84,22666,2,0,P|154:77|185:72,1,63.7500024318696,8|8,1:2|0:0,0:0:0:0:
339,35,22840,6,0,P|370:42|402:47,1,63.7500024318696,8|8,1:2|0:0,0:0:0:0:
304,109,23015,2,0,P|335:114|367:121,1,63.7500024318696,8|8,1:2|0:0,0:0:0:0:
512,330,23189,5,2,1:2:0:0:
512,330,23538,1,10,0:0:0:0:
406,370,23887,6,0,P|411:342|417:307,1,63.7500024318696,10|0,0:0|0:0,0:0:0:0:
427,308,24061,2,0,P|422:339|415:370,1,63.7500024318696,0|0,1:2|0:0,0:0:0:0:
221,353,24236,6,0,P|280:364|320:317,1,127.5,10|0,0:0|0:0,0:0:0:0:
128,343,24584,6,0,L|132:368,1,25.4999992218018,2|0,0:0|0:0,0:0:0:0:
132,368,24933,2,0,L|128:343,1,25.4999992218018,2|10,0:0|0:0,0:0:0:0:
54,310,25195,1,10,0:0:0:0:
53,300,25282,6,0,B|63:246|113:226|156:230|156:230|133:221|121:201,1,170,2|0,1:2|0:0,0:0:0:0:
187,156,25544,2,0,B|176:102|126:82|83:86|83:86|106:77|118:57,1,170,2|0,1:2|0:0,0:0:0:0:
9,66,25805,6,0,B|71:54|71:54|75:56|75:56|142:44,1,136,6|0,1:2|0:0,0:0:0:0:
337,21,26154,1,2,1:2:0:0:
356,32,26241,1,2,0:0:0:0:
364,52,26329,6,0,P|366:85|350:115,1,68,2|0,1:2|0:0,0:0:0:0:
246,91,26503,2,0,P|243:57|259:27,1,68,2|0,0:0|0:0,0:0:0:0:
510,234,26677,6,0,P|513:200|497:170,1,68,2|0,1:2|0:0,0:0:0:0:
392,195,26851,2,0,P|390:228|406:258,1,68,2|0,0:0|0:0,0:0:0:0:
349,348,27026,5,2,1:2:0:0:
337,349,27114,1,0,0:0:0:0:
325,350,27201,1,0,0:0:0:0:
313,352,27288,1,0,0:0:0:0:
301,353,27375,6,0,B|249:368|213:326|213:326|217:323|217:323|179:280|124:296,1,204,2|0,1:2|0:0,0:0:0:0:
117,282,27724,2,0,P|85:270|64:244,1,68,2|0,1:2|0:0,0:0:0:0:
0,384,27898,2,0,P|20:357|52:346,1,68,2|0,0:0|0:0,0:0:0:0:
146,141,28073,2,0,P|151:174|136:205,1,68,2|0,1:2|0:0,0:0:0:0:
57,151,28247,5,2,0:0:0:0:
59,141,28334,1,2,1:2:0:0:
61,132,28422,2,0,L|72:65,1,68,2|0,0:0|0:0,0:0:0:0:
231,164,28596,2,0,L|242:230,1,68,2|0,1:2|0:0,0:0:0:0:
349,348,28770,6,0,P|366:319|395:302,1,68,0|0,1:2|0:0,0:0:0:0:
472,287,28945,1,2,0:0:0:0:
231,164,29119,6,0,P|265:161|295:176,1,68,2|0,1:2|0:0,0:0:0:0:
351,229,29294,1,2,0:0:0:0:
511,0,29468,6,0,P|535:94|466:163,1,204,2|0,1:2|0:0,0:0:0:0:
400,92,29817,2,0,B|305:75|305:75|301:78|301:78|195:60,1,204,2|0,1:2|0:0,0:0:0:0:
125,90,30166,5,6,1:2:0:0:
78,29,30253,1,0,0:0:0:0:
128,99,30340,2,0,P|140:130|131:163,1,68,2|0,0:0|0:0,0:0:0:0:
41,238,30515,2,0,P|13:219|2:188,1,68,2|0,1:2|0:0,0:0:0:0:
146,276,30689,6,0,L|213:264,1,68,2|0,0:0|0:0,0:0:0:0:
281,158,30864,2,0,P|295:128|289:95,1,68,2|0,1:2|0:0,0:0:0:0:
467,152,31038,5,2,0:0:0:0:
457,151,31125,1,2,1:2:0:0:
448,149,31213,2,0,L|381:138,1,68,2|0,0:0|0:0,0:0:0:0:
315,384,31387,2,0,B|303:322|303:322|305:318|305:318|293:251,1,136,2|0,1:2|0:0,0:0:0:0:
131,162,31736,1,2,1:2:0:0:
112,160,31823,1,2,0:0:0:0:
100,145,31911,6,0,P|98:112|114:82,1,68,2|0,1:2|0:0,0:0:0:0:
225,105,32084,2,0,P|227:138|211:168,1,68,2|0,0:0|0:0,0:0:0:0:
43,324,32259,6,0,P|27:294|28:260,1,68,2|0,1:2|0:0,0:0:0:0:
139,237,32432,2,0,P|154:266|153:300,1,68,2|0,0:0|0:0,0:0:0:0:
308,307,32608,5,2,1:2:0:0:
320,308,32696,1,0,0:0:0:0:
332,309,32783,1,0,0:0:0:0:
344,311,32870,1,0,0:0:0:0:
356,312,32957,6,0,B|406:319|447:299|467:250|467:250|426:224|429:175,1,204,6|0,1:2|0:0,0:0:0:0:
437,182,33306,2,0,P|468:167|501:171,1,68,2|0,0:0|0:0,0:0:0:0:
353,224,33480,2,0,L|286:212,1,68,2|0,0:0|0:0,0:0:0:0:
355,73,33655,6,0,P|350:106|365:137,1,68,2|0,1:2|0:0,0:0:0:0:
470,270,33829,1,2,0:0:0:0:
472,280,33916,1,2,1:2:0:0:
474,289,34004,2,0,L|485:356,1,68,2|0,0:0|0:0,0:0:0:0:
344,379,34178,2,0,L|355:311,1,68,2|0,1:2|0:0,0:0:0:0:
234,120,34352,6,0,B|252:112|270:116|270:116|239:89|161:125|143:179|143:179|180:201|191:249,1,255,6|0,1:2|0:0,0:0:0:0:
61,341,34701,6,0,B|49:347|31:343|31:343|62:370|140:334|145:295|145:295|113:276|98:232,1,229.499992996216,2|0,1:2|0:0,0:0:0:0:
32,133,35050,6,0,B|70:115|129:122|155:161|155:161|156:204|197:237,1,204,6|0,1:2|0:0,0:0:0:0:
353,224,35398,6,0,B|331:258|276:281|234:260|234:260|212:224|160:216,1,202.300001234741,2|0,1:1|0:0,0:0:0:0:
180,220,36096,6,0,L|113:232,1,68,14|0,1:2|0:0,0:0:0:0:
61,341,36271,2,0,L|127:329,1,68,2|0,0:0|0:0,0:0:0:0:
278,184,36445,2,0,P|292:154|286:121,1,68,2|0,1:2|0:0,0:0:0:0:
129,88,36619,5,2,0:0:0:0:
119,87,36706,1,2,1:2:0:0:
109,86,36794,2,0,P|94:116|101:149,1,68,10|0,0:0|0:0,0:0:0:0:
242,302,36968,6,0,P|306:284|366:313,1,136,2|0,1:2|0:0,0:0:0:0:
512,177,37317,1,2,1:2:0:0:
501,196,37404,1,2,0:0:0:0:
481,204,37492,6,0,P|448:206|418:190,1,68,10|0,1:2|0:0,0:0:0:0:
443,83,37666,2,0,P|477:80|507:96,1,68,2|0,0:0|0:0,0:0:0:0:
366,313,37840,6,0,P|336:328|302:325,1,68,2|0,1:2|0:0,0:0:0:0:
277,218,38014,2,0,P|306:202|340:203,1,68,2|0,0:0|0:0,0:0:0:0:
164,290,38189,5,10,1:2:0:0:
163,278,38277,1,0,0:0:0:0:
162,266,38364,1,0,0:0:0:0:
160,254,38451,1,0,0:0:0:0:
159,242,38538,6,0,B|144:190|186:154|186:154|189:158|189:158|232:120|216:65,1,204,2|0,1:2|0:0,0:0:0:0:
209,52,38887,2,0,P|177:37|144:41,1,68,10|0,1:2|0:0,0:0:0:0:
366,38,39061,2,0,P|397:26|417:0,1,68,2|0,0:0|0:0,0:0:0:0:
328,135,39236,2,0,L|339:201,1,68,2|0,1:2|0:0,0:0:0:0:
75,202,39410,5,2,0:0:0:0:
77,192,39497,1,2,1:2:0:0:
79,183,39585,2,0,L|90:116,1,68,10|0,0:0|0:0,0:0:0:0:
178,151,39759,2,0,L|244:140,1,68,2|0,1:2|0:0,0:0:0:0:
450,168,39933,6,0,P|441:135|450:102,1,68,0|0,1:2|0:0,0:0:0:0:
512,56,40108,1,2,0:0:0:0:
478,359,40282,6,0,P|486:326|478:293,1,68,10|0,1:2|0:0,0:0:0:0:
416,247,40457,1,2,0:0:0:0:
241,357,40631,6,0,P|209:359|178:345,1,63.7500024318696,0|8,1:2|0:1,0:0:0:0:
200,265,40980,2,0,P|231:262|262:276,1,63.7500024318696,8|8,0:1|0:0,0:0:0:0:
451,103,41329,5,6,1:2:0:0:
512,56,41416,1,0,0:0:0:0:
442,105,41503,2,0,L|376:93,1,68,2|0,0:0|0:0,0:0:0:0:
223,39,41678,2,0,P|242:11|273:0,1,68,8|0,1:2|0:0,0:0:0:0:
306,146,41852,6,0,L|318:213,1,68,2|0,0:0|0:0,0:0:0:0:
461,286,42027,2,0,P|428:292|397:278,1,68,0|0,1:2|0:0,0:0:0:0:
241,357,42201,5,2,0:0:0:0:
231,358,42288,1,2,1:2:0:0:
222,360,42376,2,0,L|155:371,1,68,10|0,0:0|0:0,0:0:0:0:
27,309,42550,2,0,P|55:250|28:190,1,136,2|0,1:2|0:0,0:0:0:0:
126,31,42899,1,2,1:2:0:0:
128,12,42986,1,2,0:0:0:0:
143,0,43074,6,0,P|176:-2|206:14,1,68,10|0,1:2|0:0,0:0:0:0:
179,127,43247,2,0,P|146:128|116:112,1,68,2|0,0:0|0:0,0:0:0:0:
337,86,43422,6,0,P|366:70|400:71,1,68,2|0,1:2|0:0,0:0:0:0:
427,184,43595,2,0,P|397:199|363:198,1,68,2|0,0:0|0:0,0:0:0:0:
238,279,43771,5,10,1:2:0:0:
226,280,43859,1,0,0:0:0:0:
214,281,43946,1,0,0:0:0:0:
202,283,44033,1,0,0:0:0:0:
190,284,44120,6,0,B|165:232|94:232|55:266|55:266|69:243|69:213,1,204,2|0,1:2|0:0,0:0:0:0:
59,208,44469,2,0,P|44:177|47:144,1,68,10|0,0:0|0:0,0:0:0:0:
167,63,44643,2,0,P|182:94|178:127,1,68,2|0,0:0|0:0,0:0:0:0:
296,209,44818,2,0,L|362:197,1,68,2|0,1:2|0:0,0:0:0:0:
468,134,44992,5,2,0:0:0:0:
470,124,45079,1,2,0:0:0:0:
472,115,45167,2,0,L|483:48,1,68,10|0,0:0|0:0,0:0:0:0:
512,278,45341,2,0,P|481:263|446:266,1,68,2|0,0:0|0:0,0:0:0:0:
335,346,45515,5,4,1:2:0:0:
256,192,45602,12,4,47084,0:0:0:0:
254,193,47259,5,2,0:0:0:0:
212,384,47608,1,2,0:0:0:0:
55,269,47957,1,2,0:0:0:0:
55,269,48305,6,0,L|43:331,1,63.75,2|8,1:2|0:0,0:0:0:0:
244,104,48654,2,0,L|232:41,1,63.75,0|0,1:2|0:0,0:0:0:0:
512,204,49003,2,0,P|476:181|434:179,1,85,2|0,1:2|1:2,0:0:0:0:
435,179,49526,2,0,L|438:158,1,21.25,10|0,0:0|0:0,0:0:0:0:
355,201,49701,5,2,1:2:0:0:
392,358,49875,1,0,0:0:0:0:
467,342,50050,2,0,L|509:335,1,42.5,0|10,1:2|0:0,0:0:0:0:
192,245,50398,2,0,P|169:281|167:323,1,85,2|2,1:2|1:2,0:0:0:0:
166,322,50922,2,0,L|145:319,1,21.25,8|0,0:0|0:0,0:0:0:0:
25,159,51096,6,0,P|23:117|0:82,1,85,2|2,1:2|1:2,0:0:0:0:
192,13,51619,1,8,0:0:0:0:
192,13,51794,2,0,L|276:1,1,85,2|2,1:2|1:2,0:0:0:0:
341,79,52317,6,0,P|340:58|348:38,1,42.5,8|2,0:0|1:2,0:0:0:0:
512,219,52666,2,0,P|513:198|505:178,1,42.5,0|0,0:0|1:2,0:0:0:0:
314,298,53015,1,8,0:0:0:0:
380,339,53189,2,0,P|412:340|439:325,1,63.75,2|8,1:2|0:0,0:0:0:0:
192,245,53538,2,0,P|160:244|132:259,1,63.75,2|0,1:2|0:0,0:0:0:0:
54,322,53887,6,0,L|42:238,1,85,2|0,1:2|1:2,0:0:0:0:
200,102,54410,1,10,0:0:0:0:
200,102,54584,2,0,P|231:74|272:65,1,85,2|0,1:2|1:2,0:0:0:0:
272,65,55108,2,0,L|275:44,1,21.25,10|0,0:0|0:0,0:0:0:0:
351,77,55282,5,2,1:2:0:0:
421,243,55457,2,0,L|379:250,1,42.5,0|0,0:0|1:2,0:0:0:0:
249,344,55805,1,10,0:0:0:0:
266,269,55980,2,0,L|273:227,1,42.5,0|0,1:2|0:0,0:0:0:0:
270,221,56241,1,8,0:0:0:0:
268,214,56329,1,2,1:2:0:0:
54,155,56503,1,8,0:0:0:0:
25,223,56677,6,0,P|63:204|105:206,1,85,0|2,1:2|1:2,0:0:0:0:
249,344,57201,1,10,0:0:0:0:
249,344,57375,2,0,P|207:346|169:327,1,85,2|0,1:2|1:2,0:0:0:0:
169,327,57898,2,0,L|165:306,1,21.25,10|0,0:0|0:0,0:0:0:0:
268,214,58073,6,0,P|328:259|343:332,1,152.999995330811,6|8,1:2|0:0,0:0:0:0:
429,376,58334,1,8,0:0:0:0:
438,371,58422,2,0,B|449:309|449:309|452:308|452:308|465:239,1,136,6|8,1:2|0:0,0:0:0:0:
420,173,58683,1,8,0:0:0:0:
412,166,58770,2,0,P|358:144|339:90,1,118.999996368408,6|8,1:2|0:0,0:0:0:0:
251,27,59032,1,8,0:0:0:0:
242,32,59119,2,0,B|251:80|251:80|249:85|249:85|258:135,1,101.999996887207,6|8,1:2|0:0,0:0:0:0:
249,344,59468,6,0,B|201:361|170:322|170:322|141:285|88:296,1,178.499994552612,6|8,1:2|0:0,0:0:0:0:
79,282,59817,2,0,P|34:246|29:188,1,118.999996368408,10|10,0:0|0:0,0:0:0:0:
257,132,60166,6,0,P|251:164|247:191,1,59.4999981842042,2|0,1:2|0:0,0:0:0:0:
168,145,60340,2,0,P|174:113|178:86,1,59.4999981842042,2|8,0:0|0:0,0:0:0:0:
414,59,60515,6,0,P|408:27|404:0,1,59.4999981842042,10|0,0:0|0:0,0:0:0:0:
325,46,60689,2,0,P|331:78|335:105,1,59.4999981842042,10|0,0:0|0:0,0:0:0:0:
512,151,60864,6,0,P|455:157|425:206,1,118.999996368408,2|2,1:2|0:0,0:0:0:0:
324,285,61125,1,8,0:0:0:0:
318,297,61212,2,0,P|324:354|373:384,1,118.999996368408,10|8,0:0|0:0,0:0:0:0:
512,237,61561,6,0,B|430:222|430:222|425:220|425:220|336:206,1,178.499994552612,2|8,1:2|0:0,0:0:0:0:
331,191,61910,2,0,P|274:177|222:204,1,118.999996368408,10|8,0:0|0:0,0:0:0:0:
59,380,62259,6,0,B|42:332|81:301|81:301|118:272|107:219,1,178.499994552612,2|8,1:2|0:0,0:0:0:0:
96,206,62608,2,0,P|66:199|37:195,1,59.4999981842042,10|0,0:0|0:0,0:0:0:0:
0,103,62782,2,0,P|29:109|58:113,1,59.4999981842042,10|0,0:0|0:0,0:0:0:0:
239,80,62957,6,0,P|254:55|257:26,1,59.4999981842042,2|0,1:2|0:0,0:0:0:0:
149,90,63131,2,0,P|151:119|167:144,1,59.4999981842042,2|8,0:0|0:0,0:0:0:0:
331,191,63305,6,0,P|389:183|433:145,1,118.999996368408,10|10,0:0|0:0,0:0:0:0:
350,84,63654,1,2,1:2:0:0:
512,237,63829,1,0,0:0:0:0:
463,300,64003,2,0,P|404:307|360:345,1,118.999996368408,10|8,0:0|0:0,0:0:0:0:
139,354,64352,6,0,P|80:290|95:205,1,178.499994552612,2|8,1:2|0:0,0:0:0:0:
90,189,64701,2,0,B|143:179|143:179|147:180|147:180|207:170,1,118.999996368408,10|8,0:0|0:0,0:0:0:0:
418,0,65050,6,0,P|432:85|373:148,1,178.499994552612,2|8,1:2|0:0,0:0:0:0:
365,160,65398,2,0,P|316:128|310:71,1,118.999996368408,10|8,0:0|0:0,0:0:0:0:
512,158,65747,2,0,B|498:236|498:236|499:241|499:241|483:333,1,178.499994552612,2|8,1:2|0:0,0:0:0:0:
492,350,66096,2,0,P|456:304|398:302,1,118.999996368408,10|10,0:0|0:0,0:0:0:0:
204,366,66445,6,0,P|173:369|144:375,1,59.4999981842042,2|0,1:2|0:0,0:0:0:0:
123,288,66619,2,0,P|152:283|180:277,1,59.4999981842042,0|8,0:0|0:0,0:0:0:0:
319,233,66794,2,0,B|309:286|309:286|310:290|310:290|300:350,1,118.999996368408,10|8,0:0|0:0,0:0:0:0:
47,121,67143,6,0,B|95:104|126:143|126:143|155:180|208:169,1,178.499994552612,2|8,1:2|0:0,0:0:0:0:
214,155,67491,2,0,B|267:145|267:145|271:146|271:146|331:136,1,118.999996368408,10|8,0:0|0:0,0:0:0:0:
399,301,67840,6,0,P|477:281|459:202,1,178.499994552612,2|8,1:2|0:0,0:0:0:0:
445,201,68189,2,0,B|455:148|455:148|454:144|454:144|464:84,1,118.999996368408,10|8,0:0|0:0,0:0:0:0:
153,0,68538,6,0,P|86:45|130:113,1,178.499994552612,0|8,1:2|0:0,0:0:0:0:
143,109,68887,2,0,B|151:162|151:162|154:165|154:165|165:225,1,118.999996368408,10|8,0:0|0:0,0:0:0:0:
30,375,69236,6,0,B|60:329|107:320|153:341|153:341|134:329|129:303,1,178.499994552612,4|8,1:2|0:0,0:0:0:0:
232,277,69584,2,0,P|281:284|311:323,1,101.999996887207,8|8,0:0|0:0,0:0:0:0:
462,232,69933,2,0,P|459:190|477:151,1,85,2|8,0:0|0:0,0:0:0:0:
427,5,70282,2,0,L|410:99,1,95.6250036478044,10|0,0:0|0:0,0:0:0:0:
340,150,70631,5,6,1:2:0:0:
338,158,70980,1,0,1:2:0:0:
337,167,71329,1,0,1:2:0:0:
336,176,71677,1,0,1:2:0:0:
334,185,72026,1,0,1:2:0:0:
333,194,72375,1,0,1:2:0:0:
332,203,72724,1,0,1:2:0:0:
330,211,73072,1,0,1:2:0:0:
319,225,73422,5,2,1:2:0:0:
303,229,73770,1,0,1:2:0:0:
287,225,74119,1,0,1:2:0:0:
275,213,74468,1,0,1:2:0:0:
267,197,74817,5,0,1:2:0:0:
255,185,75166,1,0,1:2:0:0:
239,181,75515,1,0,1:2:0:0:
223,185,75863,1,0,1:2:0:0:
86,256,76212,5,2,1:2:0:0:
90,284,76561,1,0,1:2:0:0:
94,316,76910,1,0,1:2:0:0:
98,344,77259,1,0,1:2:0:0:
408,240,77608,5,2,1:2:0:0:
416,189,77957,1,0,1:2:0:0:
424,137,78306,1,0,1:2:0:0:
432,85,78655,1,0,1:2:0:0:
86,256,79003,5,2,1:2:0:0:
28,187,79352,1,0,1:2:0:0:
48,101,79701,1,0,1:2:0:0:
135,79,80050,1,0,1:2:0:0:
485,187,80398,5,2,1:2:0:0:
510,297,80747,1,0,1:2:0:0:
426,369,81096,1,0,1:2:0:0:
326,325,81445,1,0,1:2:0:0:
315,216,81794,6,0,B|263:231|231:189|231:189|194:142|133:159,1,203.999993774414,14|10,1:2|1:2,0:0:0:0:
133,159,82491,1,10,1:2:0:0:
130,142,82579,1,8,0:0:0:0:
126,127,82666,1,8,0:0:0:0:
123,112,82753,1,8,0:0:0:0:
119,97,82840,2,0,P|69:94|35:57,1,101.999996887207,10|8,1:2|0:0,0:0:0:0:
258,28,83189,6,0,L|249:78,3,50.9999984436036,10|8|0|8,1:2|0:0|0:0|0:0,0:0:0:0:
266,22,83538,2,0,P|313:5|362:17,1,101.999996887207,10|8,1:2|0:0,0:0:0:0:
512,146,83887,5,10,1:2:0:0:
507,175,83974,1,8,0:0:0:0:
485,196,84061,1,8,0:0:0:0:
455,199,84148,1,8,0:0:0:0:
389,237,84236,5,10,1:2:0:0:
359,239,84323,1,8,0:0:0:0:
336,261,84410,1,8,0:0:0:0:
332,290,84497,1,8,0:0:0:0:
390,341,84584,6,0,B|379:277|379:277|380:274|380:274|364:190,1,152.999995330811,10|8,1:2|0:0,0:0:0:0:
372,179,84933,2,0,L|272:161,1,101.999996887207,10|8,1:2|0:0,0:0:0:0:
125,67,85282,1,10,1:2:0:0:
141,68,85370,1,8,0:0:0:0:
156,71,85457,1,8,0:0:0:0:
171,72,85544,1,8,0:0:0:0:
186,76,85631,2,0,P|236:70|267:30,1,101.999996887207,10|8,1:2|0:0,0:0:0:0:
104,170,85980,6,0,L|113:220,3,50.9999984436036,10|8|0|8,1:2|0:0|0:0|0:0,0:0:0:0:
96,164,86329,2,0,P|49:147|0:159,1,101.999996887207,10|8,1:2|0:0,0:0:0:0:
66,359,86677,5,10,1:2:0:0:
94,366,86764,1,8,0:0:0:0:
123,354,86851,1,8,0:0:0:0:
136,328,86938,1,8,0:0:0:0:
210,294,87026,5,10,1:2:0:0:
238,287,87113,1,8,0:0:0:0:
267,299,87200,1,8,0:0:0:0:
280,325,87287,1,8,0:0:0:0:
354,365,87375,6,0,P|395:356|437:348,1,85,14|0,1:2|0:0,0:0:0:0:
512,288,87724,1,10,1:2:0:0:
510,294,87811,1,0,0:0:0:0:
509,301,87898,1,8,0:0:0:0:
424,12,88073,6,0,L|373:3,3,50.9999984436036,10|8|8|8,1:2|0:0|0:0|0:0,0:0:0:0:
302,32,88422,1,10,1:2:0:0:
299,48,88509,1,8,0:0:0:0:
296,63,88596,1,8,0:0:0:0:
378,274,88770,6,0,L|436:264,3,59.4999981842042,10|8|8|8,1:2|0:0|0:0|0:0,0:0:0:0:
499,218,89119,1,10,1:2:0:0:
503,196,89206,1,8,0:0:0:0:
507,175,89293,1,8,0:0:0:0:
466,105,89468,6,0,L|407:95,3,59.4999981842042,10|8|8|8,1:2|0:0|0:0|0:0,0:0:0:0:
328,134,89817,1,10,1:2:0:0:
322,169,89904,1,8,0:0:0:0:
316,203,89991,1,8,0:0:0:0:
309,236,90079,1,0,0:0:0:0:
235,274,90166,6,0,P|205:289|172:282,1,68,10|8,1:2|0:0,0:0:0:0:
135,210,90340,2,0,P|165:195|198:202,1,68,10|8,1:2|0:0,0:0:0:0:
311,317,90515,6,0,P|293:345|261:355,1,68,10|8,1:2|0:0,0:0:0:0:
60,167,90689,2,0,P|78:139|110:129,1,68,10|8,1:2|0:0,0:0:0:0:
309,236,90864,6,0,L|376:248,1,68,10|8,1:2|0:0,0:0:0:0:
90,279,91038,2,0,L|23:267,1,68,10|8,1:2|0:0,0:0:0:0:
261,145,91212,6,0,L|328:133,1,68,10|8,1:2|0:0,0:0:0:0:
142,372,91386,2,0,L|75:384,1,68,10|8,1:2|0:0,0:0:0:0:
0,361,91561,5,6,1:2:0:0:
0,361,91910,1,10,0:0:0:0:
0,361,92259,1,10,0:0:0:0:
60,167,92608,2,0,L|56:151,6,15.9375006079674,10|2|2|2|2|2|2,0:0|0:0|0:0|0:0|0:0|0:0|0:0,0:0:0:0:
56,151,92957,6,0,B|128:138|128:138|132:140|132:140|206:128,1,152.999995330811,6|0,1:2|0:0,0:0:0:0:
56,151,93305,2,0,B|128:138|128:138|132:140|132:140|206:128,1,152.999995330811,2|0,1:2|0:0,0:0:0:0:
206,128,93654,6,0,P|241:63|313:48,1,152.999995330811,2|0,1:2|0:0,0:0:0:0:
313,48,93916,2,0,P|365:99|432:72,1,152.999995330811,2|0,1:2|0:0,0:0:0:0:
432,72,94177,2,0,B|447:61|452:38|452:38|447:53|424:66,1,76.4999976654053,2|0,1:2|0:0,0:0:0:0:
506,187,94352,5,2,1:2:0:0:
506,187,94526,2,0,P|471:201|454:234,1,76.4999976654053,2|0,0:0|0:0,0:0:0:0:
505,187,94701,2,0,B|454:193|434:249|454:298|477:320,1,152.999995330811,2|2,1:2|0:0,0:0:0:0:
467,308,95050,6,0,B|479:323|479:323|344:299,1,152.999995330811,2|2,1:2|0:0,0:0:0:0:
348,300,95311,2,0,B|360:284|360:284|225:308,1,152.999995330811,0|0,1:2|0:0,0:0:0:0:
229,307,95573,2,0,B|238:346|238:346|215:382,1,76.4999976654053,2|0,1:2|0:0,0:0:0:0:
82,258,95747,6,0,B|97:220|142:198|182:206|182:206|161:197|148:175,1,152.999995330811,2|0,1:2|0:0,0:0:0:0:
82,258,96096,2,0,B|97:220|142:198|182:206|182:206|161:197|148:175,1,152.999995330811,2|0,1:2|0:0,0:0:0:0:
157,187,96445,6,0,L|307:212,1,152.999995330811,2|0,1:2|0:0,0:0:0:0:
307,212,96707,2,0,L|281:61,1,152.999995330811,2|0,1:2|0:0,0:0:0:0:
281,61,96968,2,0,P|243:55|215:29,1,76.4999976654053,2|0,1:2|0:0,0:0:0:0:
393,0,97143,5,2,1:2:0:0:
393,0,97317,2,0,L|378:75,1,76.4999976654053,2|0,0:0|0:0,0:0:0:0:
393,0,97491,2,0,B|373:110|373:110|393:122|405:152,1,152.999995330811,2|0,1:2|0:0,0:0:0:0:
399,140,97840,6,0,P|466:166|466:238,1,152.999995330811,2|0,1:2|0:0,0:0:0:0:
466,238,98102,2,0,P|398:264|398:336,1,152.999995330811,2|0,1:2|0:0,0:0:0:0:
398,336,98364,2,0,B|436:342|436:342|402:326,1,76.4999976654053,2|0,1:2|0:0,0:0:0:0:
294,364,98538,6,0,B|252:375|224:345|224:345|200:317|153:328,1,152.999995330811,2|0,1:2|0:0,0:0:0:0:
294,364,98887,2,0,B|252:375|224:345|224:345|200:317|153:328,1,152.999995330811,2|0,1:2|0:0,0:0:0:0:
153,328,99236,6,0,P|102:276|123:206,1,152.999995330811,2|0,1:2|0:0,0:0:0:0:
123,206,99497,2,0,B|110:134|110:134|112:130|112:130|100:56,1,152.999995330811,2|0,1:2|0:0,0:0:0:0:
99,55,99759,2,0,B|84:44|79:21|79:21|84:36|107:49,1,76.4999976654053,2|0,1:2|0:0,0:0:0:0:
211,127,99933,6,0,P|284:127|325:66,1,152.999995330811,2|0,1:2|0:0,0:0:0:0:
325,66,100282,1,2,1:2:0:0:
325,66,100457,2,0,L|400:52,1,76.4999976654053,2|0,0:0|0:0,0:0:0:0:
512,167,100631,6,0,B|453:183|458:249|458:249|484:260|491:277,1,152.999995330811,2|0,1:2|0:0,0:0:0:0:
491,276,100893,2,0,B|506:216|446:188|446:188|424:205|405:203,1,152.999995330811,2|0,1:2|0:0,0:0:0:0:
406,203,101154,2,0,L|330:189,1,76.4999976654053,2|0,1:2|0:0,0:0:0:0:
239,277,101329,6,0,B|199:271|157:299|144:338|144:338|147:315|134:293,1,152.999995330811,2|0,1:2|0:0,0:0:0:0:
239,277,101677,2,0,B|199:271|157:299|144:338|144:338|147:315|134:293,1,152.999995330811,2|0,1:2|0:0,0:0:0:0:
140,306,102026,6,0,P|124:235|53:217,1,152.999995330811,2|0,1:2|0:0,0:0:0:0:
53,216,102288,2,0,P|123:198|140:127,1,152.999995330811,2|0,1:2|0:0,0:0:0:0:
140,127,102550,2,0,P|117:97|81:86,1,76.4999976654053,2|0,1:2|0:0,0:0:0:0:
156,25,102724,6,0,B|230:12|230:12|233:12|233:12|307:-1,1,152.999995330811,6|0,1:2|0:0,0:0:0:0:
248,88,102986,1,8,0:0:0:0:
256,94,103073,2,0,B|318:105|318:105|322:108|322:108|382:119,1,127.500004863739,6|8,1:2|0:0,0:0:0:0:
512,289,103422,6,0,B|468:281|468:281|463:282|463:282|412:273,1,101.999996887207,6|0,1:2|0:0,0:0:0:0:
446,358,103684,1,8,0:0:0:0:
439,366,103770,2,0,L|372:378,1,68,6|8,1:2|0:0,0:0:0:0:
157,369,104119,6,0,P|128:302|55:296,1,152.999995330811,2|0,1:2|0:0,0:0:0:0:
18,228,104381,1,0,0:0:0:0:
22,218,104468,2,0,P|53:206|69:177,1,68,10|0,0:0|0:0,0:0:0:0:
148,16,104817,6,0,B|105:38|107:99|107:99|136:114|147:145,1,152.999995330811,2|0,1:2|0:0,0:0:0:0:
229,164,105079,1,2,1:2:0:0:
232,152,105166,2,0,L|307:139,1,76.4999976654053,8|0,0:0|0:0,0:0:0:0:
294,51,105340,2,0,L|219:64,1,76.4999976654053,2|0,1:2|0:0,0:0:0:0:
207,242,105515,6,0,L|213:275,1,34,2|0,1:2|0:0,0:0:0:0:
300,290,105689,2,0,L|294:257,1,34,2|0,0:0|0:0,0:0:0:0:
198,359,105864,6,0,B|242:370|267:340|267:340|296:310|337:317,1,152.999995330811,10|0,0:0|0:0,0:0:0:0:
404,243,106125,1,0,0:0:0:0:
401,229,106212,2,0,P|472:251|499:319,1,152.999995330811,2|0,1:2|0:0,0:0:0:0:
403,383,106474,1,2,1:2:0:0:
406,367,106561,2,0,L|413:334,1,34,8|0,0:0|0:0,0:0:0:0:
498,319,106736,2,0,L|491:352,1,34,2|0,1:2|0:0,0:0:0:0:
335,176,106910,6,0,P|333:103|393:60,1,152.999995330811,2|0,1:2|0:0,0:0:0:0:
496,96,107172,1,0,0:0:0:0:
494,107,107259,2,0,P|506:138|495:170,1,68,10|0,0:0|0:0,0:0:0:0:
318,260,107608,6,0,B|334:271|334:271|202:248,1,152.999995330811,2|0,1:2|0:0,0:0:0:0:
131,306,107869,1,2,1:2:0:0:
119,303,107956,2,0,L|106:228,1,76.4999976654053,8|0,0:0|0:0,0:0:0:0:
182,85,108130,2,0,L|169:160,1,76.4999976654053,2|0,1:2|0:0,0:0:0:0:
0,56,108305,6,0,P|36:22|86:22,1,102,2|0,1:2|0:0,0:0:0:0:
262,84,108654,2,0,L|412:57,1,152.999995330811,10|0,0:0|0:0,0:0:0:0:
512,0,108916,1,0,0:0:0:0:
508,11,109003,2,0,P|445:48|442:122,1,152.999995330811,2|0,1:2|0:0,0:0:0:0:
375,166,109265,1,2,1:2:0:0:
363,168,109352,2,0,L|357:201,1,34,10|0,0:0|0:0,0:0:0:0:
406,263,109526,2,0,L|481:250,1,76.4999976654053,2|0,1:2|0:0,0:0:0:0:
247,381,109701,6,0,B|237:339|267:314|267:314|297:285|283:241,1,152.999995330811,2|0,1:2|0:0,0:0:0:0:
226,187,109962,1,0,0:0:0:0:
222,176,110050,2,0,P|192:160|159:160,1,68,10|0,0:0|0:0,0:0:0:0:
0,314,110398,6,0,L|150:341,1,152.999995330811,2|0,1:2|0:0,0:0:0:0:
167,249,110660,1,2,1:2:0:0:
160,259,110747,2,0,L|85:246,1,76.4999976654053,8|0,0:0|0:0,0:0:0:0:
247,381,110921,2,0,L|322:368,1,76.4999976654053,2|0,1:2|0:0,0:0:0:0:
398,326,111096,2,0,P|411:295|405:262,1,68,2|0,1:2|0:0,0:0:0:0:
512,77,111445,6,0,B|479:66|443:67|406:105|406:105|418:85|417:56,1,152.999995330811,10|0,0:0|0:0,0:0:0:0:
302,0,111706,1,0,0:0:0:0:
307,14,111793,2,0,P|378:36|405:104,1,152.999995330811,2|0,1:2|0:0,0:0:0:0:
335,163,112055,1,2,1:2:0:0:
335,151,112143,2,0,L|302:145,1,34,10|0,0:0|0:0,0:0:0:0:
243,90,112317,2,0,L|237:57,1,34,2|0,1:2|0:0,0:0:0:0:
114,49,112491,6,0,P|54:92|56:165,1,152.999995330811,2|0,1:2|0:0,0:0:0:0:
128,200,112753,1,0,0:0:0:0:
139,202,112840,2,0,P|170:190|202:201,1,68,10|0,0:0|0:0,0:0:0:0:
153,350,113189,6,0,B|304:323,1,152.999995330811,2|0,1:2|0:0,0:0:0:0:
389,358,113450,1,2,1:2:0:0:
394,348,113537,2,0,P|402:311|386:277,1,76.4999976654053,8|0,0:0|0:0,0:0:0:0:
290,168,113712,2,0,P|274:202|282:239,1,76.4999976654053,2|0,1:2|0:0,0:0:0:0:
501,362,113887,5,2,1:1:0:0:
501,362,114236,1,8,0:1:0:0:
448,145,114584,1,10,0:0:0:0:
512,67,114933,1,10,0:0:0:0:
511,67,115282,6,0,B|441:54|441:54|437:55|437:55|359:42,1,152.999995330811,2|0,1:2|0:0,0:0:0:0:
291,78,115544,1,0,0:0:0:0:
288,67,115631,2,0,P|216:65|196:133,1,152.999995330811,10|0,0:0|0:0,0:0:0:0:
201,146,115893,1,2,0:0:0:0:
128,198,115980,6,0,L|52:211,1,76.4999976654053,2|0,1:2|0:0,0:0:0:0:
106,287,116154,2,0,L|181:273,1,76.4999976654053,2|0,0:0|1:2,0:0:0:0:
361,174,116329,6,0,L|285:160,1,76.4999976654053,10|0,0:0|0:0,0:0:0:0:
144,366,116503,2,0,L|219:379,1,76.4999976654053,2|0,1:2|0:0,0:0:0:0:
393,252,116677,6,0,L|317:265,1,76.4999976654053,2|0,1:2|0:0,0:0:0:0:
296,359,116851,2,0,L|371:345,1,76.4999976654053,2|0,0:0|0:0,0:0:0:0:
128,198,117026,6,0,B|96:187|98:158|98:158|109:178|138:191,1,102,10|0,0:0|0:0,0:0:0:0:
201,146,117375,2,0,P|224:111|219:69,1,85,2|0,1:2|0:0,0:0:0:0:
161,15,117637,1,2,1:2:0:0:
147,12,117724,2,0,L|88:1,1,59.4999981842042,10|0,0:0|0:0,0:0:0:0:
1,96,117898,2,0,P|-3:133|19:163,1,76.4999976654053,2|0,1:2|0:0,0:0:0:0:
64,317,118073,6,0,B|106:327|131:297|131:297|160:267|204:281,1,152.999995330811,2|0,1:2|0:0,0:0:0:0:
269,228,118334,1,0,0:0:0:0:
272,216,118422,2,0,P|325:266|308:337,1,152.999995330811,10|0,0:0|0:0,0:0:0:0:
294,345,118683,1,2,0:0:0:0:
379,378,118770,6,0,L|454:364,1,76.4999976654053,2|0,1:2|0:0,0:0:0:0:
485,276,118945,2,0,L|410:290,1,76.4999976654053,2|0,0:0|1:2,0:0:0:0:
196,192,119119,6,0,L|182:117,1,76.4999976654053,10|0,0:0|0:0,0:0:0:0:
394,14,119294,2,0,L|408:89,1,76.4999976654053,2|0,1:2|0:0,0:0:0:0:
438,177,119468,6,0,L|363:163,1,76.4999976654053,2|0,1:2|0:0,0:0:0:0:
332,75,119643,2,0,L|407:89,1,76.4999976654053,2|0,0:0|0:0,0:0:0:0:
295,244,119817,6,0,L|277:144,1,102,10|0,0:0|0:0,0:0:0:0:
182,116,120166,2,0,P|143:100|102:109,1,85,2|0,1:2|0:0,0:0:0:0:
39,188,120427,1,2,1:2:0:0:
53,191,120515,2,0,L|112:202,1,59.4999981842042,10|0,0:0|0:0,0:0:0:0:
149,319,120689,2,0,L|224:306,1,76.4999976654053,2|0,1:2|0:0,0:0:0:0:
400,331,120864,6,0,B|367:320|331:321|294:359|294:359|306:339|305:310,1,152.999995330811,2|0,1:2|0:0,0:0:0:0:
295,244,121125,1,0,0:0:0:0:
298,229,121212,2,0,B|373:215|373:215|378:216|378:216|450:204,1,152.999995330811,10|0,0:0|0:0,0:0:0:0:
457,215,121474,1,2,0:0:0:0:
366,124,121561,6,0,L|379:48,1,76.4999976654053,2|0,1:2|0:0,0:0:0:0:
465,49,121735,2,0,L|451:124,1,76.4999976654053,2|0,0:0|1:2,0:0:0:0:
298,229,121910,6,0,L|284:153,1,76.4999976654053,10|0,0:0|0:0,0:0:0:0:
96,74,122084,2,0,L|109:149,1,76.4999976654053,2|0,1:2|0:0,0:0:0:0:
123,331,122258,6,0,L|198:345,1,76.4999976654053,2|0,1:2|0:0,0:0:0:0:
203,249,122432,2,0,L|127:236,1,76.4999976654053,2|0,0:0|0:0,0:0:0:0:
313,369,122608,6,0,P|362:365|399:330,1,102,10|0,0:0|0:0,0:0:0:0:
490,291,122957,2,0,B|510:300|513:326|513:326|499:307|479:300,1,85,2|0,1:2|0:0,0:0:0:0:
420,241,123218,1,2,1:2:0:0:
423,227,123305,2,0,L|434:168,1,59.4999981842042,10|0,0:0|0:0,0:0:0:0:
512,112,123480,2,0,P|489:83|452:77,1,76.4999976654053,2|0,1:2|0:0,0:0:0:0:
245,44,123654,6,0,B|171:57|171:57|168:59|168:59|95:72,1,152.999995330811,2|0,1:2|0:0,0:0:0:0:
13,117,123916,1,0,0:0:0:0:
16,106,124003,2,0,P|83:92|100:159,1,152.999995330811,10|0,0:0|0:0,0:0:0:0:
111,167,124265,1,2,0:0:0:0:
132,262,124352,6,0,L|56:249,1,76.4999976654053,2|0,1:2|0:0,0:0:0:0:
81,341,124526,2,0,L|156:355,1,76.4999976654053,2|0,0:0|1:2,0:0:0:0:
311,295,124701,6,0,L|297:219,1,76.4999976654053,10|0,0:0|0:0,0:0:0:0:
169,14,124875,2,0,L|182:89,1,76.4999976654053,2|0,1:2|0:0,0:0:0:0:
316,64,125050,6,0,B|371:82|418:32|418:32|412:31|412:31|454:-15|511:0,1,229.499992996216,2|0,1:2|0:0,0:0:0:0:
512,217,125398,6,0,B|462:228|426:184|426:184|432:183|432:183|397:137|343:150,1,204,2|0,1:2|0:0,0:0:0:0:
215,302,125747,6,0,B|261:305|289:268|289:268|283:267|283:267|314:229|360:233,1,178.499994552612,2|0,1:2|0:0,0:0:0:0:
477,376,126096,6,0,B|438:379|415:345|415:345|421:344|421:344|397:310|358:312,1,152.999995330811,2|0,1:2|0:0,0:0:0:0:
215,302,126445,6,0,B|145:289|145:289|141:290|141:290|63:277,1,152.999995330811,2|0,1:2|0:0,0:0:0:0:
0,177,126707,1,0,0:0:0:0:
3,188,126794,2,0,P|75:190|95:122,1,152.999995330811,10|0,0:0|0:0,0:0:0:0:
87,113,127056,1,2,0:0:0:0:
174,30,127143,6,0,P|206:11|244:14,1,76.4999976654053,2|0,1:2|0:0,0:0:0:0:
260,105,127317,2,0,P|227:123|189:120,1,76.4999976654053,2|0,0:0|1:2,0:0:0:0:
330,43,127491,6,0,P|367:39|400:58,1,76.4999976654053,10|0,0:0|0:0,0:0:0:0:
351,237,127665,2,0,P|313:239|280:221,1,76.4999976654053,2|0,1:2|0:0,0:0:0:0:
426,176,127840,6,0,P|458:157|496:160,1,76.4999976654053,2|0,1:2|0:0,0:0:0:0:
512,251,128014,2,0,P|479:269|441:266,1,76.4999976654053,2|0,0:0|0:0,0:0:0:0:
306,348,128189,6,0,B|256:339|256:339|253:340|253:340|205:332,1,102,10|0,0:0|0:0,0:0:0:0:
148,260,128538,2,0,P|168:236|159:266,1,85,2|0,1:2|0:0,0:0:0:0:
110,328,128800,1,2,1:2:0:0:
104,337,128887,2,0,P|77:348|48:348,1,59.4999981842042,10|0,0:0|0:0,0:0:0:0:
0,247,129061,2,0,P|31:225|69:223,1,76.4999976654053,2|0,1:2|0:0,0:0:0:0:
97,41,129236,6,0,B|104:23|104:23|128:159,1,152.999995330811,2|0,1:2|0:0,0:0:0:0:
214,163,129497,1,0,0:0:0:0:
217,151,129585,2,0,P|254:88|328:90,1,152.999995330811,10|0,0:0|0:0,0:0:0:0:
327,101,129846,1,2,0:0:0:0:
426,171,129933,6,0,P|458:190|496:187,1,76.4999976654053,2|0,1:2|0:0,0:0:0:0:
512,96,130107,2,0,P|479:78|441:81,1,76.4999976654053,2|0,0:0|1:2,0:0:0:0:
332,257,130281,6,0,P|313:290|316:327,1,76.4999976654053,10|0,0:0|0:0,0:0:0:0:
495,376,130457,2,0,P|513:343|510:305,1,76.4999976654053,2|0,1:2|0:0,0:0:0:0:
342,171,130631,6,0,P|344:133|326:100,1,76.4999976654053,2|0,1:2|0:0,0:0:0:0:
149,149,130805,2,0,P|145:186|164:219,1,76.4999976654053,2|0,0:0|0:0,0:0:0:0:
241,131,130980,6,0,L|223:31,1,102,10|0,0:0|0:0,0:0:0:0:
56,10,131329,2,0,B|14:15|14:15|54:26,1,85,2|0,1:2|0:0,0:0:0:0:
60,103,131590,1,2,1:2:0:0:
67,110,131677,2,0,P|67:139|55:166,1,59.4999981842042,10|0,0:0|0:0,0:0:0:0:
0,274,131852,2,0,L|75:261,1,76.4999976654053,2|0,1:2|0:0,0:0:0:0:
279,358,132027,6,0,P|231:301|157:300,1,152.999995330811,2|0,1:2|0:0,0:0:0:0:
164,219,132288,1,0,0:0:0:0:
179,216,132375,2,0,B|193:141|193:141|192:136|192:136|204:64,1,152.999995330811,10|0,0:0|0:0,0:0:0:0:
196,59,132637,1,2,0:0:0:0:
279,21,132724,6,0,P|306:47|313:84,1,76.4999976654053,2|0,1:2|0:0,0:0:0:0:
228,123,132898,2,0,P|202:96|195:58,1,76.4999976654053,2|0,0:0|1:2,0:0:0:0:
263,223,133073,6,0,P|256:260|230:287,1,76.4999976654053,10|0,0:0|0:0,0:0:0:0:
79,215,133247,2,0,P|86:178|113:152,1,76.4999976654053,2|0,1:2|0:0,0:0:0:0:
350,194,133422,6,0,P|374:222|378:260,1,76.4999976654053,2|0,1:2|0:0,0:0:0:0:
290,290,133596,2,0,P|267:261|263:223,1,76.4999976654053,2|0,0:0|0:0,0:0:0:0:
400,115,133771,6,0,B|480:101|480:101|470:109|464:127,1,102,10|0,0:0|0:0,0:0:0:0:
512,192,134120,2,0,B|497:276,1,85,2|0,1:2|0:0,0:0:0:0:
425,357,134381,1,2,1:2:0:0:
415,361,134468,2,0,P|386:357|361:343,1,59.4999981842042,10|0,0:0|0:0,0:0:0:0:
232,357,134643,2,0,L|157:370,1,76.4999976654053,2|0,1:2|0:0,0:0:0:0:
36,321,134817,6,0,B|46:279|16:254|16:254|-14:225|0:181,1,152.999995330811,2|0,1:2|0:0,0:0:0:0:
59,98,135079,1,0,0:0:0:0:
68,92,135166,2,0,P|125:129|90:189,1,152.999995330811,10|0,0:0|0:0,0:0:0:0:
78,196,135428,1,2,0:0:0:0:
127,303,135515,6,0,P|124:341|142:374,1,76.4999976654053,2|0,1:2|0:0,0:0:0:0:
232,357,135689,2,0,P|235:319|216:287,1,76.4999976654053,2|0,0:0|1:2,0:0:0:0:
332,141,135863,6,0,P|314:174|316:212,1,76.4999976654053,10|0,0:0|0:0,0:0:0:0:
496,260,136037,2,0,P|515:227|511:190,1,76.4999976654053,2|0,1:2|0:0,0:0:0:0:
431,53,136212,6,0,B|412:166|412:166|414:171|414:171|393:284,1,229.499992996216,2|0,1:2|0:0,0:0:0:0:
405,280,136561,2,0,B|425:172|425:172|423:168|423:168|442:54,1,229.499992996216,2|0,1:2|0:0,0:0:0:0:
512,0,136910,5,6,1:2:0:0:
347,43,137084,5,8,1:3:0:0:
345,56,137172,1,8,1:3:0:0:
332,141,137346,5,4,1:3:0:0:
341,150,137434,1,4,1:3:0:0:
420,201,137608,5,6,1:2:0:0:
256,192,137695,12,0,141794,0:0:0:0:
425,47,142143,6,0,P|452:65|463:95,1,63.75,2|0,0:0|0:0,0:0:0:0:
463,94,142492,2,0,P|436:132|390:144,1,95.6250036478044,2|0,0:0|0:0,0:0:0:0:
390,144,142841,2,0,B|333:134|333:134|330:132|330:132|266:121,1,127.5,2|0,0:0|0:0,0:0:0:0:
265,121,143190,6,0,B|114:140|114:140|152:155|163:197,1,212.5,4|0,1:2|0:0,0:0:0:0:
82,218,143713,1,2,0:0:0:0:
162,351,143888,2,0,B|214:373|254:326|243:324|274:283|347:301,1,191.250007295609,8|2,0:0|0:0,0:0:0:0:
501,344,144585,6,0,B|512:285|452:232|399:241|399:241|419:261|419:291,1,212.5,2|0,1:2|0:0,0:0:0:0:
335,298,145108,1,2,1:2:0:0:
397,140,145283,2,0,P|402:114|418:93,1,53.125,8|0,0:0|0:0,0:0:0:0:
496,128,145457,2,0,P|490:153|474:174,1,53.125,2|0,0:0|0:0,0:0:0:0:
321,204,145632,6,0,B|221:186|221:186|216:187|216:187|111:169,1,212.5,2|2,1:2|0:0,0:0:0:0:
111,169,146329,2,0,P|101:139|105:108,1,63.7500024318696,2|0,0:0|0:0,0:0:0:0:
192,79,146678,1,10,0:0:0:0:
208,162,146853,1,2,0:0:0:0:
223,246,147027,2,0,L|161:257,1,63.7500024318696,2|0,0:0|0:0,0:0:0:0:
364,345,147376,6,0,B|344:348|330:369|330:369|231:360|247:265|380:215|464:285|461:318|461:318|445:336,1,371.875,6|0,1:2|0:0,0:0:0:0:
454,340,148074,6,0,L|466:278,1,63.7500024318696,14|0,1:2|0:0,0:0:0:0:
433,148,148422,2,0,P|403:136|371:135,1,63.7500024318696,2|0,0:0|0:0,0:0:0:0:
130,91,148771,6,0,B|253:69|253:69|222:54,1,159.375,2|0,1:2|0:0,0:0:0:0:
216,47,149120,1,0,0:0:0:0:
352,13,149295,1,2,0:0:0:0:
282,105,149469,1,8,0:0:0:0:
371,134,149643,1,2,0:0:0:0:
307,181,149818,1,0,0:0:0:0:
307,181,149992,1,2,0:0:0:0:
183,379,150167,6,0,P|265:324|235:230,1,212.5,2|0,1:2|0:0,0:0:0:0:
177,179,150690,2,0,P|156:163|130:157,1,53.125,2|0,1:2|0:0,0:0:0:0:
29,342,150864,1,8,0:0:0:0:
29,342,151213,6,0,B|68:351|96:317|96:317|128:279|182:295,1,170,2|0,1:2|0:0,0:0:0:0:
459,57,152260,1,14,0:0:0:0:
459,57,152491,2,0,L|454:29,2,28.3333333333333,8|8|10,0:0|0:0|0:0,0:0:0:0:
512,114,152783,1,8,0:0:0:0:
458,280,152957,6,0,B|396:269|396:269|393:270|393:270|332:260,1,127.500004863739,6|0,1:2|0:0,0:0:0:0:
272,211,153219,1,8,0:0:0:0:
264,218,153306,2,0,P|246:267|267:314,1,106.25,6|8,1:2|0:0,0:0:0:0:
0,96,153655,6,0,B|47:88|47:88|49:90|49:90|84:84,1,85,6|0,1:2|0:0,0:0:0:0:
155,125,153917,1,8,0:0:0:0:
161,114,154004,2,0,P|167:82|160:52,1,63.7500024318696,6|8,1:2|0:0,0:0:0:0:
401,0,154353,6,0,B|388:54|427:83|427:83|470:115|452:171,1,191.250007295609,6|8,1:2|0:0,0:0:0:0:
463,178,154701,2,0,B|405:188|405:188|401:191|401:191|336:202,1,127.500004863739,2|8,1:2|0:0,0:0:0:0:
169,236,155050,2,0,P|149:260|145:291,1,63.7500024318696,10|8,1:2|0:0,0:0:0:0:
63,306,155225,2,0,P|67:338|86:363,1,63.7500024318696,10|8,0:0|0:0,0:0:0:0:
210,374,155399,2,0,P|266:346|329:348,1,127.500004863739,10|10,1:2|0:0,0:0:0:0:
463,178,155748,5,10,1:2:0:0:
466,191,155835,1,8,0:0:0:0:
468,204,155922,2,0,P|472:235|459:263,1,63.7500024318696,2|8,0:0|0:0,0:0:0:0:
360,275,156097,2,0,P|319:228|318:165,1,127.500004863739,10|8,1:2|0:0,0:0:0:0:
186,46,156446,5,10,1:2:0:0:
162,41,156533,1,8,0:0:0:0:
138,37,156620,1,8,0:0:0:0:
115,33,156707,1,8,0:0:0:0:
66,107,156794,5,10,1:2:0:0:
90,112,156881,1,8,0:0:0:0:
114,116,156968,1,8,0:0:0:0:
137,120,157055,1,0,0:0:0:0:
179,191,157143,6,0,B|203:199|203:199|39:228,1,191.250007295609,10|8,1:2|0:0,0:0:0:0:
28,238,157492,2,0,L|18:301,1,63.7500024318696,2|0,1:2|0:0,0:0:0:0:
103,358,157667,2,0,P|131:343|146:315,1,63.7500024318696,10|0,0:0|0:0,0:0:0:0:
351,210,157840,2,0,L|361:273,1,63.7500024318696,10|8,1:2|0:0,0:0:0:0:
276,330,158015,2,0,P|248:315|233:287,1,63.7500024318696,10|8,0:0|0:0,0:0:0:0:
454,262,158190,2,0,P|449:324|400:362,1,127.500004863739,10|10,1:2|0:0,0:0:0:0:
269,187,158539,6,0,B|286:97|286:97|283:94|283:94|301:-2,1,191.250007295609,10|8,1:2|0:0,0:0:0:0:
315,0,158888,2,0,L|190:22,1,127.500004863739,10|8,1:2|0:0,0:0:0:0:
43,131,159236,6,0,B|26:109|-1:112|-1:112|21:120|43:148,1,95.6250036478044,10|0,1:2|0:0,0:0:0:0:
19,215,159585,1,2,0:0:0:0:
161,359,159760,1,10,0:0:0:0:
175,362,159847,1,10,0:0:0:0:
188,364,159934,6,0,P|222:312|216:250,1,127.500004863739,14|0,1:2|0:0,0:0:0:0:
230,173,160196,2,0,P|169:174|138:227,1,127.500004863739,0|0,1:2|0:0,0:0:0:0:
45,288,160457,2,0,L|108:299,1,63.7500024318696,10|8,1:2|0:0,0:0:0:0:
350,384,160631,6,0,P|316:332|322:270,1,127.500004863739,10|2,1:2|0:0,0:0:0:0:
308,193,160893,2,0,P|369:194|400:247,1,127.500004863739,0|0,1:2|0:0,0:0:0:0:
493,308,161154,2,0,L|430:319,1,63.7500024318696,10|8,1:2|0:0,0:0:0:0:
298,107,161329,6,0,B|352:97|352:97|356:94|356:94|425:82,1,127.500004863739,10|2,1:2|0:0,0:0:0:0:
497,67,161591,2,0,P|496:8|438:0,1,127.500004863739,0|0,1:2|0:0,0:0:0:0:
422,82,161853,2,0,L|411:145,1,63.7500024318696,8|8,1:2|0:0,0:0:0:0:
214,107,162026,6,0,B|160:97|160:97|156:94|156:94|87:82,1,127.500004863739,10|0,1:2|0:0,0:0:0:0:
15,67,162288,2,0,P|16:8|74:0,1,127.500004863739,0|0,1:2|0:0,0:0:0:0:
90,82,162550,2,0,L|101:145,1,63.7500024318696,8|8,1:2|0:0,0:0:0:0:
0,303,162725,5,10,1:2:0:0:
8,313,162812,1,8,0:0:0:0:
24,322,162899,1,8,1:2:0:0:
45,322,162986,1,8,0:0:0:0:
69,307,163074,1,8,1:2:0:0:
84,275,163161,1,8,0:0:0:0:
123,236,163248,1,8,1:2:0:0:
185,236,163335,1,8,0:0:0:0:
243,293,163422,6,0,P|237:326|232:355,1,63.7500024318696,8|8,1:2|0:0,0:0:0:0:
144,384,163597,2,0,P|151:353|156:322,1,63.7500024318696,8|8,1:2|0:0,0:0:0:0:
374,181,163770,6,0,P|380:214|385:243,1,63.7500024318696,8|8,1:2|0:0,0:0:0:0:
473,272,163945,2,0,P|466:241|461:210,1,63.7500024318696,8|8,1:2|0:0,0:0:0:0:
255,61,164120,5,2,1:2:0:0:
255,61,164469,1,2,0:0:0:0:
334,82,164818,6,0,P|362:77|397:71,1,63.7500024318696,10|0,0:0|0:0,0:0:0:0:
396,61,164992,2,0,P|365:66|334:73,1,63.7500024318696,0|0,1:2|0:0,0:0:0:0:
167,84,165167,6,0,P|127:37|67:47,1,127.5,10|0,0:0|0:0,0:0:0:0:
9,95,165515,6,0,L|13:120,1,25.4999992218018,2|0,0:0|0:0,0:0:0:0:
13,120,165864,2,0,L|9:95,1,25.4999992218018,2|10,0:0|0:0,0:0:0:0:
24,195,166126,1,10,0:0:0:0:
27,205,166213,6,0,B|66:244|66:244|178:225,1,170,2|0,1:2|0:0,0:0:0:0:
101,327,166474,2,0,B|213:308|213:308|253:348,1,170,2|0,1:2|0:0,0:0:0:0:
335,384,166736,6,0,B|346:322|346:322|344:318|344:318|356:251,1,136,6|0,1:2|0:0,0:0:0:0:
512,81,167085,1,2,1:2:0:0:
496,83,167172,1,2,0:0:0:0:
481,87,167260,6,0,L|414:98,1,68,2|0,1:2|0:0,0:0:0:0:
367,0,167433,2,0,L|433:11,1,68,2|0,0:0|0:0,0:0:0:0:
288,169,167608,6,0,L|221:180,1,68,2|0,1:2|0:0,0:0:0:0:
268,82,167781,2,0,L|334:93,1,68,2|0,0:0|0:0,0:0:0:0:
492,222,167957,5,2,1:2:0:0:
481,229,168045,1,0,0:0:0:0:
476,240,168132,1,0,0:0:0:0:
476,252,168219,1,0,0:0:0:0:
483,260,168306,6,0,B|431:244|375:282|365:326|365:326|370:288|342:266,1,204,2|0,1:2|0:0,0:0:0:0:
344,268,168655,2,0,L|277:256,1,68,2|0,1:2|0:0,0:0:0:0:
446,368,168829,2,0,L|512:379,1,68,2|0,0:0|0:0,0:0:0:0:
372,188,169004,2,0,L|383:121,1,68,2|0,1:2|0:0,0:0:0:0:
287,338,169178,5,2,0:0:0:0:
278,336,169265,1,2,1:2:0:0:
270,334,169353,2,0,L|203:323,1,68,2|0,0:0|0:0,0:0:0:0:
121,209,169527,2,0,L|132:275,1,68,2|0,1:2|0:0,0:0:0:0:
91,370,169701,6,0,P|74:341|45:324,1,68,0|0,1:2|0:0,0:0:0:0:
0,384,169876,1,2,0:0:0:0:
92,116,170050,6,0,P|75:145|46:162,1,68,2|0,1:2|0:0,0:0:0:0:
1,102,170225,1,2,0:0:0:0:
170,55,170399,6,0,P|264:31|333:100,1,204,2|0,1:2|0:0,0:0:0:0:
430,59,170748,2,0,B|448:111|406:150|406:150|364:187|377:256,1,204,2|0,1:2|0:0,0:0:0:0:
437,298,171097,5,6,1:2:0:0:
376,345,171184,1,0,0:0:0:0:
446,295,171271,2,0,L|513:282,1,68,2|0,0:0|0:0,0:0:0:0:
302,315,171446,2,0,P|274:334|263:365,1,68,2|0,1:2|0:0,0:0:0:0:
179,321,171619,2,0,P|151:302|140:271,1,68,2|0,0:0|0:0,0:0:0:0:
248,180,171795,2,0,P|254:213|240:243,1,68,2|0,1:2|0:0,0:0:0:0:
86,209,171969,5,2,0:0:0:0:
76,208,172056,1,2,1:2:0:0:
67,206,172144,2,0,L|0:195,1,68,2|0,0:0|0:0,0:0:0:0:
6,2,172318,2,0,P|-2:66|50:106,1,136,2|0,1:2|0:0,0:0:0:0:
248,180,172666,1,2,1:2:0:0:
250,164,172753,1,2,0:0:0:0:
254,149,172841,6,0,L|265:82,1,68,2|0,1:2|0:0,0:0:0:0:
166,30,173014,2,0,L|177:96,1,68,2|0,0:0|0:0,0:0:0:0:
359,203,173189,6,0,L|348:136,1,68,2|0,1:2|0:0,0:0:0:0:
447,84,173364,2,0,L|436:150,1,68,2|0,0:0|0:0,0:0:0:0:
339,286,173538,5,2,1:2:0:0:
326,283,173626,1,0,0:0:0:0:
314,287,173713,1,0,0:0:0:0:
306,295,173800,1,0,0:0:0:0:
302,307,173888,6,0,B|211:291|211:291|207:293|207:293|101:275,1,204,6|0,1:2|0:0,0:0:0:0:
97,262,174237,2,0,P|64:258|34:273,1,68,2|0,0:0|0:0,0:0:0:0:
57,370,174410,2,0,P|90:374|120:359,1,68,2|0,0:0|0:0,0:0:0:0:
168,204,174584,6,0,L|156:137,1,68,2|0,1:2|0:0,0:0:0:0:
31,155,174760,1,2,0:0:0:0:
33,145,174847,1,2,1:2:0:0:
35,136,174933,2,0,L|46:69,1,68,2|0,0:0|0:0,0:0:0:0:
203,22,175109,2,0,P|236:19|266:35,1,68,2|0,1:2|0:0,0:0:0:0:
399,118,175282,6,0,B|411:101|440:97|440:97|374:54|287:96|283:170,1,255,6|0,1:2|0:0,0:0:0:0:
168,204,175631,6,0,B|159:217|130:222|130:222|196:263|260:229|285:167,1,229.499992996216,2|0,1:2|0:0,0:0:0:0:
435,249,175981,6,0,B|458:262|442:217|376:221|376:221|315:223|283:169,1,204,6|0,1:2|0:0,0:0:0:0:
127,80,176329,6,0,B|104:66|120:112|186:108|186:108|247:106|283:169,1,212.5,10|0,0:0|0:0,0:0:0:0:
282,168,177375,6,0,L|294:235,1,68,2|0,1:2|0:0,0:0:0:0:
420,335,177550,1,2,0:0:0:0:
421,325,177637,1,2,1:2:0:0:
423,316,177725,2,0,L|434:249,1,68,10|0,0:0|0:0,0:0:0:0:
512,112,177899,6,0,P|478:167|415:157,1,136,2|0,1:2|0:0,0:0:0:0:
211,20,178247,1,2,1:2:0:0:
227,16,178334,1,2,0:0:0:0:
242,11,178422,6,0,L|309:0,1,68,10|0,1:2|0:0,0:0:0:0:
357,99,178595,2,0,L|291:88,1,68,2|0,0:0|0:0,0:0:0:0:
119,218,178770,6,0,L|108:151,1,68,2|0,1:2|0:0,0:0:0:0:
206,103,178945,2,0,L|195:170,1,68,2|0,0:0|0:0,0:0:0:0:
49,314,179119,5,10,1:2:0:0:
56,303,179207,1,0,0:0:0:0:
67,298,179294,1,0,0:0:0:0:
79,298,179381,1,0,0:0:0:0:
90,301,179469,6,0,B|142:286|178:328|178:328|174:331|174:331|212:374|267:358,1,204,2|0,1:2|0:0,0:0:0:0:
273,350,179818,2,0,L|340:338,1,68,10|0,1:2|0:0,0:0:0:0:
439,205,179992,2,0,L|372:193,1,68,2|0,0:0|0:0,0:0:0:0:
280,190,180167,2,0,L|291:256,1,68,2|0,1:2|0:0,0:0:0:0:
422,378,180341,5,2,0:0:0:0:
424,368,180428,1,2,1:2:0:0:
426,359,180516,2,0,L|437:292,1,68,10|0,0:0|0:0,0:0:0:0:
372,193,180690,2,0,L|361:126,1,68,2|0,1:2|0:0,0:0:0:0:
223,80,180864,6,0,P|240:50|270:33,1,68,0|0,1:2|0:0,0:0:0:0:
346,38,181039,1,2,0:0:0:0:
158,133,181212,6,0,P|141:163|111:180,1,68,10|0,1:2|0:0,0:0:0:0:
35,175,181387,1,2,0:0:0:0:
0,348,181562,6,0,L|62:359,1,63.7500024318696,0|8,1:2|0:1,0:0:0:0:
80,281,181911,2,0,L|17:269,1,63.7500024318696,8|8,0:1|0:0,0:0:0:0:
361,268,182260,5,6,1:2:0:0:
378,342,182347,1,0,0:0:0:0:
359,259,182434,2,0,L|371:193,1,68,2|0,0:0|0:0,0:0:0:0:
452,126,182609,2,0,P|477:103|510:101,1,68,8|0,1:2|0:0,0:0:0:0:
505,273,182783,6,0,L|438:285,1,68,2|0,0:0|0:0,0:0:0:0:
292,319,182957,2,0,P|258:316|233:294,1,68,0|0,1:2|0:0,0:0:0:0:
265,120,183132,5,2,0:0:0:0:
266,129,183219,1,2,1:2:0:0:
268,138,183305,2,0,L|279:205,1,68,10|0,0:0|0:0,0:0:0:0:
80,281,183481,2,0,P|141:259|164:197,1,136,2|0,1:2|0:0,0:0:0:0:
366,7,183829,1,2,1:2:0:0:
382,9,183916,1,2,0:0:0:0:
396,13,184004,6,0,L|463:24,1,68,10|0,1:2|0:0,0:0:0:0:
510,101,184177,2,0,L|444:112,1,68,2|0,0:0|0:0,0:0:0:0:
399,274,184352,6,0,L|332:285,1,68,2|0,1:2|0:0,0:0:0:0:
378,185,184525,2,0,L|446:197,1,68,2|0,0:0|0:0,0:0:0:0:
252,305,184701,5,10,1:2:0:0:
240,312,184789,1,0,0:0:0:0:
235,323,184876,1,0,0:0:0:0:
235,334,184963,1,0,0:0:0:0:
241,343,185051,6,0,B|86:316|86:316|110:333|118:359,1,204,2|0,1:2|0:0,0:0:0:0:
117,363,185398,2,0,L|105:296,1,68,10|0,0:0|0:0,0:0:0:0:
183,161,185574,2,0,P|198:192|194:225,1,68,2|0,0:0|0:0,0:0:0:0:
22,266,185747,2,0,P|7:235|10:202,1,68,2|0,1:2|0:0,0:0:0:0:
118,113,185923,5,2,0:0:0:0:
120,103,186010,1,2,0:0:0:0:
122,94,186096,2,0,L|133:27,1,68,10|0,0:0|0:0,0:0:0:0:
249,0,186270,2,0,L|260:66,1,68,2|0,0:0|0:0,0:0:0:0:
512,164,186446,5,4,1:2:0:0:
512,164,186794,2,0,B|434:168|468:125|389:130,2,127.500004863739,2|2|2,0:0|0:0|0:0,0:0:0:0:
387,341,187840,6,0,P|402:313|429:297,7,63.7500024318696,6|0|0|0|8|0|0|0,1:2|0:0|0:0|0:0|0:1|0:0|0:0|0:0,0:0:0:0:
197,277,189236,2,0,P|182:249|155:233,4,63.7500024318696,2|0|0|0|8,0:0|0:0|0:0|0:0|0:1,0:0:0:0:
142,348,190108,2,0,L|79:337,1,63.7500024318696
0,199,190457,6,0,L|63:188,1,63.7500024318696,0|2,0:0|0:0,0:0:0:0:
122,120,190805,1,0,0:0:0:0:
63,51,190980,2,0,P|33:42|2:49,8,63.7500024318696,0|0|8|0|0|0|0|0|0,0:0|0:0|0:1|0:0|0:0|0:0|0:0|0:0|0:0,0:0:0:0:
226,15,192550,5,0,0:0:0:0:
226,15,192724,2,0,L|215:78,1,63.7500024318696,8|0,0:1|0:0,0:0:0:0:
318,142,193073,1,0,0:0:0:0:
384,87,193247,6,0,L|438:77,3,55.2499974708558,2|2|0|0,0:0|0:0|0:0|0:0,0:0:0:0:
425,165,193945,2,0,L|479:175,1,55.2499974708558,2|8,0:0|0:1,0:0:0:0:
502,259,194294,2,0,L|512:313,1,55.2499974708558,2|0,0:0|0:0,0:0:0:0:
450,368,194643,1,0,0:0:0:0:
352,324,194817,6,0,L|362:270,4,55.2499974708558,2|0|0|0|8,0:0|0:0|0:0|0:0|0:1,0:0:0:0:
263,339,195689,2,0,P|236:344|215:362,1,55.2499974708558
107,320,196038,2,0,P|80:315|59:297,1,55.2499974708558,0|2,0:0|0:0,0:0:0:0:
174,222,196387,6,0,L|184:276,6,55.2499974708558,0|0|0|8|0|0|0,0:0|0:0|0:0|0:1|0:0|0:0|0:0,0:0:0:0:
107,159,197608,2,0,L|52:149,7,55.2499974708558,2|0|0|0|8|0|0|0,0:0|0:0|0:0|0:0|0:1|0:0|0:0|0:0,0:0:0:0:
281,58,199003,6,0,P|321:35|367:37,1,93.5000028533936,6|0,0:0|0:0,0:0:0:0:
444,17,199526,1,0,0:0:0:0:
496,75,199701,2,0,L|504:121,1,46.7500014266968,8|0,0:1|0:0,0:0:0:0:
416,164,200050,2,0,L|424:118,1,46.7500014266968
493,233,200398,2,0,P|475:248|453:256,7,46.7500014266968,2|0|0|0|8|0|0|0,0:0|0:0|0:0|0:0|0:1|0:0|0:0|0:0,0:0:0:0:
350,344,201794,6,0,P|332:329|310:321,5,46.7500014266968,2|0|0|0|8|0,0:0|0:0|0:0|0:0|0:1|0:0,0:0:0:0:
229,310,202840,2,0,P|216:330|214:353,1,46.7500014266968
137,382,203189,2,0,P|134:359|122:339,1,46.7500014266968,2|0,0:0|0:0,0:0:0:0:
57,269,203538,2,0,L|103:261,1,46.7500014266968
157,202,203887,5,8,0:1:0:0:
65,162,204061,2,0,P|52:142|50:119,1,46.7500014266968
95,59,204410,1,0,0:0:0:0:
217,13,204584,6,0,L|211:51,5,38.2499988327027,2|0|0|0|8|0,0:0|0:0|0:0|0:0|0:1|0:0,0:0:0:0:
311,117,205631,2,0,L|349:113,1,38.2499988327027
430,36,205980,2,0,L|392:32,1,38.2499988327027,2|0,0:0|0:0,0:0:0:0:
466,160,206329,2,0,L|473:122,1,38.2499988327027
384,191,206677,1,8,0:1:0:0:
430,261,206852,2,0,L|468:265,1,38.2499988327027
344,352,207201,6,0,L|306:359,1,38.2499988327027,0|2,0:0|0:0,0:0:0:0:
170,320,207550,2,0,L|165:291,11,29.7499990921021,0|0|0|8|0|0|0|2|0|0|0|8,0:0|0:0|0:0|0:1|0:0|0:0|0:0|0:0|0:0|0:0|0:0|0:1,0:0:0:0:
41,229,209759,5,0,0:0:0:0:
40,229,209817,2,0,P|52:219|66:215,1,29.7499990921021,2|2,0:0|0:0,0:0:0:0:
255,193,210166,5,2,1:2:0:0:
